<?xml version="1.0" standalone="no"?>
<!DOCTYPE svg PUBLIC "-//W3C//DTD SVG 1.1//EN" "http://www.w3.org/Graphics/SVG/1.1/DTD/svg11.dtd" >
<svg>
<metadata>
Created by FontForge 20120731 at Mon Oct  1 12:16:35 2018
 By www-data
Copyright 2014 Indian Type Foundry. All rights reserved.
</metadata>
<defs>
<font id="Teko-SemiBold" horiz-adv-x="229" >
  <font-face 
    font-family="Teko SemiBold"
    font-weight="600"
    font-stretch="normal"
    units-per-em="1000"
    panose-1="2 0 0 0 0 0 0 0 0 0"
    ascent="800"
    descent="-200"
    x-height="495"
    cap-height="636"
    bbox="-490 -444 2023 920"
    underline-thickness="50"
    underline-position="-50"
    unicode-range="U+000D-FB02"
  />
<missing-glyph horiz-adv-x="510" 
d="M251 302h-4l-100 -209h-60l134 260l-134 255h60l105 -206h4l100 206h60l-135 -261l135 -254h-60zM51 652v-603h400v603h-400zM0 0v701h502v-701h-502z" />
    <glyph glyph-name=".notdef" horiz-adv-x="510" 
d="M251 302h-4l-100 -209h-60l134 260l-134 255h60l105 -206h4l100 206h60l-135 -261l135 -254h-60zM51 652v-603h400v603h-400zM0 0v701h502v-701h-502z" />
    <glyph glyph-name=".null" horiz-adv-x="0" 
 />
    <glyph glyph-name="nonmarkingreturn" horiz-adv-x="333" 
 />
    <glyph glyph-name="NULL" horiz-adv-x="0" 
 />
    <glyph glyph-name="NULL" horiz-adv-x="0" 
 />
    <glyph glyph-name="CR" unicode="&#xd;" horiz-adv-x="0" 
 />
    <glyph glyph-name="space" unicode=" " horiz-adv-x="179" 
 />
    <glyph glyph-name="exclam" unicode="!" horiz-adv-x="263" 
d="M59 0v148h145v-148h-145zM50 636h163l-24 -414h-114z" />
    <glyph glyph-name="quotedbl" unicode="&#x22;" horiz-adv-x="380" 
d="M215 636h127v-250h-127v250zM39 636h126v-250h-126v250z" />
    <glyph glyph-name="numbersign" unicode="#" horiz-adv-x="609" 
d="M579 392h-86l-30 -148h74v-95h-94l-31 -149h-121l31 149h-105l-31 -149h-121l31 149h-66v95h86l30 148h-74v94h94l31 149h121l-31 -149h105l31 149h121l-31 -149h66v-94zM342 244l30 148h-105l-30 -148h105z" />
    <glyph glyph-name="dollar" unicode="$" horiz-adv-x="442" 
d="M203 370h86q64 0 92 -27.5t28 -81.5v-150q0 -108 -121 -111v-81h-135v81q-118 4 -118 111v82h143v-63q0 -25 27 -25h34q27 0 27 25v115q0 13 -6 18.5t-21 5.5h-88q-118 0 -118 112v145q0 107 120 110v82h135v-82q119 -3 119 -110v-83h-143v63q0 25 -27 25h-34
q-27 0 -27 -25v-112q0 -13 6 -18.5t21 -5.5z" />
    <glyph glyph-name="percent" unicode="%" horiz-adv-x="801" 
d="M515 636h107l-336 -636h-105zM659 108v150q0 22 -23 22h-18q-13 0 -17.5 -5t-4.5 -17v-150q0 -12 4.5 -16.5t17.5 -4.5h18q13 0 18 4.5t5 16.5zM205 378v150q0 12 -4.5 17t-17.5 5h-19q-13 0 -17.5 -5t-4.5 -17v-150q0 -12 4.5 -16.5t17.5 -4.5h19q13 0 17.5 4.5
t4.5 16.5zM774 275v-184q0 -91 -103 -91h-88q-103 0 -103 91v184q0 91 103 91h88q103 0 103 -91zM320 545v-184q0 -91 -102 -91h-89q-102 0 -102 91v184q0 91 102 91h89q102 0 102 -91z" />
    <glyph glyph-name="ampersand" unicode="&#x26;" horiz-adv-x="563" 
d="M403 0h-243q-127 0 -127 111v75q0 44 17 68t86 65q-39 43 -55.5 70t-16.5 58v79q0 110 127 110h109q125 0 125 -110v-78q0 -53 -21.5 -82t-72.5 -61l-19 -12l110 -123v73h113v-132q0 -30 -11 -55l82 -92h-144l-34 37q-8 -1 -25 -1zM204 515v-75q0 -28 30 -61
q32 20 43.5 32.5t11.5 34.5v69q0 14 -6 19.5t-21 5.5h-32q-14 0 -20 -5.5t-6 -19.5zM196 98h143l-125 137l-20 -12q-25 -15 -25 -45v-55q0 -25 27 -25z" />
    <glyph glyph-name="quotesingle" unicode="'" horiz-adv-x="212" 
d="M39 636h134v-250h-134v250z" />
    <glyph glyph-name="parenleft" unicode="(" horiz-adv-x="309" 
d="M43 451q0 169 66 259t190 90h11v-118l-10 -1q-55 -2 -85 -59t-30 -169v-275q0 -224 115 -229h10v-119h-11q-124 0 -190 90.5t-66 259.5v271z" />
    <glyph glyph-name="parenright" unicode=")" horiz-adv-x="309" 
d="M266 180q0 -170 -66.5 -260t-190.5 -90h-11v119h11q114 5 114 229v275q0 225 -114 228l-11 1v118h11q125 0 191 -90t66 -259v-271z" />
    <glyph glyph-name="asterisk" unicode="*" horiz-adv-x="364" 
d="M129 613v23h106v-24q0 -36 -9 -72q29 21 89 39l32 -101q-63 -19 -94 -21q27 -20 51 -53l14 -19l-86 -63l-15 20q-21 28 -34 64q-12 -32 -50 -84l-86 62q39 52 65 73q-39 2 -73 14l-22 7l33 100q58 -18 89 -38q-10 32 -10 73z" />
    <glyph glyph-name="plus" unicode="+" horiz-adv-x="473" 
d="M455 370v-106h-151v-153h-135v153h-151v106h151v153h135v-153h151z" />
    <glyph glyph-name="comma" unicode="," horiz-adv-x="219" 
d="M37 148h145v-80l-100 -213h-45v293z" />
    <glyph glyph-name="hyphen" unicode="-" horiz-adv-x="332" 
d="M31 250v98h270v-98h-270z" />
    <glyph glyph-name="period" unicode="." horiz-adv-x="219" 
d="M37 0v148h145v-148h-145z" />
    <glyph glyph-name="slash" unicode="/" horiz-adv-x="403" 
d="M283 701h121l-294 -784h-122z" />
    <glyph glyph-name="zero" unicode="0" horiz-adv-x="459" 
d="M275 130v376q0 25 -27 25h-37q-27 0 -27 -25v-376q0 -25 27 -25h37q27 0 27 25zM418 526v-415q0 -111 -126 -111h-124q-127 0 -127 111v415q0 110 127 110h124q126 0 126 -110z" />
    <glyph glyph-name="one" unicode="1" horiz-adv-x="289" 
d="M245 636v-636h-143v531h-83v105h226z" />
    <glyph glyph-name="two" unicode="2" horiz-adv-x="415" 
d="M167 506v-84h-143v104q0 110 126 110h108q128 0 128 -110v-81q0 -46 -13.5 -79.5t-43.5 -73.5l-128 -187h187v-105h-361v97l176 236q25 31 33.5 55t8.5 59v59q0 25 -27 25h-25q-26 0 -26 -25z" />
    <glyph glyph-name="three" unicode="3" horiz-adv-x="431" 
d="M169 506v-75h-142v95q0 110 126 110h111q127 0 127 -110v-109q0 -74 -45 -93q45 -17 45 -86v-127q0 -111 -127 -111h-111q-126 0 -126 111v93h142v-74q0 -25 27 -25h27q27 0 27 25v118q0 14 -6 19.5t-21 5.5h-78v99h78q15 0 21 5.5t6 18.5v110q0 25 -27 25h-27
q-27 0 -27 -25z" />
    <glyph glyph-name="four" unicode="4" horiz-adv-x="452" 
d="M452 225v-106h-63v-119h-135v119h-245v124l217 393h144l-233 -411h117v125h135v-125h63z" />
    <glyph glyph-name="five" unicode="5" horiz-adv-x="445" 
d="M187 411h99q127 0 127 -110v-190q0 -111 -127 -111h-119q-127 0 -127 111v104h143v-85q0 -25 27 -25h35q27 0 27 25v151q0 25 -27 25h-199v330h360v-105h-219v-120z" />
    <glyph glyph-name="six" unicode="6" horiz-adv-x="451" 
d="M181 375h109q127 0 127 -110v-154q0 -111 -127 -111h-122q-127 0 -127 111v415q0 110 127 110h115q127 0 127 -110v-86h-140v66q0 25 -27 25h-36q-26 0 -26 -25v-131zM277 130v119q0 25 -27 25h-69v-144q0 -25 26 -25h43q27 0 27 25z" />
    <glyph glyph-name="seven" unicode="7" horiz-adv-x="372" 
d="M367 636v-80l-185 -556h-147l180 524h-206v112h358z" />
    <glyph glyph-name="eight" unicode="8" horiz-adv-x="457" 
d="M417 526v-110q0 -74 -45 -93q45 -18 45 -87v-125q0 -111 -126 -111h-125q-126 0 -126 111v125q0 69 44 87q-44 19 -44 93v110q0 110 126 110h125q126 0 126 -110zM280 129v122q0 14 -6 19.5t-21 5.5h-49q-15 0 -21 -5.5t-6 -19.5v-122q0 -14 6 -19.5t21 -5.5h49
q15 0 21 5.5t6 19.5zM280 392v116q0 13 -6 18.5t-21 5.5h-49q-15 0 -21 -5.5t-6 -18.5v-116q0 -13 6 -18.5t21 -5.5h49q15 0 21 5.5t6 18.5z" />
    <glyph glyph-name="nine" unicode="9" horiz-adv-x="450" 
d="M160 636h122q127 0 127 -110v-415q0 -111 -127 -111h-116q-127 0 -127 111v82h139v-63q0 -25 27 -25h38q26 0 26 25v121h-109q-127 0 -127 110v165q0 110 127 110zM200 349h69v157q0 25 -26 25h-43q-27 0 -27 -25v-132q0 -14 6 -19.5t21 -5.5z" />
    <glyph glyph-name="colon" unicode=":" horiz-adv-x="219" 
d="M37 383h145v-271h-145v271z" />
    <glyph glyph-name="semicolon" unicode=";" horiz-adv-x="219" 
d="M37 346v149h145v-149h-145zM37 148h145v-80l-100 -213h-45v293z" />
    <glyph glyph-name="less" unicode="&#x3c;" horiz-adv-x="490" 
d="M464 401l-301 -82l301 -83v-115l-437 137v126l437 131v-114z" />
    <glyph glyph-name="equal" unicode="=" horiz-adv-x="490" 
d="M27 163v108h437v-108h-437zM27 363v108h437v-108h-437z" />
    <glyph glyph-name="greater" unicode="&#x3e;" horiz-adv-x="490" 
d="M327 319l-300 82v114l437 -131v-126l-437 -137v115z" />
    <glyph glyph-name="question" unicode="?" horiz-adv-x="421" 
d="M147 636h120q126 0 126 -110v-131q0 -110 -126 -110h-2l-6 -63h-119l-13 145h97q15 0 20.5 5.5t5.5 19.5v121q0 14 -5.5 19.5t-20.5 5.5h-35q-26 0 -26 -25v-69h-143v82q0 110 127 110zM125 0v148h145v-148h-145z" />
    <glyph glyph-name="at" unicode="@" horiz-adv-x="799" 
d="M365 320v-125q0 -13 5 -18t19 -5h27q27 0 27 29v112q0 30 -27 30h-27q-13 0 -18.5 -5t-5.5 -18zM242 331q0 103 108 103h20q61 0 75 -51v51h115v-263h44q15 0 21 5.5t6 19.5v282q0 25 -27 25h-398q-27 0 -27 -25v-446q0 -13 6 -18.5t21 -5.5h355v-99h-391
q-116 0 -116 110v472q0 111 116 111h468q115 0 115 -111v-300q0 -111 -116 -111h-189v58q-11 -58 -78 -58h-20q-108 0 -108 103v148z" />
    <glyph glyph-name="A" unicode="A" horiz-adv-x="483" 
d="M335 0l-22 115h-145l-22 -115h-141l144 636h182l148 -636h-144zM188 219h104l-52 269z" />
    <glyph glyph-name="B" unicode="B" horiz-adv-x="476" 
d="M295 394v119q0 25 -27 25h-82v-169h82q27 0 27 25zM295 123v124q0 13 -6 18.5t-21 5.5h-82v-173h82q27 0 27 25zM45 636h264q127 0 127 -110v-112q0 -74 -45 -93q45 -17 45 -86v-124q0 -111 -127 -111h-264v636z" />
    <glyph glyph-name="C" unicode="C" horiz-adv-x="450" 
d="M421 413h-144v100q0 25 -26 25h-41q-27 0 -27 -25v-390q0 -14 6 -19.5t21 -5.5h41q14 0 20 5.5t6 19.5v97h144v-110q0 -110 -127 -110h-128q-126 0 -126 110v416q0 110 126 110h128q127 0 127 -110v-113z" />
    <glyph glyph-name="D" unicode="D" horiz-adv-x="485" 
d="M52 636h265q127 0 127 -110v-415q0 -111 -127 -111h-265v636zM301 123v390q0 25 -27 25h-79v-440h79q27 0 27 25z" />
    <glyph glyph-name="E" unicode="E" horiz-adv-x="409" 
d="M188 105h204v-105h-347v636h339v-105h-196v-155h167v-105h-167v-166z" />
    <glyph glyph-name="F" unicode="F" horiz-adv-x="399" 
d="M387 531h-199v-175h167v-99h-167v-257h-143v636h342v-105z" />
    <glyph glyph-name="G" unicode="G" horiz-adv-x="456" 
d="M421 430h-143v83q0 25 -27 25h-41q-27 0 -27 -25v-390q0 -14 6 -19.5t21 -5.5h41q15 0 21 5.5t6 19.5v124h-50v95h193v-232q0 -110 -126 -110h-129q-126 0 -126 110v416q0 110 126 110h129q126 0 126 -110v-96z" />
    <glyph glyph-name="H" unicode="H" horiz-adv-x="500" 
d="M314 636h141v-636h-141v262h-128v-262h-141v636h141v-269h128v269z" />
    <glyph glyph-name="I" unicode="I" horiz-adv-x="238" 
d="M48 636h142v-636h-142v636z" />
    <glyph glyph-name="J" unicode="J" horiz-adv-x="410" 
d="M12 238h143v-108q0 -25 27 -25h17q27 0 27 25v506h143v-525q0 -111 -126 -111h-105q-126 0 -126 111v127z" />
    <glyph glyph-name="K" unicode="K" horiz-adv-x="475" 
d="M467 636l-128 -314l128 -322h-154l-123 322l123 314h154zM45 0v636h142v-636h-142z" />
    <glyph glyph-name="L" unicode="L" horiz-adv-x="371" 
d="M187 105h183v-105h-325v636h142v-531z" />
    <glyph glyph-name="M" unicode="M" horiz-adv-x="612" 
d="M171 0h-126v636h156l105 -360l105 360h156v-636h-126v427l-82 -289h-106l-82 288v-426z" />
    <glyph glyph-name="N" unicode="N" horiz-adv-x="486" 
d="M311 636h131v-636h-128l-139 381v-381h-130v636h129l137 -380v380z" />
    <glyph glyph-name="O" unicode="O" horiz-adv-x="469" 
d="M168 636h134q126 0 126 -110v-415q0 -111 -126 -111h-134q-127 0 -127 111v415q0 110 127 110zM285 130v376q0 25 -26 25h-48q-27 0 -27 -25v-376q0 -25 27 -25h48q26 0 26 25z" />
    <glyph glyph-name="P" unicode="P" horiz-adv-x="456" 
d="M45 636h262q126 0 126 -110v-193q0 -111 -126 -111h-120v-222h-142v636zM290 352v154q0 25 -26 25h-77v-204h77q26 0 26 25z" />
    <glyph glyph-name="Q" unicode="Q" horiz-adv-x="469" 
d="M168 0q-127 0 -127 111v415q0 110 127 110h134q126 0 126 -110v-415q0 -66 -43 -93l83 -95h-159l-66 77h-75zM184 506v-376q0 -25 27 -25h48q26 0 26 25v376q0 25 -26 25h-48q-27 0 -27 -25z" />
    <glyph glyph-name="R" unicode="R" horiz-adv-x="469" 
d="M187 238v-238h-142v636h262q126 0 126 -110v-178q0 -88 -80 -106l112 -242h-153l-100 238h-25zM187 531v-192h77q14 0 20 5.5t6 18.5v143q0 25 -26 25h-77z" />
    <glyph glyph-name="S" unicode="S" horiz-adv-x="442" 
d="M266 130v115q0 13 -6 18.5t-21 5.5h-88q-118 0 -118 112v145q0 110 126 110h122q126 0 126 -110v-83h-143v63q0 25 -27 25h-34q-27 0 -27 -25v-112q0 -13 6 -18.5t21 -5.5h86q64 0 92 -27.5t28 -81.5v-150q0 -111 -126 -111h-121q-127 0 -127 111v82h143v-63
q0 -25 27 -25h34q27 0 27 25z" />
    <glyph glyph-name="T" unicode="T" horiz-adv-x="386" 
d="M381 636v-105h-117v-531h-143v531h-116v105h376z" />
    <glyph glyph-name="U" unicode="U" horiz-adv-x="475" 
d="M288 636h143v-525q0 -111 -127 -111h-134q-126 0 -126 111v525h143v-506q0 -25 26 -25h48q27 0 27 25v506z" />
    <glyph glyph-name="V" unicode="V" horiz-adv-x="469" 
d="M314 636h148l-140 -636h-175l-141 636h149l79 -472z" />
    <glyph glyph-name="W" unicode="W" horiz-adv-x="750" 
d="M598 636h142l-123 -636h-171l-71 416l-71 -416h-171l-123 636h148l60 -475l84 475h145l84 -475z" />
    <glyph glyph-name="X" unicode="X" horiz-adv-x="465" 
d="M309 324l154 -324h-160l-74 202l-75 -202h-152l147 324l-142 312h161l61 -187l61 187h154z" />
    <glyph glyph-name="Y" unicode="Y" horiz-adv-x="459" 
d="M305 0h-143v206l-160 430h146l85 -299l79 299h146l-153 -431v-205z" />
    <glyph glyph-name="Z" unicode="Z" horiz-adv-x="407" 
d="M391 636v-105l-227 -426h221v-105h-369v105l227 426h-215v105h363z" />
    <glyph glyph-name="bracketleft" unicode="[" horiz-adv-x="315" 
d="M285 683h-95v-738h95v-105h-238v948h238v-105z" />
    <glyph glyph-name="backslash" unicode="\" horiz-adv-x="403" 
d="M-1 701h122l294 -784h-122z" />
    <glyph glyph-name="bracketright" unicode="]" horiz-adv-x="315" 
d="M261 788v-948h-238v105h95v738h-95v105h238z" />
    <glyph glyph-name="asciicircum" unicode="^" horiz-adv-x="626" 
d="M204 670h187l126 -376h-145l-75 255l-74 -255h-145z" />
    <glyph glyph-name="underscore" unicode="_" horiz-adv-x="474" 
d="M0 -139v98h474v-98h-474z" />
    <glyph glyph-name="grave" unicode="`" horiz-adv-x="470" 
d="M247 670l91 -143h-112l-122 143h143z" />
    <glyph glyph-name="a" unicode="a" horiz-adv-x="434" 
d="M255 495h137v-495h-139v49q-15 -49 -79 -49h-24q-117 0 -117 111v273q0 111 117 111h24q67 0 81 -56v56zM200 105h23q30 0 30 32v221q0 32 -30 32h-23q-27 0 -27 -25v-235q0 -25 27 -25z" />
    <glyph glyph-name="b" unicode="b" horiz-adv-x="434" 
d="M259 495h25q117 0 117 -110v-274q0 -111 -117 -111h-25q-66 0 -80 56v-56h-137v669h139v-223q15 49 78 49zM261 130v235q0 14 -6 19.5t-21 5.5h-24q-29 0 -29 -32v-221q0 -32 29 -32h24q27 0 27 25z" />
    <glyph glyph-name="c" unicode="c" horiz-adv-x="413" 
d="M389 317h-136v48q0 25 -27 25h-26q-27 0 -27 -25v-235q0 -25 27 -25h26q27 0 27 25v48h136v-67q0 -111 -127 -111h-102q-127 0 -127 111v273q0 111 127 111h102q127 0 127 -111v-67z" />
    <glyph glyph-name="d" unicode="d" horiz-adv-x="434" 
d="M253 669h139v-669h-137v56q-14 -56 -81 -56h-24q-117 0 -117 111v274q0 110 117 110h24q64 0 79 -49v223zM200 105h23q30 0 30 32v221q0 32 -30 32h-23q-15 0 -21 -5.5t-6 -19.5v-235q0 -25 27 -25z" />
    <glyph glyph-name="e" unicode="e" horiz-adv-x="429" 
d="M161 495h113q127 0 127 -111v-175h-233v-85q0 -13 6 -18.5t21 -5.5h45q14 0 20 6t6 20v33h134v-48q0 -111 -127 -111h-112q-126 0 -126 111v273q0 111 126 111zM168 291h99v80q0 13 -6 18.5t-20 5.5h-46q-15 0 -21 -5.5t-6 -18.5v-80z" />
    <glyph glyph-name="f" unicode="f" horiz-adv-x="279" 
d="M274 566h-49q-27 0 -27 -25v-46h76v-105h-76v-390h-139v390h-50v105h50v64q0 110 126 110h89v-103z" />
    <glyph glyph-name="g" unicode="g" horiz-adv-x="434" 
d="M255 495h137v-517q0 -111 -126 -111h-212v102h172q27 0 27 25v76q-15 -49 -79 -49h-24q-117 0 -117 111v252q0 111 117 111h24q67 0 81 -56v56zM200 126h23q30 0 30 32v200q0 32 -30 32h-23q-27 0 -27 -25v-214q0 -25 27 -25z" />
    <glyph glyph-name="h" unicode="h" horiz-adv-x="439" 
d="M259 495h25q117 0 117 -111v-384h-140v365q0 25 -27 25h-24q-29 0 -29 -32v-358h-139v669h139v-223q15 49 78 49z" />
    <glyph glyph-name="i" unicode="i" horiz-adv-x="223" 
d="M39 561v108h145v-108h-145zM181 0h-139v495h139v-495z" />
    <glyph glyph-name="j" unicode="j" horiz-adv-x="223" 
d="M39 561v108h145v-108h-145zM42 -6v501h139v-517q0 -111 -126 -111h-68v102h28q27 0 27 25z" />
    <glyph glyph-name="k" unicode="k" horiz-adv-x="430" 
d="M432 495l-109 -241l109 -254h-146l-104 254l105 241h145zM42 0v669h139v-669h-139z" />
    <glyph glyph-name="l" unicode="l" horiz-adv-x="223" 
d="M181 0h-139v669h139v-669z" />
    <glyph glyph-name="m" unicode="m" horiz-adv-x="657" 
d="M479 495h24q117 0 117 -111v-384h-139v365q0 25 -27 25h-24q-29 0 -29 -32v-358h-140v365q0 25 -27 25h-24q-29 0 -29 -32v-358h-139v495h137v-56q14 56 80 56h25q82 0 107 -56q7 26 30.5 41t57.5 15z" />
    <glyph glyph-name="n" unicode="n" horiz-adv-x="439" 
d="M259 495h25q117 0 117 -111v-384h-140v365q0 25 -27 25h-24q-29 0 -29 -32v-358h-139v495h137v-56q14 56 80 56z" />
    <glyph glyph-name="o" unicode="o" horiz-adv-x="439" 
d="M160 495h119q66 0 94.5 -28.5t28.5 -82.5v-273q0 -54 -28.5 -82.5t-94.5 -28.5h-119q-66 0 -94.5 28.5t-28.5 82.5v273q0 54 28.5 82.5t94.5 28.5zM265 125v245q0 25 -27 25h-37q-27 0 -27 -25v-245q0 -25 27 -25h37q27 0 27 25z" />
    <glyph glyph-name="p" unicode="p" horiz-adv-x="434" 
d="M259 495h25q117 0 117 -111v-273q0 -111 -117 -111h-25q-63 0 -78 49v-182h-139v628h137v-56q14 56 80 56zM261 130v235q0 25 -27 25h-24q-29 0 -29 -32v-221q0 -32 29 -32h24q27 0 27 25z" />
    <glyph glyph-name="q" unicode="q" horiz-adv-x="434" 
d="M255 495h137v-628h-139v182q-15 -49 -79 -49h-24q-117 0 -117 111v273q0 111 117 111h24q67 0 81 -56v56zM200 105h23q30 0 30 32v221q0 32 -30 32h-23q-27 0 -27 -25v-235q0 -25 27 -25z" />
    <glyph glyph-name="r" unicode="r" horiz-adv-x="298" 
d="M276 498h17v-121h-49q-63 0 -63 -70v-307h-139v495h137v-71q8 33 33 53.5t64 20.5z" />
    <glyph glyph-name="s" unicode="s" horiz-adv-x="401" 
d="M237 119v56q0 13 -6 18.5t-21 5.5h-57q-125 0 -125 110v75q0 111 127 111h85q127 0 127 -111v-44h-134v36q0 13 -6 18.5t-21 5.5h-15q-15 0 -21 -5.5t-6 -18.5v-60q0 -13 6 -18.5t21 -5.5h57q125 0 125 -109v-72q0 -111 -127 -111h-89q-126 0 -126 111v43h136v-35
q0 -25 26 -25h17q27 0 27 25z" />
    <glyph glyph-name="t" unicode="t" horiz-adv-x="271" 
d="M261 390h-65v-259q0 -24 27 -24h38v-107h-78q-126 0 -126 111v279h-52v105h52v92h139v-92h65v-105z" />
    <glyph glyph-name="u" unicode="u" horiz-adv-x="439" 
d="M258 495h139v-495h-137v56q-14 -56 -81 -56h-24q-117 0 -117 111v384h140v-365q0 -25 27 -25h23q30 0 30 32v358z" />
    <glyph glyph-name="v" unicode="v" horiz-adv-x="405" 
d="M141 495l62 -355l62 355h139l-114 -495h-175l-113 495h139z" />
    <glyph glyph-name="w" unicode="w" horiz-adv-x="627" 
d="M493 495h129l-100 -495h-150l-60 323l-61 -323h-149l-97 495h130l48 -352l64 352h133l59 -350z" />
    <glyph glyph-name="x" unicode="x" horiz-adv-x="407" 
d="M283 255l123 -255h-143l-61 156l-58 -156h-138l116 253l-117 242h146l51 -147l50 147h141z" />
    <glyph glyph-name="y" unicode="y" horiz-adv-x="418" 
d="M137 -133h-75v104h62q23 0 36.5 7.5t20.5 29.5l5 20h-59l-124 467h145l66 -344l60 344h141l-117 -507q-17 -60 -54.5 -90.5t-106.5 -30.5z" />
    <glyph glyph-name="z" unicode="z" horiz-adv-x="354" 
d="M342 101v-101h-330v101l175 293h-163v101h311v-101l-177 -293h184z" />
    <glyph glyph-name="braceleft" unicode="{" horiz-adv-x="310" 
d="M240 665v-226q0 -108 -78 -124q36 -3 57 -33t21 -82v-236q0 -25 27 -25h33v-98h-80q-123 0 -123 117v217q0 47 -17.5 69t-56.5 22h-10v98h10q39 0 56.5 22t17.5 70v215q0 117 123 117h80v-98h-33q-27 0 -27 -25z" />
    <glyph glyph-name="bar" unicode="|" horiz-adv-x="240" 
d="M52 799h129v-964h-129v964z" />
    <glyph glyph-name="braceright" unicode="}" horiz-adv-x="310" 
d="M70 439v226q0 25 -28 25h-33v98h80q124 0 124 -117v-215q0 -49 17 -70.5t56 -21.5h11v-98h-11q-39 0 -56 -22t-17 -69v-217q0 -117 -124 -117h-80v98h33q28 0 28 25v236q0 52 20.5 82t56.5 33q-77 15 -77 124z" />
    <glyph glyph-name="asciitilde" unicode="~" horiz-adv-x="645" 
d="M404 208q-42 0 -91 39t-70 39t-26.5 -7.5t-5.5 -24.5v-46h-128v77q0 48 23.5 70.5t77.5 22.5h55q29 0 55 -12t42 -27t34.5 -27t34.5 -12t21.5 7.5t5.5 25.5v45h128v-78q0 -47 -23.5 -69.5t-77.5 -22.5h-55z" />
    <glyph glyph-name="uni00A0" unicode="&#xa0;" horiz-adv-x="179" 
 />
    <glyph glyph-name="exclamdown" unicode="&#xa1;" horiz-adv-x="263" 
d="M213 -141h-163l25 414h114zM59 347v148h145v-148h-145z" />
    <glyph glyph-name="cent" unicode="&#xa2;" horiz-adv-x="413" 
d="M389 317h-136v48q0 25 -27 25h-26q-27 0 -27 -25v-235q0 -25 27 -25h26q27 0 27 25v48h136v-67q0 -103 -108 -110v-80h-135v79q-113 7 -113 111v273q0 104 113 111v79h135v-80q108 -7 108 -110v-67z" />
    <glyph glyph-name="sterling" unicode="&#xa3;" horiz-adv-x="461" 
d="M443 105v-105h-418v99q28 3 36.5 22t8.5 65v67h-45v98h45v175q0 110 127 110h115q127 0 127 -110v-93h-143v73q0 25 -27 25h-29q-27 0 -27 -25v-155h142v-98h-142v-72q0 -57 -26 -76h256z" />
    <glyph glyph-name="currency" unicode="&#xa4;" horiz-adv-x="553" 
d="M315 504l31 -1l68 68l85 -86l-48 -48q15 -31 15 -87v-101q0 -47 -11 -77l44 -44l-85 -85l-56 56q-20 -3 -43 -3h-83q-29 0 -48 4l-58 -57l-84 85l48 49q-9 31 -9 72v101q0 50 13 83l-52 52l84 86l70 -69q22 2 36 2h83zM258 190h29q36 0 49.5 11.5t13.5 50.5v94
q0 39 -14 51.5t-49 12.5h-29q-35 0 -49 -12.5t-14 -51.5v-94q0 -39 13.5 -50.5t49.5 -11.5z" />
    <glyph glyph-name="yen" unicode="&#xa5;" horiz-adv-x="474" 
d="M443 360v-91h-109l-15 -43h124v-91h-131v-135h-143v135h-134v91h126l-16 43h-110v91h76l-103 276h146l85 -294l82 294h145l-99 -276h76z" />
    <glyph glyph-name="brokenbar" unicode="&#xa6;" horiz-adv-x="240" 
d="M188 377h-143v352h143v-352zM45 258h143v-353h-143v353z" />
    <glyph glyph-name="section" unicode="&#xa7;" horiz-adv-x="494" 
d="M437 520h-140v29q0 14 -6 19.5t-21 5.5h-28q-15 0 -21 -5.5t-6 -19.5v-56q0 -13 6 -18.5t21 -5.5h63q127 0 127 -111v-74q0 -65 -31 -91q18 -27 18 -68v-78q0 -110 -127 -110h-108q-127 0 -127 110v38h140v-29q0 -13 6 -18.5t21 -5.5h28q15 0 21 5.5t6 18.5v56
q0 25 -27 25h-63q-126 0 -126 110v65q0 69 35 95q-23 26 -23 74v77q0 111 127 111h108q127 0 127 -111v-38zM299 260v86q0 25 -27 25h-50q-27 0 -27 -25v-86q0 -14 6 -19.5t21 -5.5h50q15 0 21 5.5t6 19.5z" />
    <glyph glyph-name="dieresis" unicode="&#xa8;" horiz-adv-x="470" 
d="M279 542v116h133v-116h-133zM58 542v116h133v-116h-133z" />
    <glyph glyph-name="copyright" unicode="&#xa9;" horiz-adv-x="745" 
d="M411 254v31h103v-48q0 -83 -95 -83h-86q-95 0 -95 83v167q0 83 95 83h86q95 0 95 -83v-48h-103v31q0 19 -21 19h-28q-21 0 -21 -19v-133q0 -11 4.5 -15.5t16.5 -4.5h28q21 0 21 20zM302 87h147q83 0 119 43t36 151v71q0 109 -36 153t-119 44h-147q-84 0 -119.5 -44
t-35.5 -153v-71q0 -108 35.5 -151t119.5 -43zM715 339v-45q0 -145 -54.5 -219.5t-188.5 -74.5h-194q-133 0 -187.5 74.5t-54.5 219.5v45q0 146 54.5 221.5t187.5 75.5h194q133 0 188 -75.5t55 -221.5z" />
    <glyph glyph-name="ordfeminine" unicode="&#xaa;" horiz-adv-x="307" 
d="M191 636h86v-350h-88v30q-11 -30 -49 -30h-32q-83 0 -83 79v193q0 78 83 78h30q45 0 53 -38v38zM132 359h36q21 0 21 23v160q0 23 -21 23h-36q-19 0 -19 -18v-170q0 -18 19 -18z" />
    <glyph glyph-name="guillemotleft" unicode="&#xab;" horiz-adv-x="497" 
d="M345 99l-113 154l113 152h135l-113 -152l113 -154h-135zM137 99l-114 154l114 152h134l-112 -152l112 -154h-134z" />
    <glyph glyph-name="logicalnot" unicode="&#xac;" horiz-adv-x="527" 
d="M473 410v-286h-99v144h-330v142h429z" />
    <glyph glyph-name="uni00AD" unicode="&#xad;" horiz-adv-x="332" 
d="M31 250v98h270v-98h-270z" />
    <glyph glyph-name="registered" unicode="&#xae;" horiz-adv-x="454" 
d="M244 555v38q0 7 -7 7h-24v-52h24q7 0 7 7zM164 635h86q43 0 43 -37v-49q0 -29 -25 -36l37 -74h-53l-32 72h-7v-72h-49v196zM185 407h84q49 0 69 23t20 85v41q0 62 -20.5 86t-68.5 24h-84q-48 0 -68.5 -24t-20.5 -86v-41q0 -62 20 -85t69 -23zM422 548v-25
q0 -83 -31.5 -126t-108.5 -43h-111q-77 0 -108 42.5t-31 126.5v25q0 84 31 127.5t108 43.5h111q77 0 108.5 -43.5t31.5 -127.5z" />
    <glyph glyph-name="macron" unicode="&#xaf;" horiz-adv-x="470" 
d="M63 554v91h343v-91h-343z" />
    <glyph glyph-name="degree" unicode="&#xb0;" horiz-adv-x="446" 
d="M269 433v88q0 25 -27 25h-40q-27 0 -27 -25v-88q0 -25 27 -25h40q27 0 27 25zM398 526v-98q0 -110 -122 -110h-108q-123 0 -123 110v98q0 110 123 110h108q122 0 122 -110z" />
    <glyph glyph-name="plusminus" unicode="&#xb1;" horiz-adv-x="490" 
d="M313 467h151v-103h-151v-76h-135v76h-151v103h151v77h135v-77zM27 151v106h437v-106h-437z" />
    <glyph glyph-name="twosuperior" unicode="&#xb2;" horiz-adv-x="255" 
d="M102 562v-51h-89v65q0 60 70 60h80q69 0 69 -60v-39q0 -59 -35 -97l-75 -89h111v-65h-218v58l110 125q19 22 19 63v30q0 13 -14 13h-13q-15 0 -15 -13z" />
    <glyph glyph-name="threesuperior" unicode="&#xb3;" horiz-adv-x="257" 
d="M103 562v-38h-89v52q0 60 70 60h81q69 0 69 -60v-63q0 -41 -24 -51q24 -10 24 -48v-67q0 -61 -69 -61h-81q-70 0 -70 61v52h89v-38q0 -14 14 -14h15q15 0 15 14v58q0 13 -15 13h-35v58h35q15 0 15 13v59q0 13 -15 13h-15q-14 0 -14 -13z" />
    <glyph glyph-name="acute" unicode="&#xb4;" horiz-adv-x="470" 
d="M117 527l91 143h144l-123 -143h-112z" />
    <glyph glyph-name="uni00B5" unicode="&#xb5;" horiz-adv-x="444" 
d="M260 495h139v-495h-137v56q-14 -56 -81 -56h-1v-133h-140v628h140v-365q0 -25 27 -25h23q30 0 30 32v358z" />
    <glyph glyph-name="paragraph" unicode="&#xb6;" horiz-adv-x="545" 
d="M376 636h115v-769h-115v769zM314 636v-769h-115v349h-37q-127 0 -127 111v199q0 110 127 110h152z" />
    <glyph glyph-name="periodcentered" unicode="&#xb7;" horiz-adv-x="251" 
d="M43 258v142h145v-142h-145z" />
    <glyph glyph-name="cedilla" unicode="&#xb8;" horiz-adv-x="470" 
d="M202 -108v60h131v-71q0 -113 -129 -113h-78v97h48q28 0 28 27z" />
    <glyph glyph-name="onesuperior" unicode="&#xb9;" horiz-adv-x="190" 
d="M147 636v-350h-91v289h-46v61h137z" />
    <glyph glyph-name="ordmasculine" unicode="&#xba;" horiz-adv-x="300" 
d="M112 636h75q87 0 87 -78v-193q0 -79 -87 -79h-75q-87 0 -87 79v193q0 78 87 78zM186 364v193q0 18 -19 18h-35q-19 0 -19 -18v-193q0 -17 19 -17h35q19 0 19 17z" />
    <glyph glyph-name="guillemotright" unicode="&#xbb;" horiz-adv-x="497" 
d="M480 253l-114 -154h-134l112 154l-112 152h134zM271 253l-113 -154h-135l113 154l-113 152h135z" />
    <glyph glyph-name="questiondown" unicode="&#xbf;" horiz-adv-x="421" 
d="M250 51h143v-82q0 -110 -127 -110h-120q-126 0 -126 110v131q0 110 126 110h2l6 63h119l13 -145h-97q-15 0 -20.5 -5.5t-5.5 -19.5v-121q0 -14 5.5 -19.5t20.5 -5.5h35q26 0 26 25v69zM288 495v-148h-145v148h145z" />
    <glyph glyph-name="Agrave" unicode="&#xc0;" horiz-adv-x="483" 
d="M335 0l-22 115h-145l-22 -115h-141l144 636h182l148 -636h-144zM188 219h104l-52 269zM289 668h-112l-122 143h143z" />
    <glyph glyph-name="Aacute" unicode="&#xc1;" horiz-adv-x="483" 
d="M335 0l-22 115h-145l-22 -115h-141l144 636h182l148 -636h-144zM188 219h104l-52 269zM421 811l-123 -143h-112l91 143h144z" />
    <glyph glyph-name="Acircumflex" unicode="&#xc2;" horiz-adv-x="483" 
d="M335 0l-22 115h-145l-22 -115h-141l144 636h182l148 -636h-144zM188 219h104l-52 269zM240 742l-53 -74h-133l119 143h134l118 -143h-132z" />
    <glyph glyph-name="Atilde" unicode="&#xc3;" horiz-adv-x="483" 
d="M335 0l-22 115h-145l-22 -115h-141l144 636h182l148 -636h-144zM188 219h104l-52 269zM170 694v-25h-113v42q0 44 20.5 67t70.5 23h15q30 0 67.5 -23.5t44.5 -23.5q19 0 19 22v25h113v-47q0 -43 -20.5 -64t-71.5 -21h-14q-30 0 -68 23.5t-46 23.5q-17 0 -17 -22z" />
    <glyph glyph-name="Adieresis" unicode="&#xc4;" horiz-adv-x="483" 
d="M335 0l-22 115h-145l-22 -115h-141l144 636h182l148 -636h-144zM188 219h104l-52 269zM196 785v-116h-133v116h133zM417 785v-116h-133v116h133z" />
    <glyph glyph-name="Aring" unicode="&#xc5;" horiz-adv-x="483" 
d="M335 0l-22 115h-145l-22 -115h-141l144 636h182l148 -636h-144zM188 219h104l-52 269zM279 668h-78q-91 0 -91 82v16q0 82 91 82h78q91 0 91 -82v-16q0 -82 -91 -82zM200 763v-11q0 -12 4.5 -16.5t17.5 -4.5h36q13 0 18 4.5t5 16.5v11q0 12 -5 17t-18 5h-36
q-13 0 -17.5 -5t-4.5 -17z" />
    <glyph glyph-name="AE" unicode="&#xc6;" horiz-adv-x="697" 
d="M474 105h204v-105h-340v128h-146l-47 -128h-141l247 636h419v-105h-196v-155h167v-105h-167v-166zM338 230v297l-109 -297h109z" />
    <glyph glyph-name="Ccedilla" unicode="&#xc7;" horiz-adv-x="450" 
d="M421 413h-144v100q0 25 -26 25h-41q-27 0 -27 -25v-390q0 -14 6 -19.5t21 -5.5h41q14 0 20 5.5t6 19.5v97h144v-110q0 -110 -127 -110h-128q-126 0 -126 110v416q0 110 126 110h128q127 0 127 -110v-113zM164 -108v60h131v-71q0 -113 -129 -113h-78v97h48q28 0 28 27z
" />
    <glyph glyph-name="Egrave" unicode="&#xc8;" horiz-adv-x="409" 
d="M188 105h204v-105h-347v636h339v-105h-196v-155h167v-105h-167v-166zM272 668h-112l-122 143h143z" />
    <glyph glyph-name="Eacute" unicode="&#xc9;" horiz-adv-x="409" 
d="M188 271v-166h204v-105h-347v636h339v-105h-196v-155h167v-105h-167zM392 811l-123 -143h-112l91 143h144z" />
    <glyph glyph-name="Ecircumflex" unicode="&#xca;" horiz-adv-x="409" 
d="M188 271v-166h204v-105h-347v636h339v-105h-196v-155h167v-105h-167zM217 742l-53 -74h-133l119 143h134l118 -143h-132z" />
    <glyph glyph-name="Edieresis" unicode="&#xcb;" horiz-adv-x="445" 
d="M188 105h204v-105h-347v636h339v-105h-196v-155h167v-105h-167v-166zM170 785v-116h-133v116h133zM391 785v-116h-133v116h133z" />
    <glyph glyph-name="Igrave" unicode="&#xcc;" horiz-adv-x="238" 
d="M83 811l91 -143h-112l-122 143h143zM48 636h142v-636h-142v636z" />
    <glyph glyph-name="Iacute" unicode="&#xcd;" horiz-adv-x="238" 
d="M61 668l91 143h144l-123 -143h-112zM48 636h142v-636h-142v636z" />
    <glyph glyph-name="Icircumflex" unicode="&#xce;" horiz-adv-x="238" 
d="M-67 668l119 143h134l118 -143h-132l-53 74l-53 -74h-133zM48 636h142v-636h-142v636z" />
    <glyph glyph-name="Idieresis" unicode="&#xcf;" horiz-adv-x="238" 
d="M48 636h142v-636h-142v636zM163 669v116h133v-116h-133zM-58 669v116h133v-116h-133z" />
    <glyph glyph-name="Eth" unicode="&#xd0;" horiz-adv-x="483" 
d="M52 636h265q127 0 127 -110v-415q0 -111 -127 -111h-265v273h-54v98h54v265zM301 123v390q0 25 -27 25h-79v-167h62v-98h-62v-175h79q27 0 27 25z" />
    <glyph glyph-name="Ntilde" unicode="&#xd1;" horiz-adv-x="486" 
d="M314 669q-30 0 -68 23.5t-46 23.5q-17 0 -17 -22v-25h-113v42q0 44 20.5 67t70.5 23h15q30 0 67.5 -23.5t44.5 -23.5q19 0 19 22v25h113v-47q0 -43 -20.5 -64t-71.5 -21h-14zM311 636h131v-636h-128l-139 381v-381h-130v636h129l137 -380v380z" />
    <glyph glyph-name="Ograve" unicode="&#xd2;" horiz-adv-x="469" 
d="M168 636h134q126 0 126 -110v-415q0 -111 -126 -111h-134q-127 0 -127 111v415q0 110 127 110zM285 130v376q0 25 -26 25h-48q-27 0 -27 -25v-376q0 -25 27 -25h48q26 0 26 25zM285 668h-112l-122 143h143z" />
    <glyph glyph-name="Oacute" unicode="&#xd3;" horiz-adv-x="469" 
d="M168 636h134q126 0 126 -110v-415q0 -111 -126 -111h-134q-127 0 -127 111v415q0 110 127 110zM285 130v376q0 25 -26 25h-48q-27 0 -27 -25v-376q0 -25 27 -25h48q26 0 26 25zM414 811l-123 -143h-112l91 143h144z" />
    <glyph glyph-name="Ocircumflex" unicode="&#xd4;" horiz-adv-x="469" 
d="M168 636h134q126 0 126 -110v-415q0 -111 -126 -111h-134q-127 0 -127 111v415q0 110 127 110zM285 130v376q0 25 -26 25h-48q-27 0 -27 -25v-376q0 -25 27 -25h48q26 0 26 25zM233 742l-53 -74h-133l119 143h134l118 -143h-132z" />
    <glyph glyph-name="Otilde" unicode="&#xd5;" horiz-adv-x="469" 
d="M168 636h134q126 0 126 -110v-415q0 -111 -126 -111h-134q-127 0 -127 111v415q0 110 127 110zM285 130v376q0 25 -26 25h-48q-27 0 -27 -25v-376q0 -25 27 -25h48q26 0 26 25zM171 694v-25h-113v42q0 44 20.5 67t70.5 23h15q30 0 67.5 -23.5t44.5 -23.5q19 0 19 22v25
h113v-47q0 -43 -20.5 -64t-71.5 -21h-14q-30 0 -68 23.5t-46 23.5q-17 0 -17 -22z" />
    <glyph glyph-name="Odieresis" unicode="&#xd6;" horiz-adv-x="458" 
d="M168 636h134q126 0 126 -110v-415q0 -111 -126 -111h-134q-127 0 -127 111v415q0 110 127 110zM285 130v376q0 25 -26 25h-48q-27 0 -27 -25v-376q0 -25 27 -25h48q26 0 26 25zM191 785v-116h-133v116h133zM412 785v-116h-133v116h133z" />
    <glyph glyph-name="multiply" unicode="&#xd7;" horiz-adv-x="442" 
d="M421 429l-118 -118l118 -118l-81 -82l-118 119l-119 -119l-81 82l118 118l-118 118l81 82l119 -118l118 118z" />
    <glyph glyph-name="Oslash" unicode="&#xd8;" horiz-adv-x="472" 
d="M430 526v-415q0 -111 -127 -111h-134q-29 0 -52 6l-13 -26h-66l28 56q-24 25 -24 75v415q0 110 127 110h134q35 0 57 -7l13 27h66l-29 -59q20 -27 20 -71zM178 514v-251l116 234v17q0 25 -27 25h-62q-27 0 -27 -25zM294 122v241l-116 -234v-7q0 -25 27 -25h62q27 0 27 25
z" />
    <glyph glyph-name="Ugrave" unicode="&#xd9;" horiz-adv-x="475" 
d="M288 636h143v-525q0 -111 -127 -111h-134q-126 0 -126 111v525h143v-506q0 -25 26 -25h48q27 0 27 25v506zM292 668h-112l-122 143h143z" />
    <glyph glyph-name="Uacute" unicode="&#xda;" horiz-adv-x="475" 
d="M288 636h143v-525q0 -111 -127 -111h-134q-126 0 -126 111v525h143v-506q0 -25 26 -25h48q27 0 27 25v506zM411 811l-123 -143h-112l91 143h144z" />
    <glyph glyph-name="Ucircumflex" unicode="&#xdb;" horiz-adv-x="475" 
d="M288 636h143v-525q0 -111 -127 -111h-134q-126 0 -126 111v525h143v-506q0 -25 26 -25h48q27 0 27 25v506zM237 742l-53 -74h-133l119 143h134l118 -143h-132z" />
    <glyph glyph-name="Udieresis" unicode="&#xdc;" horiz-adv-x="475" 
d="M288 636h143v-525q0 -111 -127 -111h-134q-126 0 -126 111v525h143v-506q0 -25 26 -25h48q27 0 27 25v506zM193 785v-116h-133v116h133zM414 785v-116h-133v116h133z" />
    <glyph glyph-name="Yacute" unicode="&#xdd;" horiz-adv-x="459" 
d="M305 0h-143v206l-160 430h146l85 -299l79 299h146l-153 -431v-205zM405 811l-123 -143h-112l91 143h144z" />
    <glyph glyph-name="Thorn" unicode="&#xde;" horiz-adv-x="477" 
d="M191 517h112q127 0 127 -110v-178q0 -111 -127 -111h-112v-118h-143v636h143v-119zM287 244v147q0 25 -27 25h-69v-196h69q15 0 21 5.5t6 18.5z" />
    <glyph glyph-name="germandbls" unicode="&#xdf;" horiz-adv-x="601" 
d="M239 159h139v-36q0 -14 5 -19t18 -6h15q15 0 21 5.5t6 19.5v55q0 14 -6 19.5t-21 5.5h-55q-65 0 -92 28t-27 82v35q0 52 28 77t90 25q16 0 21.5 5t5.5 18v22q0 14 -5 19.5t-19 5.5h-148q-27 0 -27 -25v-495h-143v516q0 54 27.5 82t92.5 28h251q121 0 121 -105v-64
q0 -51 -23 -72t-87 -21h-22q-15 0 -21 -5.5t-6 -18.5v-19q0 -13 6 -18.5t21 -5.5h51q126 0 126 -111v-75q0 -55 -27 -83t-92 -28h-103q-121 1 -121 111v48z" />
    <glyph glyph-name="agrave" unicode="&#xe0;" horiz-adv-x="434" 
d="M255 495h137v-495h-139v49q-15 -49 -79 -49h-24q-117 0 -117 111v273q0 111 117 111h24q67 0 81 -56v56zM200 105h23q30 0 30 32v221q0 32 -30 32h-23q-27 0 -27 -25v-235q0 -25 27 -25zM300 527h-112l-122 143h143z" />
    <glyph glyph-name="aacute" unicode="&#xe1;" horiz-adv-x="434" 
d="M255 495h137v-495h-139v49q-15 -49 -79 -49h-24q-117 0 -117 111v273q0 111 117 111h24q67 0 81 -56v56zM200 105h23q30 0 30 32v221q0 32 -30 32h-23q-27 0 -27 -25v-235q0 -25 27 -25zM400 670l-123 -143h-112l91 143h144z" />
    <glyph glyph-name="acircumflex" unicode="&#xe2;" horiz-adv-x="434" 
d="M255 495h137v-495h-139v49q-15 -49 -79 -49h-24q-117 0 -117 111v273q0 111 117 111h24q67 0 81 -56v56zM200 105h23q30 0 30 32v221q0 32 -30 32h-23q-27 0 -27 -25v-235q0 -25 27 -25zM219 601l-53 -74h-133l119 143h134l118 -143h-132z" />
    <glyph glyph-name="atilde" unicode="&#xe3;" horiz-adv-x="434" 
d="M255 495h137v-495h-139v49q-15 -49 -79 -49h-24q-117 0 -117 111v273q0 111 117 111h24q67 0 81 -56v56zM200 105h23q30 0 30 32v221q0 32 -30 32h-23q-27 0 -27 -25v-235q0 -25 27 -25zM153 558v-25h-113v42q0 44 20.5 67t70.5 23h15q30 0 67.5 -23.5t44.5 -23.5
q19 0 19 22v25h113v-47q0 -43 -20.5 -64t-71.5 -21h-14q-30 0 -68 23.5t-46 23.5q-17 0 -17 -22z" />
    <glyph glyph-name="adieresis" unicode="&#xe4;" horiz-adv-x="434" 
d="M267 658h133v-116h-133v116zM255 495h137v-495h-139v49q-15 -49 -79 -49h-24q-117 0 -117 111v273q0 111 117 111h24q67 0 81 -56v56zM200 105h23q30 0 30 32v221q0 32 -30 32h-23q-27 0 -27 -25v-235q0 -25 27 -25zM179 658v-116h-133v116h133z" />
    <glyph glyph-name="aring" unicode="&#xe5;" horiz-adv-x="434" 
d="M255 495h137v-495h-139v49q-15 -49 -79 -49h-24q-117 0 -117 111v273q0 111 117 111h24q67 0 81 -56v56zM200 105h23q30 0 30 32v221q0 32 -30 32h-23q-27 0 -27 -25v-235q0 -25 27 -25zM257 529h-78q-91 0 -91 82v16q0 82 91 82h78q91 0 91 -82v-16q0 -82 -91 -82z
M178 624v-11q0 -12 4.5 -16.5t17.5 -4.5h36q13 0 18 4.5t5 16.5v11q0 12 -5 17t-18 5h-36q-13 0 -17.5 -5t-4.5 -17z" />
    <glyph glyph-name="ae" unicode="&#xe6;" horiz-adv-x="668" 
d="M620 206h-226v-80q0 -13 6 -18.5t21 -5.5h39q15 0 21 5.5t6 18.5v31h136v-46q0 -111 -127 -111h-68q-81 0 -108 51q-11 -23 -38 -37t-59 -14h-68q-117 0 -117 111v95l220 90v64q-1 30 -30 30h-23q-27 0 -27 -25v-55h-140v74q0 111 117 111h69q32 0 59 -14t38 -37
q27 51 108 51h68q127 0 127 -111v-162h-4v-16zM461 393h-40q-15 0 -21 -5.5t-6 -19.5v-75h94v75q0 25 -27 25zM205 105h23q29 0 30 30v70l-80 -33v-42q0 -25 27 -25z" />
    <glyph glyph-name="ccedilla" unicode="&#xe7;" horiz-adv-x="413" 
d="M389 317h-136v48q0 25 -27 25h-26q-27 0 -27 -25v-235q0 -25 27 -25h26q27 0 27 25v48h136v-67q0 -111 -127 -111h-102q-127 0 -127 111v273q0 111 127 111h102q127 0 127 -111v-67zM150 -108v60h131v-71q0 -113 -129 -113h-78v97h48q28 0 28 27z" />
    <glyph glyph-name="egrave" unicode="&#xe8;" horiz-adv-x="429" 
d="M161 495h113q127 0 127 -111v-175h-233v-85q0 -13 6 -18.5t21 -5.5h45q14 0 20 6t6 20v33h134v-48q0 -111 -127 -111h-112q-126 0 -126 111v273q0 111 126 111zM168 291h99v80q0 13 -6 18.5t-20 5.5h-46q-15 0 -21 -5.5t-6 -18.5v-80zM264 527h-112l-122 143h143z" />
    <glyph glyph-name="eacute" unicode="&#xe9;" horiz-adv-x="429" 
d="M161 495h113q127 0 127 -111v-175h-233v-85q0 -13 6 -18.5t21 -5.5h45q14 0 20 6t6 20v33h134v-48q0 -111 -127 -111h-112q-126 0 -126 111v273q0 111 126 111zM168 291h99v80q0 13 -6 18.5t-20 5.5h-46q-15 0 -21 -5.5t-6 -18.5v-80zM396 670l-123 -143h-112l91 143h144
z" />
    <glyph glyph-name="ecircumflex" unicode="&#xea;" horiz-adv-x="428" 
d="M161 495h113q127 0 127 -111v-175h-233v-85q0 -13 6 -18.5t21 -5.5h45q14 0 20 6t6 20v33h134v-48q0 -111 -127 -111h-112q-126 0 -126 111v273q0 111 126 111zM168 291h99v80q0 13 -6 18.5t-20 5.5h-46q-15 0 -21 -5.5t-6 -18.5v-80zM220 601l-53 -74h-133l119 143h134
l118 -143h-132z" />
    <glyph glyph-name="edieresis" unicode="&#xeb;" horiz-adv-x="428" 
d="M161 495h113q127 0 127 -111v-175h-233v-85q0 -13 6 -18.5t21 -5.5h45q14 0 20 6t6 20v33h134v-48q0 -111 -127 -111h-112q-126 0 -126 111v273q0 111 126 111zM168 291h99v80q0 13 -6 18.5t-20 5.5h-46q-15 0 -21 -5.5t-6 -18.5v-80zM172 658v-116h-133v116h133z
M393 658v-116h-133v116h133z" />
    <glyph glyph-name="igrave" unicode="&#xec;" horiz-adv-x="223" 
d="M78 670l91 -143h-112l-122 143h143zM181 0h-139v495h139v-495z" />
    <glyph glyph-name="iacute" unicode="&#xed;" horiz-adv-x="223" 
d="M52 527l91 143h144l-123 -143h-112zM181 0h-139v495h139v-495z" />
    <glyph glyph-name="icircumflex" unicode="&#xee;" horiz-adv-x="223" 
d="M-76 527l119 143h134l118 -143h-132l-53 74l-53 -74h-133zM181 0h-139v495h139v-495z" />
    <glyph glyph-name="idieresis" unicode="&#xef;" horiz-adv-x="223" 
d="M153 542v116h133v-116h-133zM-68 542v116h133v-116h-133zM181 0h-139v495h139v-495z" />
    <glyph glyph-name="eth" unicode="&#xf0;" horiz-adv-x="450" 
d="M409 308v-197q0 -111 -127 -111h-122q-127 0 -127 111v201q0 111 127 111h89q-15 39 -41 76l-107 -34v73l60 19q-35 36 -93 79h193q15 -12 36 -35l89 28v-73l-44 -14q67 -106 67 -234zM271 130v176q0 13 -1 19h-70q-27 0 -27 -25v-170q0 -25 27 -25h45q26 0 26 25z" />
    <glyph glyph-name="ntilde" unicode="&#xf1;" horiz-adv-x="439" 
d="M259 495h25q117 0 117 -111v-384h-140v365q0 25 -27 25h-24q-29 0 -29 -32v-358h-139v495h137v-56q14 56 80 56zM149 558v-25h-113v42q0 44 20.5 67t70.5 23h15q30 0 67.5 -23.5t44.5 -23.5q19 0 19 22v25h113v-47q0 -43 -20.5 -64t-71.5 -21h-14q-30 0 -68 23.5
t-46 23.5q-17 0 -17 -22z" />
    <glyph glyph-name="ograve" unicode="&#xf2;" horiz-adv-x="439" 
d="M160 495h119q66 0 94.5 -28.5t28.5 -82.5v-273q0 -54 -28.5 -82.5t-94.5 -28.5h-119q-66 0 -94.5 28.5t-28.5 82.5v273q0 54 28.5 82.5t94.5 28.5zM265 125v245q0 25 -27 25h-37q-27 0 -27 -25v-245q0 -25 27 -25h37q27 0 27 25zM271 527h-112l-122 143h143z" />
    <glyph glyph-name="oacute" unicode="&#xf3;" horiz-adv-x="439" 
d="M160 495h119q66 0 94.5 -28.5t28.5 -82.5v-273q0 -54 -28.5 -82.5t-94.5 -28.5h-119q-66 0 -94.5 28.5t-28.5 82.5v273q0 54 28.5 82.5t94.5 28.5zM265 125v245q0 25 -27 25h-37q-27 0 -27 -25v-245q0 -25 27 -25h37q27 0 27 25zM402 670l-123 -143h-112l91 143h144z" />
    <glyph glyph-name="ocircumflex" unicode="&#xf4;" horiz-adv-x="439" 
d="M160 495h119q66 0 94.5 -28.5t28.5 -82.5v-273q0 -54 -28.5 -82.5t-94.5 -28.5h-119q-66 0 -94.5 28.5t-28.5 82.5v273q0 54 28.5 82.5t94.5 28.5zM265 125v245q0 25 -27 25h-37q-27 0 -27 -25v-245q0 -25 27 -25h37q27 0 27 25zM219 601l-53 -74h-133l119 143h134
l118 -143h-132z" />
    <glyph glyph-name="otilde" unicode="&#xf5;" horiz-adv-x="439" 
d="M160 495h119q66 0 94.5 -28.5t28.5 -82.5v-273q0 -54 -28.5 -82.5t-94.5 -28.5h-119q-66 0 -94.5 28.5t-28.5 82.5v273q0 54 28.5 82.5t94.5 28.5zM265 125v245q0 25 -27 25h-37q-27 0 -27 -25v-245q0 -25 27 -25h37q27 0 27 25zM153 558v-25h-113v42q0 44 20.5 67
t70.5 23h15q30 0 67.5 -23.5t44.5 -23.5q19 0 19 22v25h113v-47q0 -43 -20.5 -64t-71.5 -21h-14q-30 0 -68 23.5t-46 23.5q-17 0 -17 -22z" />
    <glyph glyph-name="odieresis" unicode="&#xf6;" horiz-adv-x="439" 
d="M160 495h119q66 0 94.5 -28.5t28.5 -82.5v-273q0 -54 -28.5 -82.5t-94.5 -28.5h-119q-66 0 -94.5 28.5t-28.5 82.5v273q0 54 28.5 82.5t94.5 28.5zM265 125v245q0 25 -27 25h-37q-27 0 -27 -25v-245q0 -25 27 -25h37q27 0 27 25zM175 658v-116h-133v116h133zM396 658
v-116h-133v116h133z" />
    <glyph glyph-name="divide" unicode="&#xf7;" horiz-adv-x="487" 
d="M176 215h135v-104h-135v104zM176 523h135v-104h-135v104zM25 264v106h437v-106h-437z" />
    <glyph glyph-name="oslash" unicode="&#xf8;" horiz-adv-x="442" 
d="M404 384v-273q0 -111 -123 -111h-120q-26 0 -49 5l-15 -25h-66l31 53q-24 27 -24 78v273q0 54 28.5 82.5t94.5 28.5h120q26 0 49 -5l15 25h66l-31 -53q24 -27 24 -78zM171 375v-156l98 167q-4 14 -26 14h-45q-27 0 -27 -25zM271 120v156l-99 -168q4 -13 26 -13h45
q15 0 21.5 5.5t6.5 19.5z" />
    <glyph glyph-name="ugrave" unicode="&#xf9;" horiz-adv-x="439" 
d="M258 495h139v-495h-137v56q-14 -56 -81 -56h-24q-117 0 -117 111v384h140v-365q0 -25 27 -25h23q30 0 30 32v358zM278 527h-112l-122 143h143z" />
    <glyph glyph-name="uacute" unicode="&#xfa;" horiz-adv-x="439" 
d="M258 495h139v-495h-137v56q-14 -56 -81 -56h-24q-117 0 -117 111v384h140v-365q0 -25 27 -25h23q30 0 30 32v358zM391 670l-123 -143h-112l91 143h144z" />
    <glyph glyph-name="ucircumflex" unicode="&#xfb;" horiz-adv-x="437" 
d="M258 495h139v-495h-137v56q-14 -56 -81 -56h-24q-117 0 -117 111v384h140v-365q0 -25 27 -25h23q30 0 30 32v358zM217 601l-53 -74h-133l119 143h134l118 -143h-132z" />
    <glyph glyph-name="udieresis" unicode="&#xfc;" horiz-adv-x="448" 
d="M258 495h139v-495h-137v56q-14 -56 -81 -56h-24q-117 0 -117 111v384h140v-365q0 -25 27 -25h23q30 0 30 32v358zM172 658v-116h-133v116h133zM393 658v-116h-133v116h133z" />
    <glyph glyph-name="yacute" unicode="&#xfd;" horiz-adv-x="418" 
d="M155 527l91 143h144l-123 -143h-112zM137 -133h-75v104h62q23 0 36.5 7.5t20.5 29.5l5 20h-59l-124 467h145l66 -344l60 344h141l-117 -507q-17 -60 -54.5 -90.5t-106.5 -30.5z" />
    <glyph glyph-name="thorn" unicode="&#xfe;" horiz-adv-x="441" 
d="M255 495h25q117 0 117 -111v-273q0 -111 -117 -111h-25q-63 0 -78 49v-182h-140v802h138v-230q14 56 80 56zM257 130v235q0 25 -27 25h-24q-29 0 -29 -32v-221q0 -32 29 -32h24q27 0 27 25z" />
    <glyph glyph-name="ydieresis" unicode="&#xff;" horiz-adv-x="443" 
d="M137 -133h-75v104h62q23 0 36.5 7.5t20.5 29.5l5 20h-59l-124 467h145l66 -344l60 344h141l-117 -507q-17 -60 -54.5 -90.5t-106.5 -30.5zM254 542v116h133v-116h-133zM33 542v116h133v-116h-133z" />
    <glyph glyph-name="Amacron" unicode="&#x100;" horiz-adv-x="483" 
d="M335 0l-22 115h-145l-22 -115h-141l144 636h182l148 -636h-144zM188 219h104l-52 269zM411 760v-91h-343v91h343z" />
    <glyph glyph-name="amacron" unicode="&#x101;" horiz-adv-x="434" 
d="M255 495h137v-495h-139v49q-15 -49 -79 -49h-24q-117 0 -117 111v273q0 111 117 111h24q67 0 81 -56v56zM200 105h23q30 0 30 32v221q0 32 -30 32h-23q-27 0 -27 -25v-235q0 -25 27 -25zM387 645v-91h-343v91h343z" />
    <glyph glyph-name="Abreve" unicode="&#x102;" horiz-adv-x="483" 
d="M335 0l-22 115h-145l-22 -115h-141l144 636h182l148 -636h-144zM188 219h104l-52 269zM290 668h-100q-127 0 -127 111v32h125v-35q0 -13 6 -18.5t21 -5.5h50q15 0 21 5.5t6 18.5v35h125v-32q0 -111 -127 -111z" />
    <glyph glyph-name="abreve" unicode="&#x103;" horiz-adv-x="434" 
d="M283 670h125v-32q0 -111 -127 -111h-100q-127 0 -127 111v32h125v-35q0 -13 6 -18.5t21 -5.5h50q15 0 21 5.5t6 18.5v35zM255 495h137v-495h-139v49q-15 -49 -79 -49h-24q-117 0 -117 111v273q0 111 117 111h24q67 0 81 -56v56zM200 105h23q30 0 30 32v221q0 32 -30 32
h-23q-27 0 -27 -25v-235q0 -25 27 -25z" />
    <glyph glyph-name="Aogonek" unicode="&#x104;" horiz-adv-x="483" 
d="M411 -171h87v-84h-108q-57 0 -81 24.5t-24 72.5v42q0 48 24 72.5t81 24.5h6v19h-61l-22 115h-145l-22 -115h-141l144 636h182l145 -622h4v-117h-69q-14 0 -19.5 -5t-5.5 -17v-25q0 -12 5.5 -16.5t19.5 -4.5zM188 219h104l-52 269z" />
    <glyph glyph-name="aogonek" unicode="&#x105;" horiz-adv-x="434" 
d="M324 -171h87v-84h-108q-57 0 -81 24.5t-24 72.5v42q0 48 24 72.5t81 24.5h6v19h-56v49q-15 -49 -79 -49h-24q-117 0 -117 111v273q0 111 117 111h24q67 0 81 -56v56h137v-481h1v-117h-69q-14 0 -19.5 -5t-5.5 -17v-25q0 -12 5.5 -16.5t19.5 -4.5zM200 105h23q30 0 30 32
v221q0 32 -30 32h-23q-27 0 -27 -25v-235q0 -25 27 -25z" />
    <glyph glyph-name="Cacute" unicode="&#x106;" horiz-adv-x="450" 
d="M421 413h-144v100q0 25 -26 25h-41q-27 0 -27 -25v-390q0 -14 6 -19.5t21 -5.5h41q14 0 20 5.5t6 19.5v97h144v-110q0 -110 -127 -110h-128q-126 0 -126 110v416q0 110 126 110h128q127 0 127 -110v-113zM407 811l-123 -143h-112l91 143h144z" />
    <glyph glyph-name="cacute" unicode="&#x107;" horiz-adv-x="413" 
d="M160 495h102q127 0 127 -111v-67h-136v48q0 25 -27 25h-26q-27 0 -27 -25v-235q0 -25 27 -25h26q27 0 27 25v48h136v-67q0 -111 -127 -111h-102q-127 0 -127 111v273q0 111 127 111zM391 670l-123 -143h-112l91 143h144z" />
    <glyph glyph-name="Ccaron" unicode="&#x10c;" horiz-adv-x="450" 
d="M421 413h-144v100q0 25 -26 25h-41q-27 0 -27 -25v-390q0 -14 6 -19.5t21 -5.5h41q14 0 20 5.5t6 19.5v97h144v-110q0 -110 -127 -110h-128q-126 0 -126 110v416q0 110 126 110h128q127 0 127 -110v-113zM296 668h-134l-119 143h133l53 -73l53 73h132z" />
    <glyph glyph-name="ccaron" unicode="&#x10d;" horiz-adv-x="413" 
d="M160 495h102q127 0 127 -111v-67h-136v48q0 25 -27 25h-26q-27 0 -27 -25v-235q0 -25 27 -25h26q27 0 27 25v48h136v-67q0 -111 -127 -111h-102q-127 0 -127 111v273q0 111 127 111zM275 527h-134l-119 143h133l53 -73l53 73h132z" />
    <glyph glyph-name="Dcaron" unicode="&#x10e;" horiz-adv-x="485" 
d="M52 636h265q127 0 127 -110v-415q0 -111 -127 -111h-265v636zM301 123v390q0 25 -27 25h-79v-440h79q27 0 27 25zM305 668h-134l-119 143h133l53 -73l53 73h132z" />
    <glyph glyph-name="dcaron" unicode="&#x10f;" horiz-adv-x="470" 
d="M434 669h100v-66l-64 -131h-36v197zM253 669h139v-669h-137v56q-14 -56 -81 -56h-24q-117 0 -117 111v274q0 110 117 110h24q64 0 79 -49v223zM200 105h23q30 0 30 32v221q0 32 -30 32h-23q-15 0 -21 -5.5t-6 -19.5v-235q0 -25 27 -25z" />
    <glyph glyph-name="Dcroat" unicode="&#x110;" horiz-adv-x="490" 
d="M52 636h265q127 0 127 -110v-415q0 -111 -127 -111h-265v273h-54v98h54v265zM301 130v376q0 25 -27 25h-79v-160h62v-98h-62v-168h79q27 0 27 25z" />
    <glyph glyph-name="dcroat" unicode="&#x111;" horiz-adv-x="439" 
d="M446 616v-70h-49v-546h-137v56q-14 -56 -81 -56h-24q-117 0 -117 111v273q0 111 117 111h24q64 0 79 -49v100h-68v70h68v53h139v-53h49zM205 105h23q30 0 30 32v221q0 32 -30 32h-23q-27 0 -27 -25v-235q0 -25 27 -25z" />
    <glyph glyph-name="Emacron" unicode="&#x112;" horiz-adv-x="409" 
d="M188 105h204v-105h-347v636h339v-105h-196v-155h167v-105h-167v-166zM384 765v-91h-343v91h343z" />
    <glyph glyph-name="emacron" unicode="&#x113;" horiz-adv-x="429" 
d="M161 495h113q127 0 127 -111v-175h-233v-85q0 -13 6 -18.5t21 -5.5h45q14 0 20 6t6 20v33h134v-48q0 -111 -127 -111h-112q-126 0 -126 111v273q0 111 126 111zM168 291h99v80q0 13 -6 18.5t-20 5.5h-46q-15 0 -21 -5.5t-6 -18.5v-80zM386 645v-91h-343v91h343z" />
    <glyph glyph-name="Edotaccent" unicode="&#x116;" horiz-adv-x="409" 
d="M188 105h204v-105h-347v636h339v-105h-196v-155h167v-105h-167v-166zM292 785v-117h-141v117h141z" />
    <glyph glyph-name="edotaccent" unicode="&#x117;" horiz-adv-x="429" 
d="M161 495h113q127 0 127 -111v-175h-233v-85q0 -13 6 -18.5t21 -5.5h45q14 0 20 6t6 20v33h134v-48q0 -111 -127 -111h-112q-126 0 -126 111v273q0 111 126 111zM168 291h99v80q0 13 -6 18.5t-20 5.5h-46q-15 0 -21 -5.5t-6 -18.5v-80zM288 657v-117h-141v117h141z" />
    <glyph glyph-name="Eogonek" unicode="&#x118;" horiz-adv-x="409" 
d="M324 -171h87v-84h-108q-57 0 -81 24.5t-24 72.5v42q0 48 24 72.5t81 24.5h6v19h-264v636h339v-105h-196v-155h167v-105h-167v-166h204v-91h1v-117h-69q-14 0 -19.5 -5t-5.5 -17v-25q0 -12 5.5 -16.5t19.5 -4.5z" />
    <glyph glyph-name="eogonek" unicode="&#x119;" horiz-adv-x="429" 
d="M161 495h113q127 0 127 -111v-175h-233v-85q0 -13 6 -18.5t21 -5.5h45q14 0 20 6t6 20v33h134v-48q0 -111 -127 -111h-3v-103h-69q-14 0 -19.5 -5t-5.5 -17v-25q0 -12 5.5 -16.5t19.5 -4.5h87v-84h-108q-57 0 -81 24.5t-24 72.5v42q0 48 24 72.5t81 24.5h6v19h-25
q-126 0 -126 111v273q0 111 126 111zM168 291h99v80q0 13 -6 18.5t-20 5.5h-46q-15 0 -21 -5.5t-6 -18.5v-80z" />
    <glyph glyph-name="Ecaron" unicode="&#x11a;" horiz-adv-x="409" 
d="M188 271v-166h204v-105h-347v636h339v-105h-196v-155h167v-105h-167zM285 668h-134l-119 143h133l53 -73l53 73h132z" />
    <glyph glyph-name="ecaron" unicode="&#x11b;" horiz-adv-x="429" 
d="M161 495h113q127 0 127 -111v-175h-233v-85q0 -13 6 -18.5t21 -5.5h45q14 0 20 6t6 20v33h134v-48q0 -111 -127 -111h-112q-126 0 -126 111v273q0 111 126 111zM168 291h99v80q0 13 -6 18.5t-20 5.5h-46q-15 0 -21 -5.5t-6 -18.5v-80zM285 527h-134l-119 143h133l53 -73
l53 73h132z" />
    <glyph glyph-name="Gbreve" unicode="&#x11e;" horiz-adv-x="456" 
d="M421 430h-143v83q0 25 -27 25h-41q-27 0 -27 -25v-390q0 -14 6 -19.5t21 -5.5h41q15 0 21 5.5t6 19.5v124h-50v95h193v-232q0 -110 -126 -110h-129q-126 0 -126 110v416q0 110 126 110h129q126 0 126 -110v-96zM280 668h-100q-127 0 -127 111v32h125v-35q0 -13 6 -18.5
t21 -5.5h50q15 0 21 5.5t6 18.5v35h125v-32q0 -111 -127 -111z" />
    <glyph glyph-name="gbreve" unicode="&#x11f;" horiz-adv-x="434" 
d="M268 670h125v-32q0 -111 -127 -111h-100q-127 0 -127 111v32h125v-35q0 -13 6 -18.5t21 -5.5h50q15 0 21 5.5t6 18.5v35zM255 495h137v-517q0 -111 -126 -111h-212v102h172q27 0 27 25v76q-15 -49 -79 -49h-24q-117 0 -117 111v252q0 111 117 111h24q67 0 81 -56v56z
M200 126h23q30 0 30 32v200q0 32 -30 32h-23q-27 0 -27 -25v-214q0 -25 27 -25z" />
    <glyph glyph-name="uni0122" unicode="&#x122;" horiz-adv-x="456" 
d="M421 430h-143v83q0 25 -27 25h-41q-27 0 -27 -25v-390q0 -14 6 -19.5t21 -5.5h41q15 0 21 5.5t6 19.5v124h-50v95h193v-232q0 -110 -126 -110h-129q-126 0 -126 110v416q0 110 126 110h129q126 0 126 -110v-96zM168 -273v225h141v-72l-96 -153h-45z" />
    <glyph glyph-name="uni0123" unicode="&#x123;" horiz-adv-x="434" 
d="M255 495h137v-517q0 -111 -126 -111h-212v102h172q27 0 27 25v76q-15 -49 -79 -49h-24q-117 0 -117 111v252q0 111 117 111h24q67 0 81 -56v56zM200 126h23q30 0 30 32v200q0 32 -30 32h-23q-27 0 -27 -25v-214q0 -25 27 -25zM298 752v-225h-141v72l96 153h45z" />
    <glyph glyph-name="Imacron" unicode="&#x12a;" horiz-adv-x="238" 
d="M-52 674v91h343v-91h-343zM48 636h142v-636h-142v636z" />
    <glyph glyph-name="imacron" unicode="&#x12b;" horiz-adv-x="223" 
d="M-61 554v91h343v-91h-343zM181 0h-139v495h139v-495z" />
    <glyph glyph-name="Iogonek" unicode="&#x12e;" horiz-adv-x="238" 
d="M122 -171h87v-84h-108q-57 0 -81 24.5t-24 72.5v42q0 48 24 72.5t81 24.5h6v19h-59v636h142v-622h1v-117h-69q-14 0 -19.5 -5t-5.5 -17v-25q0 -12 5.5 -16.5t19.5 -4.5z" />
    <glyph glyph-name="iogonek" unicode="&#x12f;" horiz-adv-x="223" 
d="M112 -171h87v-84h-108q-57 0 -81 24.5t-24 72.5v42q0 48 24 72.5t81 24.5h6v19h-55v495h139v-598h-69q-14 0 -19.5 -5t-5.5 -17v-25q0 -12 5.5 -16.5t19.5 -4.5zM184 669v-108h-145v108h145z" />
    <glyph glyph-name="Idotaccent" unicode="&#x130;" horiz-adv-x="238" 
d="M49 673v117h141v-117h-141zM48 636h142v-636h-142v636z" />
    <glyph glyph-name="dotlessi" unicode="&#x131;" horiz-adv-x="223" 
d="M181 0h-139v495h139v-495z" />
    <glyph glyph-name="uni0136" unicode="&#x136;" horiz-adv-x="475" 
d="M467 636l-128 -314l128 -322h-154l-123 322l123 314h154zM163 -273v225h141v-72l-96 -153h-45zM187 636v-636h-142v636h142z" />
    <glyph glyph-name="uni0137" unicode="&#x137;" horiz-adv-x="430" 
d="M432 495l-109 -241l109 -254h-146l-104 254l105 241h145zM154 -273v225h141v-72l-97 -153h-44zM181 669v-669h-139v669h139z" />
    <glyph glyph-name="Lacute" unicode="&#x139;" horiz-adv-x="371" 
d="M187 105h183v-105h-325v636h142v-531zM298 811l-123 -143h-112l91 143h144z" />
    <glyph glyph-name="lacute" unicode="&#x13a;" horiz-adv-x="223" 
d="M181 0h-139v669h139v-669zM54 701l91 143h144l-123 -143h-112z" />
    <glyph glyph-name="uni013B" unicode="&#x13b;" horiz-adv-x="371" 
d="M187 105h183v-105h-325v636h142v-531zM135 -273v225h141v-72l-96 -153h-45z" />
    <glyph glyph-name="uni013C" unicode="&#x13c;" horiz-adv-x="223" 
d="M41 -48h141v-72l-97 -153h-44v225zM181 0h-139v669h139v-669z" />
    <glyph glyph-name="Lcaron" unicode="&#x13d;" horiz-adv-x="371" 
d="M187 105h183v-105h-325v636h142v-531zM182 670h-134l-119 143h133l53 -73l53 73h132z" />
    <glyph glyph-name="lcaron" unicode="&#x13e;" horiz-adv-x="266" 
d="M181 0h-139v669h139v-669zM223 669h100v-66l-64 -131h-36v197z" />
    <glyph glyph-name="Lslash" unicode="&#x141;" horiz-adv-x="387" 
d="M194 105h183v-105h-325v243l-85 -40v98l85 40v295h142v-227l107 51v-98l-107 -51v-206z" />
    <glyph glyph-name="lslash" unicode="&#x142;" horiz-adv-x="233" 
d="M186 0h-139v291l-94 -45v98l94 45v280h139v-214l100 48v-98l-100 -48v-357z" />
    <glyph glyph-name="Nacute" unicode="&#x143;" horiz-adv-x="486" 
d="M311 636h131v-636h-128l-139 381v-381h-130v636h129l137 -380v380zM180 668l91 143h144l-123 -143h-112z" />
    <glyph glyph-name="nacute" unicode="&#x144;" horiz-adv-x="439" 
d="M259 495h25q117 0 117 -111v-384h-140v365q0 25 -27 25h-24q-29 0 -29 -32v-358h-139v495h137v-56q14 56 80 56zM385 670l-123 -143h-112l91 143h144z" />
    <glyph glyph-name="uni0145" unicode="&#x145;" horiz-adv-x="486" 
d="M164 -48h141v-72l-96 -153h-45v225zM311 636h131v-636h-128l-139 381v-381h-130v636h129l137 -380v380z" />
    <glyph glyph-name="uni0146" unicode="&#x146;" horiz-adv-x="439" 
d="M259 495h25q117 0 117 -111v-384h-140v365q0 25 -27 25h-24q-29 0 -29 -32v-358h-139v495h137v-56q14 56 80 56zM150 -273v225h141v-72l-96 -153h-45z" />
    <glyph glyph-name="Ncaron" unicode="&#x147;" horiz-adv-x="486" 
d="M311 636h131v-636h-128l-139 381v-381h-130v636h129l137 -380v380zM176 668l-119 143h133l53 -73l53 73h132l-118 -143h-134z" />
    <glyph glyph-name="ncaron" unicode="&#x148;" horiz-adv-x="439" 
d="M259 495h25q117 0 117 -111v-384h-140v365q0 25 -27 25h-24q-29 0 -29 -32v-358h-139v495h137v-56q14 56 80 56zM278 527h-134l-119 143h133l53 -73l53 73h132z" />
    <glyph glyph-name="Omacron" unicode="&#x14c;" horiz-adv-x="469" 
d="M168 636h134q126 0 126 -110v-415q0 -111 -126 -111h-134q-127 0 -127 111v415q0 110 127 110zM285 130v376q0 25 -26 25h-48q-27 0 -27 -25v-376q0 -25 27 -25h48q26 0 26 25zM406 760v-91h-343v91h343z" />
    <glyph glyph-name="omacron" unicode="&#x14d;" horiz-adv-x="439" 
d="M160 495h119q66 0 94.5 -28.5t28.5 -82.5v-273q0 -54 -28.5 -82.5t-94.5 -28.5h-119q-66 0 -94.5 28.5t-28.5 82.5v273q0 54 28.5 82.5t94.5 28.5zM265 125v245q0 25 -27 25h-37q-27 0 -27 -25v-245q0 -25 27 -25h37q27 0 27 25zM385 645v-91h-343v91h343z" />
    <glyph glyph-name="Ohungarumlaut" unicode="&#x150;" horiz-adv-x="458" 
d="M168 636h134q126 0 126 -110v-415q0 -111 -126 -111h-134q-127 0 -127 111v415q0 110 127 110zM285 130v376q0 25 -26 25h-48q-27 0 -27 -25v-376q0 -25 27 -25h48q26 0 26 25zM324 811l-123 -143h-94l92 143h125zM364 668h-94l92 143h125z" />
    <glyph glyph-name="ohungarumlaut" unicode="&#x151;" horiz-adv-x="439" 
d="M160 495h119q66 0 94.5 -28.5t28.5 -82.5v-273q0 -54 -28.5 -82.5t-94.5 -28.5h-119q-66 0 -94.5 28.5t-28.5 82.5v273q0 54 28.5 82.5t94.5 28.5zM265 125v245q0 25 -27 25h-37q-27 0 -27 -25v-245q0 -25 27 -25h37q27 0 27 25zM303 670l-123 -143h-94l92 143h125z
M343 527h-94l92 143h125z" />
    <glyph glyph-name="OE" unicode="&#x152;" horiz-adv-x="673" 
d="M437 98h205v-98h-310v19q-25 -19 -67 -19h-78q-126 0 -126 111v415q0 110 126 110h78q42 0 67 -20v20h301v-98h-196v-165h167v-99h-167v-176zM305 123v390q0 25 -27 25h-48q-27 0 -27 -25v-390q0 -25 27 -25h48q27 0 27 25z" />
    <glyph glyph-name="oe" unicode="&#x153;" horiz-adv-x="739" 
d="M429 495h68q127 0 127 -111v-178h-230v-80q0 -13 6 -18.5t21 -5.5h39q15 0 21 5.5t6 18.5v31h136v-46q0 -111 -127 -111h-68q-81 0 -108 51q-11 -23 -38 -37t-59 -14h-68q-117 0 -117 111v273q0 111 117 111h69q32 0 59 -14t38 -37q27 51 108 51zM228 390h-23
q-27 0 -27 -25v-235q0 -25 27 -25h23q29 0 30 30v225q-1 30 -30 30zM394 293h94v75q0 25 -27 25h-40q-15 0 -21 -5.5t-6 -19.5v-75z" />
    <glyph glyph-name="Racute" unicode="&#x154;" horiz-adv-x="469" 
d="M187 238v-238h-142v636h262q126 0 126 -110v-178q0 -88 -80 -106l112 -242h-153l-100 238h-25zM187 531v-192h77q14 0 20 5.5t6 18.5v143q0 25 -26 25h-77zM403 811l-123 -143h-112l91 143h144z" />
    <glyph glyph-name="racute" unicode="&#x155;" horiz-adv-x="298" 
d="M179 495v-71q8 33 33 53.5t64 20.5h17v-121h-49q-63 0 -63 -70v-307h-139v495h137zM346 670l-123 -143h-112l91 143h144z" />
    <glyph glyph-name="uni0156" unicode="&#x156;" horiz-adv-x="469" 
d="M187 238v-238h-142v636h262q126 0 126 -110v-178q0 -88 -80 -106l112 -242h-153l-100 238h-25zM187 531v-192h77q14 0 20 5.5t6 18.5v143q0 25 -26 25h-77zM159 -273v225h141v-72l-96 -153h-45z" />
    <glyph glyph-name="uni0157" unicode="&#x157;" horiz-adv-x="298" 
d="M276 498h17v-121h-49q-63 0 -63 -70v-307h-139v495h137v-71q8 33 33 53.5t64 20.5zM41 -273v225h141v-72l-96 -153h-45z" />
    <glyph glyph-name="Rcaron" unicode="&#x158;" horiz-adv-x="469" 
d="M187 238v-238h-142v636h262q126 0 126 -110v-178q0 -88 -80 -106l112 -242h-153l-100 238h-25zM187 531v-192h77q14 0 20 5.5t6 18.5v143q0 25 -26 25h-77zM299 668h-134l-119 143h133l53 -73l53 73h132z" />
    <glyph glyph-name="rcaron" unicode="&#x159;" horiz-adv-x="298" 
d="M179 495v-71q8 33 33 53.5t64 20.5h17v-121h-49q-63 0 -63 -70v-307h-139v495h137zM234 527h-134l-119 143h133l53 -73l53 73h132z" />
    <glyph glyph-name="Sacute" unicode="&#x15a;" horiz-adv-x="442" 
d="M266 130v115q0 13 -6 18.5t-21 5.5h-88q-118 0 -118 112v145q0 110 126 110h122q126 0 126 -110v-83h-143v63q0 25 -27 25h-34q-27 0 -27 -25v-112q0 -13 6 -18.5t21 -5.5h86q64 0 92 -27.5t28 -81.5v-150q0 -111 -126 -111h-121q-127 0 -127 111v82h143v-63
q0 -25 27 -25h34q27 0 27 25zM174 668l91 143h144l-123 -143h-112z" />
    <glyph glyph-name="sacute" unicode="&#x15b;" horiz-adv-x="401" 
d="M237 119v56q0 13 -6 18.5t-21 5.5h-57q-125 0 -125 110v75q0 111 127 111h85q127 0 127 -111v-44h-134v36q0 13 -6 18.5t-21 5.5h-15q-15 0 -21 -5.5t-6 -18.5v-60q0 -13 6 -18.5t21 -5.5h57q125 0 125 -109v-72q0 -111 -127 -111h-89q-126 0 -126 111v43h136v-35
q0 -25 26 -25h17q27 0 27 25zM151 527l91 143h144l-123 -143h-112z" />
    <glyph glyph-name="uni015E" unicode="&#x15e;" horiz-adv-x="442" 
d="M147 -48h141v-72l-96 -153h-45v225zM266 130v115q0 13 -6 18.5t-21 5.5h-88q-118 0 -118 112v145q0 110 126 110h122q126 0 126 -110v-83h-143v63q0 25 -27 25h-34q-27 0 -27 -25v-112q0 -13 6 -18.5t21 -5.5h86q64 0 92 -27.5t28 -81.5v-150q0 -111 -126 -111h-121
q-127 0 -127 111v82h143v-63q0 -25 27 -25h34q27 0 27 25z" />
    <glyph glyph-name="uni015F" unicode="&#x15f;" horiz-adv-x="401" 
d="M129 -48h141v-72l-96 -153h-45v225zM237 119v56q0 13 -6 18.5t-21 5.5h-57q-125 0 -125 110v75q0 111 127 111h85q127 0 127 -111v-44h-134v36q0 13 -6 18.5t-21 5.5h-15q-15 0 -21 -5.5t-6 -18.5v-60q0 -13 6 -18.5t21 -5.5h57q125 0 125 -109v-72q0 -111 -127 -111h-89
q-126 0 -126 111v43h136v-35q0 -25 26 -25h17q27 0 27 25z" />
    <glyph glyph-name="Scaron" unicode="&#x160;" horiz-adv-x="442" 
d="M266 130v115q0 13 -6 18.5t-21 5.5h-88q-118 0 -118 112v145q0 110 126 110h122q126 0 126 -110v-83h-143v63q0 25 -27 25h-34q-27 0 -27 -25v-112q0 -13 6 -18.5t21 -5.5h86q64 0 92 -27.5t28 -81.5v-150q0 -111 -126 -111h-121q-127 0 -127 111v82h143v-63
q0 -25 27 -25h34q27 0 27 25zM154 668l-119 143h133l53 -73l53 73h132l-118 -143h-134z" />
    <glyph glyph-name="scaron" unicode="&#x161;" horiz-adv-x="401" 
d="M237 119v56q0 13 -6 18.5t-21 5.5h-57q-125 0 -125 110v75q0 111 127 111h85q127 0 127 -111v-44h-134v36q0 13 -6 18.5t-21 5.5h-15q-15 0 -21 -5.5t-6 -18.5v-60q0 -13 6 -18.5t21 -5.5h57q125 0 125 -109v-72q0 -111 -127 -111h-89q-126 0 -126 111v43h136v-35
q0 -25 26 -25h17q27 0 27 25zM132 527l-119 143h133l53 -73l53 73h132l-118 -143h-134z" />
    <glyph glyph-name="uni0162" unicode="&#x162;" horiz-adv-x="386" 
d="M381 636v-105h-117v-531h-143v531h-116v105h376zM122 -273v225h141v-72l-96 -153h-45z" />
    <glyph glyph-name="uni0163" unicode="&#x163;" horiz-adv-x="386" 
d="M381 636v-105h-117v-531h-143v531h-116v105h376zM122 -273v225h141v-72l-96 -153h-45z" />
    <glyph glyph-name="Tcaron" unicode="&#x164;" horiz-adv-x="386" 
d="M381 636v-105h-117v-531h-143v531h-116v105h376zM258 668h-134l-119 143h133l53 -73l53 73h132z" />
    <glyph glyph-name="tcaron" unicode="&#x165;" horiz-adv-x="271" 
d="M239 708h104v-66l-68 -112h-36v178zM196 587v-92h65v-105h-65v-259q0 -24 27 -24h38v-107h-78q-126 0 -126 111v279h-52v105h52v92h139z" />
    <glyph glyph-name="Umacron" unicode="&#x16a;" horiz-adv-x="475" 
d="M288 636h143v-525q0 -111 -127 -111h-134q-126 0 -126 111v525h143v-506q0 -25 26 -25h48q27 0 27 25v506zM409 760v-91h-343v91h343z" />
    <glyph glyph-name="umacron" unicode="&#x16b;" horiz-adv-x="439" 
d="M258 495h139v-495h-137v56q-14 -56 -81 -56h-24q-117 0 -117 111v384h140v-365q0 -25 27 -25h23q30 0 30 32v358zM388 645v-91h-343v91h343z" />
    <glyph glyph-name="Uring" unicode="&#x16e;" horiz-adv-x="475" 
d="M288 636h143v-525q0 -111 -127 -111h-134q-126 0 -126 111v525h143v-506q0 -25 26 -25h48q27 0 27 25v506zM276 668h-78q-91 0 -91 82v16q0 82 91 82h78q91 0 91 -82v-16q0 -82 -91 -82zM197 763v-11q0 -12 4.5 -16.5t17.5 -4.5h36q13 0 18 4.5t5 16.5v11q0 12 -5 17
t-18 5h-36q-13 0 -17.5 -5t-4.5 -17z" />
    <glyph glyph-name="uring" unicode="&#x16f;" horiz-adv-x="439" 
d="M258 495h139v-495h-137v56q-14 -56 -81 -56h-24q-117 0 -117 111v384h140v-365q0 -25 27 -25h23q30 0 30 32v358zM263 527h-78q-91 0 -91 82v16q0 82 91 82h78q91 0 91 -82v-16q0 -82 -91 -82zM184 622v-11q0 -12 4.5 -16.5t17.5 -4.5h36q13 0 18 4.5t5 16.5v11
q0 12 -5 17t-18 5h-36q-13 0 -17.5 -5t-4.5 -17z" />
    <glyph glyph-name="Uhungarumlaut" unicode="&#x170;" horiz-adv-x="459" 
d="M288 130v506h143v-525q0 -111 -127 -111h-134q-126 0 -126 111v525h143v-506q0 -25 26 -25h48q27 0 27 25zM318 811l-123 -143h-94l92 143h125zM358 668h-94l92 143h125z" />
    <glyph glyph-name="uhungarumlaut" unicode="&#x171;" horiz-adv-x="439" 
d="M258 495h139v-495h-137v56q-14 -56 -81 -56h-24q-117 0 -117 111v384h140v-365q0 -25 27 -25h23q30 0 30 32v358zM302 670l-123 -143h-94l92 143h125zM342 527h-94l92 143h125z" />
    <glyph glyph-name="Uogonek" unicode="&#x172;" horiz-adv-x="475" 
d="M288 636h143v-525q0 -111 -127 -111h-15v-103h-69q-14 0 -19.5 -5t-5.5 -17v-25q0 -12 5.5 -16.5t19.5 -4.5h87v-84h-108q-57 0 -81 24.5t-24 72.5v42q0 48 24 72.5t81 24.5h6v19h-35q-126 0 -126 111v525h143v-506q0 -25 26 -25h48q27 0 27 25v506z" />
    <glyph glyph-name="uogonek" unicode="&#x173;" horiz-adv-x="439" 
d="M329 -171h87v-84h-108q-57 0 -81 24.5t-24 72.5v42q0 48 24 72.5t81 24.5h6v19h-54v56q-14 -56 -81 -56h-24q-117 0 -117 111v384h140v-365q0 -25 27 -25h23q30 0 30 32v358h139v-481h1v-117h-69q-14 0 -19.5 -5t-5.5 -17v-25q0 -12 5.5 -16.5t19.5 -4.5z" />
    <glyph glyph-name="Ydieresis" unicode="&#x178;" horiz-adv-x="446" 
d="M305 0h-143v206l-160 430h146l85 -299l79 299h146l-153 -431v-205zM180 797v-116h-133v116h133zM401 797v-116h-133v116h133z" />
    <glyph glyph-name="Zacute" unicode="&#x179;" horiz-adv-x="407" 
d="M391 636v-105l-227 -426h221v-105h-369v105l227 426h-215v105h363zM385 811l-123 -143h-112l91 143h144z" />
    <glyph glyph-name="zacute" unicode="&#x17a;" horiz-adv-x="354" 
d="M342 101v-101h-330v101l175 293h-163v101h311v-101l-177 -293h184zM358 670l-123 -143h-112l91 143h144z" />
    <glyph glyph-name="Zdotaccent" unicode="&#x17b;" horiz-adv-x="407" 
d="M391 636v-105l-227 -426h221v-105h-369v105l227 426h-215v105h363zM285 785v-117h-141v117h141z" />
    <glyph glyph-name="zdotaccent" unicode="&#x17c;" horiz-adv-x="354" 
d="M342 101v-101h-330v101l175 293h-163v101h311v-101l-177 -293h184zM254 657v-117h-141v117h141z" />
    <glyph glyph-name="Zcaron" unicode="&#x17d;" horiz-adv-x="407" 
d="M28 531v105h363v-105l-227 -426h221v-105h-369v105l227 426h-215zM283 668h-134l-119 143h133l53 -73l53 73h132z" />
    <glyph glyph-name="zcaron" unicode="&#x17e;" horiz-adv-x="354" 
d="M342 101v-101h-330v101l175 293h-163v101h311v-101l-177 -293h184zM248 527h-134l-119 143h133l53 -73l53 73h132z" />
    <glyph glyph-name="florin" unicode="&#x192;" horiz-adv-x="413" 
d="M374 562h-51q-15 0 -20 -5t-7 -19l-6 -43h83v-105h-98l-59 -425q-8 -55 -35.5 -82.5t-91.5 -27.5h-91v106h51q15 0 20 5.5t7 19.5l56 404h-65v105h80l9 64q8 55 35.5 82.5t91.5 27.5h91v-107z" />
    <glyph glyph-name="uni0218" unicode="&#x218;" horiz-adv-x="442" 
d="M148 -48h141v-72l-96 -153h-45v225zM266 130v115q0 13 -6 18.5t-21 5.5h-88q-118 0 -118 112v145q0 110 126 110h122q126 0 126 -110v-83h-143v63q0 25 -27 25h-34q-27 0 -27 -25v-112q0 -13 6 -18.5t21 -5.5h86q64 0 92 -27.5t28 -81.5v-150q0 -111 -126 -111h-121
q-127 0 -127 111v82h143v-63q0 -25 27 -25h34q27 0 27 25z" />
    <glyph glyph-name="uni0219" unicode="&#x219;" horiz-adv-x="401" 
d="M127 -48h141v-72l-96 -153h-45v225zM237 119v56q0 13 -6 18.5t-21 5.5h-57q-125 0 -125 110v75q0 111 127 111h85q127 0 127 -111v-44h-134v36q0 13 -6 18.5t-21 5.5h-15q-15 0 -21 -5.5t-6 -18.5v-60q0 -13 6 -18.5t21 -5.5h57q125 0 125 -109v-72q0 -111 -127 -111h-89
q-126 0 -126 111v43h136v-35q0 -25 26 -25h17q27 0 27 25z" />
    <glyph glyph-name="uni021A" unicode="&#x21a;" horiz-adv-x="386" 
d="M381 636v-105h-117v-531h-143v531h-116v105h376zM122 -273v225h141v-72l-96 -153h-45z" />
    <glyph glyph-name="uni021B" unicode="&#x21b;" horiz-adv-x="271" 
d="M261 390h-65v-259q0 -24 27 -24h38v-107h-78q-126 0 -126 111v279h-52v105h52v92h139v-92h65v-105zM81 -273v225h141v-72l-97 -153h-44z" />
    <glyph glyph-name="circumflex" unicode="&#x2c6;" horiz-adv-x="470" 
d="M49 527l119 143h134l118 -143h-132l-53 74l-53 -74h-133z" />
    <glyph glyph-name="caron" unicode="&#x2c7;" horiz-adv-x="470" 
d="M168 527l-119 143h133l53 -73l53 73h132l-118 -143h-134z" />
    <glyph glyph-name="uni02C9" unicode="&#x2c9;" horiz-adv-x="470" 
d="M63 553v92h343v-92h-343z" />
    <glyph glyph-name="breve" unicode="&#x2d8;" horiz-adv-x="470" 
d="M287 670h125v-32q0 -111 -127 -111h-100q-127 0 -127 111v32h125v-35q0 -13 6 -18.5t21 -5.5h50q15 0 21 5.5t6 18.5v35z" />
    <glyph glyph-name="dotaccent" unicode="&#x2d9;" horiz-adv-x="470" 
d="M165 540v117h141v-117h-141z" />
    <glyph glyph-name="ring" unicode="&#x2da;" horiz-adv-x="470" 
d="M276 593v11q0 12 -5 17t-18 5h-36q-13 0 -17.5 -5t-4.5 -17v-11q0 -12 4.5 -16.5t17.5 -4.5h36q13 0 18 4.5t5 16.5zM365 607v-16q0 -82 -91 -82h-78q-91 0 -91 82v16q0 82 91 82h78q91 0 91 -82z" />
    <glyph glyph-name="ogonek" unicode="&#x2db;" horiz-adv-x="470" 
d="M261 -171h87v-84h-108q-57 0 -81 24.5t-24 72.5v42q0 48 24 72.5t81 24.5h6v33h84v-117h-69q-14 0 -19.5 -5t-5.5 -17v-25q0 -12 5.5 -16.5t19.5 -4.5z" />
    <glyph glyph-name="tilde" unicode="&#x2dc;" horiz-adv-x="470" 
d="M304 533q-30 0 -68 23.5t-46 23.5q-17 0 -17 -22v-25h-113v42q0 44 20.5 67t70.5 23h15q30 0 67.5 -23.5t44.5 -23.5q19 0 19 22v25h113v-47q0 -43 -20.5 -64t-71.5 -21h-14z" />
    <glyph glyph-name="hungarumlaut" unicode="&#x2dd;" horiz-adv-x="470" 
d="M45 527l92 143h125l-123 -143h-94zM208 527l92 143h125l-123 -143h-94z" />
    <glyph glyph-name="pi" unicode="&#x3c0;" horiz-adv-x="519" 
d="M512 495v-98h-71v-397h-143v397h-91v-286q0 -111 -126 -111h-74v107h34q15 0 21 5.5t6 18.5v364h444z" />
    <glyph glyph-name="uni0901" unicode="&#x901;" horiz-adv-x="0" 
d="M-165 920h105v-111h-105v111zM-326 858h117v-62q0 -16 6 -22t23 -6h135q17 0 23 6t6 22v62h118v-79q0 -47 -30.5 -70t-100.5 -23h-167q-69 0 -99.5 23t-30.5 70v79z" />
    <glyph glyph-name="uni0902" unicode="&#x902;" horiz-adv-x="0" 
d="M-166 844h108v-116h-108v116z" />
    <glyph glyph-name="uni0903" unicode="&#x903;" 
d="M61 489h107v-116h-107v116zM61 176h107v-116h-107v116z" />
    <glyph glyph-name="uni0905" unicode="&#x905;" horiz-adv-x="661" 
d="M681 636v-97h-64v-539h-140v265h-79v-81q0 -53 -27.5 -79.5t-93.5 -26.5h-111q-66 0 -93.5 26.5t-27.5 79.5v86h139v-72q0 -23 26 -23h23q15 0 20.5 5t5.5 18v85q0 15 -6 21t-21 6h-43v96h43q15 0 21 6t6 21v86q0 14 -5.5 19t-20.5 5h-23q-14 0 -20 -5t-6 -19v-64h-139
v79q0 53 27.5 79.5t93.5 26.5h111q66 0 93.5 -26.5t27.5 -79.5v-120q0 -43 -34 -52h113v274h204z" />
    <glyph glyph-name="uni0906" unicode="&#x906;" horiz-adv-x="890" 
d="M910 636v-97h-65v-539h-139v539h-89v-539h-140v265h-79v-81q0 -53 -27.5 -79.5t-93.5 -26.5h-111q-66 0 -93.5 26.5t-27.5 79.5v86h139v-72q0 -23 26 -23h23q15 0 20.5 5t5.5 18v85q0 15 -6 21t-21 6h-43v96h43q15 0 21 6t6 21v86q0 14 -5.5 19t-20.5 5h-23q-14 0 -20 -5
t-6 -19v-64h-139v79q0 53 27.5 79.5t93.5 26.5h111q66 0 93.5 -26.5t27.5 -79.5v-120q0 -43 -34 -52h113v274h433z" />
    <glyph glyph-name="uni0907" unicode="&#x907;" horiz-adv-x="425" 
d="M375 386h-178q-15 0 -20.5 -5t-5.5 -18v-29q0 -13 5.5 -18t20.5 -5h72q67 0 94.5 -23.5t27.5 -75.5v-90q0 -52 -27.5 -75.5t-94.5 -23.5h-94v-66h-140v216h140v-60h51q14 0 19.5 5t5.5 19v61q0 13 -5.5 18t-19.5 5h-73q-67 0 -94 23.5t-27 75.5v57q0 52 27 75.5t94 23.5
h82v63h-255v97h465v-97h-70v-153z" />
    <glyph glyph-name="uni0908" unicode="&#x908;" horiz-adv-x="425" 
d="M448 711h-48q-14 0 -19.5 -5t-5.5 -18v-52h70v-97h-70v-153h-178q-15 0 -20.5 -5t-5.5 -18v-29q0 -13 5.5 -18t20.5 -5h72q67 0 94.5 -23.5t27.5 -75.5v-90q0 -52 -27.5 -75.5t-94.5 -23.5h-94v-66h-140v216h140v-60h51q14 0 19.5 5t5.5 19v61q0 13 -5.5 18t-19.5 5h-73
q-67 0 -94 23.5t-27 75.5v57q0 52 27 75.5t94 23.5h82v63h-255v97h255v66q0 52 27.5 75t94.5 23h91v-89z" />
    <glyph glyph-name="uni0909" unicode="&#x909;" horiz-adv-x="427" 
d="M441 636v-97h-72q7 -8 7 -25v-109q0 -48 -44 -53v-4q44 -5 44 -53v-196q0 -52 -27 -75.5t-95 -23.5h-111q-67 0 -94 23.5t-27 75.5v119h139v-105q0 -23 21 -23h29q14 0 19.5 5t5.5 18v162q0 15 -5.5 20.5t-19.5 5.5h-56v97h56q14 0 19.5 5.5t5.5 20.5v82q0 20 -7 26.5
t-30 6.5h-219v97h461z" />
    <glyph glyph-name="uni090A" unicode="&#x90a;" horiz-adv-x="611" 
d="M631 636v-97h-262q7 -8 7 -25v-109q0 -48 -44 -53v-4h140q58 0 87 -27t29 -86v-136q0 -52 -27.5 -75.5t-94.5 -23.5h-58v97h15q14 0 19.5 5t5.5 18v105q0 15 -5.5 20.5t-19.5 5.5h-47v-152q0 -52 -27 -75.5t-95 -23.5h-111q-67 0 -94 23.5t-27 75.5v119h139v-105
q0 -23 21 -23h29q14 0 19.5 5t5.5 18v162q0 15 -5.5 20.5t-19.5 5.5h-56v97h56q14 0 19.5 5.5t5.5 20.5v82q0 20 -7 26.5t-30 6.5h-219v97h651z" />
    <glyph glyph-name="uni090B" unicode="&#x90b;" horiz-adv-x="898" 
d="M455 539v-263h74q-11 14 -11 35v53q0 60 30.5 86t105.5 26h69q75 0 106 -26t31 -86v-60q0 -55 -43 -64v-5q42 -8 42 -56v-81q0 -51 -27 -74.5t-94 -23.5h-100q-66 0 -92.5 24t-26.5 74v42h140v-27q0 -23 20 -23h16q25 0 25 23v53q0 22 -25 22h-240v-188h-139v188h-22
l-114 -188h-160l143 235l-54 90q-18 29 -33 39.5t-42 10.5h-22v97h84q50 0 76.5 -14.5t50.5 -52.5l81 -129h12v263h-336v97h938v-97h-463zM657 364v-65q0 -23 24 -23h16q23 0 23 23v65q0 14 -5.5 19t-19.5 5h-13q-25 0 -25 -24z" />
    <glyph glyph-name="uni090C" unicode="&#x90c;" horiz-adv-x="664" 
d="M622 42h-103q-15 0 -20.5 -5t-5.5 -18v-34q0 -13 5.5 -18t20.5 -5h157v-97h-201q-67 0 -94 23.5t-27 75.5v70q0 52 26.5 75t93.5 23h8v247h-55q-15 0 -20 -6t-5 -20v-151h-140v151q0 14 -5 20t-20 6h-30q-15 0 -20.5 -5.5t-5.5 -20.5v-232q0 -13 5.5 -18t20.5 -5h26v-98
h-70q-67 0 -94 23.5t-27 75.5v264q0 60 28.5 86.5t86.5 26.5h120q48 0 54 -44h4q5 44 53 44h94v63h-502v97h704v-97h-62v-497z" />
    <glyph glyph-name="uni090D" unicode="&#x90d;" horiz-adv-x="472" 
d="M492 636v-97h-62v-168q0 -52 -27 -75t-95 -23h-78v97h35q14 0 19.5 5t5.5 18v146h-106v-426q0 -13 5.5 -18t20.5 -5h58q21 0 21 23v102h140v-116q0 -52 -27 -75.5t-95 -23.5h-141q-67 0 -94 23.5t-27 75.5v440h-65v97h512zM326 672h-167q-70 0 -100 23t-30 70v79h117v-62
q0 -16 6 -22t23 -6h135q17 0 23 6t6 22v62h117v-79q0 -47 -30 -70t-100 -23z" />
    <glyph glyph-name="uni090E" unicode="&#x90e;" horiz-adv-x="472" 
d="M492 636v-97h-62v-168q0 -52 -27 -75t-95 -23h-78v97h35q14 0 19.5 5t5.5 18v146h-106v-426q0 -13 5.5 -18t20.5 -5h58q21 0 21 23v102h140v-116q0 -52 -27 -75.5t-95 -23.5h-141q-67 0 -94 23.5t-27 75.5v440h-65v97h311v22q0 22 -6.5 28.5t-28.5 6.5h-102q-88 0 -88 88
v59h139v-16q0 -22 6.5 -28t28.5 -6h102q88 0 88 -88v-66h62z" />
    <glyph glyph-name="uni090F" unicode="&#x90f;" horiz-adv-x="472" 
d="M492 636v-97h-62v-168q0 -52 -27 -75t-95 -23h-78v97h35q14 0 19.5 5t5.5 18v146h-106v-426q0 -13 5.5 -18t20.5 -5h58q21 0 21 23v102h140v-116q0 -52 -27 -75.5t-95 -23.5h-141q-67 0 -94 23.5t-27 75.5v440h-65v97h512z" />
    <glyph glyph-name="uni0910" unicode="&#x910;" horiz-adv-x="472" 
d="M492 636v-97h-62v-168q0 -52 -27 -75t-95 -23h-78v97h35q14 0 19.5 5t5.5 18v146h-106v-426q0 -13 5.5 -18t20.5 -5h58q21 0 21 23v102h140v-116q0 -52 -27 -75.5t-95 -23.5h-141q-67 0 -94 23.5t-27 75.5v440h-65v97h307q-47 40 -107 117l-61 81h167l139 -198h67z" />
    <glyph glyph-name="uni0911" unicode="&#x911;" horiz-adv-x="890" 
d="M872 858h117v-79q0 -47 -30 -70t-100 -23h-167q-70 0 -100 23t-30 70v79h117v-62q0 -16 6 -22t23 -6h135q17 0 23 6t6 22v62zM910 636v-97h-65v-539h-139v539h-89v-539h-140v265h-79v-81q0 -53 -27.5 -79.5t-93.5 -26.5h-111q-66 0 -93.5 26.5t-27.5 79.5v86h139v-72
q0 -23 26 -23h23q15 0 20.5 5t5.5 18v85q0 15 -6 21t-21 6h-43v96h43q15 0 21 6t6 21v86q0 14 -5.5 19t-20.5 5h-23q-14 0 -20 -5t-6 -19v-64h-139v79q0 53 27.5 79.5t93.5 26.5h111q66 0 93.5 -26.5t27.5 -79.5v-120q0 -43 -34 -52h113v274h433z" />
    <glyph glyph-name="uni0912" unicode="&#x912;" horiz-adv-x="890" 
d="M910 636v-97h-65v-539h-139v539h-89v-539h-140v265h-79v-81q0 -53 -27.5 -79.5t-93.5 -26.5h-111q-66 0 -93.5 26.5t-27.5 79.5v86h139v-72q0 -23 26 -23h23q15 0 20.5 5t5.5 18v85q0 15 -6 21t-21 6h-43v96h43q15 0 21 6t6 21v86q0 14 -5.5 19t-20.5 5h-23q-14 0 -20 -5
t-6 -19v-64h-139v79q0 53 27.5 79.5t93.5 26.5h111q66 0 93.5 -26.5t27.5 -79.5v-120q0 -43 -34 -52h113v274h229v22q0 22 -6.5 28.5t-28.5 6.5h-102q-88 0 -88 88v59h139v-16q0 -22 6.5 -28t28.5 -6h102q88 0 88 -88v-66h65z" />
    <glyph glyph-name="uni0913" unicode="&#x913;" horiz-adv-x="890" 
d="M910 636v-97h-65v-539h-139v539h-89v-539h-140v265h-79v-81q0 -53 -27.5 -79.5t-93.5 -26.5h-111q-66 0 -93.5 26.5t-27.5 79.5v86h139v-72q0 -23 26 -23h23q15 0 20.5 5t5.5 18v85q0 15 -6 21t-21 6h-43v96h43q15 0 21 6t6 21v86q0 14 -5.5 19t-20.5 5h-23q-14 0 -20 -5
t-6 -19v-64h-139v79q0 53 27.5 79.5t93.5 26.5h111q66 0 93.5 -26.5t27.5 -79.5v-120q0 -43 -34 -52h113v274h227q-47 40 -107 117l-61 81h167l139 -198h68z" />
    <glyph glyph-name="uni0914" unicode="&#x914;" horiz-adv-x="890" 
d="M910 636v-97h-65v-539h-139v539h-89v-539h-140v265h-79v-81q0 -53 -27.5 -79.5t-93.5 -26.5h-111q-66 0 -93.5 26.5t-27.5 79.5v86h139v-72q0 -23 26 -23h23q15 0 20.5 5t5.5 18v85q0 15 -6 21t-21 6h-43v96h43q15 0 21 6t6 21v86q0 14 -5.5 19t-20.5 5h-23q-14 0 -20 -5
t-6 -19v-64h-139v79q0 53 27.5 79.5t93.5 26.5h111q66 0 93.5 -26.5t27.5 -79.5v-120q0 -43 -34 -52h113v274h223q-49 30 -117 90l-124 108h167l43 -53q66 -80 100 -135h5q-21 36 -84 188h130l23 -198h67z" />
    <glyph glyph-name="uni0915" unicode="&#x915;" horiz-adv-x="642" 
d="M662 539h-271v-77q14 14 47 14h61q58 0 87 -27t29 -86v-186q0 -52 -27.5 -75.5t-94.5 -23.5h-61v90h18q14 0 19.5 5t5.5 18v162q0 15 -5.5 20.5t-19.5 5.5h-33q-14 0 -20 -6t-6 -21v-352h-140v92q-13 -14 -46 -14h-62q-58 0 -86.5 26.5t-28.5 86.5v186q0 52 27 75.5
t94 23.5h62v-90h-18q-15 0 -20.5 -5t-5.5 -18v-162q0 -15 5.5 -20.5t20.5 -5.5h32q14 0 20 6t6 21v337h-271v97h682v-97z" />
    <glyph glyph-name="uni0916" unicode="&#x916;" horiz-adv-x="827" 
d="M847 636v-97h-65v-539h-138v105q-14 -15 -48 -15h-59q-58 0 -86.5 26.5t-28.5 86.5v170q0 52 27.5 75.5t94.5 23.5h62v-90h-20q-14 0 -19.5 -5t-5.5 -18v-146q0 -15 5.5 -20.5t19.5 -5.5h30q28 0 28 29v323h-272q7 -8 7 -25v-175q0 -56 -28.5 -80t-95.5 -24h-73v-104
q0 -19 7 -26t26 -7h238v-98h-261q-79 0 -114.5 24.5t-35.5 79.5v368h140v-140h24q19 0 26 7t7 26v141q0 20 -6.5 26.5t-26.5 6.5h-226v97h867z" />
    <glyph glyph-name="uni0917" unicode="&#x917;" horiz-adv-x="662" 
d="M682 636v-97h-65v-539h-139v539h-88v-348q0 -61 -30.5 -87t-105.5 -26h-87q-75 0 -106 26t-31 87v163q0 55 35.5 79.5t114.5 24.5h71v81h-271v97h702zM197 175h27q14 0 20.5 5.5t6.5 20.5v160h-50q-19 0 -25 -5.5t-6 -25.5v-129q0 -15 6 -20.5t21 -5.5z" />
    <glyph glyph-name="uni0918" unicode="&#x918;" horiz-adv-x="497" 
d="M517 636v-97h-64v-539h-140v92q-14 -14 -44 -14h-90q-71 0 -104 26.5t-33 86.5v110q0 48 44 53v4q-44 7 -44 53v101q0 16 8 27h-70v97h537zM313 209v330h-89q-26 0 -34 -6t-8 -27v-75q0 -15 5.5 -20.5t20.5 -5.5h43v-97h-43q-15 0 -20.5 -5.5t-5.5 -20.5v-81
q0 -15 5.5 -20.5t20.5 -5.5h71q19 0 26.5 7.5t7.5 26.5z" />
    <glyph glyph-name="uni0919" unicode="&#x919;" horiz-adv-x="496" 
d="M-20 636h536v-97h-147v-153h-162q-14 0 -19.5 -5t-5.5 -18v-37q0 -14 5.5 -19t19.5 -5h60q67 0 94 -23t27 -75v-105q0 -52 -27 -75.5t-94 -23.5h-111q-67 0 -94.5 23.5t-27.5 75.5v62h140v-48q0 -23 21 -23h28q15 0 20.5 5t5.5 18v76q0 14 -5.5 19t-20.5 5h-59
q-68 0 -95 23t-27 75v66q0 52 27 75.5t95 23.5h66v63h-250v97zM386 291v116h107v-116h-107z" />
    <glyph glyph-name="uni091A" unicode="&#x91a;" horiz-adv-x="465" 
d="M485 636v-97h-64v-539h-140v92q-14 -14 -47 -14h-67q-58 0 -87 27t-29 86v143q0 29 14 45h-72v97h252v-97h-20q-21 0 -27.5 -4.5t-6.5 -21.5v-152q0 -15 5.5 -20.5t19.5 -5.5h39q14 0 20 6t6 21v337h-302v97h506z" />
    <glyph glyph-name="uni091B" unicode="&#x91b;" horiz-adv-x="641" 
d="M661 539h-155v-64q47 -5 70 -28t23 -70v-264q0 -60 -33 -86.5t-104 -26.5h-285q-71 0 -104 26.5t-33 86.5v146q0 47 44 53v4q-44 5 -44 53v145q0 16 6 25h-66v97h681v-97zM375 539h-166q-17 -1 -23 -7.5t-6 -25.5v-117q0 -15 5.5 -20.5t19.5 -5.5h35v-97h-35
q-14 0 -19.5 -5.5t-5.5 -20.5v-116q0 -15 5.5 -20.5t19.5 -5.5h230q14 0 19.5 5.5t5.5 20.5v245q0 13 -5.5 18t-19.5 5h-17q-26 0 -26 -23v-67q0 -14 6 -19t20 -5h14v-83h-40q-54 0 -82 22.5t-28 76.5v83q0 47 23 70t70 28v64z" />
    <glyph glyph-name="uni091C" unicode="&#x91c;" horiz-adv-x="657" 
d="M677 636v-97h-65v-539h-140v379h-75v-188q0 -61 -30.5 -87t-105.5 -26h-83q-75 0 -105.5 26t-30.5 87v285h139v-275q0 -15 6.5 -20.5t20.5 -5.5h23q14 0 20.5 5.5t6.5 20.5v275h214v63h-492v97h697z" />
    <glyph glyph-name="uni091D" unicode="&#x91d;" horiz-adv-x="658" 
d="M678 636v-97h-64v-539h-140v221h-84q2 -14 2 -21v-78q0 -52 -27 -75.5t-94 -23.5h-96v-66h-140v216h140v-60h52q15 0 20.5 5t5.5 19v61q0 13 -5.5 18t-20.5 5h-70q-68 0 -95 23.5t-27 75.5v57q0 52 27 75.5t95 23.5h81v63h-272v97h712zM475 311v228h-98v-153h-177
q-14 0 -19.5 -5t-5.5 -18v-29q0 -13 5.5 -18t19.5 -5h275z" />
    <glyph glyph-name="uni091E" unicode="&#x91e;" horiz-adv-x="646" 
d="M666 636v-97h-64v-539h-140v236h-85v-45q0 -61 -30.5 -87t-105.5 -26h-82q-74 0 -105 26t-31 87v74h140v-64q0 -15 6 -20.5t21 -5.5h21q14 0 20.5 5.5t6.5 20.5v155q0 13 -5.5 18t-20.5 5h-97v97h141q66 0 93.5 -26.5t27.5 -79.5v-38h85v207h-482v97h686z" />
    <glyph glyph-name="uni091F" unicode="&#x91f;" horiz-adv-x="442" 
d="M398 379h-187q-14 0 -20.5 -5.5t-6.5 -20.5v-230q0 -15 6.5 -20.5t20.5 -5.5h23q14 0 20.5 5.5t6.5 20.5v103h139v-113q0 -61 -30.5 -87t-105.5 -26h-83q-75 0 -105.5 26t-30.5 87v264q0 52 27 75.5t94 23.5h93v63h-279v97h482v-97h-64v-160z" />
    <glyph glyph-name="uni0920" unicode="&#x920;" horiz-adv-x="452" 
d="M472 539h-175v-64q61 -4 87 -30t26 -82v-250q0 -61 -31 -87t-106 -26h-92q-75 0 -105.5 26t-30.5 87v250q0 56 25.5 82t86.5 30v64h-177v97h492v-97zM270 123v230q0 15 -6.5 20.5t-20.5 5.5h-32q-14 0 -20.5 -5.5t-6.5 -20.5v-230q0 -15 6.5 -20.5t20.5 -5.5h32
q14 0 20.5 5.5t6.5 20.5z" />
    <glyph glyph-name="uni0921" unicode="&#x921;" horiz-adv-x="434" 
d="M369 386h-162q-14 0 -19.5 -5t-5.5 -18v-37q0 -14 5.5 -19t19.5 -5h60q67 0 94 -23t27 -75v-105q0 -52 -27 -75.5t-94 -23.5h-111q-67 0 -94.5 23.5t-27.5 75.5v62h140v-48q0 -23 21 -23h28q15 0 20.5 5t5.5 18v76q0 14 -5.5 19t-20.5 5h-59q-68 0 -95 23t-27 75v66
q0 52 27 75.5t95 23.5h66v63h-250v97h474v-97h-85v-153z" />
    <glyph glyph-name="uni0922" unicode="&#x922;" horiz-adv-x="475" 
d="M398 379h-187q-14 0 -20.5 -5.5t-6.5 -20.5v-230q0 -15 6.5 -20.5t20.5 -5.5h60q14 0 20.5 5.5t6.5 20.5v52q0 15 -6.5 20.5t-20.5 5.5h-43v97h73q75 0 106 -26t31 -87v-72q0 -61 -31 -87t-106 -26h-120q-75 0 -105.5 26t-30.5 87v264q0 52 27 75.5t94 23.5h93v63h-279
v97h515v-97h-97v-160z" />
    <glyph glyph-name="uni0923" unicode="&#x923;" horiz-adv-x="664" 
d="M684 636v-97h-65v-539h-140v539h-82v-348q0 -61 -30.5 -87t-105.5 -26h-83q-75 0 -105.5 26t-30.5 87v348h-62v97h704zM258 201v338h-77v-338q0 -15 6.5 -20.5t20.5 -5.5h23q14 0 20.5 5.5t6.5 20.5z" />
    <glyph glyph-name="uni0924" unicode="&#x924;" horiz-adv-x="457" 
d="M477 636v-97h-64v-539h-140v379h-66q-15 0 -20.5 -5t-5.5 -18v-235q0 -13 5.5 -18t20.5 -5h18v-98h-62q-67 0 -94 23.5t-27 75.5v278q0 52 27 75.5t94 23.5h110v63h-293v97h497z" />
    <glyph glyph-name="uni0925" unicode="&#x925;" horiz-adv-x="585" 
d="M605 636v-97h-65v-539h-139v92q-14 -14 -44 -14h-172q-71 0 -103.5 26.5t-32.5 86.5v197h119q15 0 20.5 5t5.5 18v110q0 13 -5.5 18t-20.5 5h-6q-14 0 -19.5 -5t-5.5 -18v-39h-79v61q0 51 27.5 74.5t86.5 23.5h47q59 0 86.5 -23.5t27.5 -74.5v-146q0 -53 -27.5 -79.5
t-93.5 -26.5h-23v-90q0 -15 5.5 -20.5t19.5 -5.5h153q19 0 26.5 7.5t7.5 26.5v330l-1 97h205z" />
    <glyph glyph-name="uni0926" unicode="&#x926;" horiz-adv-x="436" 
d="M391 379h-190q-14 0 -20.5 -5.5t-6.5 -20.5v-152q0 -15 6 -20.5t20 -5.5h28q14 0 20 6t6 21v82h140v-284h-140v92q-14 -14 -47 -14h-36q-75 0 -105.5 26t-30.5 87v186q0 52 27 75.5t94 23.5h96v63h-282v97h486v-97h-65v-160z" />
    <glyph glyph-name="uni0927" unicode="&#x927;" horiz-adv-x="557" 
d="M582 636v-97h-64v-539h-140v92q-14 -14 -44 -14h-163q-59 0 -86.5 23.5t-27.5 74.5v114q0 48 44 53v4q-44 6 -44 54v142q0 51 27.5 74.5t86.5 23.5h48q59 0 87 -23.5t28 -74.5v-61h-79v39q0 13 -5.5 18t-19.5 5h-8q-15 0 -20.5 -5t-5.5 -18v-101q0 -15 5.5 -20.5
t20.5 -5.5h68v-97h-68q-15 0 -20.5 -5.5t-5.5 -20.5v-70q0 -15 5.5 -20.5t20.5 -5.5h122q20 0 27 7.5t7 26.5v330l-1 97h205z" />
    <glyph glyph-name="uni0928" unicode="&#x928;" horiz-adv-x="638" 
d="M658 636v-97h-64v-539h-140v379h-68v-188q0 -61 -31 -87t-106 -26h-81q-75 0 -105.5 26t-30.5 87v186q0 52 27 75.5t94 23.5h301v63h-474v97h678zM246 201v178h-49q-15 0 -20.5 -5t-5.5 -18v-155q0 -15 6.5 -20.5t20.5 -5.5h21q15 0 21 5.5t6 20.5z" />
    <glyph glyph-name="uni0928093C" unicode="&#x929;" horiz-adv-x="638" 
d="M658 636v-97h-64v-539h-140v379h-68v-188q0 -61 -31 -87t-106 -26h-81q-75 0 -105.5 26t-30.5 87v186q0 52 27 75.5t94 23.5h301v63h-474v97h678zM246 201v178h-49q-15 0 -20.5 -5t-5.5 -18v-155q0 -15 6.5 -20.5t20.5 -5.5h21q15 0 21 5.5t6 20.5zM272 -110v116h107
v-116h-107z" />
    <glyph glyph-name="uni092A" unicode="&#x92a;" horiz-adv-x="452" 
d="M472 636v-97h-64v-539h-140v92q-13 -14 -46 -14h-62q-58 0 -86.5 26.5t-28.5 86.5v348h-65v97h492zM268 202v337h-84v-338q0 -15 5.5 -20.5t20.5 -5.5h32q14 0 20 6t6 21z" />
    <glyph glyph-name="uni092B" unicode="&#x92b;" horiz-adv-x="657" 
d="M677 539h-271v-77q14 14 47 14h61q58 0 87 -27t29 -86v-186q0 -52 -27.5 -75.5t-94.5 -23.5h-61v90h17q15 0 20.5 5t5.5 18v162q0 15 -5.5 20.5t-20.5 5.5h-32q-14 0 -20 -6t-6 -21v-352h-140v92q-14 -14 -47 -14h-61q-58 0 -87 27t-29 86v348h-62v97h697v-97zM266 202
v337h-84v-338q0 -15 5.5 -20.5t20.5 -5.5h32q14 0 20 6t6 21z" />
    <glyph glyph-name="uni092C" unicode="&#x92c;" horiz-adv-x="519" 
d="M539 636v-97h-64v-539h-140v84q-13 -6 -35 -6h-149q-58 0 -86.5 26.5t-28.5 86.5v186q0 52 27.5 75.5t94.5 23.5h136v-90h-74l52 -78l69 -96q-6 24 -6 113v214h-355v97h559zM176 201q0 -15 5.5 -20.5t19.5 -5.5h97l-64 89q-29 49 -58 87v-150z" />
    <glyph glyph-name="uni092D" unicode="&#x92d;" horiz-adv-x="674" 
d="M694 636v-97h-65v-539h-139v332h-89v-141q0 -61 -30.5 -87t-105.5 -26h-87q-75 0 -105.5 26t-30.5 87v139q0 52 27 75t94 23h99v91q0 14 -6 19t-20 5h-21q-14 0 -19.5 -5t-5.5 -19v-35h-140v50q0 53 28 79.5t94 26.5h108q66 0 93.5 -26.5t27.5 -79.5v-106h89v208h204z
M262 201v131h-55q-15 0 -20.5 -5t-5.5 -19v-107q0 -15 6.5 -20.5t20.5 -5.5h27q14 0 20.5 5.5t6.5 20.5z" />
    <glyph glyph-name="uni092E" unicode="&#x92e;" horiz-adv-x="664" 
d="M684 636v-97h-65v-539h-139v335h-89v-135q0 -61 -30.5 -87t-105.5 -26h-87q-75 0 -105.5 26t-30.5 87v133q0 52 27 75.5t94 23.5h99v107h-272v97h704zM252 210v125h-68q-14 0 -19.5 -5t-5.5 -18v-102q0 -15 6 -20.5t20 -5.5h40q14 0 20.5 5.5t6.5 20.5zM480 432v107h-89
v-107h89z" />
    <glyph glyph-name="uni092F" unicode="&#x92f;" horiz-adv-x="568" 
d="M588 636v-97h-64v-539h-140v92q-14 -14 -44 -14h-165q-71 0 -103.5 26.5t-32.5 86.5v196h111q14 0 19.5 5t5.5 18v96q0 20 -7 26.5t-30 6.5h-164v97h614zM384 209v330h-86q12 -13 12 -39v-105q0 -53 -26 -79t-93 -26h-13v-89q0 -15 5.5 -20.5t20.5 -5.5h146q20 0 27 7.5
t7 26.5z" />
    <glyph glyph-name="uni0930" unicode="&#x930;" horiz-adv-x="430" 
d="M450 636v-97h-66q6 -9 6 -25v-149q0 -55 -35.5 -79.5t-113.5 -24.5h-60v-148q0 -13 5.5 -18t20.5 -5h22q21 0 21 23v93h140v-107q0 -52 -27.5 -75.5t-94.5 -23.5h-105q-67 0 -94 23.5t-27 75.5v365h139v-107h37q19 0 26 7t7 26v116q0 20 -6.5 26.5t-26.5 6.5h-238v97h470
z" />
    <glyph glyph-name="uni0930093C" unicode="&#x931;" horiz-adv-x="430" 
d="M450 636v-97h-66q6 -9 6 -25v-149q0 -55 -35.5 -79.5t-113.5 -24.5h-60v-148q0 -13 5.5 -18t20.5 -5h22q21 0 21 23v93h140v-107q0 -52 -27.5 -75.5t-94.5 -23.5h-105q-67 0 -94 23.5t-27 75.5v365h139v-107h37q19 0 26 7t7 26v116q0 20 -6.5 26.5t-26.5 6.5h-238v97h470
zM150 -183v116h107v-116h-107z" />
    <glyph glyph-name="uni0932" unicode="&#x932;" horiz-adv-x="670" 
d="M690 636v-97h-62v-539h-140v379h-52q-15 0 -20 -6t-5 -20v-179h-140v179q0 14 -5 20t-20 6h-30q-15 0 -20.5 -5.5t-5.5 -20.5v-232q0 -13 5.5 -18t20.5 -5h53v-98h-97q-67 0 -94 23.5t-27 75.5v264q0 60 28.5 86.5t86.5 26.5h120q48 0 54 -44h4q5 44 53 44h91v63h-508v97
h710z" />
    <glyph glyph-name="uni0933" unicode="&#x933;" horiz-adv-x="668" 
d="M533 475q96 -8 96 -112v-172q0 -60 -28.5 -86.5t-86.5 -26.5h-110q-62 0 -67 44h-4q-6 -44 -68 -44h-111q-58 0 -86.5 26.5t-28.5 86.5v172q0 60 28.5 86.5t86.5 26.5h111q62 0 68 -44h4q5 40 57 44v63h-420v97h720v-97h-161v-64zM268 201v152q0 14 -5.5 20t-20.5 6h-38
q-15 0 -20.5 -5.5t-5.5 -20.5v-152q0 -15 5.5 -20.5t20.5 -5.5h38q15 0 20.5 6t5.5 20zM490 201v152q0 15 -5.5 20.5t-20.5 5.5h-38q-15 0 -20.5 -6t-5.5 -20v-152q0 -14 5.5 -20t20.5 -6h38q15 0 20.5 5.5t5.5 20.5z" />
    <glyph glyph-name="uni0933093C" unicode="&#x934;" horiz-adv-x="668" 
d="M533 475q96 -8 96 -112v-172q0 -60 -28.5 -86.5t-86.5 -26.5h-110q-62 0 -67 44h-4q-6 -44 -68 -44h-111q-58 0 -86.5 26.5t-28.5 86.5v172q0 60 28.5 86.5t86.5 26.5h111q62 0 68 -44h4q5 40 57 44v63h-420v97h720v-97h-161v-64zM268 201v152q0 14 -5.5 20t-20.5 6h-38
q-15 0 -20.5 -5.5t-5.5 -20.5v-152q0 -15 5.5 -20.5t20.5 -5.5h38q15 0 20.5 6t5.5 20zM490 201v152q0 15 -5.5 20.5t-20.5 5.5h-38q-15 0 -20.5 -6t-5.5 -20v-152q0 -14 5.5 -20t20.5 -6h38q15 0 20.5 5.5t5.5 20.5zM75 -104v116h107v-116h-107z" />
    <glyph glyph-name="uni0935" unicode="&#x935;" horiz-adv-x="450" 
d="M470 636v-97h-64v-539h-140v92q-14 -14 -47 -14h-61q-58 0 -87 27t-29 86v186q0 52 27.5 75.5t94.5 23.5h61v-97h-17q-15 0 -20.5 -5t-5.5 -18v-155q0 -15 5.5 -20.5t20.5 -5.5h32q14 0 20 6t6 21v337h-286v97h490z" />
    <glyph glyph-name="uni0936" unicode="&#x936;" horiz-adv-x="667" 
d="M483 636h204v-97h-65v-539h-139v636zM178 640h105q66 0 93.5 -26.5t27.5 -79.5v-186q0 -55 -35.5 -79.5t-113.5 -24.5h-60v-131q0 -13 5.5 -18t20.5 -5h22q21 0 21 23v76h140v-90q0 -52 -27.5 -75.5t-94.5 -23.5h-105q-67 0 -94 23.5t-27 75.5v297h139v-56h37q19 0 26 7
t7 26v147q0 13 -5.5 18t-20.5 5h-22q-21 0 -21 -23v-60h-140v74q0 53 28 79.5t94 26.5z" />
    <glyph glyph-name="uni0937" unicode="&#x937;" horiz-adv-x="499" 
d="M519 636v-97h-64v-539h-140v92q-14 -14 -47 -14h-108q-58 0 -86.5 26.5t-28.5 86.5v348h-65v97h539zM210 175h79q20 0 24 14l-89 162q-26 46 -49 109q9 -50 9 -121v-138q0 -15 5.5 -20.5t20.5 -5.5zM315 409v130h-122l81 -145q30 -54 50 -112q-9 52 -9 127z" />
    <glyph glyph-name="uni0938" unicode="&#x938;" horiz-adv-x="647" 
d="M667 636v-97h-64v-539h-140v261h-282v-148q0 -13 5.5 -18t20.5 -5h22q21 0 21 23v93h140v-107q0 -52 -27.5 -75.5t-94.5 -23.5h-105q-67 0 -94 23.5t-27 75.5v365h139v-107h37q19 0 26 7t7 26v116q0 20 -6.5 26.5t-26.5 6.5h-238v97h687zM463 357v182h-79q6 -9 6 -25
v-121q0 -22 -11 -36h84z" />
    <glyph glyph-name="uni0939" unicode="&#x939;" horiz-adv-x="451" 
d="M406 379h-196q-26 0 -26 -22v-19q0 -13 6 -17.5t20 -4.5h63q75 0 105.5 -26t30.5 -87v-39h-140v29q0 15 -6 20.5t-20 5.5h-33q-15 0 -20.5 -5.5t-5.5 -20.5v-70q0 -15 5.5 -20.5t20.5 -5.5h199v-97h-228q-71 0 -103.5 26.5t-32.5 86.5v99q0 47 44 53v4q-44 5 -44 53v55
q0 52 27 75.5t94 23.5h100v63h-286v97h494v-97h-68v-160z" />
    <glyph glyph-name="uni093C" unicode="&#x93c;" horiz-adv-x="0" 
d="M-166 -40h107v-116h-107v116z" />
    <glyph glyph-name="uni093D" unicode="&#x93d;" horiz-adv-x="426" 
d="M360 546h-151q-14 0 -19.5 -5t-5.5 -18v-110q0 -13 5.5 -18t19.5 -5h60q67 0 94 -23.5t27 -75.5v-192q0 -52 -27 -75.5t-94 -23.5h-111q-67 0 -94.5 23.5t-27.5 75.5v62h140v-48q0 -23 21 -23h28q15 0 20.5 5t5.5 18v164q0 13 -5.5 18t-20.5 5h-59q-68 0 -95 23.5
t-27 75.5v138q0 52 27 75.5t95 23.5h194v-90z" />
    <glyph glyph-name="uni093E" unicode="&#x93e;" 
d="M249 636v-97h-65v-539h-139v539h-65v97h269z" />
    <glyph glyph-name="uni093F" unicode="&#x93f;" 
d="M154 845h358q109 0 109 -103v-69h-139v40q0 22 -6.5 28.5t-28.5 6.5h-228q-22 0 -28.5 -6.5t-6.5 -28.5v-77h65v-97h-65v-539h-139v539h-65v97h65v106q0 103 109 103z" />
    <glyph glyph-name="uni0940" unicode="&#x940;" 
d="M249 636v-97h-65v-539h-139v539h-65v97h65v77q0 22 -6.5 28.5t-28.5 6.5h-41q-22 0 -28.5 -6.5t-6.5 -28.5v-40h-139v69q0 103 109 103h171q109 0 109 -103v-106h65z" />
    <glyph glyph-name="uni0941" unicode="&#x941;" horiz-adv-x="0" 
d="M-75 5q58 0 86.5 -26.5t28.5 -85.5v-49q0 -59 -28.5 -85.5t-86.5 -26.5h-128q-72 0 -110 22t-71 79l-32 55h164l22 -35q15 -24 48 -24h51q19 0 25 5.5t6 25.5v17q0 19 -6 25t-25 6h-53v97h109z" />
    <glyph glyph-name="uni0942" unicode="&#x942;" horiz-adv-x="0" 
d="M-62 6q70 0 107 -22.5t71 -77.5l107 -173h-164l-95 150q-15 26 -46 26h-34q-20 0 -25.5 -5.5t-5.5 -25.5v-17q0 -19 5.5 -25t25.5 -6h50v-98h-105q-58 0 -86.5 26.5t-28.5 86.5v48q0 60 28.5 86.5t86.5 26.5h109z" />
    <glyph glyph-name="uni0943" unicode="&#x943;" horiz-adv-x="0" 
d="M-45 6v-97h-62q-19 0 -25 -5.5t-6 -25.5v-17q0 -19 6 -25t25 -6h96v-98h-151q-58 0 -86.5 26.5t-28.5 86.5v48q0 60 28.5 86.5t86.5 26.5h117z" />
    <glyph glyph-name="uni0944" unicode="&#x944;" horiz-adv-x="0" 
d="M-265 -86q0 92 109 92h111v-97h-55q-14 0 -19.5 -5.5t-5.5 -20.5v-28q0 -15 5.5 -20.5t19.5 -5.5h47v-97h-47q-14 0 -19.5 -5.5t-5.5 -20.5v-28q0 -15 5.5 -20.5t19.5 -5.5h104v-96h-132q-71 0 -104 26t-33 86v57q0 48 44 53v4q-44 6 -44 53v79z" />
    <glyph glyph-name="uni0945" unicode="&#x945;" horiz-adv-x="0" 
d="M-329 858h117v-62q0 -16 6 -22t23 -6h135q17 0 23 6t6 22v62h117v-79q0 -47 -30 -70t-100 -23h-167q-70 0 -100 23t-30 70v79z" />
    <glyph glyph-name="uni0946" unicode="&#x946;" horiz-adv-x="0" 
d="M-409 840h139v-16q0 -22 6.5 -28t28.5 -6h102q88 0 88 -88v-103h-139v59q0 22 -6.5 28.5t-28.5 6.5h-102q-88 0 -88 88v59z" />
    <glyph glyph-name="uni0947" unicode="&#x947;" horiz-adv-x="0" 
d="M-192 834l143 -204h-135q-51 41 -114 123l-61 81h167z" />
    <glyph glyph-name="uni0948" unicode="&#x948;" horiz-adv-x="0" 
d="M-435 834h167l43 -53q66 -80 100 -135h5q-21 36 -84 188h130l24 -203h-136q-52 31 -125 95z" />
    <glyph glyph-name="uni0949" unicode="&#x949;" 
d="M211 858h117v-79q0 -47 -30 -70t-100 -23h-167q-70 0 -100 23t-30 70v79h117v-62q0 -16 6 -22t23 -6h135q17 0 23 6t6 22v62zM-20 539v97h269v-97h-65v-539h-139v539h-65z" />
    <glyph glyph-name="uni094A" unicode="&#x94a;" 
d="M249 636v-97h-65v-539h-139v539h-65v97h65v22q0 22 -6.5 28.5t-28.5 6.5h-102q-88 0 -88 88v59h139v-16q0 -22 6.5 -28t28.5 -6h102q88 0 88 -88v-66h65z" />
    <glyph glyph-name="uni094B" unicode="&#x94b;" 
d="M249 636v-97h-65v-539h-139v539h-65v97h61q-47 40 -107 117l-61 81h167l139 -198h70z" />
    <glyph glyph-name="uni094C" unicode="&#x94c;" 
d="M249 636v-97h-65v-539h-139v539h-65v97h59q-49 30 -117 90l-124 108h167l43 -53q66 -80 100 -135h5q-21 36 -84 188h130l23 -198h67z" />
    <glyph glyph-name="uni094D" unicode="&#x94d;" horiz-adv-x="0" 
d="M-57 -61l121 -144h-139l-121 144h139z" />
    <glyph glyph-name="uni0950" unicode="&#x950;" horiz-adv-x="851" 
d="M680 368q66 0 94 -26t28 -79v-157q0 -53 -28 -79.5t-94 -26.5h-104q-67 0 -94.5 26.5t-27.5 79.5v100h140v-86q0 -13 5.5 -18t19.5 -5h17q15 0 20.5 5t5.5 18v127q0 13 -5.5 18t-20.5 5h-249q11 -13 11 -39v-125q0 -53 -28 -79.5t-94 -26.5h-110q-66 0 -94 26.5t-28 79.5
v112h140v-98q0 -13 5.5 -18t19.5 -5h24q14 0 19.5 5t5.5 18v123q0 15 -6 21t-20 6h-44v97h44q14 0 20 6t6 21v122q0 13 -5.5 18t-19.5 5h-24q-14 0 -19.5 -5t-5.5 -18v-90h-140v104q0 53 28 79.5t94 26.5h110q66 0 94 -26.5t28 -79.5v-6h156q16 0 22.5 6t6.5 22v62h138v-81
q0 -53 -28 -79.5t-94 -26.5h-201v-20q0 -28 -11 -39h293zM534 686v-111h-106v111h106z" />
    <glyph glyph-name="uni0915093C" unicode="&#x958;" horiz-adv-x="642" 
d="M662 539h-271v-77q14 14 47 14h61q58 0 87 -27t29 -86v-186q0 -52 -27.5 -75.5t-94.5 -23.5h-61v90h18q14 0 19.5 5t5.5 18v162q0 15 -5.5 20.5t-19.5 5.5h-33q-14 0 -20 -6t-6 -21v-352h-140v92q-13 -14 -46 -14h-62q-58 0 -86.5 26.5t-28.5 86.5v186q0 52 27 75.5
t94 23.5h62v-90h-18q-15 0 -20.5 -5t-5.5 -18v-162q0 -15 5.5 -20.5t20.5 -5.5h32q14 0 20 6t6 21v337h-271v97h682v-97zM77 -107v116h107v-116h-107z" />
    <glyph glyph-name="uni0916093C" unicode="&#x959;" horiz-adv-x="827" 
d="M847 636v-97h-65v-539h-138v105q-14 -15 -48 -15h-59q-58 0 -86.5 26.5t-28.5 86.5v170q0 52 27.5 75.5t94.5 23.5h62v-90h-20q-14 0 -19.5 -5t-5.5 -18v-146q0 -15 5.5 -20.5t19.5 -5.5h30q28 0 28 29v323h-272q7 -8 7 -25v-175q0 -56 -28.5 -80t-95.5 -24h-73v-104
q0 -19 7 -26t26 -7h238v-98h-261q-79 0 -114.5 24.5t-35.5 79.5v368h140v-140h24q19 0 26 7t7 26v141q0 20 -6.5 26.5t-26.5 6.5h-226v97h867zM150 -168v116h107v-116h-107z" />
    <glyph glyph-name="uni0917093C" unicode="&#x95a;" horiz-adv-x="662" 
d="M682 636v-97h-65v-539h-139v539h-88v-348q0 -61 -30.5 -87t-105.5 -26h-87q-75 0 -106 26t-31 87v163q0 55 35.5 79.5t114.5 24.5h71v81h-271v97h702zM197 175h27q14 0 20.5 5.5t6.5 20.5v160h-50q-19 0 -25 -5.5t-6 -25.5v-129q0 -15 6 -20.5t21 -5.5zM155 -108v116h107
v-116h-107z" />
    <glyph glyph-name="uni091C093C" unicode="&#x95b;" horiz-adv-x="657" 
d="M677 636v-97h-65v-539h-140v379h-75v-188q0 -61 -30.5 -87t-105.5 -26h-83q-75 0 -105.5 26t-30.5 87v285h139v-275q0 -15 6.5 -20.5t20.5 -5.5h23q14 0 20.5 5.5t6.5 20.5v275h214v63h-492v97h697zM170 -107v116h107v-116h-107z" />
    <glyph glyph-name="uni0921093C" unicode="&#x95c;" horiz-adv-x="434" 
d="M369 386h-162q-14 0 -19.5 -5t-5.5 -18v-37q0 -14 5.5 -19t19.5 -5h60q67 0 94 -23t27 -75v-105q0 -52 -27 -75.5t-94 -23.5h-111q-67 0 -94.5 23.5t-27.5 75.5v62h140v-48q0 -23 21 -23h28q15 0 20.5 5t5.5 18v76q0 14 -5.5 19t-20.5 5h-59q-68 0 -95 23t-27 75v66
q0 52 27 75.5t95 23.5h66v63h-250v97h474v-97h-85v-153zM157 -177v116h107v-116h-107z" />
    <glyph glyph-name="uni0922093C" unicode="&#x95d;" horiz-adv-x="475" 
d="M398 379h-187q-14 0 -20.5 -5.5t-6.5 -20.5v-230q0 -15 6.5 -20.5t20.5 -5.5h60q14 0 20.5 5.5t6.5 20.5v52q0 15 -6.5 20.5t-20.5 5.5h-43v97h73q75 0 106 -26t31 -87v-72q0 -61 -31 -87t-106 -26h-120q-75 0 -105.5 26t-30.5 87v264q0 52 27 75.5t94 23.5h93v63h-279
v97h515v-97h-97v-160zM188 -169v116h107v-116h-107z" />
    <glyph glyph-name="uni092B093C" unicode="&#x95e;" horiz-adv-x="657" 
d="M677 539h-271v-77q14 14 47 14h61q58 0 87 -27t29 -86v-186q0 -52 -27.5 -75.5t-94.5 -23.5h-61v90h17q15 0 20.5 5t5.5 18v162q0 15 -5.5 20.5t-20.5 5.5h-32q-14 0 -20 -6t-6 -21v-352h-140v92q-14 -14 -47 -14h-61q-58 0 -87 27t-29 86v348h-62v97h697v-97zM266 202
v337h-84v-338q0 -15 5.5 -20.5t20.5 -5.5h32q14 0 20 6t6 21zM90 -116v116h107v-116h-107z" />
    <glyph glyph-name="uni092F093C" unicode="&#x95f;" horiz-adv-x="568" 
d="M588 636v-97h-64v-539h-140v92q-14 -14 -44 -14h-165q-71 0 -103.5 26.5t-32.5 86.5v196h111q14 0 19.5 5t5.5 18v96q0 20 -7 26.5t-30 6.5h-164v97h614zM384 209v330h-86q12 -13 12 -39v-105q0 -53 -26 -79t-93 -26h-13v-89q0 -15 5.5 -20.5t20.5 -5.5h146q20 0 27 7.5
t7 26.5zM189 -114v116h107v-116h-107z" />
    <glyph glyph-name="uni0960" unicode="&#x960;" horiz-adv-x="911" 
d="M472 539v-263h81q-11 14 -11 35v53q0 60 30.5 86t105.5 26h70q75 0 105.5 -26t30.5 -86v-64q0 -61 -30.5 -86.5t-105.5 -25.5h-42q-14 -1 -19 -6t-5 -20v-28q0 -15 5.5 -20.5t19.5 -5.5h45v-97h-45q-14 0 -19.5 -5.5t-5.5 -20.5v-28q0 -15 5.5 -20.5t19.5 -5.5h101v-97
h-130q-71 0 -103.5 26.5t-32.5 86.5v57q0 48 44 53v4q-44 5 -44 53v47q0 16 8 27h-78v-188h-139v188h-22l-114 -188h-159l142 235l-54 90q-18 29 -32.5 39.5t-42.5 10.5h-21v97h83q51 0 77.5 -14.5t49.5 -52.5l81 -129h12v263h-353v97h961v-97h-469zM682 364v-65
q0 -13 5.5 -18t18.5 -5h14q25 0 25 23v65q0 24 -25 24h-14q-14 0 -19 -5t-5 -19z" />
    <glyph glyph-name="uni0961" unicode="&#x961;" horiz-adv-x="664" 
d="M622 113h-55q-14 0 -19.5 -5.5t-5.5 -20.5v-27q0 -15 5.5 -20.5t19.5 -5.5h47v-97h-47q-14 0 -19.5 -5.5t-5.5 -20.5v-28q0 -15 5.5 -20.5t19.5 -5.5h103v-97h-132q-71 0 -103.5 26.5t-32.5 86.5v57q0 47 44 53v4q-44 5 -44 53v79q0 79 80 89v171h-55q-15 0 -20 -6
t-5 -20v-130h-140v130q0 14 -5 20t-20 6h-30q-15 0 -20.5 -5.5t-5.5 -20.5v-232q0 -13 5.5 -18t20.5 -5h26v-98h-70q-67 0 -94 23.5t-27 75.5v264q0 60 28.5 86.5t86.5 26.5h120q48 0 54 -44h4q5 44 53 44h94v63h-502v97h704v-97h-62v-426z" />
    <glyph glyph-name="uni0964" unicode="&#x964;" horiz-adv-x="384" 
d="M261 668v-700h-138v700h138z" />
    <glyph glyph-name="uni0965" unicode="&#x965;" horiz-adv-x="602" 
d="M479 668v-700h-138v700h138zM261 668v-700h-138v700h138z" />
    <glyph glyph-name="uni0966" unicode="&#x966;" horiz-adv-x="459" 
d="M275 130v376q0 25 -27 25h-37q-27 0 -27 -25v-376q0 -25 27 -25h37q27 0 27 25zM418 526v-415q0 -111 -126 -111h-124q-127 0 -127 111v415q0 110 127 110h124q126 0 126 -110z" />
    <glyph glyph-name="uni0967" unicode="&#x967;" horiz-adv-x="289" 
d="M245 636v-636h-143v531h-83v105h226z" />
    <glyph glyph-name="uni0968" unicode="&#x968;" horiz-adv-x="415" 
d="M167 506v-84h-143v104q0 110 126 110h108q128 0 128 -110v-81q0 -46 -13.5 -79.5t-43.5 -73.5l-128 -187h187v-105h-361v97l176 236q25 31 33.5 55t8.5 59v59q0 25 -27 25h-25q-26 0 -26 -25z" />
    <glyph glyph-name="uni0969" unicode="&#x969;" horiz-adv-x="431" 
d="M169 506v-75h-142v95q0 110 126 110h111q127 0 127 -110v-109q0 -74 -45 -93q45 -17 45 -86v-127q0 -111 -127 -111h-111q-126 0 -126 111v93h142v-74q0 -25 27 -25h27q27 0 27 25v118q0 14 -6 19.5t-21 5.5h-78v99h78q15 0 21 5.5t6 18.5v110q0 25 -27 25h-27
q-27 0 -27 -25z" />
    <glyph glyph-name="uni096A" unicode="&#x96a;" horiz-adv-x="452" 
d="M452 225v-106h-63v-119h-135v119h-245v124l217 393h144l-233 -411h117v125h135v-125h63z" />
    <glyph glyph-name="uni096B" unicode="&#x96b;" horiz-adv-x="445" 
d="M187 411h99q127 0 127 -110v-190q0 -111 -127 -111h-119q-127 0 -127 111v104h143v-85q0 -25 27 -25h35q27 0 27 25v151q0 25 -27 25h-199v330h360v-105h-219v-120z" />
    <glyph glyph-name="uni096C" unicode="&#x96c;" horiz-adv-x="451" 
d="M181 375h109q127 0 127 -110v-154q0 -111 -127 -111h-122q-127 0 -127 111v415q0 110 127 110h115q127 0 127 -110v-86h-140v66q0 25 -27 25h-36q-26 0 -26 -25v-131zM277 130v119q0 25 -27 25h-69v-144q0 -25 26 -25h43q27 0 27 25z" />
    <glyph glyph-name="uni096D" unicode="&#x96d;" horiz-adv-x="372" 
d="M367 636v-80l-185 -556h-147l180 524h-206v112h358z" />
    <glyph glyph-name="uni096E" unicode="&#x96e;" horiz-adv-x="457" 
d="M417 526v-110q0 -74 -45 -93q45 -18 45 -87v-125q0 -111 -126 -111h-125q-126 0 -126 111v125q0 69 44 87q-44 19 -44 93v110q0 110 126 110h125q126 0 126 -110zM280 129v122q0 14 -6 19.5t-21 5.5h-49q-15 0 -21 -5.5t-6 -19.5v-122q0 -14 6 -19.5t21 -5.5h49
q15 0 21 5.5t6 19.5zM280 392v116q0 13 -6 18.5t-21 5.5h-49q-15 0 -21 -5.5t-6 -18.5v-116q0 -13 6 -18.5t21 -5.5h49q15 0 21 5.5t6 18.5z" />
    <glyph glyph-name="uni096F" unicode="&#x96f;" horiz-adv-x="450" 
d="M160 636h122q127 0 127 -110v-415q0 -111 -127 -111h-116q-127 0 -127 111v82h139v-63q0 -25 27 -25h38q26 0 26 25v121h-109q-127 0 -127 110v165q0 110 127 110zM200 349h69v157q0 25 -26 25h-43q-27 0 -27 -25v-132q0 -14 6 -19.5t21 -5.5z" />
    <glyph glyph-name="uni0970" unicode="&#x970;" horiz-adv-x="384" 
d="M154 315q0 -60 37 -60q39 0 39 60q0 33 -9.5 46.5t-29 13.5t-28.5 -13.5t-9 -46.5zM53 315q0 69 37 105.5t101.5 36.5t102 -36.5t37.5 -105.5t-37.5 -105.5t-102 -36.5t-101.5 36.5t-37 105.5z" />
    <glyph glyph-name="uni0972" unicode="&#x972;" horiz-adv-x="639" 
d="M657 858h117v-79q0 -47 -30 -70t-100 -23h-167q-70 0 -100 23t-30 70v79h117v-62q0 -16 6 -22t23 -6h135q17 0 23 6t6 22v62zM681 636v-97h-64v-539h-140v265h-79v-81q0 -53 -27.5 -79.5t-93.5 -26.5h-111q-66 0 -93.5 26.5t-27.5 79.5v86h139v-72q0 -23 26 -23h23
q15 0 20.5 5t5.5 18v85q0 15 -6 21t-21 6h-43v96h43q15 0 21 6t6 21v86q0 14 -5.5 19t-20.5 5h-23q-14 0 -20 -5t-6 -19v-64h-139v79q0 53 27.5 79.5t93.5 26.5h111q66 0 93.5 -26.5t27.5 -79.5v-120q0 -43 -34 -52h113v274h204z" />
    <glyph glyph-name="uni200B" unicode="&#x200b;" horiz-adv-x="0" 
 />
    <glyph glyph-name="uni200C" unicode="&#x200c;" horiz-adv-x="0" 
d="M24 -230h-47v1041h47v-1041z" />
    <glyph glyph-name="uni200D" unicode="&#x200d;" horiz-adv-x="0" 
d="M24 -230h-47v865l-69 -73l-33 33l93 93l-95 95l33 33l95 -95l96 95l32 -32l-96 -96l96 -95l-33 -33l-72 75v-865z" />
    <glyph glyph-name="endash" unicode="&#x2013;" horiz-adv-x="536" 
d="M38 250v98h386v-98h-386z" />
    <glyph glyph-name="emdash" unicode="&#x2014;" horiz-adv-x="668" 
d="M32 250v98h598v-98h-598z" />
    <glyph glyph-name="quoteleft" unicode="&#x2018;" horiz-adv-x="220" 
d="M183 342h-146v81l105 213h41v-294z" />
    <glyph glyph-name="quoteright" unicode="&#x2019;" horiz-adv-x="220" 
d="M37 636h146v-80l-105 -214h-41v294z" />
    <glyph glyph-name="quotesinglbase" unicode="&#x201a;" horiz-adv-x="219" 
d="M37 148h145v-80l-100 -213h-45v293z" />
    <glyph glyph-name="quotedblleft" unicode="&#x201c;" horiz-adv-x="407" 
d="M182 342h-145v81l105 213h40v-294zM370 342h-145v81l105 213h40v-294z" />
    <glyph glyph-name="quotedblright" unicode="&#x201d;" horiz-adv-x="407" 
d="M225 636h145v-80l-105 -214h-40v294zM37 636h145v-80l-105 -214h-40v294z" />
    <glyph glyph-name="quotedblbase" unicode="&#x201e;" horiz-adv-x="407" 
d="M225 148h145v-80l-105 -213h-40v293zM37 148h145v-80l-105 -213h-40v293z" />
    <glyph glyph-name="dagger" unicode="&#x2020;" horiz-adv-x="419" 
d="M411 480v-98h-130v-491h-143v491h-129v98h129v156h143v-156h130z" />
    <glyph glyph-name="daggerdbl" unicode="&#x2021;" horiz-adv-x="446" 
d="M424 382h-130v-271h130v-98h-130v-156h-143v156h-129v98h129v271h-129v98h129v156h143v-156h130v-98z" />
    <glyph glyph-name="bullet" unicode="&#x2022;" horiz-adv-x="396" 
d="M56 321q0 59 42 100.5t100 41.5t100 -41.5t42 -100.5t-42 -100.5t-100 -41.5t-100 41.5t-42 100.5z" />
    <glyph glyph-name="ellipsis" unicode="&#x2026;" horiz-adv-x="677" 
d="M503 0v147h148v-147h-148zM274 0v147h148v-147h-148zM45 0v147h148v-147h-148z" />
    <glyph glyph-name="perthousand" unicode="&#x2030;" horiz-adv-x="1135" 
d="M993 108v150q0 12 -4.5 17t-17.5 5h-18q-13 0 -18 -5t-5 -17v-150q0 -12 5 -16.5t18 -4.5h18q13 0 17.5 4.5t4.5 16.5zM1109 275v-184q0 -91 -103 -91h-89q-102 0 -102 91v184q0 91 102 91h89q103 0 103 -91zM515 636h107l-336 -636h-105zM659 108v150q0 22 -23 22h-18
q-13 0 -17.5 -5t-4.5 -17v-150q0 -12 4.5 -16.5t17.5 -4.5h18q13 0 18 4.5t5 16.5zM205 378v150q0 12 -4.5 17t-17.5 5h-19q-13 0 -17.5 -5t-4.5 -17v-150q0 -12 4.5 -16.5t17.5 -4.5h19q13 0 17.5 4.5t4.5 16.5zM774 275v-184q0 -91 -103 -91h-88q-103 0 -103 91v184
q0 91 103 91h88q103 0 103 -91zM320 545v-184q0 -91 -102 -91h-89q-102 0 -102 91v184q0 91 102 91h89q102 0 102 -91z" />
    <glyph glyph-name="guilsinglleft" unicode="&#x2039;" horiz-adv-x="295" 
d="M137 99l-114 154l114 152h141l-112 -152l112 -154h-141z" />
    <glyph glyph-name="guilsinglright" unicode="&#x203a;" horiz-adv-x="296" 
d="M278 253l-113 -154h-142l113 154l-113 152h142z" />
    <glyph glyph-name="fraction" unicode="&#x2044;" horiz-adv-x="403" 
d="M283 701h121l-294 -784h-122z" />
    <glyph glyph-name="Euro" unicode="&#x20ac;" horiz-adv-x="472" 
d="M442 413h-143v100q0 25 -27 25h-41q-27 0 -27 -25v-90h70v-85h-70v-40h70v-84h-70v-91q0 -14 6 -19.5t21 -5.5h41q15 0 21 5.5t6 19.5v97h143v-110q0 -110 -126 -110h-128q-127 0 -127 110v104h-43v84h43v40h-43v85h43v103q0 110 127 110h128q126 0 126 -110v-113z" />
    <glyph glyph-name="uni20B9" unicode="&#x20b9;" horiz-adv-x="422" 
d="M379 636v-87h-75q8 -15 8 -50v-19h67v-87h-67v-53q0 -58 -28.5 -84.5t-96.5 -28.5l145 -227h-148l-144 227v97h107q14 0 19.5 5.5t5.5 20.5v43h-132v87h132v44q0 14 -6 19.5t-20 5.5h-106v87h339z" />
    <glyph glyph-name="trademark" unicode="&#x2122;" horiz-adv-x="691" 
d="M661 636v-329h-92v179l-43 -131h-78l-43 130v-178h-92v329h110l64 -185l64 185h110zM9 552v84h274v-84h-85v-245h-105v245h-84z" />
    <glyph glyph-name="uni2126" unicode="&#x2126;" horiz-adv-x="483" 
d="M469 105v-105h-204v105h8q20 0 20 32v369q0 25 -27 25h-48q-27 0 -27 -25v-369q0 -32 20 -32h7v-105h-204v105h68q-34 23 -34 78v343q0 110 127 110h134q126 0 126 -110v-343q0 -55 -33 -78h67z" />
    <glyph glyph-name="product" unicode="&#x220f;" horiz-adv-x="500" 
d="M62 636h393v-636h-143v538h-111v-427q0 -111 -126 -111h-72v107h32q15 0 21 5.5t6 18.5v505z" />
    <glyph glyph-name="minus" unicode="&#x2212;" horiz-adv-x="580" 
d="M18 264v106h437v-106h-437z" />
    <glyph glyph-name="uni2215" unicode="&#x2215;" horiz-adv-x="403" 
d="M283 701h121l-294 -784h-122z" />
    <glyph glyph-name="uni2219" unicode="&#x2219;" horiz-adv-x="219" 
d="M37 244v148h145v-148h-145z" />
    <glyph glyph-name="infinity" unicode="&#x221e;" horiz-adv-x="601" 
d="M418 517h50q126 0 126 -109v-120q0 -110 -126 -110h-34q-45 0 -70 14q-26 14 -64 68q-26 -52 -53 -67t-82 -15h-33q-126 0 -126 110v120q0 109 126 109h38q41 0 64 -17q27 -20 61 -73l9 14q29 48 48.5 62t65.5 14zM140 268h31q30 0 47 29l29 48l-29 44q-26 38 -53 38h-25
q-19 0 -24 -7t-5 -26v-93q0 -20 5 -26.5t24 -6.5zM490 301v94q0 19 -5.5 26t-24.5 7h-42q-20 0 -36 -28l-33 -57l28 -41q23 -34 48 -34h35q19 0 24.5 6.5t5.5 26.5z" />
    <glyph glyph-name="integral" unicode="&#x222b;" horiz-adv-x="411" 
d="M282 -28q0 -110 -127 -110h-90v106h51q14 0 19 5.5t7 19.5v599q0 111 127 111h91v-107h-51q-26 0 -27 -25v-599z" />
    <glyph glyph-name="approxequal" unicode="&#x2248;" horiz-adv-x="536" 
d="M347 162q-43 0 -88 32.5t-65.5 32.5t-26.5 -7.5t-6 -25.5v-32h-128v64q0 48 23.5 70.5t77.5 22.5h55q37 0 66 -16.5t51.5 -32.5t40 -16t23 7.5t5.5 25.5v31h128v-63q0 -48 -23.5 -70.5t-77.5 -22.5h-55zM347 350q-43 0 -88 32.5t-66 32.5t-26.5 -7.5t-5.5 -25.5v-31h-128
v63q0 48 23.5 70.5t77.5 22.5h55q37 0 66 -16.5t51.5 -32.5t40 -16t23 7.5t5.5 25.5v32h128v-64q0 -48 -23.5 -70.5t-77.5 -22.5h-55z" />
    <glyph glyph-name="notequal" unicode="&#x2260;" horiz-adv-x="515" 
d="M483 423v-209h-233l-63 -119h-93l63 119h-124v209h234l62 117h92l-62 -117h124z" />
    <glyph glyph-name="lessequal" unicode="&#x2264;" horiz-adv-x="503" 
d="M468 229v-99h-438v99h438zM468 454l-331 -47l331 -49v-109l-438 100v120l438 92v-107z" />
    <glyph glyph-name="greaterequal" unicode="&#x2265;" horiz-adv-x="503" 
d="M33 130v99h438v-99h-438zM364 407l-331 47v107l438 -92v-120l-438 -100v109z" />
    <glyph glyph-name="lozenge" unicode="&#x25ca;" horiz-adv-x="623" 
d="M373 636l179 -317l-179 -318h-138l-174 318l174 317h138zM304 109l109 210l-109 209l-104 -209z" />
    <glyph glyph-name="uni25CC" unicode="&#x25cc;" horiz-adv-x="418" 
d="M175 151h66v-73h-66v73zM175 485h66v-73h-66v73zM279 412v73q66 0 66 -73h-66zM279 374h66v-73h-66v73zM279 262h66v-73h-66v73zM279 151h66q0 -30 -18 -51.5t-48 -21.5v73zM137 412h-66q0 34 18 53.5t48 19.5v-73zM71 374h66v-73h-66v73zM71 262h66v-73h-66v73zM137 151
v-73q-29 0 -47.5 20t-18.5 53h66z" />
    <glyph glyph-name="commaaccent" unicode="&#xf6c3;" horiz-adv-x="470" 
d="M164 -48h141v-72l-96 -153h-45v225z" />
    <glyph glyph-name="fi" unicode="&#xfb01;" horiz-adv-x="459" 
d="M280 669h138v-102h-138v102zM418 495v-495h-138v390h-84v-390h-137v390h-50v105h50v64q0 110 126 110h56v-102h-18q-15 0 -21 -5.5t-6 -18.5v-48h222z" />
    <glyph glyph-name="fl" unicode="&#xfb02;" horiz-adv-x="459" 
d="M281 669h137v-669h-137v390h-85v-390h-137v390h-50v105h50v64q0 110 126 110h56v-102h-18q-15 0 -21 -5.5t-6 -18.5v-48h85v174z" />
    <glyph glyph-name="itfLogo" horiz-adv-x="1648" 
d="M1327 224v185h196v-185h-196zM1327 449v185h196v-185h-196zM1091 0v634h196v-634h-196zM855 449v185h196v-185h-196zM619 0v634h196v-634h-196zM383 449v185h196v-185h-196zM147 0v634h196v-634h-196z" />
    <glyph glyph-name="uni0915094D" horiz-adv-x="450" 
d="M533 539h-142v-107q14 14 47 14h95v-97h-116q-14 0 -20 -6t-6 -21v-322h-140v92q-13 -14 -46 -14h-62q-58 0 -86.5 26.5t-28.5 86.5v186q0 52 27 75.5t94 23.5h62v-90h-18q-15 0 -20.5 -5t-5.5 -18v-162q0 -15 5.5 -20.5t20.5 -5.5h32q14 0 20 6t6 21v337h-271v97h553
v-97z" />
    <glyph glyph-name="uni0916094D" horiz-adv-x="608" 
d="M-20 636h710v-97h-318q7 -8 7 -25v-179q0 -56 -29 -80.5t-95 -24.5h-73v-99q0 -19 7 -26t26 -7h227v-98h-250q-79 0 -114.5 24.5t-35.5 79.5v368h140v-145h24q19 0 26 7t7 26v146q0 20 -6.5 26.5t-26.5 6.5h-226v97zM561 359v-146q0 -15 5.5 -20.5t19.5 -5.5h104v-97
h-153q-58 0 -86.5 26.5t-28.5 86.5v170q0 52 27.5 75.5t94.5 23.5h62v-90h-20q-14 0 -19.5 -5t-5.5 -18z" />
    <glyph glyph-name="uni0917094D" horiz-adv-x="430" 
d="M453 636v-97h-63v-348q0 -61 -30.5 -87t-105.5 -26h-87q-75 0 -106 26t-31 87v163q0 55 35.5 79.5t114.5 24.5h71v81h-271v97h473zM197 175h27q14 0 20.5 5.5t6.5 20.5v160h-50q-19 0 -25 -5.5t-6 -25.5v-129q0 -15 6 -20.5t21 -5.5z" />
    <glyph glyph-name="uni0918094D" horiz-adv-x="269" 
d="M386 539h-171q-19 0 -26 -6.5t-7 -26.5v-75q0 -15 5.5 -20.5t20.5 -5.5h43v-97h-43q-15 0 -20.5 -5.5t-5.5 -20.5v-81q0 -15 5.5 -20.5t20.5 -5.5h178v-97h-207q-71 0 -104 26.5t-33 86.5v110q0 48 44 53v4q-44 7 -44 53v103q0 17 7 25h-69v97h406v-97z" />
    <glyph glyph-name="uni0919094D" horiz-adv-x="496" 
d="M-20 636h536v-97h-147v-153h-162q-14 0 -19.5 -5t-5.5 -18v-37q0 -14 5.5 -19t19.5 -5h60q67 0 94 -23t27 -75v-105q0 -52 -27 -75.5t-94 -23.5h-111q-67 0 -94.5 23.5t-27.5 75.5v62h140v-48q0 -23 21 -23h28q15 0 20.5 5t5.5 18v76q0 14 -5.5 19t-20.5 5h-59
q-68 0 -95 23t-27 75v66q0 52 27 75.5t95 23.5h66v63h-250v97zM386 291v116h107v-116h-107zM142 -61h139l121 -144h-139z" />
    <glyph glyph-name="uni091A094D" horiz-adv-x="236" 
d="M-21 636h368v-97h-368v97zM191 353v-152q0 -15 5.5 -20.5t19.5 -5.5h131v-97h-180q-58 0 -87 27t-29 86v143q0 30 15 45h-73v97h252v-97h-29q-14 0 -19.5 -5.5t-5.5 -20.5z" />
    <glyph glyph-name="uni091B094D" horiz-adv-x="641" 
d="M661 539h-452q-17 -1 -23 -7.5t-6 -25.5v-117q0 -15 5.5 -20.5t19.5 -5.5h35v-97h-35q-14 0 -19.5 -5.5t-5.5 -20.5v-116q0 -15 5.5 -20.5t19.5 -5.5h230q14 0 19.5 5.5t5.5 20.5v245q0 13 -5.5 18t-19.5 5h-17q-26 0 -26 -23v-67q0 -14 6 -19t20 -5h14v-83h-40
q-54 0 -82 22.5t-28 76.5v83q0 54 30.5 76.5t93.5 22.5h69q63 0 93.5 -22.5t30.5 -76.5v-264q0 -60 -33 -86.5t-104 -26.5h-285q-71 0 -104 26.5t-33 86.5v146q0 47 44 53v4q-44 5 -44 53v145q0 16 6 25h-66v97h681v-97z" />
    <glyph glyph-name="uni091C094D" horiz-adv-x="428" 
d="M181 476v-275q0 -15 6.5 -20.5t20.5 -5.5h23q14 0 20.5 5.5t6.5 20.5v275h254v-97h-115v-188q0 -61 -30.5 -87t-105.5 -26h-83q-75 0 -105.5 26t-30.5 87v285h139zM512 636v-97h-532v97h532z" />
    <glyph glyph-name="uni091D094D" horiz-adv-x="430" 
d="M377 386h-177q-14 0 -19.5 -5t-5.5 -18v-29q0 -13 5.5 -18t19.5 -5h319v-90h-129q2 -14 2 -21v-78q0 -52 -27 -75.5t-94 -23.5h-96v-66h-140v216h140v-60h52q15 0 20.5 5t5.5 19v61q0 13 -5.5 18t-20.5 5h-70q-68 0 -95 23.5t-27 75.5v57q0 52 27 75.5t95 23.5h81v63
h-258v97h539v-97h-142v-153z" />
    <glyph glyph-name="uni091E094D" horiz-adv-x="418" 
d="M-20 636h542v-97h-542v97zM377 370v-38h145v-96h-145v-45q0 -61 -30.5 -87t-105.5 -26h-82q-74 0 -105 26t-31 87v74h140v-64q0 -15 6 -20.5t21 -5.5h21q14 0 20.5 5.5t6.5 20.5v155q0 13 -5.5 18t-20.5 5h-97v97h141q66 0 93.5 -26.5t27.5 -79.5z" />
    <glyph glyph-name="uni091F094D" horiz-adv-x="442" 
d="M-20 636h482v-97h-64v-160h-187q-14 0 -20.5 -5.5t-6.5 -20.5v-230q0 -15 6.5 -20.5t20.5 -5.5h23q14 0 20.5 5.5t6.5 20.5v103h139v-113q0 -61 -30.5 -87t-105.5 -26h-83q-75 0 -105.5 26t-30.5 87v264q0 52 27 75.5t94 23.5h93v63h-279v97zM170 -61h139l121 -144h-139z
" />
    <glyph glyph-name="uni0920094D" horiz-adv-x="452" 
d="M472 539h-175v-64q61 -4 87 -30t26 -82v-250q0 -61 -31 -87t-106 -26h-92q-75 0 -105.5 26t-30.5 87v250q0 56 25.5 82t86.5 30v64h-177v97h492v-97zM270 123v230q0 15 -6.5 20.5t-20.5 5.5h-32q-14 0 -20.5 -5.5t-6.5 -20.5v-230q0 -15 6.5 -20.5t20.5 -5.5h32
q14 0 20.5 5.5t6.5 20.5zM142 -61h139l121 -144h-139z" />
    <glyph glyph-name="uni0921094D" horiz-adv-x="434" 
d="M-20 636h474v-97h-85v-153h-162q-14 0 -19.5 -5t-5.5 -18v-37q0 -14 5.5 -19t19.5 -5h60q67 0 94 -23t27 -75v-105q0 -52 -27 -75.5t-94 -23.5h-111q-67 0 -94.5 23.5t-27.5 75.5v62h140v-48q0 -23 21 -23h28q15 0 20.5 5t5.5 18v76q0 14 -5.5 19t-20.5 5h-59
q-68 0 -95 23t-27 75v66q0 52 27 75.5t95 23.5h66v63h-250v97zM142 -61h139l121 -144h-139z" />
    <glyph glyph-name="uni0922094D" horiz-adv-x="475" 
d="M398 379h-187q-14 0 -20.5 -5.5t-6.5 -20.5v-230q0 -15 6.5 -20.5t20.5 -5.5h60q14 0 20.5 5.5t6.5 20.5v52q0 15 -6.5 20.5t-20.5 5.5h-43v97h73q75 0 106 -26t31 -87v-72q0 -61 -31 -87t-106 -26h-120q-75 0 -105.5 26t-30.5 87v264q0 52 27 75.5t94 23.5h93v63h-279
v97h515v-97h-97v-160zM170 -61h139l121 -144h-139z" />
    <glyph glyph-name="uni0923094D" horiz-adv-x="435" 
d="M459 636v-97h-62v-348q0 -61 -30.5 -87t-105.5 -26h-83q-75 0 -105.5 26t-30.5 87v348h-62v97h479zM258 201v338h-77v-338q0 -15 6.5 -20.5t20.5 -5.5h23q14 0 20.5 5.5t6.5 20.5z" />
    <glyph glyph-name="uni0924094D" horiz-adv-x="228" 
d="M293 476v-97h-86q-15 0 -20.5 -5t-5.5 -18v-235q0 -13 5.5 -18t20.5 -5h18v-98h-62q-67 0 -94 23.5t-27 75.5v278q0 52 27 75.5t94 23.5h130zM293 636v-97h-313v97h313z" />
    <glyph glyph-name="uni0925094D" horiz-adv-x="392" 
d="M508 78h-323q-71 0 -103.5 26.5t-32.5 86.5v197h119q15 0 20.5 5t5.5 18v110q0 13 -5.5 18t-20.5 5h-6q-14 0 -19.5 -5t-5.5 -18v-39h-79v61q0 51 27.5 74.5t86.5 23.5h47q59 0 86.5 -23.5t27.5 -74.5v-146q0 -53 -27.5 -79.5t-93.5 -26.5h-23v-90q0 -15 5.5 -20.5
t19.5 -5.5h294v-97z" />
    <glyph glyph-name="uni0926094D" horiz-adv-x="445" 
d="M384 -61l121 -144h-139l-121 144h139zM254 0v92q-14 -14 -47 -14h-36q-75 0 -105.5 26t-30.5 87v186q0 52 27 75.5t94 23.5h96v63h-282v97h486v-97h-65v-160h-190q-14 0 -20.5 -5.5t-6.5 -20.5v-152q0 -15 6 -20.5t20 -5.5h28q14 0 20 6t6 21v82h140v-284h-140z" />
    <glyph glyph-name="uni0927094D" horiz-adv-x="392" 
d="M196 420q0 -15 5.5 -20.5t20.5 -5.5h68v-97h-68q-15 0 -20.5 -5.5t-5.5 -20.5v-70q0 -15 5.5 -20.5t20.5 -5.5h291v-97h-342q-59 0 -86.5 23.5t-27.5 74.5v114q0 48 44 53v4q-44 6 -44 54v142q0 51 27.5 74.5t86.5 23.5h48q59 0 87 -23.5t28 -74.5v-61h-79v39
q0 13 -5.5 18t-19.5 5h-8q-15 0 -20.5 -5t-5.5 -18v-101z" />
    <glyph glyph-name="uni0928094D" horiz-adv-x="410" 
d="M-20 636h540v-97h-540v97zM32 191v186q0 52 27 75.5t94 23.5h367v-97h-134v-188q0 -61 -31 -87t-106 -26h-81q-75 0 -105.5 26t-30.5 87zM171 356v-155q0 -15 6.5 -20.5t20.5 -5.5h21q15 0 21 5.5t6 20.5v178h-49q-15 0 -20.5 -5t-5.5 -18z" />
    <glyph glyph-name="uni092A094D" horiz-adv-x="222" 
d="M336 539h-154v-338q0 -15 5.5 -20.5t20.5 -5.5h128v-97h-178q-58 0 -87 27t-29 86v348h-62v97h356v-97z" />
    <glyph glyph-name="uni092B094D" horiz-adv-x="445" 
d="M543 539h-137v-114q14 14 47 14h90v-97h-111q-14 0 -20 -6t-6 -21v-315h-140v92q-14 -14 -47 -14h-61q-58 0 -87 27t-29 86v348h-62v97h563v-97zM266 202v337h-84v-338q0 -15 5.5 -20.5t20.5 -5.5h32q14 0 20 6t6 21z" />
    <glyph glyph-name="uni092C094D" horiz-adv-x="290" 
d="M176 201q0 -15 5.5 -20.5t19.5 -5.5h94l-61 89q-29 49 -58 87v-150zM151 78q-58 0 -86.5 26.5t-28.5 86.5v186q0 52 27.5 75.5t94.5 23.5h136v-90h-74l143 -217v-91h-212zM363 636v-97h-383v97h383z" />
    <glyph glyph-name="uni092D094D" horiz-adv-x="461" 
d="M572 428v-96h-171v-141q0 -61 -30.5 -87t-105.5 -26h-87q-75 0 -105.5 26t-30.5 87v139q0 52 27 75t94 23h99v91q0 14 -6 19t-20 5h-21q-14 0 -19.5 -5t-5.5 -19v-35h-140v50q0 53 28 79.5t94 26.5h108q66 0 93.5 -26.5t27.5 -79.5v-106h171zM262 201v131h-55
q-15 0 -20.5 -5t-5.5 -19v-107q0 -15 6.5 -20.5t20.5 -5.5h27q14 0 20.5 5.5t6.5 20.5z" />
    <glyph glyph-name="uni092E094D" horiz-adv-x="435" 
d="M531 539h-140v-107h140v-97h-140v-135q0 -61 -30.5 -87t-105.5 -26h-87q-75 0 -105.5 26t-30.5 87v133q0 52 27 75.5t94 23.5h99v107h-279v97h558v-97zM252 210v125h-68q-14 0 -19.5 -5t-5.5 -18v-102q0 -15 6 -20.5t20 -5.5h40q14 0 20.5 5.5t6.5 20.5z" />
    <glyph glyph-name="uni092F094D" horiz-adv-x="339" 
d="M456 636v-97h-158q12 -13 12 -39v-105q0 -53 -26 -79t-93 -26h-13v-89q0 -15 5.5 -20.5t20.5 -5.5h252v-97h-281q-71 0 -103.5 26.5t-32.5 86.5v196h111q14 0 19.5 5t5.5 18v96q0 20 -7 26.5t-30 6.5h-164v97h482z" />
    <glyph glyph-name="uni0930094D" horiz-adv-x="430" 
d="M379 -61l121 -144h-139l-121 144h139zM390 206v-107q0 -52 -27.5 -75.5t-94.5 -23.5h-105q-67 0 -94 23.5t-27 75.5v365h139v-107h37q19 0 26 7t7 26v116q0 20 -6.5 26.5t-26.5 6.5h-238v97h470v-97h-66q6 -9 6 -25v-149q0 -55 -35.5 -79.5t-113.5 -24.5h-60v-148
q0 -13 5.5 -18t20.5 -5h22q21 0 21 23v93h140z" />
    <glyph glyph-name="uni0932094D" horiz-adv-x="443" 
d="M286 476q48 0 54 -44h4q5 44 53 44h115v-97h-76q-15 0 -20 -6t-5 -20v-179h-140v179q0 14 -5 20t-20 6h-30q-15 0 -20.5 -5.5t-5.5 -20.5v-232q0 -13 5.5 -18t20.5 -5h53v-98h-97q-67 0 -94 23.5t-27 75.5v264q0 60 28.5 86.5t86.5 26.5h120zM512 636v-97h-532v97h532z
" />
    <glyph glyph-name="uni0933094D" horiz-adv-x="668" 
d="M268 353q0 14 -5.5 20t-20.5 6h-38q-15 0 -20.5 -5.5t-5.5 -20.5v-152q0 -15 5.5 -20.5t20.5 -5.5h38q15 0 20.5 6t5.5 20v152zM490 353q0 15 -5.5 20.5t-20.5 5.5h-38q-15 0 -20.5 -6t-5.5 -20v-152q0 -14 5.5 -20t20.5 -6h38q15 0 20.5 5.5t5.5 20.5v152zM514 476
q58 0 86.5 -26.5t28.5 -86.5v-172q0 -60 -28.5 -86.5t-86.5 -26.5h-110q-62 0 -67 44h-4q-6 -44 -68 -44h-111q-58 0 -86.5 26.5t-28.5 86.5v172q0 60 28.5 86.5t86.5 26.5h111q62 0 68 -44h4q5 44 67 44h110zM694 636v-97h-720v97h720z" />
    <glyph glyph-name="uni0935094D" horiz-adv-x="222" 
d="M225 476v-90h-17q-15 0 -20.5 -5t-5.5 -18v-162q0 -15 5.5 -20.5t20.5 -5.5h128v-97h-178q-58 0 -87 27t-29 86v186q0 52 27.5 75.5t94.5 23.5h61zM336 636v-97h-356v97h356z" />
    <glyph glyph-name="uni0936094D" horiz-adv-x="461" 
d="M255 244h-60v-131q0 -13 5.5 -18t20.5 -5h22q21 0 21 23v76h140v-90q0 -52 -27.5 -75.5t-94.5 -23.5h-105q-67 0 -94 23.5t-27 75.5v297h139v-56h37q19 0 26 7t7 26v147q0 13 -5.5 18t-20.5 5h-22q-21 0 -21 -23v-60h-140v74q0 53 28 79.5t94 26.5h105q66 0 93.5 -26.5
t27.5 -79.5v-186q0 -55 -35.5 -79.5t-113.5 -24.5z" />
    <glyph glyph-name="uni0937094D" horiz-adv-x="270" 
d="M364 636v-97h-171l81 -145q42 -75 78 -197v-56q-1 -31 -23.5 -47t-60.5 -16h-108q-58 0 -86.5 26.5t-28.5 86.5v348h-65v97h384zM184 339v-138q0 -15 5.5 -20.5t20.5 -5.5h79q20 0 24 14l-89 162q-26 46 -49 109q9 -50 9 -121z" />
    <glyph glyph-name="uni0938094D" horiz-adv-x="419" 
d="M488 636v-97h-104q6 -9 6 -25v-121q0 -22 -11 -36h109v-96h-307v-148q0 -13 5.5 -18t20.5 -5h22q21 0 21 23v93h140v-107q0 -52 -27.5 -75.5t-94.5 -23.5h-105q-67 0 -94 23.5t-27 75.5v365h139v-107h37q19 0 26 7t7 26v116q0 20 -6.5 26.5t-26.5 6.5h-238v97h508z" />
    <glyph glyph-name="uni0939094D" horiz-adv-x="427" 
d="M406 379h-196q-26 0 -26 -22v-25q0 -22 26 -22h317v-97h-317q-15 0 -20.5 -5.5t-5.5 -20.5v-64q0 -15 5.5 -20.5t20.5 -5.5h199v-97h-228q-71 0 -103.5 26.5t-32.5 86.5v93q0 48 44 53v4q-44 6 -44 54v60q0 52 27 75.5t94 23.5h100v63h-286v97h547v-97h-121v-160z" />
    <glyph glyph-name="uni0915093C094D" horiz-adv-x="450" 
d="M533 539h-142v-107q14 14 47 14h95v-97h-116q-14 0 -20 -6t-6 -21v-322h-140v92q-13 -14 -46 -14h-62q-58 0 -86.5 26.5t-28.5 86.5v186q0 52 27 75.5t94 23.5h62v-90h-18q-15 0 -20.5 -5t-5.5 -18v-162q0 -15 5.5 -20.5t20.5 -5.5h32q14 0 20 6t6 21v337h-271v97h553
v-97zM77 -107v116h107v-116h-107z" />
    <glyph glyph-name="uni0916093C094D" horiz-adv-x="608" 
d="M-20 636h710v-97h-318q7 -8 7 -25v-179q0 -56 -29 -80.5t-95 -24.5h-73v-99q0 -19 7 -26t26 -7h227v-98h-250q-79 0 -114.5 24.5t-35.5 79.5v368h140v-145h24q19 0 26 7t7 26v146q0 20 -6.5 26.5t-26.5 6.5h-226v97zM561 359v-146q0 -15 5.5 -20.5t19.5 -5.5h104v-97
h-153q-58 0 -86.5 26.5t-28.5 86.5v170q0 52 27.5 75.5t94.5 23.5h62v-90h-20q-14 0 -19.5 -5t-5.5 -18zM150 -168v116h107v-116h-107z" />
    <glyph glyph-name="uni0917093C094D" horiz-adv-x="430" 
d="M453 636v-97h-63v-348q0 -61 -30.5 -87t-105.5 -26h-87q-75 0 -106 26t-31 87v163q0 55 35.5 79.5t114.5 24.5h71v81h-271v97h473zM197 175h27q14 0 20.5 5.5t6.5 20.5v160h-50q-19 0 -25 -5.5t-6 -25.5v-129q0 -15 6 -20.5t21 -5.5zM153 -116v116h107v-116h-107z" />
    <glyph glyph-name="uni091C093C094D" horiz-adv-x="428" 
d="M181 476v-275q0 -15 6.5 -20.5t20.5 -5.5h23q14 0 20.5 5.5t6.5 20.5v275h254v-97h-115v-188q0 -61 -30.5 -87t-105.5 -26h-83q-75 0 -105.5 26t-30.5 87v285h139zM512 636v-97h-532v97h532zM164 0h107v-116h-107v116z" />
    <glyph glyph-name="uni0928093C094D" horiz-adv-x="410" 
d="M-20 636h540v-97h-540v97zM32 191v186q0 52 27 75.5t94 23.5h367v-97h-134v-188q0 -61 -31 -87t-106 -26h-81q-75 0 -105.5 26t-30.5 87zM171 356v-155q0 -15 6.5 -20.5t20.5 -5.5h21q15 0 21 5.5t6 20.5v178h-49q-15 0 -20.5 -5t-5.5 -18zM272 -110v116h107v-116h-107z
" />
    <glyph glyph-name="uni092B093C094D" horiz-adv-x="466" 
d="M543 539h-137v-114q14 14 47 14h90v-97h-111q-14 0 -20 -6t-6 -21v-315h-140v92q-14 -14 -47 -14h-61q-58 0 -87 27t-29 86v348h-62v97h563v-97zM266 202v337h-84v-338q0 -15 5.5 -20.5t20.5 -5.5h32q14 0 20 6t6 21zM86 -117v116h107v-116h-107z" />
    <glyph glyph-name="uni092F093C094D" horiz-adv-x="339" 
d="M456 636v-97h-158q12 -13 12 -39v-105q0 -53 -26 -79t-93 -26h-13v-89q0 -15 5.5 -20.5t20.5 -5.5h252v-97h-281q-71 0 -103.5 26.5t-32.5 86.5v196h111q14 0 19.5 5t5.5 18v96q0 20 -7 26.5t-30 6.5h-164v97h482zM189 -114v116h107v-116h-107z" />
    <glyph glyph-name="itfStar" horiz-adv-x="672" 
d="M663 452l-218 -140q7 -16 48 -125.5t46 -121.5l-204 168q-20 -14 -205 -168l96 247q-14 8 -111 70t-110 70l261 -8q26 102 69 246l66 -246q136 8 262 8z" />
    <glyph glyph-name="uni09080902" horiz-adv-x="425" 
d="M409 758h90v-94h-90v94zM375 767v-131h70v-97h-70v-153h-178q-15 0 -20.5 -5t-5.5 -18v-29q0 -13 5.5 -18t20.5 -5h72q67 0 94.5 -23.5t27.5 -75.5v-90q0 -52 -27.5 -75.5t-94.5 -23.5h-94v-66h-140v216h140v-60h51q14 0 19.5 5t5.5 19v61q0 13 -5.5 18t-19.5 5h-73
q-67 0 -94 23.5t-27 75.5v57q0 52 27 75.5t94 23.5h82v63h-255v97h255v146q0 52 27.5 75t94.5 23h104v-90h-60q-15 0 -20.5 -4.5t-5.5 -18.5z" />
    <glyph glyph-name="uni09300941" horiz-adv-x="646" 
d="M666 636v-97h-282q6 -9 6 -25v-39h118q67 0 94.5 -23t27.5 -75v-131h-140v109q0 13 -5.5 18t-20.5 5h-74v-13q0 -55 -35.5 -79.5t-113.5 -24.5h-60v-148q0 -13 5.5 -18t20.5 -5h22q21 0 21 23v93h140v-107q0 -52 -27.5 -75.5t-94.5 -23.5h-105q-67 0 -94 23.5t-27 75.5
v365h139v-107h37q19 0 26 7t7 26v116q0 20 -6.5 26.5t-26.5 6.5h-238v97h686z" />
    <glyph glyph-name="uni09300942" horiz-adv-x="666" 
d="M686 636v-97h-302q6 -9 6 -25v-39h120q67 0 94 -23t27 -75v-197q0 -52 -27 -75.5t-94 -23.5h-76v98h32q15 0 20.5 5t5.5 18v153q0 13 -5.5 18t-20.5 5h-76v-13q0 -55 -35.5 -79.5t-113.5 -24.5h-60v-148q0 -13 5.5 -18t20.5 -5h22q21 0 21 23v93h140v-107
q0 -52 -27.5 -75.5t-94.5 -23.5h-105q-67 0 -94 23.5t-27 75.5v365h139v-107h37q19 0 26 7t7 26v116q0 20 -6.5 26.5t-26.5 6.5h-238v97h706z" />
    <glyph glyph-name="uni09390941" horiz-adv-x="451" 
d="M406 379h-196q-26 0 -26 -22v-19q0 -13 6 -17.5t20 -4.5h63q75 0 105.5 -26t30.5 -87v-39h-140v29q0 15 -6 20.5t-20 5.5h-33q-15 0 -20.5 -5.5t-5.5 -20.5v-70q0 -15 5.5 -20.5t20.5 -5.5h86q59 0 87.5 -26t28.5 -86v-48q0 -60 -28.5 -86.5t-87.5 -26.5h-124
q-72 0 -110 22t-71 79l-32 55h164l22 -35q15 -24 47 -24h49q19 0 25 5.5t6 25.5v17q0 19 -6 25t-25 6h-60q-79 0 -107.5 25t-28.5 88v99q0 47 44 53v4q-44 5 -44 53v55q0 52 27 75.5t94 23.5h100v63h-286v97h494v-97h-68v-160z" />
    <glyph glyph-name="uni09390942" horiz-adv-x="454" 
d="M274 0h-34q-20 0 -25.5 -6t-5.5 -25v-17q0 -20 5.5 -25.5t25.5 -5.5h50v-98h-105q-57 0 -83 26.5t-26 86.5v48q0 21 3 36q-34 17 -34 86v106q0 47 44 53v4q-44 5 -44 53v55q0 52 27 75.5t94 23.5h100v63h-286v97h494v-97h-68v-160h-196q-26 0 -26 -22v-19q0 -13 6 -17.5
t20 -4.5h63q75 0 105.5 -26t30.5 -87v-39h-140v29q0 15 -6 20.5t-20 5.5h-33q-15 0 -20.5 -5.5t-5.5 -20.5v-70q0 -15 5.5 -20.5t20.5 -5.5h77q68 0 100.5 -21.5t70.5 -78.5l107 -173h-151l-94 150q-16 26 -46 26z" />
    <glyph glyph-name="uni09260943" horiz-adv-x="436" 
d="M391 379h-190q-14 0 -20.5 -5.5t-6.5 -20.5v-152q0 -15 6 -20.5t20 -5.5h28q14 0 20 6t6 21v82h140v-374h-104q-14 0 -19.5 -5t-5.5 -19v-33q0 -14 5.5 -19t19.5 -5h158v-97h-201q-67 0 -94.5 23.5t-27.5 75.5v70q0 52 27 75.5t94 23.5h8v92q-14 -14 -47 -14h-36
q-75 0 -105.5 26t-30.5 87v186q0 52 27 75.5t94 23.5h96v63h-282v97h486v-97h-65v-160z" />
    <glyph glyph-name="uni09390943" horiz-adv-x="439" 
d="M394 386h-184q-26 0 -26 -22v-16q0 -13 6 -17.5t20 -4.5h91q67 0 67 -49q0 -21 -17.5 -47t-17.5 -34q0 -12 15 -12h43v-63h-95q-62 0 -62 45q0 18 16 41t16 31q0 12 -15 12h-41q-15 0 -20.5 -5.5t-5.5 -20.5v-115q0 -15 5.5 -20.5t20.5 -5.5h199v-83h-228
q-71 0 -103.5 26.5t-32.5 86.5v102q0 47 44 53v4q-44 5 -44 53v52q0 52 27 75.5t94 23.5h88v63h-274v97h482v-97h-68v-153z" />
    <glyph glyph-name="uni094D0928.post" 
d="M249 636v-97h-64v-539h-140v110l-108 -97q-19 -19 -3 -34l35 -40l-104 -93l-50 56q-35 36 -30.5 73.5t54.5 82.5l206 184v297h-65v97h269z" />
    <glyph glyph-name="uni094D092F.post" horiz-adv-x="605" 
d="M625 636v-97h-64v-539h-140v92q-14 -14 -44 -14h-165q-71 0 -103.5 26.5t-32.5 86.5v122h111q15 0 20.5 5t5.5 18v34q0 13 -5.5 18t-20.5 5h-207v92h249q66 0 92 -26.5t26 -79.5v-44q0 -53 -26 -79.5t-92 -26.5h-13v-28q0 -15 5.5 -20.5t19.5 -5.5h146q19 0 26.5 7.5
t7.5 26.5v330h-441v97h645z" />
    <glyph glyph-name="uni094D0930.post" 
d="M249 636v-97h-64v-539h-140v109l-172 -180h-138l310 319v291h-65v97h269z" />
    <glyph glyph-name="uni094D0930" horiz-adv-x="0" 
d="M-186 31h143l106 -176h-119l-58 112l-60 -112h-119z" />
    <glyph glyph-name="uni0930094D.1" horiz-adv-x="332" 
d="M-20 636h372v-97h-372v97zM352 387v-97h-120q-67 0 -93 26t-26 79v62h135v-47q0 -13 5.5 -18t19.5 -5h79z" />
    <glyph glyph-name="uni0930094D.2" horiz-adv-x="0" 
d="M30 708h-47q-14 0 -19.5 -5t-5.5 -18v-63h-140v77q0 52 27 75t95 23h90v-89z" />
    <glyph glyph-name="uni0930094D0902" horiz-adv-x="0" 
d="M-11 758h90v-94h-90v94zM41 880v-90h-60q-15 0 -20.5 -4.5t-5.5 -18.5v-145h-140v160q0 52 27.5 75t94.5 23h104z" />
    <glyph glyph-name="uni093E0930094D" 
d="M257 708h-47q-14 0 -19.5 -5t-5.5 -18v-49h64v-97h-65v-539h-139v539h-65v97h65v63q0 52 27 75t95 23h90v-89z" />
    <glyph glyph-name="uni093E0930094D0902" 
d="M218 758h90v-94h-90v94zM184 767v-131h65v-97h-65v-539h-139v539h-65v97h64v146q0 52 27.5 75t94.5 23h104v-90h-60q-15 0 -20.5 -4.5t-5.5 -18.5z" />
    <glyph glyph-name="uni0930094D.aMatraI" horiz-adv-x="0" 
d="M72 708h-47q-14 0 -19.5 -5t-5.5 -18v-63h-140v77q0 52 27 75t95 23h90v-89z" />
    <glyph glyph-name="uni0902.aMatraI" horiz-adv-x="0" 
d="M27 774h107v-116h-107v116z" />
    <glyph glyph-name="uni0930094D0902.aMatraI" horiz-adv-x="0" 
d="M34 758h90v-94h-90v94zM86 880v-90h-60q-15 0 -20.5 -4.5t-5.5 -18.5v-145h-140v160q0 52 27.5 75t94.5 23h104z" />
    <glyph glyph-name="uni09400930094D" 
d="M281 796h-62q-22 0 -28.5 -6t-6.5 -28v-126h65v-97h-65v-539h-139v539h-65v97h65v77q0 22 -6.5 28.5t-28.5 6.5h-41q-22 0 -28.5 -6.5t-6.5 -28.5v-40h-139v69q0 103 109 103h139q65 0 70 -46h4v19q0 75 83 75h81v-97z" />
    <glyph glyph-name="uni09400902" 
d="M219 795h108v-116h-108v116zM184 742v-106h65v-97h-65v-539h-139v539h-65v97h65v77q0 22 -6.5 28.5t-28.5 6.5h-41q-22 0 -28.5 -6.5t-6.5 -28.5v-40h-139v69q0 103 109 103h171q109 0 109 -103z" />
    <glyph glyph-name="uni09400930094D0902" 
d="M220 761h90v-94h-90v94zM184 762v-126h65v-97h-65v-539h-139v539h-65v97h65v77q0 22 -6.5 28.5t-28.5 6.5h-41q-22 0 -28.5 -6.5t-6.5 -28.5v-40h-139v69q0 103 109 103h139q65 0 70 -46h4v19q0 75 83 75h81v-97h-62q-22 0 -28.5 -6t-6.5 -28z" />
    <glyph glyph-name="uni0940.aLong" 
d="M249 636v-97h-65v-539h-139v539h-65v97h65v77q0 22 -6.5 28.5t-28.5 6.5h-225q-22 0 -28.5 -6.5t-6.5 -28.5v-40h-140v69q0 103 109 103h356q109 0 109 -103v-106h65z" />
    <glyph glyph-name="uni09400930094D.aLong" 
d="M281 796h-62q-22 0 -28.5 -6t-6.5 -28v-126h65v-97h-65v-539h-139v539h-65v97h65v77q0 22 -6.5 28.5t-28.5 6.5h-225q-22 0 -28 -6.5t-6 -28.5v-40h-140v69q0 103 109 103h323q65 0 70 -46h4v19q0 75 83 75h81v-97z" />
    <glyph glyph-name="uni09400902.aLong" 
d="M219 795h108v-116h-108v116zM184 742v-106h65v-97h-65v-539h-139v539h-65v97h65v77q0 22 -6.5 28.5t-28.5 6.5h-225q-22 0 -28.5 -6.5t-6.5 -28.5v-40h-140v69q0 103 109 103h356q109 0 109 -103z" />
    <glyph glyph-name="uni09400930094D0902.aLong" 
d="M221 758h89v-94h-89v94zM184 762v-126h65v-97h-65v-539h-139v539h-65v97h65v77q0 22 -6.5 28.5t-28.5 6.5h-225q-22 0 -28 -6.5t-6 -28.5v-40h-140v69q0 103 109 103h323q65 0 70 -46h4v19q0 75 83 75h81v-97h-62q-22 0 -28.5 -6t-6.5 -28z" />
    <glyph glyph-name="uni09470930094D" horiz-adv-x="0" 
d="M-143 801q0 92 108 92h60v-97h-38q-22 0 -28.5 -6t-6.5 -28v-132h-137q-99 68 -158 143l-47 61h172l36 -51q35 -54 46 -91h3q-10 72 -10 109z" />
    <glyph glyph-name="uni09470902" horiz-adv-x="0" 
d="M-94 833h108v-116h-108v116zM-190 834l143 -204h-135q-51 41 -114 123l-61 81h167z" />
    <glyph glyph-name="uni09470930094D0902" horiz-adv-x="0" 
d="M-143 801q0 92 108 92h60v-97h-38q-22 0 -28.5 -6t-6.5 -28v-132h-137q-99 68 -158 143l-47 61h172l36 -51q35 -54 46 -91h3q-10 72 -10 109zM-23 761h89v-94h-89v94z" />
    <glyph glyph-name="uni09480930094D" horiz-adv-x="0" 
d="M-107 769q0 68 75 68h58v-97h-37q-22 0 -29 -6.5t-7 -28.5v-74h-140q-52 25 -151 95l-152 108h168q128 -119 191 -188h4q-40 46 -137 188h130q25 -91 29 -123h4q-6 27 -6 58z" />
    <glyph glyph-name="uni09480902" horiz-adv-x="0" 
d="M-34 785h108v-116h-108v116zM-435 834h167l43 -53q66 -80 100 -135h5q-21 36 -84 188h130l24 -203h-136q-52 31 -125 95z" />
    <glyph glyph-name="uni09480930094D0902" horiz-adv-x="0" 
d="M-18 760h90v-94h-90v94zM-107 825q0 68 77 68h57v-97h-37q-22 0 -29 -6.5t-7 -28.5v-130h-139q-56 28 -151 95l-152 108h167q130 -121 191 -188h5q-47 54 -94 125l-43 63h130q27 -112 29 -123h3q-7 77 -7 114z" />
    <glyph glyph-name="uni094A0902" 
d="M199 840h108v-116h-108v116zM184 702v-66h65v-97h-65v-539h-139v539h-65v97h65v22q0 22 -6.5 28.5t-28.5 6.5h-102q-88 0 -88 88v59h139v-16q0 -22 6.5 -28t28.5 -6h102q88 0 88 -88z" />
    <glyph glyph-name="uni094B0930094D" 
d="M257 796h-38q-22 0 -28.5 -6t-6.5 -28v-126h65v-97h-65v-539h-139v539h-65v97h58q-94 68 -149 137l-47 61h172l36 -51q35 -54 46 -91h3q-10 72 -10 109q0 92 108 92h60v-97z" />
    <glyph glyph-name="uni094B0902" 
d="M249 636v-97h-65v-539h-139v539h-65v97h65q-47 40 -107 117l-61 81h167l139 -198h66zM247 833v-116h-108v116h108z" />
    <glyph glyph-name="uni094B0930094D0902" 
d="M209 761h90v-94h-90v94zM184 762v-126h65v-97h-65v-539h-139v539h-65v97h58q-94 68 -149 137l-47 61h172l36 -51q35 -54 46 -91h3q-10 72 -10 109q0 92 108 92h60v-97h-38q-22 0 -28.5 -6t-6.5 -28z" />
    <glyph glyph-name="uni094C0930094D" 
d="M257 740h-37q-22 0 -29 -6.5t-7 -28.5v-69h65v-97h-65v-539h-139v539h-65v97h54q-48 24 -141 90l-152 108h168q128 -119 191 -188h4q-40 46 -137 188h130q25 -91 29 -123h4q-6 27 -6 58q0 68 75 68h58v-97z" />
    <glyph glyph-name="uni094C0902" 
d="M200 785h108v-116h-108v116zM249 636v-97h-65v-539h-139v539h-65v97h60q-49 30 -117 90l-124 108h167l43 -53q66 -80 100 -135h5q-21 36 -84 188h130l23 -198h66z" />
    <glyph glyph-name="uni094C0930094D0902" 
d="M212 760h90v-94h-90v94zM184 761v-125h65v-97h-65v-539h-139v539h-65v97h55q-53 26 -141 90l-152 108h167q130 -121 191 -188h5q-47 54 -94 125l-43 63h130q27 -112 29 -123h3q-7 77 -7 114q0 68 77 68h57v-97h-37q-22 0 -29 -6.5t-7 -28.5z" />
    <glyph glyph-name="uni0915094D0937" horiz-adv-x="704" 
d="M724 636v-97h-65v-539h-139v265h-327q-14 0 -20.5 -5.5t-6.5 -20.5v-93q0 -15 6.5 -20.5t20.5 -5.5h73q29 0 29 29v54h140v-246h-140v81q-13 -15 -48 -15h-122q-47 0 -72.5 25.5t-25.5 75.5v136q0 83 67 99q-15 15 -15 43v126q0 61 30.5 87t105.5 26h85q75 0 105.5 -26
t30.5 -87v-141q0 -16 -6 -25h90v274h204zM297 388v130q0 15 -6.5 20.5t-20.5 5.5h-25q-14 0 -20.5 -5.5t-6.5 -20.5v-130q0 -15 6.5 -20.5t20.5 -5.5h25q14 0 20.5 5.5t6.5 20.5z" />
    <glyph glyph-name="uni0915094D0937094D" horiz-adv-x="520" 
d="M553 265h-360q-14 0 -20.5 -5.5t-6.5 -20.5v-93q0 -15 6.5 -20.5t20.5 -5.5h73q29 0 29 29v54h140v-246h-140v81q-13 -15 -48 -15h-122q-47 0 -72.5 25.5t-25.5 75.5v136q0 83 67 99q-15 15 -15 43v126q0 61 30.5 87t105.5 26h85q75 0 105.5 -26t30.5 -87v-141
q0 -16 -6 -25h123v-97zM218 518v-130q0 -15 6.5 -20.5t20.5 -5.5h25q14 0 20.5 5.5t6.5 20.5v130q0 15 -6.5 20.5t-20.5 5.5h-25q-14 0 -20.5 -5.5t-6.5 -20.5z" />
    <glyph glyph-name="uni0915094D0937094D092E" horiz-adv-x="1161" 
d="M1181 636v-97h-65v-539h-139v335h-89v-135q0 -61 -30.5 -87t-105.5 -26h-87q-75 0 -105.5 26t-30.5 87v65h-336q-14 0 -20.5 -5.5t-6.5 -20.5v-93q0 -15 6.5 -20.5t20.5 -5.5h73q29 0 29 29v54h140v-246h-140v81q-13 -15 -48 -15h-122q-47 0 -72.5 25.5t-25.5 75.5v136
q0 83 67 99q-15 15 -15 43v126q0 61 30.5 87t105.5 26h85q75 0 105.5 -26t30.5 -87v-141q0 -16 -6 -25h101q7 36 34.5 53t84.5 17h99v107h-272v97h704zM297 388v130q0 15 -6.5 20.5t-20.5 5.5h-25q-14 0 -20.5 -5.5t-6.5 -20.5v-130q0 -15 6.5 -20.5t20.5 -5.5h25
q14 0 20.5 5.5t6.5 20.5zM749 210v125h-68q-14 0 -19.5 -5t-5.5 -18v-102q0 -15 6 -20.5t20 -5.5h40q14 0 20.5 5.5t6.5 20.5zM977 432v107h-89v-107h89z" />
    <glyph glyph-name="uni0915094D0937094D092E094D" horiz-adv-x="993" 
d="M1039 539h-140v-107h140v-97h-140v-135q0 -61 -30.5 -87t-105.5 -26h-87q-75 0 -105.5 26t-30.5 87v65h-347q-14 0 -20.5 -5.5t-6.5 -20.5v-93q0 -15 6.5 -20.5t20.5 -5.5h73q29 0 29 29v54h140v-246h-140v81q-13 -15 -48 -15h-122q-47 0 -72.5 25.5t-25.5 75.5v136
q0 83 67 99q-15 15 -15 43v126q0 61 30.5 87t105.5 26h85q75 0 105.5 -26t30.5 -87v-141q0 -16 -6 -25h112q7 36 34.5 53t84.5 17h99v107h-279v97h558v-97zM297 388v130q0 15 -6.5 20.5t-20.5 5.5h-25q-14 0 -20.5 -5.5t-6.5 -20.5v-130q0 -15 6.5 -20.5t20.5 -5.5h25
q14 0 20.5 5.5t6.5 20.5zM760 210v125h-68q-14 0 -19.5 -5t-5.5 -18v-102q0 -15 6 -20.5t20 -5.5h40q14 0 20.5 5.5t6.5 20.5z" />
    <glyph glyph-name="uni0915094D0937094D092E094D092F" horiz-adv-x="1488" 
d="M1509 636v-97h-65v-539h-140v92q-14 -14 -43 -14h-165q-71 0 -104 26.5t-33 86.5v151h-76v-151q0 -61 -31 -87t-106 -26h-81q-75 0 -105.5 26t-30.5 87v74h-336q-14 0 -20.5 -5.5t-6.5 -20.5v-93q0 -15 6.5 -20.5t20.5 -5.5h73q29 0 29 29v54h140v-246h-140v81
q-13 -15 -48 -15h-122q-47 0 -72.5 25.5t-25.5 75.5v136q0 83 67 99q-15 15 -15 43v126q0 61 30.5 87t105.5 26h85q75 0 105.5 -26t30.5 -87v-141q0 -16 -6 -25h100q5 40 33 58.5t87 18.5h93v100h-266v97h1032zM297 388v130q0 15 -6.5 20.5t-20.5 5.5h-25q-14 0 -20.5 -5.5
t-6.5 -20.5v-130q0 -15 6.5 -20.5t20.5 -5.5h25q14 0 20.5 5.5t6.5 20.5zM743 201v141h-49q-15 0 -20.5 -5t-5.5 -18v-118q0 -15 6.5 -20.5t20.5 -5.5h21q15 0 21 5.5t6 20.5zM1096 462v44q0 20 -7 26.5t-31 6.5h-175v-100h188q14 0 19.5 5t5.5 18zM1304 209v330h-86
q12 -13 12 -39v-52q0 -53 -26 -79.5t-92 -26.5h-13v-141q0 -15 5.5 -20.5t19.5 -5.5h146q20 0 27 7.5t7 26.5z" />
    <glyph glyph-name="uni0915094D0937094D092F" horiz-adv-x="1049" 
d="M1069 636v-97h-65v-539h-140v92q-14 -14 -44 -14h-165q-70 0 -103 26.5t-33 86.5v95h-326q-14 0 -20.5 -6t-6.5 -24v-110q0 -15 6.5 -20.5t20.5 -5.5h73q29 0 29 29v54h140v-246h-140v81q-13 -15 -48 -15h-122q-47 0 -72.5 25.5t-25.5 75.5v153q0 86 67 102
q-15 15 -15 43v106q0 61 30.5 87t105.5 26h85q75 0 105.5 -26t30.5 -87v-121q0 -16 -6 -25h201q14 0 19.5 5t5.5 18v101q0 20 -7 26.5t-31 6.5h-122v97h573zM297 408v110q0 15 -6.5 20.5t-20.5 5.5h-25q-14 0 -20.5 -5.5t-6.5 -20.5v-110q0 -15 6.5 -20.5t20.5 -5.5h25
q14 0 20.5 5.5t6.5 20.5zM864 209v330h-86q12 -13 12 -39v-109q0 -53 -26 -79.5t-92 -26.5h-13v-84q0 -15 5.5 -20.5t19.5 -5.5h146q20 0 27 7.5t7 26.5z" />
    <glyph glyph-name="uni0915094D0937094D0935" horiz-adv-x="938" 
d="M947 636v-97h-65v-539h-139v92q-14 -14 -47 -14h-62q-58 0 -86.5 26.5t-28.5 86.5v74h-326q-14 0 -20.5 -5.5t-6.5 -20.5v-93q0 -15 6.5 -20.5t20.5 -5.5h73q29 0 29 29v54h140v-246h-140v81q-13 -15 -48 -15h-122q-47 0 -72.5 25.5t-25.5 75.5v136q0 83 67 99
q-15 15 -15 43v126q0 61 30.5 87t105.5 26h85q75 0 105.5 -26t30.5 -87v-141q0 -16 -6 -25h89v15q0 52 27.5 75.5t94.5 23.5h61v-90h-18q-14 0 -19.5 -5t-5.5 -18v-162q0 -15 5.5 -20.5t19.5 -5.5h32q15 0 21 6t6 21v337h-246v97h450zM297 388v130q0 15 -6.5 20.5t-20.5 5.5
h-25q-14 0 -20.5 -5.5t-6.5 -20.5v-130q0 -15 6.5 -20.5t20.5 -5.5h25q14 0 20.5 5.5t6.5 20.5z" />
    <glyph glyph-name="uni091C094D091E" horiz-adv-x="651" 
d="M671 636v-97h-64v-539h-140v358h-81q7 -8 7 -25v-211q0 -52 -27 -75.5t-95 -23.5h-89v-66h-140v225h140v-69h46q14 0 19.5 5t5.5 19v198q0 13 -5.5 18t-19.5 5h-161v97h400v84h-487v97h691z" />
    <glyph glyph-name="uni091C094D091E094D" horiz-adv-x="422" 
d="M-20 636h548v-97h-548v97zM67 358v97h461v-97h-142q7 -8 7 -25v-211q0 -52 -27 -75.5t-95 -23.5h-89v-66h-140v225h140v-69h46q14 0 19.5 5t5.5 19v198q0 13 -5.5 18t-19.5 5h-161z" />
    <glyph glyph-name="uni091C094D091E094D092F" horiz-adv-x="990" 
d="M1010 636v-97h-64v-539h-140v92q-14 -14 -44 -14h-165q-71 0 -103.5 26.5t-32.5 86.5v125h-75q7 -8 7 -25v-169q0 -52 -27 -75.5t-95 -23.5h-89v-66h-140v225h140v-69h46q14 0 19.5 5t5.5 19v156q0 13 -5.5 18t-19.5 5h-161v97h505q14 0 19.5 5t5.5 18v70q0 20 -7 26.5
t-30 6.5h-580v97h1030zM806 209v330h-86q12 -13 12 -39v-78q0 -54 -26 -80t-93 -26h-13v-115q0 -15 5.5 -20.5t20.5 -5.5h146q20 0 27 7.5t7 26.5z" />
    <glyph glyph-name="uni0915094D0928" horiz-adv-x="1082" 
d="M1102 636v-97h-65v-539h-139v349h-69v-158q0 -61 -30.5 -87t-105.5 -26h-82q-75 0 -105.5 26t-30.5 87v158h-58q-14 0 -20 -6t-6 -21v-322h-140v92q-13 -14 -46 -14h-62q-58 0 -86.5 26.5t-28.5 86.5v186q0 52 27 75.5t94 23.5h62v-90h-18q-15 0 -20.5 -5t-5.5 -18v-162
q0 -15 5.5 -20.5t20.5 -5.5h32q14 0 20 6t6 21v337h-271v97h1122zM690 201v148h-50q-14 0 -19.5 -5t-5.5 -18v-125q0 -15 6 -20.5t20 -5.5h22q14 0 20.5 5.5t6.5 20.5zM898 446v93h-507v-107q14 14 47 14h460z" />
    <glyph glyph-name="uni0916094D0928" horiz-adv-x="1251" 
d="M1271 636v-97h-65v-539h-139v379h-69v-188q0 -61 -30.5 -87t-105.5 -26h-82q-81 0 -112 32q-17 -20 -58 -20h-73q-58 0 -86.5 26.5t-28.5 86.5v174q0 52 27.5 75.5t94.5 23.5h62v-90h-20q-14 0 -19.5 -5t-5.5 -18v-150q0 -15 5.5 -20.5t19.5 -5.5h30q28 0 28 29v161
q0 52 27 75.5t95 23.5h301v63h-695q7 -8 7 -25v-175q0 -56 -28.5 -80t-95.5 -24h-73v-104q0 -19 7 -26t26 -7h238v-98h-261q-79 0 -114.5 24.5t-35.5 79.5v368h140v-140h24q19 0 26 7t7 26v141q0 20 -6.5 26.5t-26.5 6.5h-226v97h1291zM859 201v178h-50q-14 0 -19.5 -5
t-5.5 -18v-155q0 -15 6 -20.5t20 -5.5h22q14 0 20.5 5.5t6.5 20.5z" />
    <glyph glyph-name="uni0917094D0928" horiz-adv-x="1077" 
d="M1097 636v-97h-64v-539h-140v379h-68v-188q0 -61 -31 -87t-106 -26h-81q-75 0 -105.5 26t-30.5 87v186q0 52 27 75.5t94 23.5h301v63h-503v-348q0 -61 -30.5 -87t-105.5 -26h-87q-75 0 -106 26t-31 87v163q0 55 35.5 79.5t114.5 24.5h71v81h-271v97h1117zM197 175h27
q14 0 20.5 5.5t6.5 20.5v160h-50q-19 0 -25 -5.5t-6 -25.5v-129q0 -15 6 -20.5t21 -5.5zM685 201v178h-49q-15 0 -20.5 -5t-5.5 -18v-155q0 -15 6.5 -20.5t20.5 -5.5h21q15 0 21 5.5t6 20.5z" />
    <glyph glyph-name="uni0918094D0928" horiz-adv-x="911" 
d="M935 636v-97h-64v-539h-140v379h-68v-188q0 -61 -31 -87t-106 -26h-81q-77 0 -108 28q-17 -28 -64 -28h-94q-71 0 -104 26.5t-33 86.5v110q0 48 44 53v4q-44 7 -44 53v103q0 17 7 25h-69v97h955zM523 201v178h-50q-14 0 -19.5 -5t-5.5 -18v-155q0 -15 6 -20.5t21 -5.5h21
q14 0 20.5 5.5t6.5 20.5zM731 476v63h-516q-19 0 -26 -6.5t-7 -26.5v-75q0 -15 5.5 -20.5t20.5 -5.5h43v-97h-43q-15 0 -20.5 -5.5t-5.5 -20.5v-81q0 -15 5.5 -20.5t20.5 -5.5h66q20 0 27 7.5t7 26.5v168q0 52 27.5 75.5t94.5 23.5h301z" />
    <glyph glyph-name="uni091A094D0928" horiz-adv-x="891" 
d="M911 636v-97h-64v-539h-140v379h-68v-188q0 -61 -31 -87t-106 -26h-81q-81 0 -112 32q-18 -32 -67 -32h-75q-58 0 -87 27t-29 86v143q0 30 15 45h-73v97h252v-97h-29q-14 0 -19.5 -5.5t-5.5 -20.5v-152q0 -15 5.5 -20.5t19.5 -5.5h34q20 0 27 7.5t7 26.5v168
q0 52 27.5 75.5t94.5 23.5h301v63h-727v97h931zM499 201v178h-49q-15 0 -20.5 -5t-5.5 -18v-155q0 -15 6.5 -20.5t20.5 -5.5h21q15 0 21 5.5t6 20.5z" />
    <glyph glyph-name="uni091B094D0928" horiz-adv-x="641" 
d="M661 539h-155v-64q47 -5 70 -28t23 -70v-264q0 -57 -29.5 -83.5t-92.5 -29.5v-268h-105v113h-86q-15 0 -20.5 -5.5t-5.5 -20.5v-36l-104 1v51q0 53 25.5 75.5t78.5 22.5h112v67h-195q-71 0 -104 26.5t-33 86.5v146q0 47 44 53v4q-44 5 -44 53v145q0 16 6 25h-66v97h681
v-97zM375 539h-166q-17 -1 -23 -7.5t-6 -25.5v-117q0 -15 5.5 -20.5t19.5 -5.5h35v-97h-35q-14 0 -19.5 -5.5t-5.5 -20.5v-116q0 -15 5.5 -20.5t19.5 -5.5h230q14 0 19.5 5.5t5.5 20.5v245q0 13 -5.5 18t-19.5 5h-17q-26 0 -26 -23v-67q0 -14 6 -19t20 -5h14v-83h-40
q-54 0 -82 22.5t-28 76.5v83q0 47 23 70t70 28v64z" />
    <glyph glyph-name="uni091C094D0928" horiz-adv-x="1081" 
d="M1101 636v-97h-65v-539h-140v379h-68v-188q0 -61 -30.5 -87t-105.5 -26h-82q-75 0 -105.5 26t-30.5 87v188h-77v-188q0 -61 -30.5 -87t-105.5 -26h-83q-75 0 -105.5 26t-30.5 87v285h139v-275q0 -15 6.5 -20.5t20.5 -5.5h23q14 0 20.5 5.5t6.5 20.5v275h638v63h-916v97
h1121zM688 201v178h-49q-26 0 -26 -23v-155q0 -15 6.5 -20.5t20.5 -5.5h22q14 0 20 5.5t6 20.5z" />
    <glyph glyph-name="uni091D094D0928" horiz-adv-x="1074" 
d="M1094 636v-97h-64v-539h-140v379h-68v-188q0 -61 -31 -87t-106 -26h-81q-75 0 -105.5 26t-30.5 87v30h-78q2 -14 2 -21v-78q0 -52 -27 -75.5t-94 -23.5h-96v-66h-140v216h140v-60h52q15 0 20.5 5t5.5 19v61q0 13 -5.5 18t-20.5 5h-70q-68 0 -95 23.5t-27 75.5v57
q0 52 27 75.5t95 23.5h81v63h-258v97h1114zM682 201v178h-49q-15 0 -20.5 -5t-5.5 -18v-155q0 -15 6.5 -20.5t20.5 -5.5h21q15 0 21 5.5t6 20.5zM890 476v63h-513v-153h-177q-14 0 -19.5 -5t-5.5 -18v-29q0 -13 5.5 -18t19.5 -5h268v66q0 52 27 75.5t94 23.5h301z" />
    <glyph glyph-name="uni091F094D0928" horiz-adv-x="442" 
d="M398 379h-187q-14 0 -20.5 -5.5t-6.5 -20.5v-230q0 -15 6.5 -20.5t20.5 -5.5h23q14 0 20.5 5.5t6.5 20.5v103h139v-113q0 -58 -27 -84v-297h-105v113h-64q-14 0 -19.5 -5.5t-5.5 -20.5v-36l-105 1v51q0 52 26 75t78 23h90v67h-87q-75 0 -105.5 26t-30.5 87v264
q0 52 27 75.5t94 23.5h93v63h-279v97h482v-97h-64v-160z" />
    <glyph glyph-name="uni0920094D0928" horiz-adv-x="452" 
d="M472 539h-175v-64q61 -4 87 -30t26 -82v-250q0 -73 -46 -97v-284h-104v113h-56q-14 0 -19.5 -5.5t-5.5 -20.5v-36l-105 1v51q0 52 26 75t78 23h82v67h-79q-75 0 -105.5 26t-30.5 87v250q0 56 25.5 82t86.5 30v64h-177v97h492v-97zM211 97h32q14 0 20.5 5.5t6.5 20.5v230
q0 15 -6.5 20.5t-20.5 5.5h-32q-14 0 -20.5 -5.5t-6.5 -20.5v-230q0 -15 6.5 -20.5t20.5 -5.5z" />
    <glyph glyph-name="uni0921094D0928" horiz-adv-x="434" 
d="M369 386h-162q-14 0 -19.5 -5t-5.5 -18v-37q0 -14 5.5 -19t19.5 -5h60q67 0 94 -23t27 -75v-105q0 -55 -31 -79v-288h-104v113h-64q-15 0 -20.5 -5.5t-5.5 -20.5v-36l-104 1v51q0 53 25.5 75.5t78.5 22.5h90v67h-97q-67 0 -94.5 23.5t-27.5 75.5v62h140v-48q0 -23 21 -23
h28q15 0 20.5 5t5.5 18v76q0 14 -5.5 19t-20.5 5h-59q-68 0 -95 23t-27 75v66q0 52 27 75.5t95 23.5h66v63h-250v97h474v-97h-85v-153z" />
    <glyph glyph-name="uni0924094D0928" horiz-adv-x="880" 
d="M900 636v-97h-65v-539h-139v379h-69v-188q0 -61 -30.5 -87t-105.5 -26h-82q-75 0 -105.5 26t-30.5 87v188h-66q-15 0 -20.5 -5t-5.5 -18v-235q0 -13 5.5 -18t20.5 -5h18v-98h-62q-67 0 -94 23.5t-27 75.5v278q0 52 27 75.5t94 23.5h533v63h-716v97h920zM487 201v178h-49
q-14 0 -19.5 -5t-5.5 -18v-155q0 -15 6 -20.5t20 -5.5h22q14 0 20 5.5t6 20.5z" />
    <glyph glyph-name="uni0925094D0928" horiz-adv-x="1007" 
d="M1027 636v-97h-64v-539h-140v379h-68v-188q0 -61 -31 -87t-106 -26h-81q-72 0 -104 25q-11 -25 -51 -25h-197q-71 0 -103.5 26.5t-32.5 86.5v197h119q15 0 20.5 5t5.5 18v110q0 13 -5.5 18t-20.5 5h-6q-14 0 -19.5 -5t-5.5 -18v-39h-79v61q0 51 27.5 74.5t86.5 23.5h47
q59 0 86.5 -23.5t27.5 -74.5v-146q0 -53 -27.5 -79.5t-93.5 -26.5h-23v-90q0 -15 5.5 -20.5t19.5 -5.5h153q19 0 26.5 7.5t7.5 26.5v168q0 52 27 75.5t94 23.5h301v63h-422v97h626zM615 201v178h-49q-15 0 -20.5 -5t-5.5 -18v-155q0 -15 6.5 -20.5t20.5 -5.5h21q15 0 21 5.5
t6 20.5z" />
    <glyph glyph-name="uni0926094D0928" horiz-adv-x="436" 
d="M391 379h-190q-14 0 -20.5 -5.5t-6.5 -20.5v-152q0 -15 6 -20.5t20 -5.5h42q14 0 20 6t6 21v82h126v-475h-126v114h-62q-14 0 -19.5 -5.5t-5.5 -20.5v-36h-105v51q0 53 25.5 76t78.5 23h88v81q-14 -14 -47 -14h-50q-75 0 -105.5 26t-30.5 87v186q0 52 27 75.5t94 23.5h96
v63h-282v97h486v-97h-65v-160z" />
    <glyph glyph-name="uni0927094D0928" horiz-adv-x="985" 
d="M1005 636v-97h-64v-539h-140v379h-69v-188q0 -61 -30.5 -87t-105.5 -26h-81q-73 0 -105 25q-11 -25 -51 -25h-188q-59 0 -86.5 23.5t-27.5 74.5v114q0 48 44 53v4q-44 6 -44 54v142q0 51 27.5 74.5t86.5 23.5h48q59 0 87 -23.5t28 -74.5v-61h-79v39q0 13 -5.5 18t-19.5 5
h-8q-15 0 -20.5 -5t-5.5 -18v-101q0 -15 5.5 -20.5t20.5 -5.5h68v-97h-68q-15 0 -20.5 -5.5t-5.5 -20.5v-70q0 -15 5.5 -20.5t20.5 -5.5h122q20 0 27 7.5t7 26.5v168q0 52 27.5 75.5t94.5 23.5h301v63h-423l-1 97h628zM593 201v178h-50q-14 0 -19.5 -5t-5.5 -18v-155
q0 -15 6 -20.5t21 -5.5h21q14 0 20.5 5.5t6.5 20.5z" />
    <glyph glyph-name="uni0928094D0928" horiz-adv-x="1068" 
d="M1088 636v-97h-65v-539h-140v379h-68v-188q0 -61 -30.5 -87t-105.5 -26h-82q-75 0 -105.5 26t-30.5 87v188h-75v-188q0 -61 -31 -87t-106 -26h-81q-75 0 -105.5 26t-30.5 87v186q0 52 27 75.5t94 23.5h730v63h-903v97h1108zM246 201v178h-49q-15 0 -20.5 -5t-5.5 -18
v-155q0 -15 6.5 -20.5t20.5 -5.5h21q15 0 21 5.5t6 20.5zM675 201v178h-49q-26 0 -26 -23v-155q0 -15 6.5 -20.5t20.5 -5.5h22q14 0 20 5.5t6 20.5z" />
    <glyph glyph-name="uni092A094D0928" horiz-adv-x="875" 
d="M895 636v-97h-64v-539h-140v379h-68v-188q0 -61 -31 -87t-106 -26h-81q-72 0 -104 25q-13 -25 -51 -25h-90q-58 0 -86.5 26.5t-28.5 86.5v348h-65v97h915zM483 201v178h-50q-14 0 -19.5 -5t-5.5 -18v-155q0 -15 6 -20.5t21 -5.5h21q14 0 20.5 5.5t6.5 20.5zM691 476v63
h-507v-338q0 -15 5.5 -20.5t20.5 -5.5h24q20 0 27 7.5t7 26.5v168q0 52 27.5 75.5t94.5 23.5h301z" />
    <glyph glyph-name="uni092B094D0928" horiz-adv-x="1097" 
d="M1117 636v-97h-65v-539h-139v379h-69v-188q0 -61 -30.5 -87t-105.5 -26h-82q-75 0 -105.5 26t-30.5 87v188h-58q-14 0 -20 -6t-6 -21v-352h-140v92q-14 -14 -47 -14h-61q-58 0 -87 27t-29 86v348h-62v97h1137zM208 175h32q14 0 20 6t6 21v337h-84v-338q0 -15 5.5 -20.5
t20.5 -5.5zM704 201v178h-49q-14 0 -19.5 -5t-5.5 -18v-155q0 -15 6 -20.5t20 -5.5h22q14 0 20 5.5t6 20.5zM913 476v63h-507v-77q14 14 47 14h460z" />
    <glyph glyph-name="uni092C094D0928" horiz-adv-x="943" 
d="M963 636v-97h-64v-539h-140v379h-68v-188q0 -61 -31 -87t-106 -26h-81q-73 0 -105 25q-19 -25 -65 -25h-150q-58 0 -86.5 26.5t-28.5 86.5v186q0 52 27 75.5t94 23.5h136v-90h-73l51 -78l69 -96q-6 30 -6 61v104q0 52 27.5 75.5t94.5 23.5h301v63h-779v97h983zM177 201
q0 -15 5.5 -20.5t20.5 -5.5h97l-64 89q-38 62 -59 87v-150zM551 201v178h-49q-15 0 -20.5 -5t-5.5 -18v-155q0 -15 6.5 -20.5t20.5 -5.5h21q15 0 21 5.5t6 20.5z" />
    <glyph glyph-name="uni092D094D0928" horiz-adv-x="1082" 
d="M1102 636v-97h-64v-539h-140v379h-68v-188q0 -61 -31 -87t-106 -26h-81q-75 0 -106 26t-31 87v127h-74v-127q0 -61 -30.5 -87t-105.5 -26h-87q-75 0 -105.5 26t-30.5 87v125q0 52 27 75t94 23h99v105q0 14 -6 19t-20 5h-21q-14 0 -19.5 -5t-5.5 -19v-35h-140v50
q0 53 28 79.5t94 26.5h108q66 0 93.5 -26.5t27.5 -79.5v-120h78q16 62 118 62h301v63h-423v97h627zM262 201v117h-55q-15 0 -20.5 -5t-5.5 -19v-93q0 -15 6.5 -20.5t20.5 -5.5h27q14 0 20.5 5.5t6.5 20.5zM690 201v178h-50q-14 0 -19.5 -5t-5.5 -18v-155q0 -15 6 -20.5
t21 -5.5h21q14 0 20.5 5.5t6.5 20.5z" />
    <glyph glyph-name="uni092E094D0928" horiz-adv-x="1088" 
d="M1108 636v-97h-64v-539h-140v379h-68v-188q0 -61 -31 -87t-106 -26h-81q-75 0 -105.5 26t-30.5 87v144h-84v-135q0 -61 -30.5 -87t-105.5 -26h-87q-75 0 -105.5 26t-30.5 87v133q0 52 27 75.5t94 23.5h99v107h-279v97h1128zM259 210v125h-68q-14 0 -19.5 -5t-5.5 -18
v-102q0 -15 6 -20.5t20 -5.5h40q14 0 20.5 5.5t6.5 20.5zM696 201v178h-49q-15 0 -20.5 -5t-5.5 -18v-155q0 -15 6.5 -20.5t20.5 -5.5h21q15 0 21 5.5t6 20.5zM904 476v63h-506v-107h95q22 44 110 44h301z" />
    <glyph glyph-name="uni092F094D0928" horiz-adv-x="991" 
d="M1011 636v-97h-65v-539h-139v379h-69v-188q0 -61 -30.5 -87t-105.5 -26h-82q-72 0 -104 25q-11 -25 -51 -25h-190q-71 0 -103.5 26.5t-32.5 86.5v196h111q14 0 19.5 5t5.5 18v96q0 20 -7 26.5t-30 6.5h-158v97h1031zM598 201v178h-49q-14 0 -19.5 -5t-5.5 -18v-155
q0 -15 6 -20.5t20 -5.5h22q14 0 20 5.5t6 20.5zM807 476v63h-509q12 -13 12 -39v-105q0 -53 -26 -79t-93 -26h-13v-89q0 -15 5.5 -20.5t20.5 -5.5h146q20 0 27 7.5t7 26.5v168q0 52 27 75.5t95 23.5h301z" />
    <glyph glyph-name="uni0935094D0928" horiz-adv-x="873" 
d="M893 636v-97h-64v-539h-140v379h-69v-188q0 -61 -30.5 -87t-105.5 -26h-81q-81 0 -112 32q-18 -32 -67 -32h-66q-58 0 -87 27t-29 86v186q0 52 27.5 75.5t94.5 23.5h61v-97h-17q-15 0 -20.5 -5t-5.5 -18v-155q0 -15 5.5 -20.5t20.5 -5.5h32q14 0 20 6t6 21v175
q0 52 27.5 75.5t94.5 23.5h301v63h-709v97h913zM481 201v178h-50q-14 0 -19.5 -5t-5.5 -18v-155q0 -15 6 -20.5t21 -5.5h21q14 0 20.5 5.5t6.5 20.5z" />
    <glyph glyph-name="uni0936094D0928" horiz-adv-x="1100" 
d="M1119 636v-97h-64v-539h-140v379h-68v-188q0 -61 -31 -87t-106 -26h-81q-75 0 -105.5 26t-30.5 87v186q0 52 27 75.5t94 23.5h301v63h-474v97h678zM707 201v178h-49q-15 0 -20.5 -5t-5.5 -18v-155q0 -15 6.5 -20.5t20.5 -5.5h21q15 0 21 5.5t6 20.5zM178 640h105
q66 0 93.5 -26.5t27.5 -79.5v-186q0 -55 -35.5 -79.5t-113.5 -24.5h-60v-131q0 -13 5.5 -18t20.5 -5h22q21 0 21 23v76h140v-90q0 -52 -27.5 -75.5t-94.5 -23.5h-105q-67 0 -94 23.5t-27 75.5v297h139v-56h37q19 0 26 7t7 26v147q0 13 -5.5 18t-20.5 5h-22q-21 0 -21 -23
v-60h-140v74q0 53 28 79.5t94 26.5z" />
    <glyph glyph-name="uni0938094D0928" horiz-adv-x="1066" 
d="M1085 636v-97h-64v-539h-140v379h-68v-188q0 -61 -31 -87t-106 -26h-81q-75 0 -105.5 26t-30.5 87v70h-278v-148q0 -13 5.5 -18t20.5 -5h22q21 0 21 23v93h140v-107q0 -52 -27.5 -75.5t-94.5 -23.5h-105q-67 0 -94 23.5t-27 75.5v365h139v-107h37q19 0 26 7t7 26v116
q0 20 -6.5 26.5t-26.5 6.5h-238v97h1105zM673 201v178h-49q-15 0 -20.5 -5t-5.5 -18v-155q0 -15 6.5 -20.5t20.5 -5.5h21q15 0 21 5.5t6 20.5zM881 476v63h-497q6 -9 6 -25v-121q0 -22 -11 -36h80v20q0 52 27 75.5t94 23.5h301z" />
    <glyph glyph-name="uni0939094D0928" horiz-adv-x="481" 
d="M394 386h-184q-26 0 -26 -22v-10q0 -13 6 -17.5t20 -4.5h150q93 0 93 -83v-133h-78v58h-44q-15 0 -20.5 -5t-5.5 -20v-20h-85v25q0 76 91 76h64v9q0 15 -6.5 20.5t-20.5 5.5h-138q-15 0 -20.5 -5.5t-5.5 -20.5v-130q0 -15 5.5 -20.5t20.5 -5.5h180v-83h-209
q-71 0 -103.5 26.5t-32.5 86.5v108q0 47 44 53v4q-44 5 -44 53v46q0 52 27 75.5t94 23.5h88v63h-274v97h521v-97h-107v-153z" />
    <glyph glyph-name="uni0915094D0930" horiz-adv-x="642" 
d="M662 539h-271v-77q14 14 47 14h61q58 0 87 -27t29 -86v-163q0 -52 -27.5 -75.5t-94.5 -23.5h-61v90h18q14 0 19.5 5t5.5 18v139q0 15 -5.5 20.5t-19.5 5.5h-33q-14 0 -20 -6t-6 -21v-352h-140v104l-98 -161h-148l101 161q-78 15 -78 110v163q0 52 27 75.5t94 23.5h62v-90
h-18q-15 0 -20.5 -5t-5.5 -18v-139q0 -15 5.5 -20.5t20.5 -5.5h32q14 0 20 6t6 21v314h-271v97h682v-97z" />
    <glyph glyph-name="uni0916094D0930" horiz-adv-x="827" 
d="M847 636v-97h-65v-539h-138v109l-104 -166h-147l104 163q-75 16 -75 109v158q0 52 27.5 75.5t94.5 23.5h62v-90h-20q-14 0 -19.5 -5t-5.5 -18v-134q0 -15 5.5 -20.5t19.5 -5.5h30q15 0 21.5 6t6.5 22v312h-272q7 -8 7 -25v-175q0 -56 -28.5 -80t-95.5 -24h-73v-104
q0 -19 7 -26t26 -7h186v-98h-209q-79 0 -114.5 24.5t-35.5 79.5v368h140v-140h24q19 0 26 7t7 26v141q0 20 -6.5 26.5t-26.5 6.5h-226v97h867z" />
    <glyph glyph-name="uni0917094D0930" horiz-adv-x="661" 
d="M682 636v-97h-65v-539h-139v109l-172 -180h-138l310 319v291h-88v-271q0 -61 -30.5 -87t-105.5 -26h-87q-75 0 -106 26t-31 87v104q0 55 35.5 79.5t114.5 24.5h71v63h-271v97h702zM197 252h27q14 0 20.5 5.5t6.5 20.5v101h-50q-19 0 -25 -5.5t-6 -25.5v-70q0 -15 6 -20.5
t21 -5.5z" />
    <glyph glyph-name="uni0918094D0930" horiz-adv-x="499" 
d="M519 636v-97h-65v-539h-140v104l-98 -161h-148l99 158h-23q-102 0 -102 99v106q0 46 44 53v4q-44 5 -44 53v96q0 16 8 27h-70v97h539zM314 225v314h-90q-26 0 -34 -6t-8 -27v-70q0 -15 5.5 -20.5t20.5 -5.5h43v-97h-43q-15 0 -20.5 -5.5t-5.5 -20.5v-63q0 -15 5.5 -20.5
t20.5 -5.5h80q14 0 20 6t6 21z" />
    <glyph glyph-name="uni0919094D0930" horiz-adv-x="496" 
d="M-20 636h536v-97h-147v-153h-162q-14 0 -19.5 -5t-5.5 -18v-37q0 -14 5.5 -19t19.5 -5h60q67 0 94 -23t27 -75v-105q0 -44 -19 -67.5t-65 -29.5l89 -147h-119l-58 112l-60 -112h-119l89 146q-50 5 -71 28.5t-21 69.5v62h140v-48q0 -23 21 -23h28q15 0 20.5 5t5.5 18v76
q0 14 -5.5 19t-20.5 5h-59q-68 0 -95 23t-27 75v66q0 52 27 75.5t95 23.5h66v63h-250v97zM386 291v116h107v-116h-107z" />
    <glyph glyph-name="uni091A094D0930" horiz-adv-x="467" 
d="M485 636v-97h-64v-539h-140v104l-98 -161h-149l100 159q-83 9 -83 98v134q0 29 14 45h-72v97h252v-97h-20q-21 0 -27.5 -4.5t-6.5 -21.5v-129q0 -15 5.5 -20.5t19.5 -5.5h39q14 0 20 6t6 21v314h-302v97h506z" />
    <glyph glyph-name="uni091B094D0930" horiz-adv-x="641" 
d="M661 539h-155v-64q47 -5 70 -28t23 -70v-264q0 -60 -33 -86.5t-104 -26.5h-45l87 -145h-119l-58 112l-60 -112h-119l88 145h-59q-71 0 -104 26.5t-33 86.5v146q0 47 44 53v4q-44 5 -44 53v145q0 16 6 25h-66v97h681v-97zM375 539h-166q-17 -1 -23 -7.5t-6 -25.5v-117
q0 -15 5.5 -20.5t19.5 -5.5h35v-97h-35q-14 0 -19.5 -5.5t-5.5 -20.5v-116q0 -15 5.5 -20.5t19.5 -5.5h230q14 0 19.5 5.5t5.5 20.5v245q0 13 -5.5 18t-19.5 5h-17q-26 0 -26 -23v-67q0 -14 6 -19t20 -5h14v-83h-40q-54 0 -82 22.5t-28 76.5v83q0 47 23 70t70 28v64z" />
    <glyph glyph-name="uni091C094D0930" horiz-adv-x="657" 
d="M677 636v-97h-65v-539h-140v87l-141 -144h-150l291 287v149h-75v-125q0 -61 -30.5 -87t-105.5 -26h-83q-75 0 -105.5 26t-30.5 87v222h139v-212q0 -15 6.5 -20.5t20.5 -5.5h23q14 0 20.5 5.5t6.5 20.5v212h214v63h-492v97h697z" />
    <glyph glyph-name="uni091D094D0930" horiz-adv-x="658" 
d="M678 636v-97h-64v-539h-140v74l-137 -130h-129l266 238v81h-84q2 -12 2 -19v-55q0 -46 -27 -67t-94 -21h-96v-101h-140v219h140v-38h52q15 0 20.5 4.5t5.5 16.5v40q0 12 -5.5 16.5t-20.5 4.5h-70q-68 0 -95 21t-27 68v47q0 46 27 67t95 21h81v52h-272v97h712zM475 343
v196h-98v-131h-177q-14 0 -19.5 -4.5t-5.5 -17.5v-22q0 -21 25 -21h275z" />
    <glyph glyph-name="uni091E094D0930" horiz-adv-x="646" 
d="M666 636v-97h-64v-539h-140v109l-172 -180h-137l297 307h-75q-8 -44 -39 -62.5t-95 -18.5h-82q-74 0 -105 26t-31 87v27h140v-17q0 -15 6 -20.5t21 -5.5h21q14 0 20.5 5.5t6.5 20.5v78q0 13 -5.5 18t-20.5 5h-97v97h141q66 0 93.5 -26.5t27.5 -79.5v-38h85v207h-482v97
h686z" />
    <glyph glyph-name="uni091F094D0930" horiz-adv-x="442" 
d="M398 379h-187q-14 0 -20.5 -5.5t-6.5 -20.5v-230q0 -15 6.5 -20.5t20.5 -5.5h23q14 0 20.5 5.5t6.5 20.5v103h139v-113q0 -49 -19.5 -75t-64.5 -34l90 -149h-119l-58 112l-60 -112h-119l90 147q-51 7 -73 33t-22 78v264q0 52 27 75.5t94 23.5h93v63h-279v97h482v-97h-64
v-160z" />
    <glyph glyph-name="uni0920094D0930" horiz-adv-x="452" 
d="M472 539h-175v-64q61 -4 87 -30t26 -82v-250q0 -52 -22 -78t-72 -32l89 -148h-119l-58 112l-60 -112h-119l90 147q-50 7 -72 33t-22 78v250q0 56 25.5 82t86.5 30v64h-177v97h492v-97zM270 123v230q0 15 -6.5 20.5t-20.5 5.5h-32q-14 0 -20.5 -5.5t-6.5 -20.5v-230
q0 -15 6.5 -20.5t20.5 -5.5h32q14 0 20.5 5.5t6.5 20.5z" />
    <glyph glyph-name="uni0921094D0930" horiz-adv-x="434" 
d="M369 386h-162q-14 0 -19.5 -5t-5.5 -18v-37q0 -14 5.5 -19t19.5 -5h60q67 0 94 -23t27 -75v-105q0 -44 -19 -67.5t-66 -29.5l89 -147h-119l-58 112l-60 -112h-119l89 146q-50 5 -70.5 28.5t-20.5 69.5v62h140v-48q0 -23 21 -23h28q15 0 20.5 5t5.5 18v76q0 14 -5.5 19
t-20.5 5h-59q-68 0 -95 23t-27 75v66q0 52 27 75.5t95 23.5h66v63h-250v97h474v-97h-85v-153z" />
    <glyph glyph-name="uni0922094D0930" horiz-adv-x="475" 
d="M398 379h-187q-14 0 -20.5 -5.5t-6.5 -20.5v-230q0 -15 6.5 -20.5t20.5 -5.5h60q14 0 20.5 5.5t6.5 20.5v52q0 15 -6.5 20.5t-20.5 5.5h-43v97h73q75 0 106 -26t31 -87v-72q0 -54 -24 -80.5t-80 -31.5l88 -146h-119l-58 112l-60 -112h-119l89 146q-59 4 -84.5 30.5
t-25.5 81.5v264q0 52 27 75.5t94 23.5h93v63h-279v97h515v-97h-97v-160z" />
    <glyph glyph-name="uni0923094D0930" horiz-adv-x="660" 
d="M680 636v-97h-64v-539h-140v109l-172 -180h-137l309 319v291h-79v-264q0 -61 -30.5 -87t-105.5 -26h-83q-75 0 -105.5 26t-30.5 87v264h-62v97h700zM258 285v254h-77v-254q0 -15 6.5 -20.5t20.5 -5.5h23q14 0 20.5 5.5t6.5 20.5z" />
    <glyph glyph-name="uni0924094D0930" horiz-adv-x="499" 
d="M519 636v-97h-64v-539h-139v188h-22l-114 -188h-160l143 235l-54 90q-18 29 -33 39.5t-42 10.5h-22v97h84q50 0 76.5 -14.5t50.5 -52.5l81 -129h12v263h-336v97h539z" />
    <glyph glyph-name="uni0925094D0930" horiz-adv-x="585" 
d="M605 636v-97h-65v-539h-139v106l-99 -163h-148l99 158h-103q-101 0 -101 99v188h119q15 0 20.5 5t5.5 18v110q0 13 -5.5 18t-20.5 5h-6q-14 0 -19.5 -5t-5.5 -18v-39h-79v61q0 51 27.5 74.5t86.5 23.5h47q59 0 86.5 -23.5t27.5 -74.5v-146q0 -53 -27.5 -79.5t-93.5 -26.5
h-23v-67q0 -15 5.5 -20.5t19.5 -5.5h160q15 0 21 6t6 21v314l-1 97h205z" />
    <glyph glyph-name="uni0926094D0930" horiz-adv-x="436" 
d="M391 379h-190q-14 0 -20.5 -5.5t-6.5 -20.5v-129q0 -15 6 -20.5t20 -5.5h28q14 0 20 6t6 21v59h140v-284h-140v104l-99 -161h-148l101 160q-73 12 -73 97v177q0 52 27 75.5t94 23.5h96v63h-282v97h486v-97h-65v-160z" />
    <glyph glyph-name="uni0927094D0930" horiz-adv-x="557" 
d="M582 636v-97h-64v-539h-140v104l-98 -161h-148l99 158h-73q-101 0 -101 99v100q0 48 44 53v4q-44 6 -44 54v132q0 51 27.5 74.5t86.5 23.5h48q59 0 87 -23.5t28 -74.5v-61h-79v39q0 13 -5.5 18t-19.5 5h-8q-15 0 -20.5 -5t-5.5 -18v-91q0 -15 5.5 -20.5t20.5 -5.5h68v-97
h-68q-15 0 -20.5 -5.5t-5.5 -20.5v-57q0 -15 5.5 -20.5t20.5 -5.5h130q14 0 20 6t6 21v314l-1 97h205z" />
    <glyph glyph-name="uni0928094D0930" horiz-adv-x="651" 
d="M658 636v-97h-64v-539h-140v109l-172 -180h-137l309 319v131h-68v-99q0 -61 -31 -86.5t-106 -25.5h-81q-75 0 -105.5 25.5t-30.5 86.5v97q0 52 27 75.5t94 23.5h301v63h-474v97h678zM246 291v88h-49q-15 0 -20.5 -5t-5.5 -18v-65q0 -16 6.5 -21.5t20.5 -5.5h21
q15 0 21 5.5t6 21.5z" />
    <glyph glyph-name="uni092A094D0930" horiz-adv-x="452" 
d="M472 636v-97h-64v-539h-140v104l-98 -161h-148l101 161q-78 15 -78 110v325h-65v97h492zM268 225v314h-84v-315q0 -15 5.5 -20.5t20.5 -5.5h32q14 0 20 6t6 21z" />
    <glyph glyph-name="uni092B094D0930" horiz-adv-x="657" 
d="M677 539h-271v-77q14 14 47 14h61q58 0 87 -27t29 -86v-186q0 -52 -27.5 -75.5t-94.5 -23.5h-61v90h17q15 0 20.5 5t5.5 18v162q0 15 -5.5 20.5t-20.5 5.5h-32q-14 0 -20 -6t-6 -21v-352h-140v104l-98 -161h-148l100 159q-78 10 -78 98v339h-62v97h697v-97zM266 225v314
h-84v-315q0 -15 5.5 -20.5t20.5 -5.5h32q14 0 20 6t6 21z" />
    <glyph glyph-name="uni092C094D0930" horiz-adv-x="519" 
d="M539 636v-97h-64v-539h-140v101l-97 -158h-148l91 144h-30q-58 0 -86.5 26.5t-28.5 86.5v177q0 52 27.5 75.5t94.5 23.5h136v-90h-74l52 -73l69 -93q-6 24 -6 113v206h-355v97h559zM201 184h80q7 0 12 3l-117 163v-140q0 -15 5.5 -20.5t19.5 -5.5z" />
    <glyph glyph-name="uni092D094D0930" horiz-adv-x="674" 
d="M694 636v-97h-65v-539h-139v109l-172 -180h-138l310 319v88h-89v-78q0 -61 -30.5 -86.5t-105.5 -25.5h-87q-75 0 -105.5 25.5t-30.5 86.5v77q0 52 27 75t94 23h99v86q0 14 -6 19t-20 5h-21q-14 0 -19.5 -5t-5.5 -19v-35h-140v50q0 53 28 79.5t94 26.5h108
q66 0 93.5 -26.5t27.5 -79.5v-101h89v203h204zM262 268v68h-55q-15 0 -20.5 -5t-5.5 -18v-45q0 -15 6.5 -20.5t20.5 -5.5h27q14 0 20.5 5.5t6.5 20.5z" />
    <glyph glyph-name="uni092E094D0930" horiz-adv-x="664" 
d="M684 636v-97h-65v-539h-139v109l-172 -180h-138l310 319v98h-89v-88q0 -61 -30.5 -86.5t-105.5 -25.5h-87q-75 0 -105.5 25.5t-30.5 86.5v86q0 52 27 75.5t94 23.5h99v96h-272v97h704zM252 268v78h-68q-14 0 -19.5 -5t-5.5 -19v-54q0 -15 6 -20.5t20 -5.5h40
q14 0 20.5 5.5t6.5 20.5zM480 443v96h-89v-96h89z" />
    <glyph glyph-name="uni092F094D0930" horiz-adv-x="568" 
d="M588 636v-97h-64v-539h-140v104l-99 -161h-148l100 158h-97q-101 0 -101 99v187h111q14 0 19.5 5t5.5 18v96q0 20 -7 26.5t-30 6.5h-164v97h614zM384 225v314h-86q12 -13 12 -39v-105q0 -53 -26 -79t-93 -26h-13v-66q0 -15 5.5 -20.5t20.5 -5.5h154q14 0 20 6t6 21z" />
    <glyph glyph-name="uni0935094D0930" horiz-adv-x="450" 
d="M470 636v-97h-64v-539h-140v104l-98 -161h-148l100 159q-78 10 -78 98v177q0 52 27.5 75.5t94.5 23.5h61v-97h-17q-15 0 -20.5 -5t-5.5 -18v-132q0 -15 5.5 -20.5t20.5 -5.5h33q14 0 19.5 5.5t5.5 20.5v315h-286v97h490z" />
    <glyph glyph-name="uni0936094D0930" horiz-adv-x="658" 
d="M474 636h204v-97h-64v-539h-140v158l-114 -113h-153l250 244h-126l-152 -141h-161l154 141q-67 2 -95 28.5t-28 83.5v123q0 60 30.5 86t105.5 26h75q75 0 106 -26t31 -86v-112q0 -22 -11 -35h88v259zM188 524v-123q0 -24 25 -24h19q25 0 25 24v123q0 24 -25 24h-19
q-25 0 -25 -24z" />
    <glyph glyph-name="uni0938094D0930" horiz-adv-x="647" 
d="M667 636v-97h-64v-539h-140v240l-92 -99h-144l140 129h-186v-157q0 -13 5.5 -18t20.5 -5h183v-90h-227q-67 0 -94 23.5t-27 75.5v365h139v-107h37q19 0 26 7t7 26v116q0 20 -6.5 26.5t-26.5 6.5h-238v97h687zM463 357v182h-79q6 -9 6 -25v-121q0 -22 -11 -36h84z" />
    <glyph glyph-name="uni0939094D0930" horiz-adv-x="488" 
d="M394 386h-184q-26 0 -26 -22v-19q0 -13 6 -17.5t20 -4.5h153q94 0 94 -83v-88h-79v78q0 20 -15 25l-65 -122h-83l66 123h-71q-15 0 -20.5 -5.5t-5.5 -20.5v-121q0 -15 5.5 -20.5t20.5 -5.5h187v-83h-216q-71 0 -103.5 26.5t-32.5 86.5v99q0 47 44 53v4q-44 5 -44 53v55
q0 52 27 75.5t94 23.5h88v63h-274v97h528v-97h-114v-153z" />
    <glyph glyph-name="uni0915093C094D0930" horiz-adv-x="642" 
d="M662 539h-271v-77q14 14 47 14h61q58 0 87 -27t29 -86v-163q0 -52 -27.5 -75.5t-94.5 -23.5h-61v90h18q14 0 19.5 5t5.5 18v139q0 15 -5.5 20.5t-19.5 5.5h-33q-14 0 -20 -6t-6 -21v-352h-140v104l-98 -161h-148l101 161q-78 15 -78 110v163q0 52 27 75.5t94 23.5h62v-90
h-18q-15 0 -20.5 -5t-5.5 -18v-139q0 -15 5.5 -20.5t20.5 -5.5h32q14 0 20 6t6 21v314h-271v97h682v-97zM206 -165v116h107v-116h-107z" />
    <glyph glyph-name="uni0916093C094D0930" horiz-adv-x="827" 
d="M847 636v-97h-65v-539h-138v109l-104 -166h-147l104 163q-75 16 -75 109v158q0 52 27.5 75.5t94.5 23.5h62v-90h-20q-14 0 -19.5 -5t-5.5 -18v-134q0 -15 5.5 -20.5t19.5 -5.5h30q15 0 21.5 6t6.5 22v312h-272q7 -8 7 -25v-175q0 -56 -28.5 -80t-95.5 -24h-73v-104
q0 -19 7 -26t26 -7h186v-98h-209q-79 0 -114.5 24.5t-35.5 79.5v368h140v-140h24q19 0 26 7t7 26v141q0 20 -6.5 26.5t-26.5 6.5h-226v97h867zM598 -164v116h107v-116h-107z" />
    <glyph glyph-name="uni0917093C094D0930" horiz-adv-x="661" 
d="M682 636v-97h-65v-539h-139v109l-172 -180h-138l310 319v291h-88v-271q0 -61 -30.5 -87t-105.5 -26h-87q-75 0 -106 26t-31 87v104q0 55 35.5 79.5t114.5 24.5h71v63h-271v97h702zM197 252h27q14 0 20.5 5.5t6.5 20.5v101h-50q-19 0 -25 -5.5t-6 -25.5v-70q0 -15 6 -20.5
t21 -5.5zM393 -164v116h107v-116h-107z" />
    <glyph glyph-name="uni0918093C094D0930" horiz-adv-x="499" 
d="M519 636v-97h-65v-539h-140v104l-98 -161h-148l99 158h-23q-102 0 -102 99v106q0 46 44 53v4q-44 5 -44 53v96q0 16 8 27h-70v97h539zM314 225v314h-90q-26 0 -34 -6t-8 -27v-70q0 -15 5.5 -20.5t20.5 -5.5h43v-97h-43q-15 0 -20.5 -5.5t-5.5 -20.5v-63q0 -15 5.5 -20.5
t20.5 -5.5h80q14 0 20 6t6 21zM279 -164v116h107v-116h-107z" />
    <glyph glyph-name="uni0919093C094D0930" horiz-adv-x="496" 
d="M-20 636h536v-97h-147v-153h-162q-14 0 -19.5 -5t-5.5 -18v-37q0 -14 5.5 -19t19.5 -5h60q67 0 94 -23t27 -75v-105q0 -44 -19 -67.5t-65 -29.5l89 -147h-119l-58 112l-60 -112h-119l89 146q-50 5 -71 28.5t-21 69.5v62h140v-48q0 -23 21 -23h28q15 0 20.5 5t5.5 18v76
q0 14 -5.5 19t-20.5 5h-59q-68 0 -95 23t-27 75v66q0 52 27 75.5t95 23.5h66v63h-250v97zM386 291v116h107v-116h-107zM162 -271v116h107v-116h-107z" />
    <glyph glyph-name="uni091A093C094D0930" horiz-adv-x="467" 
d="M485 636v-97h-64v-539h-140v104l-98 -161h-149l100 159q-83 9 -83 98v134q0 29 14 45h-72v97h252v-97h-20q-21 0 -27.5 -4.5t-6.5 -21.5v-129q0 -15 5.5 -20.5t19.5 -5.5h39q14 0 20 6t6 21v314h-302v97h506zM233 -164v116h107v-116h-107z" />
    <glyph glyph-name="uni091B093C094D0930" horiz-adv-x="641" 
d="M661 539h-155v-64q47 -5 70 -28t23 -70v-264q0 -60 -33 -86.5t-104 -26.5h-45l87 -145h-119l-58 112l-60 -112h-119l88 145h-59q-71 0 -104 26.5t-33 86.5v146q0 47 44 53v4q-44 5 -44 53v145q0 16 6 25h-66v97h681v-97zM375 539h-166q-17 -1 -23 -7.5t-6 -25.5v-117
q0 -15 5.5 -20.5t19.5 -5.5h35v-97h-35q-14 0 -19.5 -5.5t-5.5 -20.5v-116q0 -15 5.5 -20.5t19.5 -5.5h230q14 0 19.5 5.5t5.5 20.5v245q0 13 -5.5 18t-19.5 5h-17q-26 0 -26 -23v-67q0 -14 6 -19t20 -5h14v-83h-40q-54 0 -82 22.5t-28 76.5v83q0 47 23 70t70 28v64z
M270 -273v116h107v-116h-107z" />
    <glyph glyph-name="uni091C093C094D0930" horiz-adv-x="657" 
d="M677 636v-97h-65v-539h-140v87l-141 -144h-150l291 287v149h-75v-125q0 -61 -30.5 -87t-105.5 -26h-83q-75 0 -105.5 26t-30.5 87v222h139v-212q0 -15 6.5 -20.5t20.5 -5.5h23q14 0 20.5 5.5t6.5 20.5v212h214v63h-492v97h697zM405 -161v116h107v-116h-107z" />
    <glyph glyph-name="uni091D093C094D0930" horiz-adv-x="658" 
d="M678 636v-97h-64v-539h-140v74l-137 -130h-129l266 238v81h-84q2 -12 2 -19v-55q0 -46 -27 -67t-94 -21h-96v-101h-140v219h140v-38h52q15 0 20.5 4.5t5.5 16.5v40q0 12 -5.5 16.5t-20.5 4.5h-70q-68 0 -95 21t-27 68v47q0 46 27 67t95 21h81v52h-272v97h712zM475 343
v196h-98v-131h-177q-14 0 -19.5 -4.5t-5.5 -17.5v-22q0 -21 25 -21h275zM409 -165v116h107v-116h-107z" />
    <glyph glyph-name="uni091E093C094D0930" horiz-adv-x="646" 
d="M666 636v-97h-64v-539h-140v109l-172 -180h-137l297 307h-75q-8 -44 -39 -62.5t-95 -18.5h-82q-74 0 -105 26t-31 87v27h140v-17q0 -15 6 -20.5t21 -5.5h21q14 0 20.5 5.5t6.5 20.5v78q0 13 -5.5 18t-20.5 5h-97v97h141q66 0 93.5 -26.5t27.5 -79.5v-38h85v207h-482v97
h686zM370 -166v116h107v-116h-107z" />
    <glyph glyph-name="uni091F093C094D0930" horiz-adv-x="442" 
d="M398 379h-187q-14 0 -20.5 -5.5t-6.5 -20.5v-230q0 -15 6.5 -20.5t20.5 -5.5h23q14 0 20.5 5.5t6.5 20.5v103h139v-113q0 -49 -19.5 -75t-64.5 -34l90 -149h-119l-58 112l-60 -112h-119l90 147q-51 7 -73 33t-22 78v264q0 52 27 75.5t94 23.5h93v63h-279v97h482v-97h-64
v-160zM174 -271v116h107v-116h-107z" />
    <glyph glyph-name="uni0920093C094D0930" horiz-adv-x="452" 
d="M472 539h-175v-64q61 -4 87 -30t26 -82v-250q0 -52 -22 -78t-72 -32l89 -148h-119l-58 112l-60 -112h-119l90 147q-50 7 -72 33t-22 78v250q0 56 25.5 82t86.5 30v64h-177v97h492v-97zM270 123v230q0 15 -6.5 20.5t-20.5 5.5h-32q-14 0 -20.5 -5.5t-6.5 -20.5v-230
q0 -15 6.5 -20.5t20.5 -5.5h32q14 0 20.5 5.5t6.5 20.5zM174 -271v116h107v-116h-107z" />
    <glyph glyph-name="uni0921093C094D0930" horiz-adv-x="434" 
d="M369 386h-162q-14 0 -19.5 -5t-5.5 -18v-37q0 -14 5.5 -19t19.5 -5h60q67 0 94 -23t27 -75v-105q0 -44 -19 -67.5t-66 -29.5l89 -147h-119l-58 112l-60 -112h-119l89 146q-50 5 -70.5 28.5t-20.5 69.5v62h140v-48q0 -23 21 -23h28q15 0 20.5 5t5.5 18v76q0 14 -5.5 19
t-20.5 5h-59q-68 0 -95 23t-27 75v66q0 52 27 75.5t95 23.5h66v63h-250v97h474v-97h-85v-153zM163 -271v116h107v-116h-107z" />
    <glyph glyph-name="uni0922093C094D0930" horiz-adv-x="475" 
d="M398 379h-187q-14 0 -20.5 -5.5t-6.5 -20.5v-230q0 -15 6.5 -20.5t20.5 -5.5h60q14 0 20.5 5.5t6.5 20.5v52q0 15 -6.5 20.5t-20.5 5.5h-43v97h73q75 0 106 -26t31 -87v-72q0 -54 -24 -80.5t-80 -31.5l88 -146h-119l-58 112l-60 -112h-119l89 146q-59 4 -84.5 30.5
t-25.5 81.5v264q0 52 27 75.5t94 23.5h93v63h-279v97h515v-97h-97v-160zM192 -273v116h107v-116h-107z" />
    <glyph glyph-name="uni0923093C094D0930" horiz-adv-x="660" 
d="M680 636v-97h-64v-539h-140v109l-172 -180h-137l309 319v291h-79v-264q0 -61 -30.5 -87t-105.5 -26h-83q-75 0 -105.5 26t-30.5 87v264h-62v97h700zM258 285v254h-77v-254q0 -15 6.5 -20.5t20.5 -5.5h23q14 0 20.5 5.5t6.5 20.5zM390 -159v116h107v-116h-107z" />
    <glyph glyph-name="uni0924093C094D0930" horiz-adv-x="499" 
d="M519 636v-97h-64v-539h-139v188h-22l-114 -188h-160l143 235l-54 90q-18 29 -33 39.5t-42 10.5h-22v97h84q50 0 76.5 -14.5t50.5 -52.5l81 -129h12v263h-336v97h539zM208 -162v116h107v-116h-107z" />
    <glyph glyph-name="uni0925093C094D0930" horiz-adv-x="585" 
d="M605 636v-97h-65v-539h-139v106l-99 -163h-148l99 158h-103q-101 0 -101 99v188h119q15 0 20.5 5t5.5 18v110q0 13 -5.5 18t-20.5 5h-6q-14 0 -19.5 -5t-5.5 -18v-39h-79v61q0 51 27.5 74.5t86.5 23.5h47q59 0 86.5 -23.5t27.5 -74.5v-146q0 -53 -27.5 -79.5t-93.5 -26.5
h-23v-67q0 -15 5.5 -20.5t19.5 -5.5h160q15 0 21 6t6 21v314l-1 97h205zM367 -161v116h107v-116h-107z" />
    <glyph glyph-name="uni0926093C094D0930" horiz-adv-x="436" 
d="M391 379h-190q-14 0 -20.5 -5.5t-6.5 -20.5v-129q0 -15 6 -20.5t20 -5.5h28q14 0 20 6t6 21v59h140v-284h-140v104l-99 -161h-148l101 160q-73 12 -73 97v177q0 52 27 75.5t94 23.5h96v63h-282v97h486v-97h-65v-160zM215 -164v116h107v-116h-107z" />
    <glyph glyph-name="uni0927093C094D0930" horiz-adv-x="557" 
d="M582 636v-97h-64v-539h-140v104l-98 -161h-148l99 158h-73q-101 0 -101 99v100q0 48 44 53v4q-44 6 -44 54v132q0 51 27.5 74.5t86.5 23.5h48q59 0 87 -23.5t28 -74.5v-61h-79v39q0 13 -5.5 18t-19.5 5h-8q-15 0 -20.5 -5t-5.5 -18v-91q0 -15 5.5 -20.5t20.5 -5.5h68v-97
h-68q-15 0 -20.5 -5.5t-5.5 -20.5v-57q0 -15 5.5 -20.5t20.5 -5.5h130q14 0 20 6t6 21v314l-1 97h205zM335 -165v116h107v-116h-107z" />
    <glyph glyph-name="uni0928093C094D0930" horiz-adv-x="651" 
d="M658 636v-97h-64v-539h-140v109l-172 -180h-137l309 319v131h-68v-99q0 -61 -31 -86.5t-106 -25.5h-81q-75 0 -105.5 25.5t-30.5 86.5v97q0 52 27 75.5t94 23.5h301v63h-474v97h678zM246 291v88h-49q-15 0 -20.5 -5t-5.5 -18v-65q0 -16 6.5 -21.5t20.5 -5.5h21
q15 0 21 5.5t6 21.5zM376 -164v116h107v-116h-107z" />
    <glyph glyph-name="uni092A093C094D0930" horiz-adv-x="452" 
d="M472 636v-97h-64v-539h-140v104l-98 -161h-148l101 161q-78 15 -78 110v325h-65v97h492zM268 225v314h-84v-315q0 -15 5.5 -20.5t20.5 -5.5h32q14 0 20 6t6 21zM225 -150v116h107v-116h-107z" />
    <glyph glyph-name="uni092B093C094D0930" horiz-adv-x="657" 
d="M677 539h-271v-77q14 14 47 14h61q58 0 87 -27t29 -86v-186q0 -52 -27.5 -75.5t-94.5 -23.5h-61v90h17q15 0 20.5 5t5.5 18v162q0 15 -5.5 20.5t-20.5 5.5h-32q-14 0 -20 -6t-6 -21v-352h-140v104l-98 -161h-148l100 159q-78 10 -78 98v339h-62v97h697v-97zM266 225v314
h-84v-315q0 -15 5.5 -20.5t20.5 -5.5h32q14 0 20 6t6 21zM223 -164v116h107v-116h-107z" />
    <glyph glyph-name="uni092C093C094D0930" horiz-adv-x="519" 
d="M539 636v-97h-64v-539h-140v101l-97 -158h-148l91 144h-30q-58 0 -86.5 26.5t-28.5 86.5v177q0 52 27.5 75.5t94.5 23.5h136v-90h-74l52 -73l69 -93q-6 24 -6 113v206h-355v97h559zM201 184h80q7 0 12 3l-117 163v-140q0 -15 5.5 -20.5t19.5 -5.5zM291 -163v116h107v-116
h-107z" />
    <glyph glyph-name="uni092D093C094D0930" horiz-adv-x="674" 
d="M694 636v-97h-65v-539h-139v109l-172 -180h-138l310 319v88h-89v-78q0 -61 -30.5 -86.5t-105.5 -25.5h-87q-75 0 -105.5 25.5t-30.5 86.5v77q0 52 27 75t94 23h99v86q0 14 -6 19t-20 5h-21q-14 0 -19.5 -5t-5.5 -19v-35h-140v50q0 53 28 79.5t94 26.5h108
q66 0 93.5 -26.5t27.5 -79.5v-101h89v203h204zM262 268v68h-55q-15 0 -20.5 -5t-5.5 -18v-45q0 -15 6.5 -20.5t20.5 -5.5h27q14 0 20.5 5.5t6.5 20.5zM399 -165v116h107v-116h-107z" />
    <glyph glyph-name="uni092E093C094D0930" horiz-adv-x="664" 
d="M684 636v-97h-65v-539h-139v109l-172 -180h-138l310 319v98h-89v-88q0 -61 -30.5 -86.5t-105.5 -25.5h-87q-75 0 -105.5 25.5t-30.5 86.5v86q0 52 27 75.5t94 23.5h99v96h-272v97h704zM252 268v78h-68q-14 0 -19.5 -5t-5.5 -19v-54q0 -15 6 -20.5t20 -5.5h40
q14 0 20.5 5.5t6.5 20.5zM480 443v96h-89v-96h89zM394 -164v116h107v-116h-107z" />
    <glyph glyph-name="uni092F093C094D0930" horiz-adv-x="568" 
d="M588 636v-97h-64v-539h-140v104l-99 -161h-148l100 158h-97q-101 0 -101 99v187h111q14 0 19.5 5t5.5 18v96q0 20 -7 26.5t-30 6.5h-164v97h614zM384 225v314h-86q12 -13 12 -39v-105q0 -53 -26 -79t-93 -26h-13v-66q0 -15 5.5 -20.5t20.5 -5.5h154q14 0 20 6t6 21z
M346 -162v116h107v-116h-107z" />
    <glyph glyph-name="uni0935093C094D0930" horiz-adv-x="450" 
d="M470 636v-97h-64v-539h-140v104l-98 -161h-148l100 159q-78 10 -78 98v177q0 52 27.5 75.5t94.5 23.5h61v-97h-17q-15 0 -20.5 -5t-5.5 -18v-132q0 -15 5.5 -20.5t20.5 -5.5h33q14 0 19.5 5.5t5.5 20.5v315h-286v97h490zM230 -166v116h107v-116h-107z" />
    <glyph glyph-name="uni0915094D0930094D" horiz-adv-x="524" 
d="M567 539h-176v-107q14 14 47 14h129v-97h-150q-14 0 -20 -6t-6 -21v-322h-140v104l-98 -161h-148l101 161q-78 15 -78 110v163q0 52 27 75.5t94 23.5h62v-90h-18q-15 0 -20.5 -5t-5.5 -18v-139q0 -15 5.5 -20.5t20.5 -5.5h32q14 0 20 6t6 21v314h-271v97h587v-97z" />
    <glyph glyph-name="uni0916094D0930094D" horiz-adv-x="631" 
d="M586 199h80v-55l-126 -201h-147l104 163q-75 15 -75 109v158q0 52 27.5 75.5t94.5 23.5h62v-90h-20q-14 0 -19.5 -5t-5.5 -18v-134q0 -15 5.5 -20.5t19.5 -5.5zM401 98v-98h-209q-79 0 -114.5 24.5t-35.5 79.5v368h140v-140h24q19 0 26 7t7 26v141q0 20 -6.5 26.5
t-26.5 6.5h-226v97h678v-97h-286q7 -8 7 -25v-175q0 -56 -28.5 -80t-95.5 -24h-73v-104q0 -19 7 -26t26 -7h186z" />
    <glyph glyph-name="uni0917094D0930094D" horiz-adv-x="524" 
d="M-20 636h541v-97h-131v-271q0 -61 -30.5 -87t-105.5 -26h-87q-75 0 -106 26t-31 87v104q0 55 35.5 79.5t114.5 24.5h71v63h-271v97zM197 252h27q14 0 20.5 5.5t6.5 20.5v101h-50q-19 0 -25 -5.5t-6 -25.5v-70q0 -15 6 -20.5t21 -5.5zM306 -71h-138l353 364v-141z" />
    <glyph glyph-name="uni0918094D0930094D" horiz-adv-x="324" 
d="M346 539h-122q-26 0 -34 -6t-8 -27v-70q0 -15 5.5 -20.5t20.5 -5.5h43v-97h-43q-15 0 -20.5 -5.5t-5.5 -20.5v-63q0 -15 5.5 -20.5t20.5 -5.5h138v-58l-120 -197h-148l99 158h-33q-102 0 -102 99v106q0 48 44 53v4q-44 7 -44 54v95q0 16 8 27h-70v97h366v-97z" />
    <glyph glyph-name="uni091A094D0930094D" horiz-adv-x="282" 
d="M-21 636h323v-97h-323v97zM191 353v-129q0 -15 5.5 -20.5t19.5 -5.5h86v-58l-119 -197h-149l100 159q-83 9 -83 98v134q0 29 14 45h-72v97h252v-97h-20q-21 0 -27.5 -4.5t-6.5 -21.5z" />
    <glyph glyph-name="uni091C094D0930094D" horiz-adv-x="513" 
d="M533 290v-141l-202 -206h-150zM42 476h139v-212q0 -15 6.5 -20.5t20.5 -5.5h23q14 0 20.5 5.5t6.5 20.5v212h275v-97h-136v-125q0 -61 -30.5 -87t-105.5 -26h-83q-75 0 -105.5 26t-30.5 87v222zM-20 636h553v-97h-553v97z" />
    <glyph glyph-name="uni091D094D0930094D" horiz-adv-x="545" 
d="M377 386h-177q-14 0 -19.5 -5t-5.5 -18v-29q0 -13 5.5 -18t19.5 -5h375v-90h-185q2 -14 2 -21v-78q0 -52 -27 -75.5t-94 -23.5h-96v-66h-140v216h140v-60h52q15 0 20.5 5t5.5 19v61q0 13 -5.5 18t-20.5 5h-70q-68 0 -95 23.5t-27 75.5v57q0 52 27 75.5t95 23.5h81v63
h-258v97h595v-97h-198v-153zM390 -118h-141l326 317v-130z" />
    <glyph glyph-name="uni091E094D0930094D" horiz-adv-x="482" 
d="M-20 636h532v-97h-532v97zM377 370v-38h135v-96h-135v-45q0 -61 -30.5 -87t-105.5 -26h-82q-74 0 -105 26t-31 87v74h140v-64q0 -15 6 -20.5t21 -5.5h21q14 0 20.5 5.5t6.5 20.5v155q0 13 -5.5 18t-20.5 5h-97v97h141q66 0 93.5 -26.5t27.5 -79.5zM342 -118h-141l311 302
v-130z" />
    <glyph glyph-name="uni091F094D0930094D" horiz-adv-x="442" 
d="M398 379h-187q-14 0 -20.5 -5.5t-6.5 -20.5v-230q0 -15 6.5 -20.5t20.5 -5.5h23q14 0 20.5 5.5t6.5 20.5v103h139v-113q0 -49 -19.5 -75t-64.5 -34l90 -149h-119l-58 112l-60 -112h-119l90 147q-51 7 -73 33t-22 78v264q0 52 27 75.5t94 23.5h93v63h-279v97h482v-97h-64
v-160zM142 -165h139l121 -144h-139z" />
    <glyph glyph-name="uni0920094D0930094D" horiz-adv-x="452" 
d="M472 539h-175v-64q61 -4 87 -30t26 -82v-250q0 -52 -22 -78t-72 -32l89 -148h-119l-58 112l-60 -112h-119l90 147q-50 7 -72 33t-22 78v250q0 56 25.5 82t86.5 30v64h-177v97h492v-97zM270 123v230q0 15 -6.5 20.5t-20.5 5.5h-32q-14 0 -20.5 -5.5t-6.5 -20.5v-230
q0 -15 6.5 -20.5t20.5 -5.5h32q14 0 20.5 5.5t6.5 20.5zM146 -165h139l121 -144h-139z" />
    <glyph glyph-name="uni0921094D0930094D" horiz-adv-x="434" 
d="M-20 636h474v-97h-85v-153h-162q-14 0 -19.5 -5t-5.5 -18v-37q0 -14 5.5 -19t19.5 -5h60q67 0 94 -23t27 -75v-105q0 -44 -19 -67.5t-66 -29.5l89 -147h-119l-58 112l-60 -112h-119l89 146q-50 5 -70.5 28.5t-20.5 69.5v62h140v-48q0 -23 21 -23h28q15 0 20.5 5t5.5 18
v76q0 14 -5.5 19t-20.5 5h-59q-68 0 -95 23t-27 75v66q0 52 27 75.5t95 23.5h66v63h-250v97zM142 -165h139l121 -144h-139z" />
    <glyph glyph-name="uni0922094D0930094D" horiz-adv-x="475" 
d="M398 379h-187q-14 0 -20.5 -5.5t-6.5 -20.5v-230q0 -15 6.5 -20.5t20.5 -5.5h60q14 0 20.5 5.5t6.5 20.5v52q0 15 -6.5 20.5t-20.5 5.5h-43v97h73q75 0 106 -26t31 -87v-72q0 -54 -24 -80.5t-80 -31.5l88 -146h-119l-58 112l-60 -112h-119l89 146q-59 4 -84.5 30.5
t-25.5 81.5v264q0 52 27 75.5t94 23.5h93v63h-279v97h515v-97h-97v-160zM162 -165h139l121 -144h-139z" />
    <glyph glyph-name="uni0923094D0930094D" horiz-adv-x="448" 
d="M-20 636h498v-97h-81v-336q0 -61 -30.5 -87t-105.5 -26h-83q-75 0 -105.5 26t-30.5 87v336h-62v97zM258 213v326h-77v-326q0 -15 6.5 -20.5t20.5 -5.5h23q14 0 20.5 5.5t6.5 20.5zM328 -118h-141l291 282v-131z" />
    <glyph glyph-name="uni0924094D0930094D" horiz-adv-x="367" 
d="M-20 636h407v-97h-407v97zM387 276v-88h-93l-114 -188h-160l143 235l-54 90q-18 29 -33 39.5t-42 10.5h-22v97h84q50 0 76.5 -14.5t50.5 -52.5l81 -129h83z" />
    <glyph glyph-name="uni0925094D0930094D" horiz-adv-x="402" 
d="M214 198h208v-58l-120 -197h-148l99 158h-103q-101 0 -101 99v188h119q15 0 20.5 5t5.5 18v110q0 13 -5.5 18t-20.5 5h-6q-14 0 -19.5 -5t-5.5 -18v-39h-79v61q0 51 27.5 74.5t86.5 23.5h47q59 0 86.5 -23.5t27.5 -74.5v-146q0 -53 -27.5 -79.5t-93.5 -26.5h-23v-67
q0 -15 5.5 -20.5t19.5 -5.5z" />
    <glyph glyph-name="uni0926094D0930094D" horiz-adv-x="436" 
d="M384 -61l121 -144h-139l-121 144h139zM254 0v104l-99 -161h-148l101 160q-73 12 -73 97v177q0 52 27 75.5t94 23.5h96v63h-282v97h486v-97h-65v-160h-190q-14 0 -20.5 -5.5t-6.5 -20.5v-129q0 -15 6 -20.5t20 -5.5h28q14 0 20 6t6 21v59h140v-284h-140z" />
    <glyph glyph-name="uni0927094D0930094D" horiz-adv-x="370" 
d="M57 300q0 48 44 53v4q-44 6 -44 54v132q0 51 27.5 74.5t86.5 23.5h48q59 0 87 -23.5t28 -74.5v-61h-79v39q0 13 -5.5 18t-19.5 5h-8q-15 0 -20.5 -5t-5.5 -18v-91q0 -15 5.5 -20.5t20.5 -5.5h68v-97h-68q-15 0 -20.5 -5.5t-5.5 -20.5v-57q0 -15 5.5 -20.5t20.5 -5.5h178
v-58l-120 -197h-148l99 158h-73q-101 0 -101 99v100z" />
    <glyph glyph-name="uni0928094D0930094D" horiz-adv-x="495" 
d="M-20 636h535v-97h-535v97zM32 280v97q0 52 27 75.5t94 23.5h362v-97h-129v-99q0 -61 -31 -86.5t-106 -25.5h-81q-75 0 -105.5 25.5t-30.5 86.5zM171 356v-65q0 -16 6.5 -21.5t20.5 -5.5h21q15 0 21 5.5t6 21.5v88h-49q-15 0 -20.5 -5t-5.5 -18zM282 -71h-137l370 381
v-139z" />
    <glyph glyph-name="uni092A094D0930094D" horiz-adv-x="270" 
d="M290 539h-106v-315q0 -15 5.5 -20.5t20.5 -5.5h80v-58l-120 -197h-148l101 161q-78 15 -78 110v325h-65v97h310v-97z" />
    <glyph glyph-name="uni092B094D0930094D" horiz-adv-x="523" 
d="M543 539h-137v-77q14 14 47 14h90v-97h-111q-14 0 -20 -6t-6 -21v-352h-140v104l-98 -161h-148l100 159q-78 10 -78 98v339h-62v97h563v-97zM266 225v314h-84v-315q0 -15 5.5 -20.5t20.5 -5.5h32q14 0 20 6t6 21z" />
    <glyph glyph-name="uni092C094D0930094D" horiz-adv-x="330" 
d="M36 377q0 52 27.5 75.5t94.5 23.5h136v-90h-74l52 -78q13 -19 38.5 -64t38.5 -58v-104l-94 -139h-142l91 135h-53q-58 0 -86.5 26.5t-28.5 86.5v186zM176 201q0 -15 5.5 -20.5t19.5 -5.5h94l-61 89q-29 49 -58 87v-150zM-20 636h369v-97h-369v97z" />
    <glyph glyph-name="uni092D094D0930094D" horiz-adv-x="520" 
d="M401 433h139v-97h-139v-78q0 -61 -30.5 -86.5t-105.5 -25.5h-87q-75 0 -105.5 25.5t-30.5 86.5v77q0 52 27 75t94 23h99v86q0 14 -6 19t-20 5h-21q-14 0 -19.5 -5t-5.5 -19v-35h-140v50q0 53 28 79.5t94 26.5h108q66 0 93.5 -26.5t27.5 -79.5v-101zM262 268v68h-55
q-15 0 -20.5 -5t-5.5 -18v-45q0 -15 6.5 -20.5t20.5 -5.5h27q14 0 20.5 5.5t6.5 20.5zM318 -71h-138l360 371v-140z" />
    <glyph glyph-name="uni092E094D0930094D" horiz-adv-x="508" 
d="M528 539h-137v-96h137v-97h-137v-88q0 -61 -30.5 -86.5t-105.5 -25.5h-87q-75 0 -105.5 25.5t-30.5 86.5v86q0 52 27 75.5t94 23.5h99v96h-272v97h548v-97zM252 268v78h-68q-14 0 -19.5 -5t-5.5 -19v-54q0 -15 6 -20.5t20 -5.5h40q14 0 20.5 5.5t6.5 20.5zM308 -71h-138
l358 368v-140z" />
    <glyph glyph-name="uni092F094D0930094D" horiz-adv-x="386" 
d="M406 636v-97h-108q12 -13 12 -39v-105q0 -53 -26 -79t-93 -26h-13v-66q0 -15 5.5 -20.5t20.5 -5.5h202v-58l-121 -197h-148l100 158h-97q-101 0 -101 99v187h111q14 0 19.5 5t5.5 18v96q0 20 -7 26.5t-30 6.5h-158v97h426z" />
    <glyph glyph-name="uni0935094D0930094D" horiz-adv-x="279" 
d="M-20 636h309v-97h-309v97zM182 356v-132q0 -15 5.5 -20.5t20.5 -5.5h81v-58l-121 -197h-148l100 159q-78 10 -78 98v177q0 52 27.5 75.5t94.5 23.5h61v-97h-17q-15 0 -20.5 -5t-5.5 -18z" />
    <glyph glyph-name="uni0938094D0930094D" horiz-adv-x="485" 
d="M505 636v-97h-121q6 -9 6 -25v-121q0 -22 -11 -36h126v-73l-134 -143h-144l138 129h-184v-157q0 -13 5.5 -18t20.5 -5h183v-90h-227q-67 0 -94 23.5t-27 75.5v365h139v-107h37q19 0 26 7t7 26v116q0 20 -6.5 26.5t-26.5 6.5h-238v97h525z" />
    <glyph glyph-name="uni0915093C094D0930094D" horiz-adv-x="524" 
d="M567 539h-176v-107q14 14 47 14h129v-97h-150q-14 0 -20 -6t-6 -21v-322h-140v104l-98 -161h-148l101 161q-78 15 -78 110v163q0 52 27 75.5t94 23.5h62v-90h-18q-15 0 -20.5 -5t-5.5 -18v-139q0 -15 5.5 -20.5t20.5 -5.5h32q14 0 20 6t6 21v314h-271v97h587v-97z
M208 -163v116h107v-116h-107z" />
    <glyph glyph-name="uni0916093C094D0930094D" horiz-adv-x="631" 
d="M586 199h80v-55l-126 -201h-147l104 163q-75 15 -75 109v158q0 52 27.5 75.5t94.5 23.5h62v-90h-20q-14 0 -19.5 -5t-5.5 -18v-134q0 -15 5.5 -20.5t19.5 -5.5zM247 -165v116h107v-116h-107zM401 98v-98h-209q-79 0 -114.5 24.5t-35.5 79.5v368h140v-140h24q19 0 26 7
t7 26v141q0 20 -6.5 26.5t-26.5 6.5h-226v97h678v-97h-286q7 -8 7 -25v-175q0 -56 -28.5 -80t-95.5 -24h-73v-104q0 -19 7 -26t26 -7h186z" />
    <glyph glyph-name="uni0917093C094D0930094D" horiz-adv-x="524" 
d="M421 -22h107v-116h-107v116zM521 293v-141l-215 -223h-138zM390 539v-271q0 -61 -30.5 -87t-105.5 -26h-87q-75 0 -106 26t-31 87v104q0 55 35.5 79.5t114.5 24.5h71v63h-271v97h541v-97h-131zM197 252h27q14 0 20.5 5.5t6.5 20.5v101h-50q-19 0 -25 -5.5t-6 -25.5v-70
q0 -15 6 -20.5t21 -5.5z" />
    <glyph glyph-name="uni0918093C094D0930094D" horiz-adv-x="324" 
d="M286 -39h107v-116h-107v116zM346 198v-58l-120 -197h-148l99 158h-33q-102 0 -102 99v106q0 48 44 53v4q-44 7 -44 54v95q0 16 8 27h-70v97h366v-97h-122q-26 0 -34 -6t-8 -27v-70q0 -15 5.5 -20.5t20.5 -5.5h43v-97h-43q-15 0 -20.5 -5.5t-5.5 -20.5v-63
q0 -15 5.5 -20.5t20.5 -5.5h138z" />
    <glyph glyph-name="uni0919093C094D0930094D" horiz-adv-x="496" 
d="M-20 636h536v-97h-147v-153h-162q-14 0 -19.5 -5t-5.5 -18v-37q0 -14 5.5 -19t19.5 -5h60q67 0 94 -23t27 -75v-105q0 -44 -19 -67.5t-65 -29.5l89 -147h-119l-58 112l-60 -112h-119l89 146q-50 5 -71 28.5t-21 69.5v62h140v-48q0 -23 21 -23h28q15 0 20.5 5t5.5 18v76
q0 14 -5.5 19t-20.5 5h-59q-68 0 -95 23t-27 75v66q0 52 27 75.5t95 23.5h66v63h-250v97zM386 291v116h107v-116h-107zM202 -173h139l121 -144h-139zM83 -289v116h107v-116h-107z" />
    <glyph glyph-name="uni091A093C094D0930094D" horiz-adv-x="282" 
d="M225 -45h107v-116h-107v116zM302 198v-58l-119 -197h-149l100 159q-83 9 -83 98v134q0 29 14 45h-72v97h252v-97h-20q-21 0 -27.5 -4.5t-6.5 -21.5v-129q0 -15 5.5 -20.5t19.5 -5.5h86zM302 636v-97h-323v97h323z" />
    <glyph glyph-name="uni091B093C094D0930094D" horiz-adv-x="641" 
d="M661 539h-155v-64q47 -5 70 -28t23 -70v-264q0 -60 -33 -86.5t-104 -26.5h-45l87 -145h-119l-58 112l-60 -112h-119l88 145h-59q-71 0 -104 26.5t-33 86.5v146q0 47 44 53v4q-44 5 -44 53v145q0 16 6 25h-66v97h681v-97zM375 539h-166q-17 -1 -23 -7.5t-6 -25.5v-117
q0 -15 5.5 -20.5t19.5 -5.5h35v-97h-35q-14 0 -19.5 -5.5t-5.5 -20.5v-116q0 -15 5.5 -20.5t19.5 -5.5h230q14 0 19.5 5.5t5.5 20.5v245q0 13 -5.5 18t-19.5 5h-17q-26 0 -26 -23v-67q0 -14 6 -19t20 -5h14v-83h-40q-54 0 -82 22.5t-28 76.5v83q0 47 23 70t70 28v64z
M314 -173h139l121 -144h-139zM195 -289v116h107v-116h-107z" />
    <glyph glyph-name="uni091C093C094D0930094D" horiz-adv-x="513" 
d="M403 -45h107v-116h-107v116zM533 290v-141l-202 -206h-150zM42 476h139v-212q0 -15 6.5 -20.5t20.5 -5.5h23q14 0 20.5 5.5t6.5 20.5v212h275v-97h-136v-125q0 -61 -30.5 -87t-105.5 -26h-83q-75 0 -105.5 26t-30.5 87v222zM-20 636h553v-97h-553v97z" />
    <glyph glyph-name="uni091D093C094D0930094D" horiz-adv-x="545" 
d="M508 -45h107v-116h-107v116zM575 199v-130l-185 -187h-141zM271 23h-96v-66h-140v216h140v-60h52q15 0 20.5 5t5.5 19v61q0 13 -5.5 18t-20.5 5h-70q-68 0 -95 23.5t-27 75.5v57q0 52 27 75.5t95 23.5h81v63h-258v97h595v-97h-198v-153h-177q-14 0 -19.5 -5t-5.5 -18v-29
q0 -13 5.5 -18t19.5 -5h375v-90h-185q2 -14 2 -21v-78q0 -52 -27 -75.5t-94 -23.5z" />
    <glyph glyph-name="uni091E093C094D0930094D" horiz-adv-x="482" 
d="M436 -91h107v-116h-107v116zM512 184v-130l-170 -172h-141zM377 236v-45q0 -61 -30.5 -87t-105.5 -26h-82q-74 0 -105 26t-31 87v74h140v-64q0 -15 6 -20.5t21 -5.5h21q14 0 20.5 5.5t6.5 20.5v155q0 13 -5.5 18t-20.5 5h-97v97h141q66 0 93.5 -26.5t27.5 -79.5v-38h135
v-96h-135zM512 636v-97h-532v97h532z" />
    <glyph glyph-name="uni091F093C094D0930094D" horiz-adv-x="442" 
d="M362 -173l121 -144h-139l-121 144h139zM104 -289v116h107v-116h-107zM45 113v264q0 52 27 75.5t94 23.5h93v63h-279v97h482v-97h-64v-160h-187q-14 0 -20.5 -5.5t-6.5 -20.5v-230q0 -15 6.5 -20.5t20.5 -5.5h23q14 0 20.5 5.5t6.5 20.5v103h139v-113q0 -49 -19.5 -75
t-64.5 -34l90 -149h-119l-58 112l-60 -112h-119l90 147q-51 7 -73 33t-22 78z" />
    <glyph glyph-name="uni0920093C094D0930094D" horiz-adv-x="452" 
d="M363 -173l121 -144h-139l-121 144h139zM105 -289v116h107v-116h-107zM45 113v250q0 56 25.5 82t86.5 30v64h-177v97h492v-97h-175v-64q61 -4 87 -30t26 -82v-250q0 -52 -22 -78t-72 -32l89 -148h-119l-58 112l-60 -112h-119l90 147q-50 7 -72 33t-22 78zM184 353v-230
q0 -15 6.5 -20.5t20.5 -5.5h32q14 0 20.5 5.5t6.5 20.5v230q0 15 -6.5 20.5t-20.5 5.5h-32q-14 0 -20.5 -5.5t-6.5 -20.5z" />
    <glyph glyph-name="uni0921093C094D0930094D" horiz-adv-x="434" 
d="M352 -173l121 -144h-139l-121 144h139zM94 -289v116h107v-116h-107zM34 99v62h140v-48q0 -23 21 -23h28q15 0 20.5 5t5.5 18v76q0 14 -5.5 19t-20.5 5h-59q-68 0 -95 23t-27 75v66q0 52 27 75.5t95 23.5h66v63h-250v97h474v-97h-85v-153h-162q-14 0 -19.5 -5t-5.5 -18
v-37q0 -14 5.5 -19t19.5 -5h60q67 0 94 -23t27 -75v-105q0 -44 -19 -67.5t-66 -29.5l89 -147h-119l-58 112l-60 -112h-119l89 146q-50 5 -70.5 28.5t-20.5 69.5z" />
    <glyph glyph-name="uni0922093C094D0930094D" horiz-adv-x="475" 
d="M378 -173l121 -144h-139l-121 144h139zM120 -289v116h107v-116h-107zM45 113v264q0 52 27 75.5t94 23.5h93v63h-279v97h515v-97h-97v-160h-187q-14 0 -20.5 -5.5t-6.5 -20.5v-230q0 -15 6.5 -20.5t20.5 -5.5h60q14 0 20.5 5.5t6.5 20.5v52q0 15 -6.5 20.5t-20.5 5.5h-43
v97h73q75 0 106 -26t31 -87v-72q0 -54 -24 -80.5t-80 -31.5l88 -146h-119l-58 112l-60 -112h-119l89 146q-59 4 -84.5 30.5t-25.5 81.5z" />
    <glyph glyph-name="uni0923093C094D0930094D" horiz-adv-x="448" 
d="M408 -74h107v-116h-107v116zM478 164v-131l-150 -151h-141zM397 539v-336q0 -61 -30.5 -87t-105.5 -26h-83q-75 0 -105.5 26t-30.5 87v336h-62v97h498v-97h-81zM208 187h23q14 0 20.5 5.5t6.5 20.5v326h-77v-326q0 -15 6.5 -20.5t20.5 -5.5z" />
    <glyph glyph-name="uni0924093C094D0930094D" horiz-adv-x="367" 
d="M-20 636h407v-97h-407v97zM387 276v-88h-93l-114 -188h-160l143 235l-54 90q-18 29 -33 39.5t-42 10.5h-22v97h84q50 0 76.5 -14.5t50.5 -52.5l81 -129h83zM222 -144v116h107v-116h-107z" />
    <glyph glyph-name="uni0925093C094D0930094D" horiz-adv-x="402" 
d="M345 -50h107v-116h-107v116zM422 198v-58l-120 -197h-148l99 158h-103q-101 0 -101 99v188h119q15 0 20.5 5t5.5 18v110q0 13 -5.5 18t-20.5 5h-6q-14 0 -19.5 -5t-5.5 -18v-39h-79v61q0 51 27.5 74.5t86.5 23.5h47q59 0 86.5 -23.5t27.5 -74.5v-146q0 -53 -27.5 -79.5
t-93.5 -26.5h-23v-67q0 -15 5.5 -20.5t19.5 -5.5h208z" />
    <glyph glyph-name="uni0926093C094D0930094D" horiz-adv-x="436" 
d="M375 -77l121 -144h-139l-121 144h139zM117 -193v116h107v-116h-107zM35 200v177q0 52 27 75.5t94 23.5h96v63h-282v97h486v-97h-65v-160h-190q-14 0 -20.5 -5.5t-6.5 -20.5v-129q0 -15 6 -20.5t20 -5.5h28q14 0 20 6t6 21v59h140v-284h-140v104l-99 -161h-148l101 160
q-73 12 -73 97z" />
    <glyph glyph-name="uni0927093C094D0930094D" horiz-adv-x="370" 
d="M337 -31h107v-116h-107v116zM57 300q0 48 44 53v4q-44 6 -44 54v132q0 51 27.5 74.5t86.5 23.5h48q59 0 87 -23.5t28 -74.5v-61h-79v39q0 13 -5.5 18t-19.5 5h-8q-15 0 -20.5 -5t-5.5 -18v-91q0 -15 5.5 -20.5t20.5 -5.5h68v-97h-68q-15 0 -20.5 -5.5t-5.5 -20.5v-57
q0 -15 5.5 -20.5t20.5 -5.5h178v-58l-120 -197h-148l99 158h-73q-101 0 -101 99v100z" />
    <glyph glyph-name="uni0928093C094D0930094D" horiz-adv-x="495" 
d="M-20 636h535v-97h-535v97zM32 280v97q0 52 27 75.5t94 23.5h362v-97h-129v-99q0 -61 -31 -86.5t-106 -25.5h-81q-75 0 -105.5 25.5t-30.5 86.5zM171 356v-65q0 -16 6.5 -21.5t20.5 -5.5h21q15 0 21 5.5t6 21.5v88h-49q-15 0 -20.5 -5t-5.5 -18zM282 -71h-137l370 381
v-139zM359 -136v116h107v-116h-107z" />
    <glyph glyph-name="uni092A093C094D0930094D" horiz-adv-x="270" 
d="M220 -19h107v-116h-107v116zM290 198v-58l-120 -197h-148l101 161q-78 15 -78 110v325h-65v97h310v-97h-106v-315q0 -15 5.5 -20.5t20.5 -5.5h80z" />
    <glyph glyph-name="uni092B093C094D0930094D" horiz-adv-x="523" 
d="M543 539h-137v-77q14 14 47 14h90v-97h-111q-14 0 -20 -6t-6 -21v-352h-140v104l-98 -161h-148l100 159q-78 10 -78 98v339h-62v97h563v-97zM266 225v314h-84v-315q0 -15 5.5 -20.5t20.5 -5.5h32q14 0 20 6t6 21zM226 -159v116h107v-116h-107z" />
    <glyph glyph-name="uni092C093C094D0930094D" horiz-adv-x="330" 
d="M297 -55h107v-116h-107v116zM36 377q0 52 27.5 75.5t94.5 23.5h136v-90h-74l52 -78q13 -19 38.5 -64t38.5 -58v-104l-94 -139h-142l91 135h-53q-58 0 -86.5 26.5t-28.5 86.5v186zM176 201q0 -15 5.5 -20.5t19.5 -5.5h94l-61 89q-29 49 -58 87v-150zM-20 636h369v-97h-369
v97z" />
    <glyph glyph-name="uni092D093C094D0930094D" horiz-adv-x="520" 
d="M401 433h139v-97h-139v-78q0 -61 -30.5 -86.5t-105.5 -25.5h-87q-75 0 -105.5 25.5t-30.5 86.5v77q0 52 27 75t94 23h99v86q0 14 -6 19t-20 5h-21q-14 0 -19.5 -5t-5.5 -19v-35h-140v50q0 53 28 79.5t94 26.5h108q66 0 93.5 -26.5t27.5 -79.5v-101zM262 268v68h-55
q-15 0 -20.5 -5t-5.5 -18v-45q0 -15 6.5 -20.5t20.5 -5.5h27q14 0 20.5 5.5t6.5 20.5zM318 -71h-138l360 371v-140zM416 -128v116h107v-116h-107z" />
    <glyph glyph-name="uni092E093C094D0930094D" horiz-adv-x="508" 
d="M528 539h-137v-96h137v-97h-137v-88q0 -61 -30.5 -86.5t-105.5 -25.5h-87q-75 0 -105.5 25.5t-30.5 86.5v86q0 52 27 75.5t94 23.5h99v96h-272v97h548v-97zM252 268v78h-68q-14 0 -19.5 -5t-5.5 -19v-54q0 -15 6 -20.5t20 -5.5h40q14 0 20.5 5.5t6.5 20.5zM308 -71h-138
l358 368v-140zM398 -143v116h107v-116h-107z" />
    <glyph glyph-name="uni092F093C094D0930094D" horiz-adv-x="386" 
d="M331 -38h107v-116h-107v116zM406 198v-58l-121 -197h-148l100 158h-97q-101 0 -101 99v187h111q14 0 19.5 5t5.5 18v96q0 20 -7 26.5t-30 6.5h-158v97h426v-97h-108q12 -13 12 -39v-105q0 -53 -26 -79t-93 -26h-13v-66q0 -15 5.5 -20.5t20.5 -5.5h202z" />
    <glyph glyph-name="uni0935093C094D0930094D" horiz-adv-x="279" 
d="M224 -31h107v-116h-107v116zM289 198v-58l-121 -197h-148l100 159q-78 10 -78 98v177q0 52 27.5 75.5t94.5 23.5h61v-97h-17q-15 0 -20.5 -5t-5.5 -18v-132q0 -15 5.5 -20.5t20.5 -5.5h81zM289 636v-97h-309v97h309z" />
    <glyph glyph-name="uni0915094D0915" horiz-adv-x="1085" 
d="M1105 539h-271v-77q14 14 47 14h61q58 0 87 -27t29 -86v-186q0 -52 -27.5 -75.5t-94.5 -23.5h-61v90h17q15 0 20.5 5t5.5 18v162q0 15 -5.5 20.5t-20.5 5.5h-32q-14 0 -20 -6t-6 -21v-352h-140v92q-14 -14 -47 -14h-61q-58 0 -87 27t-29 86v149q0 20 6 39h-59
q-14 0 -20 -6t-6 -21v-352h-140v92q-13 -14 -46 -14h-62q-58 0 -86.5 26.5t-28.5 86.5v186q0 52 27 75.5t94 23.5h62v-90h-18q-15 0 -20.5 -5t-5.5 -18v-162q0 -15 5.5 -20.5t20.5 -5.5h32q14 0 20 6t6 21v337h-271v97h1125v-97zM694 202v337h-303v-77q14 14 47 14h215v-90
h-17q-15 0 -20.5 -5t-5.5 -18v-162q0 -15 5.5 -20.5t20.5 -5.5h32q14 0 20 6t6 21z" />
    <glyph glyph-name="uni0915094D0916" horiz-adv-x="1259" 
d="M1279 636v-97h-64v-539h-139v105q-14 -15 -48 -15h-58q-58 0 -86.5 26.5t-28.5 86.5v170q0 52 27 75.5t94 23.5h63v-90h-21q-14 0 -19.5 -5t-5.5 -18v-146q0 -15 5.5 -20.5t19.5 -5.5h30q15 0 21.5 6.5t6.5 22.5v323h-272q7 -8 7 -25v-175q0 -56 -28.5 -80t-95.5 -24h-72
v-104q0 -19 6.5 -26t26.5 -7h237v-98h-260q-79 0 -114.5 24.5t-35.5 79.5v245h-58q-14 0 -20 -6t-6 -21v-322h-140v92q-13 -14 -46 -14h-62q-58 0 -86.5 26.5t-28.5 86.5v186q0 52 27 75.5t94 23.5h62v-90h-18q-15 0 -20.5 -5t-5.5 -18v-162q0 -15 5.5 -20.5t20.5 -5.5h32
q14 0 20 6t6 21v337h-271v97h1299zM672 365v141q0 19 -7 26t-27 7h-247v-107q14 14 47 14h177v-114h23q20 0 27 7t7 26z" />
    <glyph glyph-name="uni0915094D091A" horiz-adv-x="882" 
d="M902 636v-97h-65v-539h-139v92q-14 -14 -47 -14h-68q-58 0 -86.5 26.5t-28.5 86.5v113q0 29 14 45h-65q-14 0 -20 -6t-6 -21v-322h-140v92q-13 -14 -46 -14h-62q-58 0 -86.5 26.5t-28.5 86.5v186q0 52 27 75.5t94 23.5h62v-90h-18q-15 0 -20.5 -5t-5.5 -18v-162
q0 -15 5.5 -20.5t20.5 -5.5h32q14 0 20 6t6 21v337h-271v97h922zM698 202v337h-307v-107q14 14 47 14h223v-97h-19q-21 0 -27.5 -4.5t-6.5 -21.5v-122q0 -15 5.5 -20.5t19.5 -5.5h38q15 0 21 6t6 21z" />
    <glyph glyph-name="uni0915094D091C" horiz-adv-x="1090" 
d="M1110 636v-97h-64v-539h-140v379h-75v-188q0 -61 -31 -87t-106 -26h-83q-75 0 -105.5 26t-30.5 87v188h-58q-14 0 -20 -6t-6 -21v-352h-140v92q-13 -14 -46 -14h-62q-58 0 -86.5 26.5t-28.5 86.5v186q0 52 27 75.5t94 23.5h62v-90h-18q-15 0 -20.5 -5t-5.5 -18v-162
q0 -15 5.5 -20.5t20.5 -5.5h32q14 0 20 6t6 21v337h-271v97h1130zM906 476v63h-515v-77q14 14 47 14h177v-275q0 -15 6 -20.5t20 -5.5h23q15 0 21 5.5t6 20.5v275h215z" />
    <glyph glyph-name="uni0915094D091F" horiz-adv-x="875" 
d="M829 379h-188q-14 0 -20 -5.5t-6 -20.5v-230q0 -15 6 -20.5t20 -5.5h23q15 0 21 5.5t6 20.5v103h140v-113q0 -61 -31 -87t-106 -26h-83q-75 0 -105.5 26t-30.5 87v266h-58q-14 0 -20 -6t-6 -21v-352h-140v92q-13 -14 -46 -14h-62q-58 0 -86.5 26.5t-28.5 86.5v186
q0 52 27 75.5t94 23.5h62v-90h-18q-15 0 -20.5 -5t-5.5 -18v-162q0 -15 5.5 -20.5t20.5 -5.5h32q14 0 20 6t6 21v337h-271v97h915v-97h-66v-160zM689 476v63h-298v-77q14 14 47 14h251z" />
    <glyph glyph-name="uni0915094D0923" horiz-adv-x="1104" 
d="M1124 636v-97h-64v-539h-140v539h-82v-348q0 -61 -31 -87t-106 -26h-83q-75 0 -105.5 26t-30.5 87v158h-65q-14 0 -20 -6t-6 -21v-322h-140v92q-13 -14 -46 -14h-62q-58 0 -86.5 26.5t-28.5 86.5v186q0 52 27 75.5t94 23.5h62v-90h-18q-15 0 -20.5 -5t-5.5 -18v-162
q0 -15 5.5 -20.5t20.5 -5.5h32q14 0 20 6t6 21v337h-271v97h1144zM438 446h44v93h-91v-107q14 14 47 14zM698 201v338h-76v-338q0 -15 6 -20.5t20 -5.5h23q15 0 21 5.5t6 20.5z" />
    <glyph glyph-name="uni0915094D0924" horiz-adv-x="679" 
d="M699 539h-271v-77q13 14 46 14h62q58 0 86.5 -26.5t28.5 -86.5v-186q0 -52 -27 -75.5t-94 -23.5h-62v90h18q15 0 20.5 5t5.5 18v162q0 15 -5.5 20.5t-20.5 5.5h-32q-14 0 -20 -6t-6 -21v-352h-140v352q0 15 -6 21t-20 6h-33q-14 0 -19.5 -5.5t-5.5 -20.5v-162
q0 -13 5.5 -18t19.5 -5h18v-90h-61q-67 0 -94.5 23.5t-27.5 75.5v158q0 32 17 44h-75v97h235q33 0 47 -14v77h-308v97h719v-97z" />
    <glyph glyph-name="uni0915094D0925" horiz-adv-x="1021" 
d="M1041 636v-97h-65v-539h-140v92q-14 -14 -44 -14h-174q-71 0 -103.5 26.5t-32.5 86.5v100h-65q-14 0 -20 -6t-6 -21v-264h-140v92q-13 -14 -46 -14h-62q-58 0 -86.5 26.5t-28.5 86.5v186q0 52 27 75.5t94 23.5h62v-90h-18q-15 0 -20.5 -5t-5.5 -18v-162q0 -15 5.5 -20.5
t20.5 -5.5h32q14 0 20 6t6 21v337h-271v97h466v-97h-55v-165q14 14 47 14h159q14 0 19.5 5t5.5 18v110q0 13 -5.5 18t-19.5 5h-6q-15 0 -20.5 -5t-5.5 -18v-39h-78v61q0 51 27 74.5t86 23.5h47q59 0 87 -23.5t28 -74.5v-146q0 -53 -27.5 -79.5t-94.5 -26.5h-18v-90
q0 -15 5.5 -20.5t19.5 -5.5h155q20 0 27 7.5t7 26.5v427h205z" />
    <glyph glyph-name="uni0915094D0926" horiz-adv-x="876" 
d="M832 361h-191q-14 0 -20 -5.5t-6 -20.5v-134q0 -15 5.5 -20.5t19.5 -5.5h28q14 0 20 6t6 21v72h140v-274h-140v92q-14 -14 -47 -14h-36q-75 0 -105.5 26t-30.5 87v170h-58q-14 0 -20 -6t-6 -21v-334h-140v92q-13 -14 -46 -14h-62q-58 0 -86.5 26.5t-28.5 86.5v186
q0 52 27 75.5t94 23.5h62v-90h-18q-15 0 -20.5 -5t-5.5 -18v-162q0 -15 5.5 -20.5t20.5 -5.5h32q14 0 20 6t6 21v337h-271v97h918v-97h-66v-178zM391 539v-95q14 14 47 14h254v81h-301z" />
    <glyph glyph-name="uni0915094D092A" horiz-adv-x="889" 
d="M911 636v-97h-64v-539h-140v92q-13 -14 -46 -14h-62q-58 0 -86.5 26.5t-28.5 86.5v158h-67q-14 0 -20 -6t-6 -21v-322h-140v92q-13 -14 -46 -14h-62q-58 0 -86.5 26.5t-28.5 86.5v186q0 52 27 75.5t94 23.5h62v-90h-18q-15 0 -20.5 -5t-5.5 -18v-162q0 -15 5.5 -20.5
t20.5 -5.5h32q14 0 20 6t6 21v337h-271v97h931zM438 446h46v93h-93v-107q14 14 47 14zM707 202v337h-84v-338q0 -15 5.5 -20.5t20.5 -5.5h32q14 0 20 6t6 21z" />
    <glyph glyph-name="uni0915094D092B" horiz-adv-x="1096" 
d="M1116 539h-271v-77q14 14 47 14h61q58 0 87 -27t29 -86v-186q0 -52 -27.5 -75.5t-94.5 -23.5h-61v90h17q15 0 20.5 5t5.5 18v162q0 15 -5.5 20.5t-20.5 5.5h-32q-14 0 -20 -6t-6 -21v-352h-140v92q-14 -14 -47 -14h-61q-58 0 -87 27t-29 86v158h-64q-14 0 -20 -6t-6 -21
v-322h-140v92q-13 -14 -46 -14h-62q-58 0 -86.5 26.5t-28.5 86.5v186q0 52 27 75.5t94 23.5h62v-90h-18q-15 0 -20.5 -5t-5.5 -18v-162q0 -15 5.5 -20.5t20.5 -5.5h32q14 0 20 6t6 21v337h-271v97h1136v-97zM438 446h43v93h-90v-107q14 14 47 14zM705 202v337h-84v-338
q0 -15 5.5 -20.5t20.5 -5.5h32q14 0 20 6t6 21z" />
    <glyph glyph-name="uni0915094D092E" horiz-adv-x="1107" 
d="M1127 636v-97h-64v-539h-140v335h-88v-135q0 -61 -31 -87t-106 -26h-87q-75 0 -105.5 26t-30.5 87v135h-58q-14 0 -20 -6t-6 -21v-308h-140v92q-13 -14 -46 -14h-62q-58 0 -86.5 26.5t-28.5 86.5v186q0 52 27 75.5t94 23.5h62v-90h-18q-15 0 -20.5 -5t-5.5 -18v-162
q0 -15 5.5 -20.5t20.5 -5.5h32q14 0 20 6t6 21v337h-271v97h1147zM391 539v-121q14 14 47 14h257v107h-304zM695 210v125h-68q-14 0 -19.5 -5t-5.5 -18v-102q0 -15 6.5 -20.5t20.5 -5.5h39q14 0 20.5 5.5t6.5 20.5zM923 432v107h-88v-107h88z" />
    <glyph glyph-name="uni0915094D092F" horiz-adv-x="1003" 
d="M1023 636v-97h-65v-539h-139v92q-14 -14 -44 -14h-165q-71 0 -104 26.5t-33 86.5v99h-56q-14 0 -20 -6t-6 -21v-263h-140v92q-13 -14 -46 -14h-62q-58 0 -86.5 26.5t-28.5 86.5v186q0 52 27 75.5t94 23.5h62v-90h-18q-15 0 -20.5 -5t-5.5 -18v-162q0 -15 5.5 -20.5
t20.5 -5.5h32q14 0 20 6t6 21v337h-271v97h1043zM610 410v96q0 20 -7 26.5t-30 6.5h-182v-166q14 14 47 14h147q14 0 19.5 5t5.5 18zM819 209v330h-87q12 -13 12 -39v-105q0 -53 -26 -79t-92 -26h-13v-89q0 -15 5.5 -20.5t20.5 -5.5h146q19 0 26.5 7.5t7.5 26.5z" />
    <glyph glyph-name="uni0915094D0932" horiz-adv-x="1094" 
d="M1114 636v-97h-62v-539h-140v349h-52q-15 0 -20 -6t-5 -20v-149h-140v149q0 14 -5 20t-20 6h-30q-14 0 -19.5 -5.5t-5.5 -20.5v-202q0 -13 5.5 -18t19.5 -5h53v-98h-96q-68 0 -95 23.5t-27 75.5v234q0 11 1 16h-59q-14 0 -20 -6t-6 -21v-322h-140v92q-13 -14 -46 -14h-62
q-58 0 -86.5 26.5t-28.5 86.5v186q0 52 27 75.5t94 23.5h62v-90h-18q-15 0 -20.5 -5t-5.5 -18v-162q0 -15 5.5 -20.5t20.5 -5.5h32q14 0 20 6t6 21v337h-271v97h1134zM912 446v93h-521v-107q14 14 47 14h273q48 0 53 -44h4q5 44 53 44h91z" />
    <glyph glyph-name="uni0915094D0935" horiz-adv-x="883" 
d="M903 636v-97h-65v-539h-139v92q-14 -14 -47 -14h-62q-58 0 -86.5 26.5t-28.5 86.5v158h-58q-14 0 -20 -6t-6 -21v-322h-140v92q-13 -14 -46 -14h-62q-58 0 -86.5 26.5t-28.5 86.5v186q0 52 27 75.5t94 23.5h62v-90h-18q-15 0 -20.5 -5t-5.5 -18v-162q0 -15 5.5 -20.5
t20.5 -5.5h32q14 0 20 6t6 21v337h-271v97h923zM699 202v337h-308v-107q14 14 47 14h220v-90h-18q-14 0 -19.5 -5t-5.5 -18v-132q0 -15 5.5 -20.5t19.5 -5.5h32q15 0 21 6t6 21z" />
    <glyph glyph-name="uni0915094D0936" horiz-adv-x="1096" 
d="M912 636h204v-97h-65v-539h-139v636zM607 640h105q66 0 94 -26.5t28 -79.5v-186q0 -55 -35.5 -79.5t-114.5 -24.5h-60v-131q0 -23 26 -23h22q21 0 21 23v76h140v-90q0 -52 -27 -75.5t-95 -23.5h-105q-67 0 -94 23.5t-27 75.5v201h-68q-14 0 -20 -6t-6 -21v-273h-140v92
q-13 -14 -46 -14h-62q-58 0 -86.5 26.5t-28.5 86.5v186q0 52 27 75.5t94 23.5h62v-90h-18q-15 0 -20.5 -5t-5.5 -18v-162q0 -15 5.5 -20.5t20.5 -5.5h32q14 0 20 6t6 21v337h-271v97h465v-97h-54v-157q14 14 47 14h186v-56h37q19 0 26 7t7 26v147q0 13 -5.5 18t-19.5 5h-23
q-21 0 -21 -23v-60h-140v74q0 53 28 79.5t94 26.5z" />
    <glyph glyph-name="uni0915094D0938" horiz-adv-x="1081" 
d="M1101 636v-97h-65v-539h-139v261h-282v-148q0 -13 5.5 -18t19.5 -5h22q22 0 22 23v93h139v-107q0 -52 -27 -75.5t-94 -23.5h-105q-68 0 -95 23.5t-27 75.5v250h-58q-14 0 -20 -6t-6 -21v-322h-140v92q-13 -14 -46 -14h-62q-58 0 -86.5 26.5t-28.5 86.5v186q0 52 27 75.5
t94 23.5h62v-90h-18q-15 0 -20.5 -5t-5.5 -18v-162q0 -15 5.5 -20.5t20.5 -5.5h32q14 0 20 6t6 21v337h-271v97h1121zM684 390v116q0 20 -7 26.5t-26 6.5h-260v-107q14 14 47 14h177v-89h36q19 0 26 7t7 26zM897 357v182h-80q7 -8 7 -25v-121q0 -22 -11 -36h84z" />
    <glyph glyph-name="uni0916094D0916" horiz-adv-x="1428" 
d="M1448 636v-97h-64v-539h-139v105q-13 -15 -48 -15h-58q-58 0 -86.5 26.5t-28.5 86.5v170q0 52 27 75.5t94 23.5h63v-90h-21q-14 0 -19.5 -5t-5.5 -18v-146q0 -15 5.5 -20.5t19.5 -5.5h30q15 0 21.5 6.5t6.5 22.5v323h-272q7 -8 7 -25v-175q0 -56 -28.5 -80t-95.5 -24h-72
v-104q0 -19 7 -26t26 -7h237v-98h-260q-79 0 -114.5 24.5t-35.5 79.5v1q-14 -15 -48 -15h-59q-58 0 -86.5 26.5t-28.5 86.5v170q0 52 27.5 75.5t94.5 23.5h62v-90h-20q-14 0 -19.5 -5t-5.5 -18v-146q0 -15 5.5 -20.5t19.5 -5.5h30q28 0 28 29v256h140v-140h23q20 0 27 7
t7 26v141q0 19 -7 26t-27 7h-435q7 -8 7 -25v-175q0 -56 -28.5 -80t-95.5 -24h-73v-104q0 -19 7 -26t26 -7h238v-98h-261q-79 0 -114.5 24.5t-35.5 79.5v368h140v-140h24q19 0 26 7t7 26v141q0 20 -6.5 26.5t-26.5 6.5h-226v97h1468z" />
    <glyph glyph-name="uni0916094D0924" horiz-adv-x="1059" 
d="M1079 636v-97h-64v-539h-140v379h-66q-14 0 -19.5 -5t-5.5 -18v-235q0 -13 5.5 -18t19.5 -5h18v-98h-61q-68 0 -95 23.5t-27 75.5v6q-14 -15 -48 -15h-59q-58 0 -86.5 26.5t-28.5 86.5v170q0 52 27.5 75.5t94.5 23.5h62v-90h-20q-14 0 -19.5 -5t-5.5 -18v-146
q0 -15 5.5 -20.5t19.5 -5.5h30q28 0 28 29v161q0 52 27 75.5t95 23.5h109v63h-503q7 -8 7 -25v-179q0 -56 -29 -80.5t-95 -24.5h-73v-99q0 -19 7 -26t26 -7h227v-98h-250q-79 0 -114.5 24.5t-35.5 79.5v368h140v-145h24q19 0 26 7t7 26v146q0 20 -6.5 26.5t-26.5 6.5h-226
v97h1099z" />
    <glyph glyph-name="uni0916094D092E" horiz-adv-x="1263" 
d="M1289 636v-97h-65v-539h-139v335h-81v-135q0 -61 -31 -87t-106 -26h-87q-76 0 -106 27q-16 -27 -64 -27h-73q-58 0 -86.5 26.5t-28.5 86.5v177q0 52 27.5 75.5t94.5 23.5h62v-90h-20q-14 0 -19.5 -5t-5.5 -18v-153q0 -15 5.5 -20.5t19.5 -5.5h30q15 0 21.5 6t6.5 22v121
q0 52 27 75.5t95 23.5h98v107h-492q7 -8 7 -25v-175q0 -56 -28.5 -80t-95.5 -24h-73v-104q0 -19 7 -26t26 -7h238v-98h-261q-79 0 -114.5 24.5t-35.5 79.5v368h140v-140h24q19 0 26 7t7 26v141q0 20 -6.5 26.5t-26.5 6.5h-226v97h1309zM864 210v125h-68q-14 0 -19.5 -5
t-5.5 -18v-102q0 -15 6.5 -20.5t20.5 -5.5h39q14 0 20.5 5.5t6.5 20.5zM1085 432v107h-81v-107h81z" />
    <glyph glyph-name="uni0916094D092F" horiz-adv-x="1173" 
d="M1193 636v-97h-64v-539h-140v92q-14 -14 -44 -14h-165q-77 0 -109 31q-16 -22 -61 -22h-73q-58 0 -86.5 26.5t-28.5 86.5v177q0 52 27.5 75.5t94.5 23.5h62v-90h-20q-14 0 -19.5 -5t-5.5 -18v-153q0 -15 5.5 -20.5t19.5 -5.5h30q15 0 21.5 6t6.5 22v175h111q15 0 20.5 5
t5.5 18v96q0 20 -7 26.5t-31 6.5h-371q7 -8 7 -25v-175q0 -56 -28.5 -80t-95.5 -24h-73v-104q0 -19 7 -26t26 -7h238v-98h-261q-79 0 -114.5 24.5t-35.5 79.5v368h140v-140h24q19 0 26 7t7 26v141q0 20 -6.5 26.5t-26.5 6.5h-226v97h1213zM989 209v330h-86q12 -13 12 -39
v-105q0 -53 -26 -79t-92 -26h-13v-89q0 -15 5.5 -20.5t19.5 -5.5h146q19 0 26.5 7.5t7.5 26.5z" />
    <glyph glyph-name="uni0916094D0935" horiz-adv-x="1047" 
d="M1067 636v-97h-60v-539h-139v92q-14 -14 -47 -14h-62q-89 0 -109 65q-15 -11 -47 -11h-66q-58 0 -86.5 26.5t-28.5 86.5v132q0 52 27.5 75.5t94.5 23.5h62v-90h-20q-14 0 -19.5 -5t-5.5 -18v-108q0 -15 5.5 -20.5t19.5 -5.5h30q28 0 28 29v119q0 52 27 75.5t95 23.5h61
v-90h-18q-14 0 -19.5 -5t-5.5 -18v-162q0 -15 5.5 -20.5t19.5 -5.5h32q15 0 21 6t6 21v337h-496q7 -8 7 -25v-175q0 -56 -28.5 -80t-95.5 -24h-73v-104q0 -19 7 -26t26 -7h285v-98h-308q-79 0 -114.5 24.5t-35.5 79.5v368h140v-140h24q19 0 26 7t7 26v141q0 20 -6.5 26.5
t-26.5 6.5h-226v97h1087z" />
    <glyph glyph-name="uni0916094D0936" horiz-adv-x="1255" 
d="M1071 636h204v-97h-65v-539h-139v636zM766 640h105q66 0 94 -26.5t28 -79.5v-186q0 -55 -35.5 -79.5t-114.5 -24.5h-59v-131q0 -13 5.5 -18t19.5 -5h22q22 0 22 23v76h139v-90q0 -52 -27 -75.5t-94 -23.5h-105q-68 0 -95 23.5t-27 75.5v6q-14 -15 -48 -15h-59
q-58 0 -86.5 26.5t-28.5 86.5v170q0 52 27.5 75.5t94.5 23.5h59v-90h-17q-14 0 -19.5 -5t-5.5 -18v-146q0 -15 5.5 -20.5t19.5 -5.5h30q28 0 28 29v180h140v-56h36q19 0 26 7t7 26v147q0 13 -5.5 18t-19.5 5h-23q-21 0 -21 -23v-60h-139v74q0 53 27.5 79.5t93.5 26.5z
M182 235v-104q0 -19 7 -26t26 -7h238v-98h-261q-79 0 -114.5 24.5t-35.5 79.5v368h140v-140h24q19 0 26 7t7 26v141q0 20 -6.5 26.5t-26.5 6.5h-226v97h623v-97h-231q7 -8 7 -25v-175q0 -56 -28.5 -80t-95.5 -24h-73z" />
    </font>
</defs>
</svg>
