<?xml version="1.0" standalone="no"?>
<!DOCTYPE svg PUBLIC "-//W3C//DTD SVG 1.1//EN" "http://www.w3.org/Graphics/SVG/1.1/DTD/svg11.dtd" >
<svg xmlns="http://www.w3.org/2000/svg">
<metadata>Generated by IcoMoon</metadata>
<defs>
<font id="icons" horiz-adv-x="1024">
<font-face units-per-em="1024" ascent="960" descent="-64" />
<missing-glyph horiz-adv-x="1024" />
<glyph unicode="&#x20;" horiz-adv-x="512" d="" />
<glyph unicode="&#xe900;" glyph-name="viewlist" horiz-adv-x="1028" d="M0 960h1027.984v-71.72h-1027.984v71.72zM0 642.839h1027.984v-71.72h-1027.984v71.72zM0 324.881h1027.984v-71.72h-1027.984v71.72zM0 7.72h1027.984v-71.72h-1027.984v71.72z" />
<glyph unicode="&#xe901;" glyph-name="play-fill" d="M742.144 403.392l-407.232-236.288c-34.56-20.032-78.912 4.224-78.912 44.608v472.576c0 40.32 44.288 64.64 78.912 44.544l407.232-236.288c15.572-9.011 25.881-25.59 25.881-44.576s-10.309-35.565-25.635-44.444l-0.247-0.132z" />
<glyph unicode="&#xe902;" glyph-name="instagram" d="M637.902 603.279c-14.689 0-27.279-12.59-27.279-27.279s12.59-27.279 27.279-27.279 27.279 12.59 27.279 27.279-10.492 27.279-27.279 27.279zM608.525 689.311h-190.951c-79.738 0-142.689-65.049-142.689-142.689v-190.951c0-79.738 65.049-142.689 142.689-142.689h190.951c79.738 0 142.689 65.049 142.689 142.689v190.951c0 77.639-65.049 142.689-142.689 142.689zM705.049 355.672c0-54.557-44.066-98.623-98.623-98.623h-190.951c-54.557 0-98.623 44.066-98.623 98.623v190.951c0 54.557 44.066 98.623 98.623 98.623h193.049c54.557 0 98.623-44.066 98.623-98.623-2.098 0-2.098-190.951-2.098-190.951zM514.098 567.607c-65.049 0-117.508-52.459-117.508-117.508s52.459-117.508 117.508-117.508 117.508 52.459 117.508 117.508-52.459 117.508-117.508 117.508zM514.098 374.557c-41.967 0-75.541 33.574-75.541 75.541s33.574 75.541 75.541 75.541 75.541-33.574 75.541-75.541-33.574-75.541-75.541-75.541zM512-68.197c-283.279 0-516.197 230.82-516.197 514.098s230.82 514.098 516.197 514.098 516.197-228.721 516.197-512-232.918-516.197-516.197-516.197zM512 936.918c-270.689 0-488.918-218.23-488.918-488.918s220.328-491.016 491.016-491.016c270.689 0 491.016 220.328 491.016 491.016-2.098 270.689-222.426 488.918-493.115 488.918z" />
<glyph unicode="&#xe903;" glyph-name="youtube" d="M772.197 578.098c-6.295 23.082-25.18 41.967-48.262 48.262-41.967 10.492-211.934 10.492-211.934 10.492s-167.869 0-211.934-10.492c-23.082-6.295-41.967-25.18-48.262-48.262-10.492-41.967-10.492-130.098-10.492-130.098s0-88.131 10.492-130.098c6.295-23.082 25.18-41.967 48.262-48.262 41.967-10.492 211.934-10.492 211.934-10.492s169.967 0 211.934 10.492c23.082 6.295 41.967 25.18 48.262 48.262 10.492 41.967 10.492 130.098 10.492 130.098s0 88.131-10.492 130.098zM459.541 366.164v161.574l140.59-81.836-140.59-79.738zM512-68.197c-283.279 0-516.197 230.82-516.197 514.098s230.82 514.098 516.197 514.098 516.197-228.721 516.197-512-232.918-516.197-516.197-516.197zM512 936.918c-270.689 0-488.918-218.23-488.918-488.918s220.328-491.016 491.016-491.016c270.689 0 491.016 220.328 491.016 491.016-2.098 270.689-222.426 488.918-493.115 488.918z" />
<glyph unicode="&#xe904;" glyph-name="x" d="M297.344 662.656c5.794 5.808 13.805 9.401 22.656 9.401s16.862-3.593 22.655-9.401l169.345-169.409 169.344 169.408c5.798 5.798 13.808 9.384 22.656 9.384 17.695 0 32.040-14.345 32.040-32.040 0-8.848-3.586-16.858-9.384-22.656v0l-169.408-169.344 169.408-169.344c5.798-5.798 9.384-13.808 9.384-22.656 0-17.695-14.345-32.040-32.040-32.040-8.848 0-16.858 3.586-22.656 9.384v0l-169.344 169.408-169.344-169.408c-5.798-5.798-13.808-9.384-22.656-9.384-17.695 0-32.040 14.345-32.040 32.040 0 8.848 3.586 16.858 9.384 22.656v0l169.408 169.344-169.408 169.344c-5.808 5.794-9.401 13.805-9.401 22.656s3.593 16.862 9.401 22.655l0.001 0.001z" />
<glyph unicode="&#xe905;" glyph-name="x-lg" d="M137.344 777.344c-5.798 5.798-9.384 13.808-9.384 22.656 0 17.695 14.345 32.040 32.040 32.040 8.848 0 16.858-3.586 22.656-9.384v0l329.344-329.408 329.344 329.408c5.798 5.798 13.808 9.384 22.656 9.384 17.695 0 32.040-14.345 32.040-32.040 0-8.848-3.586-16.858-9.384-22.656v0l-329.408-329.344 329.408-329.344c5.798-5.798 9.384-13.808 9.384-22.656 0-17.695-14.345-32.040-32.040-32.040-8.848 0-16.858 3.586-22.656 9.384v0l-329.344 329.408-329.344-329.408c-5.798-5.798-13.808-9.384-22.656-9.384-17.695 0-32.040 14.345-32.040 32.040 0 8.848 3.586 16.858 9.384 22.656v0l329.408 329.344-329.408 329.344z" />
<glyph unicode="&#xe906;" glyph-name="eye-slash" d="M854.976 240.768c108.864 97.152 169.024 207.232 169.024 207.232s-192 352-512 352c-64.639-0.23-125.989-14.058-181.419-38.771l2.859 1.139 49.28-49.344c38.437 14.446 82.858 22.859 129.229 22.976h0.051c135.68 0 248.256-74.752 330.752-157.248 38.746-38.949 73.728-81.717 104.308-127.666l1.932-3.086c-3.712-5.568-7.808-11.712-12.48-18.432-21.44-30.72-53.12-71.68-93.76-112.32-10.56-10.56-21.568-20.992-33.088-31.104l45.312-45.376zM723.008 372.736c8.284 22.445 13.076 48.369 13.076 75.412 0 123.712-100.288 224-224 224-27.043 0-52.966-4.792-76.967-13.573l1.555 0.498 52.672-52.672c6.812 1.027 14.673 1.614 22.67 1.614 88.366 0 160-71.634 160-160 0-7.998-0.587-15.858-1.72-23.541l0.105 0.871 52.608-52.608zM534.656 289.6l52.608-52.608c-22.445-8.284-48.369-13.076-75.412-13.076-123.712 0-224 100.288-224 224 0 27.043 4.792 52.966 13.573 76.967l-0.498-1.555 52.672-52.672c-1.027-6.812-1.614-14.673-1.614-22.67 0-88.366 71.634-160 160-160 7.998 0 15.858 0.587 23.541 1.72l-0.871-0.105zM214.4 609.92c-11.52-10.24-22.592-20.608-33.152-31.168-38.746-38.949-73.728-81.717-104.308-127.666l-1.932-3.086 12.48-18.432c21.44-30.72 53.12-71.68 93.76-112.32 82.496-82.496 195.136-157.248 330.752-157.248 45.824 0 88.96 8.512 129.28 23.040l49.28-49.408c-52.571-23.572-113.921-37.4-178.475-37.632h-0.085c-320 0-512 352-512 352s60.096 110.144 169.024 207.232l45.312-45.376zM873.344 41.344l-768 768 45.312 45.312 768-768-45.312-45.312z" />
<glyph unicode="&#xe907;" glyph-name="sun-empty" d="M527.019 960c0.683-79.189 0.683-158.379 0.683-236.885 0-5.461 1.365-8.192 7.509-8.875 53.931-3.413 101.035-24.576 144.043-56.661 1.365-0.683 2.048-1.365 3.413-2.048 20.48 22.528 40.277 45.056 60.757 66.901 34.133 37.547 68.267 75.776 101.717 113.323 4.779 5.461 8.192 5.461 13.653 0.683 2.731-2.731 5.461-4.779 8.875-8.192-56.661-62.805-112.64-124.928-169.301-187.733 4.096-4.779 8.875-8.875 12.971-13.653 37.547-43.008 60.757-92.16 66.901-148.821 1.365-13.653 1.365-12.971 15.019-12.971 76.459 1.365 152.235 2.048 228.693 2.731h2.731v-21.845h-34.816c-66.219-0.683-131.755-2.048-197.973-2.731-8.875 0-10.923-2.731-11.605-10.923-3.413-46.421-17.749-89.429-43.008-128.341-1.365-2.048-2.731-4.096-4.779-6.144-1.365-2.048-2.731-4.096-4.096-5.461 54.613-60.757 109.227-121.515 163.84-181.589 6.144-6.827 2.048-10.24-2.048-14.336-4.779-4.779-8.192-6.144-13.653 0-51.2 56.661-102.4 113.323-153.6 170.667-2.048 2.731-4.779 4.779-7.509 8.192-4.779-4.779-9.557-9.557-14.336-13.653-36.181-35.499-78.507-60.075-127.659-70.997-11.605-2.731-23.211-4.779-35.499-5.461-8.875-0.683-9.557-4.096-9.557-11.605v-156.331c0-27.307-0.683-53.931-1.365-81.237h-20.48c-0.683 78.507-0.683 157.696-1.365 236.203 0 10.923 0 10.923-11.605 11.605-61.44 4.779-114.005 29.355-159.744 70.997-12.288 10.923-12.288 10.923-23.211-1.365-47.104-52.565-94.208-105.131-141.995-157.696-3.413-4.096-7.509-8.192-10.24-11.605-1.365 0-2.048 0-2.731 0.683-14.336 12.288-14.336 12.288-2.048 26.624 49.152 54.613 98.987 109.227 148.139 163.84 4.779 5.461 5.461 8.875 0.683 14.336-27.307 35.499-44.373 76.459-51.883 120.832-1.365 8.192-2.048 16.384-2.048 24.576 0 6.827-2.731 8.875-9.557 8.875-68.267-1.365-137.216-2.731-205.483-3.413-11.605 0-23.211 0.683-34.816 1.365v20.48l120.832 2.048c39.595 0.683 79.872 1.365 119.467 2.048 6.144 0 8.875 1.365 9.557 8.192 6.827 63.488 32.768 117.419 77.824 162.475 12.971 12.971 12.971 12.971 0.683 26.624-47.787 52.565-94.891 105.813-142.677 158.379-5.461 6.144-4.096 8.875 1.365 13.653 4.779 4.096 8.192 7.509 14.336 0.683l108.544-120.832c13.653-15.019 26.624-29.355 40.277-44.373 5.461-6.144 9.557-6.827 16.384-1.365 34.133 23.893 71.68 38.229 112.64 43.008 6.827 0.683 13.653 0.683 20.48 2.731 2.731 0.683 6.144 4.096 6.144 6.827v207.531c1.365 8.875 0.683 19.797 0.683 30.037h21.845zM516.096 697.173c-132.437-0.683-244.395-101.035-247.808-241.664s104.448-249.856 240.299-253.269c139.947-3.413 251.221 105.131 253.269 243.712 2.048 136.533-104.448 249.173-245.76 251.221z" />
<glyph unicode="&#xe908;" glyph-name="sun-half" d="M1021.269 468.48c-76.459-0.683-152.235-2.048-228.693-2.731-12.971 0-13.653-0.683-15.019 12.971-6.144 57.344-29.355 106.496-66.901 148.821-4.096 4.779-8.192 8.875-12.971 13.653 56.661 62.805 112.64 124.928 169.301 187.733-3.413 3.413-6.144 5.461-8.875 8.192-4.779 4.779-8.875 4.779-13.653-0.683-34.133-38.229-68.267-75.776-101.717-113.323-19.797-22.528-40.277-44.373-60.757-66.901-1.365 0.683-2.048 1.365-3.413 2.048-43.008 32.085-90.112 53.248-144.043 56.661-6.144 0.683-7.509 3.413-7.509 8.875 0 79.189-0.683 158.379-0.683 236.885h-21.845c0-10.24 0.683-21.163 0.683-31.403v-207.531c0-2.048-4.096-6.144-6.144-6.827-6.827-1.365-13.653-1.365-20.48-2.731-40.96-4.779-78.507-19.115-112.64-43.008-6.827-4.779-10.923-4.096-16.384 1.365-12.971 15.019-26.624 29.355-40.277 44.373-35.499 40.277-71.68 80.555-107.861 121.515-6.144 6.827-9.557 3.413-14.336-0.683-5.461-4.779-6.827-7.509-1.365-13.653 47.787-52.565 94.891-105.813 142.677-158.379 12.288-13.653 12.288-13.653-0.683-26.624-45.056-45.056-70.997-99.669-77.824-162.475-0.683-6.827-3.413-8.192-9.557-8.192-39.595-0.683-79.872-1.365-119.467-2.048-40.277-1.365-80.555-2.048-120.832-2.731v-20.48c11.605-0.683 23.211-1.365 34.816-1.365 68.267 0.683 137.216 2.048 205.483 3.413 6.827 0 9.557-2.048 9.557-8.875 0-8.192 0.683-16.384 2.048-24.576 7.509-44.373 24.576-84.651 51.883-120.832 4.096-5.461 4.096-9.557-0.683-14.336-49.835-54.613-98.987-109.227-148.139-163.84-12.971-14.336-12.288-14.336 2.048-26.624 0.683 0 1.365 0 2.731-0.683 3.413 3.413 6.827 7.509 10.24 11.605 47.104 52.565 94.208 105.131 141.995 157.696 10.923 12.288 10.923 12.288 23.211 1.365 45.739-40.96 98.304-65.536 159.744-70.997 10.923-0.683 10.923-0.683 11.605-11.605 0.683-78.507 0.683-157.696 1.365-236.203h20.48c0.683 27.307 1.365 53.931 1.365 81.237v156.331c0 7.509 0.683 10.923 9.557 11.605 11.605 0.683 23.893 2.731 35.499 5.461 49.835 10.923 91.477 36.181 127.659 70.997 4.779 4.779 9.557 8.875 14.336 13.653 2.731-3.413 4.779-5.461 7.509-8.192 51.2-56.661 102.4-113.323 153.6-170.667 5.461-6.144 8.875-4.779 13.653 0 4.096 4.096 8.875 7.509 2.048 14.336-54.613 60.075-109.227 120.832-163.84 181.589 0.683 1.365 2.731 3.413 4.096 5.461s3.413 4.096 4.779 6.144c25.259 38.912 39.595 81.92 43.008 128.341 0.683 8.192 3.413 10.923 11.605 10.923 66.219 0.683 131.755 2.048 197.973 2.731h34.816v21.845c-2.731 1.365-3.413 1.365-4.779 1.365zM518.144 202.24l-0.683 494.933c140.629-2.731 246.443-114.688 244.395-250.539s-107.861-243.029-243.712-244.395z" />
<glyph unicode="&#xe909;" glyph-name="sun-full" d="M1021.269 468.48c-76.459-0.683-152.235-2.048-228.693-2.731-12.971 0-13.653-0.683-15.019 12.971-6.144 57.344-29.355 106.496-66.901 148.821-4.096 4.779-8.192 8.875-12.971 13.653 56.661 62.805 112.64 124.928 169.301 187.733-3.413 3.413-6.144 5.461-8.875 8.192-4.779 4.779-8.875 4.779-13.653-0.683-34.133-38.229-68.267-75.776-101.717-113.323-19.797-22.528-40.277-44.373-60.757-66.901-1.365 0.683-2.048 1.365-3.413 2.048-43.008 32.085-90.112 53.248-144.043 56.661-6.144 0.683-7.509 3.413-7.509 8.875 0 79.189-0.683 158.379-0.683 236.885h-21.845c0-10.24 0.683-21.163 0.683-31.403v-207.531c0-2.048-4.096-6.144-6.144-6.827-6.827-1.365-13.653-1.365-20.48-2.731-40.96-4.779-78.507-19.115-112.64-43.008-6.827-4.779-10.923-4.096-16.384 1.365-12.971 15.019-26.624 29.355-40.277 44.373-35.499 40.277-71.68 80.555-107.861 121.515-6.144 6.827-9.557 3.413-14.336-0.683-5.461-4.779-6.827-7.509-1.365-13.653 47.787-52.565 94.891-105.813 142.677-158.379 12.288-13.653 12.288-13.653-0.683-26.624-45.056-45.056-70.997-99.669-77.824-162.475-0.683-6.827-3.413-8.192-9.557-8.192-39.595-0.683-79.872-1.365-119.467-2.048-40.277-1.365-80.555-2.048-120.832-2.731v-20.48c11.605-0.683 23.211-1.365 34.816-1.365 68.267 0.683 137.216 2.048 205.483 3.413 6.827 0 9.557-2.048 9.557-8.875 0-8.192 0.683-16.384 2.048-24.576 7.509-44.373 24.576-84.651 51.883-120.832 4.096-5.461 4.096-9.557-0.683-14.336-49.835-54.613-98.987-109.227-148.139-163.84-12.971-14.336-12.288-14.336 2.048-26.624 0.683 0 1.365 0 2.731-0.683 3.413 3.413 6.827 7.509 10.24 11.605 47.104 52.565 94.208 105.131 141.995 157.696 10.923 12.288 10.923 12.288 23.211 1.365 45.739-40.96 98.304-65.536 159.744-70.997 10.923-0.683 10.923-0.683 11.605-11.605 0.683-78.507 0.683-157.696 1.365-236.203h20.48c0.683 27.307 1.365 53.931 1.365 81.237v156.331c0 7.509 0.683 10.923 9.557 11.605 11.605 0.683 23.893 2.731 35.499 5.461 49.835 10.923 91.477 36.181 127.659 70.997 4.779 4.779 9.557 8.875 14.336 13.653 2.731-3.413 4.779-5.461 7.509-8.192 51.2-56.661 102.4-113.323 153.6-170.667 5.461-6.144 8.875-4.779 13.653 0 4.096 4.096 8.875 7.509 2.048 14.336-54.613 60.075-109.227 120.832-163.84 181.589 0.683 1.365 2.731 3.413 4.096 5.461s3.413 4.096 4.779 6.144c25.259 38.912 39.595 81.92 43.008 128.341 0.683 8.192 3.413 10.923 11.605 10.923 66.219 0.683 131.755 2.048 197.973 2.731h34.816v21.845c-2.731 1.365-3.413 1.365-4.779 1.365z" />
<glyph unicode="&#xe90a;" glyph-name="twitter" d="M253.902 271.738c39.869-2.098 77.639 4.197 113.311 20.984 16.787 8.393 31.475 16.787 46.164 29.377-16.787 0-33.574 4.197-46.164 12.59-25.18 12.59-41.967 33.574-52.459 60.852-2.098 4.197 0 6.295 4.197 6.295 16.787-2.098 29.377-2.098 39.869 2.098-10.492 4.197-18.885 4.197-25.18 10.492-35.672 20.984-56.656 52.459-58.754 96.525 0 4.197 2.098 6.295 6.295 4.197 12.59-8.393 27.279-10.492 41.967-12.59-6.295 6.295-12.59 10.492-18.885 16.787-29.377 33.574-37.77 86.033-16.787 128 2.098 6.295 4.197 6.295 8.393 2.098 50.361-60.852 113.311-96.525 190.951-109.115 8.393-2.098 16.787-2.098 23.082-4.197 6.295 0 6.295 2.098 4.197 6.295-8.393 48.262 12.59 94.426 54.557 117.508 41.967 25.18 94.426 16.787 128-16.787 4.197-4.197 8.393-4.197 12.59-2.098 20.984 4.197 39.869 12.59 56.656 23.082 2.098 0 2.098 2.098 4.197 2.098-8.393-27.279-23.082-46.164-46.164-62.951 20.984 2.098 39.869 8.393 58.754 16.787 0-2.098-2.098-4.197-2.098-6.295-12.59-18.885-27.279-33.574-46.164-48.262-4.197-2.098-4.197-4.197-4.197-8.393 2.098-81.836-25.18-157.377-75.541-220.328-48.262-58.754-109.115-94.426-182.557-104.918-77.639-12.59-148.984 0-216.131 44.066 0-4.197 0-4.197-2.098-4.197v0zM512-68.197c-283.279 0-516.197 230.82-516.197 514.098s230.82 514.098 516.197 514.098 516.197-228.721 516.197-512-232.918-516.197-516.197-516.197zM512 936.918c-270.689 0-488.918-218.23-488.918-488.918s220.328-491.016 491.016-491.016c270.689 0 491.016 220.328 491.016 491.016-2.098 270.689-222.426 488.918-493.115 488.918z" />
<glyph unicode="&#xe90b;" glyph-name="plus" d="M512 704c17.673 0 32-14.327 32-32v0-192h192c17.673 0 32-14.327 32-32s-14.327-32-32-32v0h-192v-192c0-17.673-14.327-32-32-32s-32 14.327-32 32v0 192h-192c-17.673 0-32 14.327-32 32s14.327 32 32 32v0h192v192c0 17.673 14.327 32 32 32v0z" />
<glyph unicode="&#xe90c;" glyph-name="chevron-down" d="M105.344 662.656c5.794 5.808 13.805 9.401 22.656 9.401s16.862-3.593 22.655-9.401l361.345-361.409 361.344 361.408c5.798 5.798 13.808 9.384 22.656 9.384 17.695 0 32.040-14.345 32.040-32.040 0-8.848-3.586-16.858-9.384-22.656v0l-384-384c-5.794-5.808-13.805-9.401-22.656-9.401s-16.862 3.593-22.655 9.401l-384.001 384.001c-5.808 5.794-9.401 13.805-9.401 22.656s3.593 16.862 9.401 22.655l0.001 0.001z" />
<glyph unicode="&#xe90d;" glyph-name="chevron-left" d="M726.656 854.656c5.808-5.794 9.401-13.805 9.401-22.656s-3.593-16.862-9.401-22.655l-361.409-361.345 361.408-361.344c5.798-5.798 9.384-13.808 9.384-22.656 0-17.695-14.345-32.040-32.040-32.040-8.848 0-16.858 3.586-22.656 9.384v0l-384 384c-5.808 5.794-9.401 13.805-9.401 22.656s3.593 16.862 9.401 22.655l384.001 384.001c5.794 5.808 13.805 9.401 22.656 9.401s16.862-3.593 22.655-9.401l0.001-0.001z" />
<glyph unicode="&#xe90e;" glyph-name="chevron-right" d="M297.344 854.656c5.794 5.808 13.805 9.401 22.656 9.401s16.862-3.593 22.655-9.401l384.001-384.001c5.808-5.794 9.401-13.805 9.401-22.656s-3.593-16.862-9.401-22.655l-384.001-384.001c-5.798-5.798-13.808-9.384-22.656-9.384-17.695 0-32.040 14.345-32.040 32.040 0 8.848 3.586 16.858 9.384 22.656v0l361.408 361.344-361.408 361.344c-5.808 5.794-9.401 13.805-9.401 22.656s3.593 16.862 9.401 22.655l0.001 0.001z" />
<glyph unicode="&#xe90f;" glyph-name="chevron-up" d="M489.344 662.656c5.794 5.808 13.805 9.401 22.656 9.401s16.862-3.593 22.655-9.401l384.001-384.001c5.798-5.798 9.384-13.808 9.384-22.656 0-17.695-14.345-32.040-32.040-32.040-8.848 0-16.858 3.586-22.656 9.384v0l-361.344 361.408-361.344-361.408c-5.798-5.798-13.808-9.384-22.656-9.384-17.695 0-32.040 14.345-32.040 32.040 0 8.848 3.586 16.858 9.384 22.656l384 384z" />
<glyph unicode="&#xe910;" glyph-name="plus-circle" d="M512 0c-247.424 0-448 200.576-448 448s200.576 448 448 448v0c247.424 0 448-200.576 448-448s-200.576-448-448-448v0zM512-64c282.77 0 512 229.23 512 512s-229.23 512-512 512v0c-282.77 0-512-229.23-512-512s229.23-512 512-512v0zM512 704c17.673 0 32-14.327 32-32v0-192h192c17.673 0 32-14.327 32-32s-14.327-32-32-32v0h-192v-192c0-17.673-14.327-32-32-32s-32 14.327-32 32v0 192h-192c-17.673 0-32 14.327-32 32s14.327 32 32 32v0h192v192c0 17.673 14.327 32 32 32v0z" />
<glyph unicode="&#xe911;" glyph-name="facebook" d="M549.77 605.377c4.197 6.295 14.689 10.492 29.377 10.492 12.59 0 29.377-2.098 44.066-6.295l12.59 69.246c-25.18 8.393-52.459 12.59-79.738 12.59s-48.262-4.197-67.148-14.689c-16.787-10.492-29.377-20.984-35.672-37.77-6.295-14.689-10.492-39.869-10.492-71.344v-27.279h-52.459v-79.738h52.459v-258.098c12.59-2.098 88.131-2.098 96.525 0v258.098h71.344v79.738h-71.344v25.18c0 20.984 2.098 31.475 10.492 39.869v0zM512-68.197c-283.279 0-516.197 230.82-516.197 514.098s230.82 514.098 516.197 514.098 516.197-228.721 516.197-512-232.918-516.197-516.197-516.197zM512 936.918c-270.689 0-488.918-218.23-488.918-488.918s220.328-491.016 491.016-491.016c270.689 0 491.016 220.328 491.016 491.016-2.098 270.689-222.426 488.918-493.115 488.918z" />
<glyph unicode="&#xe912;" glyph-name="download" d="M32 326.4c17.673 0 32-14.327 32-32v0-160c0-35.346 28.654-64 64-64v0h768c35.346 0 64 28.654 64 64v0 160c0 17.673 14.327 32 32 32s32-14.327 32-32v0-160c0-70.692-57.308-128-128-128v0h-768c-70.692 0-128 57.308-128 128v0 160c0 17.673 14.327 32 32 32v0zM489.344 201.344c5.794-5.808 13.805-9.401 22.656-9.401s16.862 3.593 22.655 9.401l192.001 192.001c5.798 5.798 9.384 13.808 9.384 22.656 0 17.695-14.345 32.040-32.040 32.040-8.848 0-16.858-3.586-22.656-9.384v0l-137.344-137.408v562.752c0 17.673-14.327 32-32 32s-32-14.327-32-32v0-562.752l-137.344 137.408c-5.798 5.798-13.808 9.384-22.656 9.384-17.695 0-32.040-14.345-32.040-32.040 0-8.848 3.586-16.858 9.384-22.656v0l192-192z" />
<glyph unicode="&#xe913;" glyph-name="plus-lg" d="M512 832c17.673 0 32-14.327 32-32v0-320h320c17.673 0 32-14.327 32-32s-14.327-32-32-32v0h-320v-320c0-17.673-14.327-32-32-32s-32 14.327-32 32v0 320h-320c-17.673 0-32 14.327-32 32s14.327 32 32 32v0h320v320c0 17.673 14.327 32 32 32v0z" />
<glyph unicode="&#xe914;" glyph-name="camera" d="M960 192c0-35.346-28.654-64-64-64v0h-768c-35.346 0-64 28.654-64 64v0 384c0 35.346 28.654 64 64 64v0h75.008c52.991 0.030 100.957 21.523 135.679 56.255l0.001 0.001 53.12 52.992c11.55 11.553 27.495 18.712 45.112 18.752h150.024c17.671-0.004 33.669-7.169 45.248-18.752l52.992-52.992c34.747-34.757 82.755-56.256 135.785-56.256 0.008 0 0.016 0 0.024 0h75.007c35.346 0 64-28.654 64-64v0-384zM128 704c-70.692 0-128-57.308-128-128v0-384c0-70.692 57.308-128 128-128v0h768c70.692 0 128 57.308 128 128v0 384c0 70.692-57.308 128-128 128v0h-75.008c-35.343 0.008-67.337 14.339-90.496 37.504l-52.992 52.992c-23.158 23.165-55.153 37.496-90.494 37.504h-150.018c-35.343-0.008-67.337-14.339-90.496-37.504l-52.992-52.992c-23.158-23.165-55.153-37.496-90.494-37.504h-75.010zM512 256c-88.366 0-160 71.634-160 160s71.634 160 160 160v0c88.366 0 160-71.634 160-160s-71.634-160-160-160v0zM512 192c123.712 0 224 100.288 224 224s-100.288 224-224 224v0c-123.712 0-224-100.288-224-224s100.288-224 224-224v0zM192 544c0-17.673-14.327-32-32-32s-32 14.327-32 32v0c0 17.673 14.327 32 32 32s32-14.327 32-32v0z" />
<glyph unicode="&#xe915;" glyph-name="eye" d="M1024 448s-192 352-512 352-512-352-512-352 192-352 512-352 512 352 512 352zM75.072 448c32.512 49.036 67.494 91.804 106.276 130.788l-0.036-0.036c82.368 82.496 195.008 157.248 330.688 157.248s248.256-74.752 330.752-157.248c38.746-38.948 73.728-81.716 104.308-127.666l1.932-3.086c-3.712-5.568-7.808-11.712-12.48-18.432-21.44-30.72-53.12-71.68-93.76-112.32-82.496-82.496-195.136-157.248-330.752-157.248-135.68 0-248.256 74.752-330.752 157.248-38.746 38.949-73.728 81.717-104.308 127.666l-1.932 3.086zM512 608c-88.366 0-160-71.634-160-160s71.634-160 160-160v0c88.366 0 160 71.634 160 160s-71.634 160-160 160v0zM288 448c0 123.712 100.288 224 224 224s224-100.288 224-224v0c0-123.712-100.288-224-224-224s-224 100.288-224 224v0z" />
<glyph unicode="&#xe916;" glyph-name="camera2" d="M320 448c0 106.048 149.952 192 256 192v64c-141.385 0-256-114.615-256-256v0zM788.352 768h128.96c58.88 0 106.688-47.744 106.688-106.688v-426.624c0-58.88-47.744-106.688-106.688-106.688h-128.96c-59.502-40.095-132.802-64.001-211.685-64.001-0.234 0-0.469 0-0.703 0.001h0.036c-0.186 0-0.407-0.001-0.628-0.001-78.896 0-152.209 23.905-213.090 64.867l1.366-0.866h-256.96c-58.88 0-106.688 47.744-106.688 106.688v426.624c0 58.88 47.744 106.688 106.688 106.688h21.312c0 35.346 28.654 64 64 64v0h64c35.346 0 64-28.654 64-64v0h43.648c59.502 40.095 132.802 64.001 211.685 64.001 0.234 0 0.469 0 0.703-0.001h-0.036c78.528 0 151.488-23.552 212.352-64zM128 672c0 17.673-14.327 32-32 32s-32-14.327-32-32v0c0-17.673 14.327-32 32-32s32 14.327 32 32v0zM896 448c0 176.731-143.269 320-320 320s-320-143.269-320-320v0c0-176.731 143.269-320 320-320s320 143.269 320 320v0z" />
<glyph unicode="&#xe917;" glyph-name="camera-fill" d="M672 416c0-88.366-71.634-160-160-160s-160 71.634-160 160v0c0 88.366 71.634 160 160 160s160-71.634 160-160v0zM128 704c-70.692 0-128-57.308-128-128v0-384c0-70.692 57.308-128 128-128v0h768c70.692 0 128 57.308 128 128v0 384c0 70.692-57.308 128-128 128v0h-75.008c-35.343 0.008-67.337 14.339-90.496 37.504l-52.992 52.992c-23.158 23.165-55.153 37.496-90.494 37.504h-150.018c-35.343-0.008-67.337-14.339-90.496-37.504l-52.992-52.992c-23.158-23.165-55.153-37.496-90.494-37.504h-75.010zM160 576c-17.673 0-32 14.327-32 32s14.327 32 32 32v0c17.673 0 32-14.327 32-32s-14.327-32-32-32v0zM736 416c0-123.712-100.288-224-224-224s-224 100.288-224 224v0c0 123.712 100.288 224 224 224s224-100.288 224-224v0z" />
<glyph unicode="&#xe918;" glyph-name="pinterest" d="M512-68.197c-283.279 0-516.197 230.82-516.197 514.098s230.82 514.098 516.197 514.098 516.197-228.721 516.197-512-232.918-516.197-516.197-516.197zM512 936.918c-270.689 0-488.918-218.23-488.918-488.918s220.328-491.016 491.016-491.016c270.689 0 491.016 220.328 491.016 491.016-2.098 270.689-222.426 488.918-493.115 488.918zM547.672 299.016c-33.574 2.098-46.164 18.885-73.443 33.574-14.689-75.541-31.475-144.787-83.934-182.557-16.787 113.311 23.082 197.246 41.967 287.475-31.475 52.459 4.197 157.377 69.246 132.197 79.738-31.475-69.246-193.049 31.475-214.033 104.918-20.984 148.984 182.557 83.934 249.705-94.426 96.525-274.885 2.098-251.803-134.295 6.295-33.574 39.869-44.066 14.689-90.23-60.852 12.59-77.639 60.852-75.541 123.803 4.197 104.918 92.328 176.262 182.557 186.754 113.311 12.59 220.328-41.967 235.016-148.984 14.689-121.705-52.459-251.803-174.164-243.41v0 0z" />
<glyph unicode="&#xe919;" glyph-name="camera-video" d="M0 640c0 70.692 57.308 128 128 128v0h480c0.005 0 0.010 0 0.015 0 64.78 0 118.32-48.122 126.823-110.569l0.074-0.663 199.040 88.448c7.66 3.5 16.616 5.541 26.048 5.541 35.337 0 63.984-28.638 64-63.971v-477.569c-0.032-35.322-28.673-63.944-64-63.944-9.408 0-18.341 2.030-26.386 5.675l0.402-0.163-199.104 88.448c-8.577-63.11-62.117-111.232-126.897-111.232-0.005 0-0.011 0-0.016 0h-479.999c-70.692 0-128 57.308-128 128v0 384zM736 308.8l224-99.584v477.568l-224-99.584v-278.4zM128 704c-35.346 0-64-28.654-64-64v0-384c0-35.346 28.654-64 64-64v0h480c35.346 0 64 28.654 64 64v0 384c0 35.346-28.654 64-64 64v0h-480z" />
<glyph unicode="&#xe91a;" glyph-name="camera-video-fill" d="M0 640c0 70.692 57.308 128 128 128v0h480c0.005 0 0.010 0 0.015 0 64.78 0 118.32-48.122 126.823-110.569l0.074-0.663 199.040 88.448c7.66 3.5 16.616 5.541 26.048 5.541 35.337 0 63.984-28.638 64-63.971v-477.569c-0.032-35.322-28.673-63.944-64-63.944-9.408 0-18.341 2.030-26.386 5.675l0.402-0.163-199.104 88.448c-8.577-63.11-62.117-111.232-126.897-111.232-0.005 0-0.011 0-0.016 0h-479.999c-70.692 0-128 57.308-128 128v0 384z" />
<glyph unicode="&#xe91b;" glyph-name="camera-video-off" d="M701.504 168.64c17.656 18.78 29.699 43.024 33.335 69.935l0.073 0.657 199.040-88.448c7.66-3.5 16.616-5.541 26.048-5.541 35.337 0 63.984 28.638 64 63.971v477.569c-0.032 35.322-28.673 63.944-64 63.944-9.408 0-18.341-2.030-26.386-5.675l0.402 0.163-199.104-88.448c-8.577 63.11-62.117 111.232-126.897 111.232-0.005 0-0.011 0-0.016 0h-334.591l45.696-64h288.896c35.346 0 64-28.654 64-64v0-384c0-0.019 0-0.042 0-0.065 0-12.226-3.428-23.651-9.375-33.366l0.159 0.28 38.72-54.208zM91.392 692.48c-16.647-11.705-27.392-30.829-27.392-52.463 0-0.006 0-0.012 0-0.018v0.001-384c0-35.346 28.654-64 64-64v0h320.896l45.696-64h-366.592c-70.692 0-128 57.308-128 128v0 384c0 43.2 21.376 81.408 54.208 104.576l37.12-52.096zM960 209.28l-224 99.52v278.4l224 99.584v-477.568zM677.952-18.56l-640 896 52.096 37.12 640-896-52.096-37.12z" />
<glyph unicode="&#xe91c;" glyph-name="tiktok" d="M512-68.197c-283.279 0-516.197 230.82-516.197 514.098s230.82 514.098 516.197 514.098 516.197-228.721 516.197-512-232.918-516.197-516.197-516.197zM512 936.918c-270.689 0-488.918-218.23-488.918-488.918s220.328-491.016 491.016-491.016c270.689 0 491.016 220.328 491.016 491.016-2.098 270.689-222.426 488.918-493.115 488.918zM709.246 494.164c-4.197 0-8.393 0-12.59 0-44.066 0-83.934 20.984-107.016 58.754v-197.246c0-79.738-65.049-146.885-146.885-146.885s-146.885 65.049-146.885 146.885 65.049 146.885 146.885 146.885v0c2.098 0 6.295 0 8.393 0v-71.344c-2.098 0-6.295 0-8.393 0-41.967 0-73.443-33.574-73.443-73.443s33.574-73.443 73.443-73.443 77.639 31.475 77.639 73.443v335.738h69.246c6.295-60.852 56.656-109.115 117.508-113.311v-86.033z" />
<glyph unicode="&#xe91d;" glyph-name="camera-video-off-fill" d="M701.504 168.64c17.656 18.78 29.699 43.024 33.335 69.935l0.073 0.657 199.040-88.448c7.66-3.5 16.616-5.541 26.048-5.541 35.337 0 63.984 28.638 64 63.971v477.569c-0.032 35.322-28.673 63.944-64 63.944-9.408 0-18.341-2.030-26.386-5.675l0.402 0.163-199.104-88.448c-8.577 63.11-62.117 111.232-126.897 111.232-0.005 0-0.011 0-0.016 0h-334.591l428.16-599.36zM54.208 744.64c-32.966-23.483-54.208-61.572-54.208-104.622 0-0.006 0-0.013 0-0.019v0.001-384c0-70.692 57.308-128 128-128v0h366.592l-440.384 616.576zM677.952-18.56l-640 896 52.096 37.12 640-896-52.096-37.12z" />
<glyph unicode="&#xe91e;" glyph-name="eye-fill" d="M672 448c0-88.366-71.634-160-160-160s-160 71.634-160 160v0c0 88.366 71.634 160 160 160s160-71.634 160-160v0zM0 448s192 352 512 352 512-352 512-352-192-352-512-352-512 352-512 352zM512 224c123.712 0 224 100.288 224 224s-100.288 224-224 224v0c-123.712 0-224-100.288-224-224s100.288-224 224-224v0z" />
<glyph unicode="&#xe91f;" glyph-name="eye-slash-fill" d="M690.56 133.632l-103.296 103.36c-22.445-8.284-48.369-13.076-75.412-13.076-123.712 0-224 100.288-224 224 0 27.043 4.792 52.966 13.573 76.967l-0.498-1.555-131.84 131.84c-109.056-96.96-169.088-207.168-169.088-207.168s192-352 512-352c64.639 0.232 125.989 14.060 181.42 38.771l-2.86-1.139zM333.44 762.368c52.571 23.574 113.921 37.402 178.476 37.632h0.084c320 0 512-352 512-352s-60.096-110.144-169.024-207.232l-131.968 131.968c8.284 22.445 13.076 48.369 13.076 75.412 0 123.712-100.288 224-224 224-27.043 0-52.966-4.792-76.967-13.573l1.555 0.498-103.232 103.232zM353.6 470.656c-1.027-6.812-1.614-14.673-1.614-22.67 0-88.366 71.634-160 160-160 7.998 0 15.858 0.587 23.541 1.72l-0.871-0.105-181.12 181.056zM670.4 425.344l-181.056 181.12c6.812 1.027 14.673 1.614 22.67 1.614 88.366 0 160-71.634 160-160 0-7.998-0.587-15.858-1.72-23.541l0.105 0.871zM873.344 41.344l-768 768 45.312 45.312 768-768-45.312-45.312z" />
<glyph unicode="&#xe920;" glyph-name="viewbox" horiz-adv-x="1019" d="M0 496.402h463.598v463.598h-463.598v-463.598zM68.065 891.935h327.468v-327.468h-327.468v327.468zM555.864 960v-463.598h463.598v463.598h-463.598zM951.397 564.467h-327.468v327.468h327.468v-327.468zM0-64h463.598v463.598h-463.598v-463.598zM68.065 331.533h327.468v-327.468h-327.468v327.468zM555.864-64h463.598v463.598h-463.598v-463.598zM623.929 331.533h327.468v-327.468h-327.468v327.468z" />
<glyph unicode="&#xe921;" glyph-name="eye-slash-fill-double" d="M1024 441.6s-6.4 0 0 0c-6.4 0 0 0 0 0zM934.4 569.6c6.4-6.4 12.8-12.8 12.8-19.2 0 6.4-6.4 12.8-12.8 19.2zM857.6 652.8c12.8-12.8 25.6-25.6 38.4-32-12.8 12.8-25.6 25.6-38.4 32zM1011.2 467.2c0-6.4 6.4-6.4 6.4-6.4l-6.4 6.4zM902.4 608c6.4-6.4 12.8-12.8 19.2-25.6-6.4 12.8-12.8 19.2-19.2 25.6zM1004.8 486.4c0-6.4 6.4-6.4 6.4-12.8-6.4 0-6.4 6.4-6.4 12.8zM1024 454.4c0-6.4 0-6.4 0 0 0-6.4 0-6.4 0 0zM985.6 505.6c6.4-6.4 6.4-6.4 6.4-12.8 0 6.4-6.4 12.8-6.4 12.8zM960 537.6c6.4-6.4 6.4-12.8 12.8-19.2 0 6.4-6.4 12.8-12.8 19.2zM294.4 492.8c0 6.4 0 12.8 6.4 19.2-6.4-6.4-6.4-12.8-6.4-19.2zM288 416v0zM492.8 224h-19.2c0 6.4 6.4 0 19.2 0zM288 454.4v0zM1004.8 409.6l-6.4-6.4s0 6.4 6.4 6.4zM665.6 768v0zM531.2 224v0zM736 454.4v0zM934.4 326.4l-12.8-12.8c6.4 0 12.8 6.4 12.8 12.8zM960 358.4l-12.8-12.8c6.4 0 12.8 6.4 12.8 12.8zM985.6 384c0-6.4-6.4-6.4-6.4-12.8 0 6.4 0 12.8 6.4 12.8zM857.6 243.2v0zM576 236.8c-6.4 0-19.2-6.4-25.6-6.4 12.8 0 19.2 0 25.6 6.4zM902.4 288l-12.8-12.8c6.4 6.4 12.8 6.4 12.8 12.8zM729.6 492.8c0-6.4 0-12.8 6.4-25.6 0 12.8-6.4 19.2-6.4 25.6zM121.6 288v0zM89.6 326.4v0zM160 249.6l-25.6 25.6c6.4-6.4 12.8-19.2 25.6-25.6zM38.4 384c0 6.4-6.4 12.8-12.8 19.2 6.4-6.4 12.8-12.8 12.8-19.2zM19.2 409.6c0 6.4-6.4 6.4-6.4 12.8 6.4 0 6.4-6.4 6.4-12.8zM358.4 128v0zM723.2 371.2c6.4 12.8 6.4 25.6 12.8 38.4-6.4-6.4-6.4-25.6-12.8-38.4zM64 358.4c-6.4 6.4-12.8 12.8-12.8 19.2 0-6.4 6.4-12.8 12.8-19.2zM665.6 128c-12.8-6.4-25.6-6.4-32-12.8 12.8 0 25.6 6.4 32 12.8zM409.6 108.8c-6.4 0-12.8 0-19.2 6.4 6.4 0 12.8-6.4 19.2-6.4zM691.2 134.4v0zM614.4 108.8c-12.8 0-25.6-6.4-32-6.4 12.8 0 25.6 6.4 32 6.4zM563.2 102.4c-19.2 0-32-6.4-51.2-6.4 19.2 0 32 0 51.2 6.4zM460.8 102.4v0zM332.8 761.6v0zM358.4 768c12.8 6.4 25.6 6.4 32 12.8-12.8 0-25.6-6.4-32-12.8zM614.4 787.2c6.4 0 12.8 0 19.2-6.4-6.4 0-12.8 6.4-19.2 6.4zM460.8 793.6c19.2 0 32 6.4 51.2 6.4-19.2 0-32 0-51.2-6.4zM563.2 793.6v0zM121.6 608v0zM409.6 787.2c12.8 0 25.6 6.4 32 6.4-12.8 0-25.6-6.4-32-6.4zM0 454.4s6.4 0 0 0c6.4 0 0 0 0 0zM12.8 467.2v0zM89.6 569.6c0 6.4 6.4 12.8 12.8 19.2-6.4-6.4-12.8-12.8-12.8-19.2zM19.2 486.4c0 6.4 6.4 6.4 6.4 12.8 0-6.4 0-12.8-6.4-12.8zM0 441.6c0 6.4 0 6.4 0 0 0 6.4 0 6.4 0 0zM64 537.6c0 6.4 6.4 12.8 6.4 12.8s-6.4-6.4-6.4-12.8zM38.4 505.6c0 6.4 6.4 6.4 12.8 12.8-6.4 0-6.4-6.4-12.8-12.8zM12.8 428.8c0 6.4-6.4 6.4-6.4 12.8 0-6.4 0-6.4 6.4-12.8zM512 672c-25.6 0-51.2-6.4-76.8-12.8 25.6 6.4 51.2 12.8 76.8 12.8zM422.138 493.274l45.248 45.254 45.261-45.254-45.254-45.254zM748.8 166.4l121.6-121.6 44.8 44.8-115.2 115.2c-12.8-19.2-32-32-51.2-38.4zM352 473.6v0zM672 422.4c0 6.4 0 6.4 0 0 0 6.4 0 6.4 0 0zM511.341 402.726l45.254 45.254 45.254-45.254-45.248-45.254zM153.6 857.6l-51.2-51.2 115.2-115.2c19.2 19.2 38.4 32 57.6 38.4l-121.6 128zM601.6 313.6l44.8-44.8c19.2 12.8 32 25.6 44.8 44.8l-44.8 44.8c-12.8-19.2-25.6-32-44.8-44.8zM422.4 582.4l-44.8 44.8c-19.2-12.8-32-25.6-44.8-44.8l44.8-44.8c12.8 19.2 25.6 32 44.8 44.8zM486.4 608c6.4 0 6.4 0 0 0 6.4 0 6.4 0 0 0zM512 608v0zM288 416c0-12.8 6.4-25.6 12.8-38.4-6.4 6.4-6.4 25.6-12.8 38.4zM102.4 588.8c6.4 6.4 12.8 12.8 19.2 25.6-6.4-12.8-12.8-19.2-19.2-25.6zM70.4 550.4c6.4 6.4 12.8 12.8 12.8 19.2 0-6.4-6.4-12.8-12.8-19.2zM134.4 620.8c12.8 12.8 25.6 25.6 38.4 32-19.2-6.4-32-19.2-38.4-32zM390.4 780.8c6.4 0 12.8 0 19.2 6.4-6.4 0-12.8-6.4-19.2-6.4zM512 800c19.2 0 38.4 0 51.2-6.4-19.2 6.4-32 6.4-51.2 6.4zM441.6 793.6v0zM582.4 793.6c12.8 0 25.6-6.4 32-6.4-6.4 0-19.2 6.4-32 6.4zM339.2 768v0zM441.6 102.4c-12.8 0-25.6 6.4-32 6.4 6.4 0 19.2-6.4 32-6.4zM588.8 659.2c-25.6 6.4-51.2 12.8-76.8 12.8 25.6 0 51.2-6.4 76.8-12.8zM512 96c-19.2 0-38.4 0-51.2 6.4 19.2-6.4 32-6.4 51.2-6.4zM166.4 243.2v0zM51.2 377.6c-6.4 0-6.4 6.4-12.8 6.4 6.4 0 6.4-6.4 12.8-6.4zM70.4 345.6s-6.4 6.4-6.4 12.8c0-6.4 6.4-12.8 6.4-12.8zM25.6 403.2l-6.4 6.4c6.4 0 6.4-6.4 6.4-6.4zM633.6 780.8c12.8-6.4 25.6-6.4 32-12.8-6.4 6.4-19.2 12.8-32 12.8zM102.4 307.2c-6.4 6.4-12.8 12.8-12.8 19.2 0-6.4 6.4-12.8 12.8-19.2zM134.4 275.2l-12.8 12.8c0-6.4 6.4-6.4 12.8-12.8zM332.8 134.4v0zM6.4 454.4s0 6.4 6.4 6.4c-6.4 0-6.4 0-6.4-6.4zM12.8 422.4c0 6.4 0 6.4 0 0 0 6.4 0 6.4 0 0zM32 492.8c0 6.4 6.4 6.4 6.4 12.8 0 0-6.4-6.4-6.4-12.8zM51.2 524.8v0zM12.8 473.6c0 6.4 6.4 6.4 6.4 12.8 0-6.4 0-12.8-6.4-12.8zM6.4 441.6s-6.4 0 0 0c-6.4 0 0 0 0 0zM390.4 115.2c-12.8 6.4-25.6 6.4-32 12.8 6.4-6.4 19.2-12.8 32-12.8zM1017.6 454.4s6.4 0 0 0c6.4 0 0 0 0 0zM972.8 377.6c-6.4-6.4-6.4-12.8-12.8-19.2 6.4 6.4 12.8 12.8 12.8 19.2zM953.6 345.6v0zM684.8 128c-6.4 0-12.8-6.4-12.8-6.4 0 6.4 6.4 6.4 12.8 6.4zM921.6 307.2v0zM1017.6 441.6s-6.4-6.4-6.4-12.8c6.4 6.4 6.4 6.4 6.4 12.8zM1011.2 422.4c0-6.4-6.4-6.4-6.4-12.8 0 6.4 0 12.8 6.4 12.8zM998.4 403.2c-6.4-6.4-6.4-12.8-12.8-12.8l12.8 12.8zM288 473.6c0 6.4 0 19.2 6.4 25.6 0-12.8-6.4-19.2-6.4-25.6zM723.2 512c0-6.4 6.4-12.8 6.4-19.2 0 6.4 0 12.8-6.4 19.2zM288 428.8v0zM736 428.8v0zM467.2 230.4c-6.4 0-19.2 6.4-25.6 6.4 12.8-6.4 19.2-6.4 25.6-6.4zM556.8 230.4h-19.2c6.4-6.4 12.8 0 19.2 0zM889.6 275.2l-25.6-25.6c12.8 6.4 19.2 19.2 25.6 25.6zM512 224v0zM736 473.6v0zM921.6 588.8c6.4-6.4 6.4-12.8 12.8-12.8l-12.8 12.8zM691.2 761.6v0zM582.4 102.4v0zM953.6 550.4s6.4-6.4 6.4-12.8c0 6.4-6.4 12.8-6.4 12.8zM889.6 620.8v0zM972.8 524.8l12.8-12.8c-6.4 0-6.4 6.4-12.8 12.8zM1011.2 473.6l6.4-6.4c-6.4 0-6.4 0-6.4 6.4zM992 492.8c0-6.4 6.4-6.4 6.4-12.8 0 6.4 0 12.8-6.4 12.8zM633.6 115.2c-6.4 0-12.8 0-19.2-6.4 6.4 0 12.8 6.4 19.2 6.4zM288 416v57.6c0 6.4 0 19.2 6.4 25.6 0 6.4 0 12.8 6.4 19.2v12.8l-134.4 121.6c-12.8-6.4-25.6-19.2-32-32l-32-32c-6.4-6.4-12.8-12.8-12.8-19.2l-19.2-19.2s-6.4-6.4-6.4-12.8l-12.8-12.8c-6.4-6.4-6.4-12.8-12.8-19.2 0 0-6.4-6.4-6.4-12.8s-6.4-6.4-6.4-12.8-6.4-6.4-6.4-12.8l-6.4-6.4c0-6.4-6.4-6.4-6.4-6.4v-6.4h-6.4v-6.4s6.4-6.4 6.4-12.8c0 0 0-6.4 6.4-6.4 0-6.4 6.4-6.4 6.4-12.8l6.4-6.4c6.4-6.4 12.8-12.8 12.8-19.2s6.4-6.4 6.4-12.8c6.4 0 12.8-6.4 19.2-12.8 0-6.4 6.4-12.8 6.4-12.8l102.4-102.4 134.4 134.4c-12.8 6.4-12.8 25.6-19.2 38.4zM512 672c25.6 0 51.2-6.4 76.8-12.8l102.4 102.4h-6.4c-6.4 6.4-12.8 6.4-19.2 6.4-12.8 6.4-25.6 6.4-32 12.8-6.4 0-12.8 0-19.2 6.4-12.8 0-25.6 6.4-32 6.4h-19.2c-12.8 6.4-32 6.4-51.2 6.4s-38.4 0-51.2-6.4h-19.2c-12.8 0-25.6-6.4-32-6.4s-12.8 0-19.2-6.4c-12.8 0-25.6-6.4-32-12.8h-25.6l102.4-102.4c25.6 0 51.2 6.4 76.8 6.4zM723.2 512c0-6.4 6.4-12.8 6.4-19.2s0-12.8 6.4-25.6v-57.6c0-12.8-6.4-25.6-12.8-38.4l134.4-134.4 102.4 102.4c-6.4 6.4 0 12.8 0 19.2 6.4 6.4 6.4 12.8 12.8 19.2 0 6.4 6.4 6.4 6.4 12.8 6.4 6.4 6.4 12.8 12.8 12.8l6.4 6.4c0 6.4 6.4 6.4 6.4 12.8 0 0 0 6.4 6.4 6.4 0 6.4 6.4 6.4 6.4 12.8l6.4 6.4v12.8s0 6.4-6.4 6.4l-6.4 6.4c0 6.4-6.4 6.4-6.4 12.8s-6.4 6.4-6.4 12.8-6.4 6.4-6.4 12.8-6.4 6.4-12.8 12.8-6.4 12.8-12.8 19.2l-12.8 12.8c-6.4 6.4-12.8 12.8-12.8 19.2l-12.8 12.8c-6.4 6.4-12.8 12.8-19.2 25.6-12.8 0-12.8 0-19.2 6.4-12.8 12.8-25.6 25.6-38.4 32l-134.4-134.4c6.4 0 6.4 0 6.4-6.4zM576 236.8c-6.4 0-19.2-6.4-25.6-6.4h-76.8c-6.4 0-19.2 6.4-25.6 6.4h-6.4l-102.4-102.4h6.4c0-6.4 6.4-6.4 12.8-6.4 12.8-6.4 25.6-6.4 32-12.8 6.4 0 12.8 0 19.2-6.4 12.8 0 25.6-6.4 32-6.4h19.2c19.2 0 32-6.4 51.2-6.4s38.4 0 51.2 6.4h19.2c12.8 0 25.6 6.4 32 6.4s12.8 0 19.2 6.4 25.6 6.4 32 12.8c6.4 0 12.8 6.4 12.8 6.4h6.4l-102.4 102.4h-6.4zM691.2 313.6c-12.8-19.2-25.6-32-44.8-44.8l102.4-102.4 57.6 38.4-115.2 108.8zM377.6 627.2l-102.4 102.4c-19.2-6.4-38.4-19.2-57.6-32l115.2-115.2c12.8 19.2 25.6 32 44.8 44.8zM921.6 806.4l-44.8 44.8-121.6-121.6 57.6-38.4 108.8 115.2zM352 422.4c0 6.4 0 6.4 0 0 0 6.4 0 6.4 0 0zM102.4 89.6l44.8-44.8 121.6 121.6-57.6 38.4-108.8-115.2zM492.8 608v0zM646.4 537.6l44.8 44.8c-12.8 19.2-25.6 32-44.8 44.8l-44.8-44.8c19.2-12.8 32-25.6 44.8-44.8zM512.013 492.608l45.254 45.248 45.254-45.248-45.254-45.261zM377.6 358.4l-44.8-44.8c12.8-19.2 25.6-32 44.8-44.8l44.8 44.8c-19.2 12.8-32 25.6-44.8 44.8zM672 428.8v0zM537.6 608c-6.4 0-6.4 0 0 0-6.4 0-6.4 0 0 0zM421.466 403.392l45.254 45.261 45.254-45.254-45.254-45.254zM332.8 313.6l-115.2-115.2 57.6-38.4 102.4 102.4c-19.2 19.2-32 32-44.8 51.2zM691.2 582.4l115.2 115.2-57.6 38.4-102.4-102.4c19.2-19.2 32-32 44.8-51.2zM646.4 448l19.2-19.2v44.8l-19.2-25.6zM467.2 537.6l-44.8 44.8c-19.2-12.8-32-25.6-44.8-44.8l44.8-44.8 44.8 44.8zM352 473.6v-44.8l25.6 19.2-25.6 25.6zM531.2 608h-44.8l25.6-25.6 19.2 25.6zM466.739 448l45.254 45.254 45.254-45.254-45.254-45.254zM556.8 358.4l44.8-44.8c19.2 12.8 32 25.6 44.8 44.8l-44.8 44.8-44.8-44.8zM422.4 403.2l-44.8-44.8c12.8-19.2 25.6-32 44.8-44.8l44.8 44.8-44.8 44.8zM601.6 582.4l-44.8-44.8 44.8-44.8 44.8 44.8c-12.8 19.2-25.6 32-44.8 44.8zM486.4 288h44.8l-19.2 25.6-25.6-25.6z" />
<glyph unicode="&#xe922;" glyph-name="arrow-left" horiz-adv-x="1391" d="M1390.539 448.525s0 0 0 0l-3.151 13.653s0 2.101-2.101 4.201c0 0 0 2.101-1.050 2.101l-2.101 2.101s0 1.050-1.050 2.101l-482.068 483.118s-4.201 3.151-6.302 4.201l-56.714-56.714s2.101-5.251 4.201-6.302l408.55-408.55h-1245.604s-2.101 0-3.151 0v-81.92s2.101 0 3.151 0h1246.654l-408.55-408.55s-1.050-2.101-2.101-3.151l57.764-57.764s2.101 1.050 3.151 2.101l481.017 481.017s1.050 2.101 2.101 2.101h1.050s1.050 3.151 2.101 5.251c0 0 0 1.050 1.050 3.151l3.151 11.553s0 2.101 0 2.101c0 0 0 0 0 0v4.201s0 2.101 0 2.101z" />
<glyph unicode="&#xe923;" glyph-name="eye-slash-double" d="M857.6 243.2c6.4 0 6.4 6.4 12.8 6.4-6.4 0-12.8-6.4-12.8-6.4zM902.4 288v0zM409.6 787.2c12.8 0 25.6 6.4 32 6.4-12.8 0-25.6-6.4-32-6.4zM934.4 320l-12.8-12.8c6.4 6.4 6.4 12.8 12.8 12.8zM985.6 384l-6.4-6.4s0 6.4 6.4 6.4zM960 358.4c0-6.4-6.4-6.4-6.4-12.8 0 0 6.4 6.4 6.4 12.8zM460.8 793.6c19.2 0 32 6.4 51.2 6.4-19.2 0-32 0-51.2-6.4zM864 646.4l25.6-25.6c-6.4 6.4-12.8 19.2-25.6 25.6zM358.4 768c12.8 6.4 25.6 6.4 32 12.8-12.8 0-25.6-6.4-32-12.8zM844.8 320v0zM332.8 761.6v0zM454.4 729.6c19.2 0 38.4 6.4 57.6 6.4-19.2 0-38.4 0-57.6-6.4zM569.6 729.6c6.4 0 12.8 0 19.2-6.4-6.4 6.4-12.8 6.4-19.2 6.4zM563.2 793.6v0zM390.4 716.8c12.8 6.4 25.6 6.4 44.8 12.8-12.8-6.4-25.6-6.4-44.8-12.8zM1004.8 486.4c0-6.4 6.4-6.4 6.4-12.8-6.4 0-6.4 6.4-6.4 12.8zM985.6 512c6.4-6.4 6.4-12.8 12.8-12.8-6.4 0-12.8 6.4-12.8 12.8zM902.4 608v0zM960 537.6c6.4-6.4 6.4-12.8 12.8-19.2 0 6.4-6.4 12.8-12.8 19.2zM934.4 569.6v0zM1011.2 467.2c0-6.4 6.4-6.4 6.4-12.8 0 6.4 0 6.4-6.4 12.8zM665.6 768v0zM614.4 787.2c6.4 0 12.8 0 19.2-6.4-6.4 0-12.8 6.4-19.2 6.4zM1024 441.6s-6.4 0 0 0c-6.4 0 0 0 0 0zM998.4 409.6s0-6.4-6.4-6.4c6.4 0 6.4 6.4 6.4 6.4zM1024 454.4c0-6.4 0-6.4 0 0 0-6.4 0-6.4 0 0zM300.8 524.8v0zM492.8 608v0zM672 473.6v0zM723.2 512c0-6.4 6.4-12.8 6.4-19.2 0 6.4 0 12.8-6.4 19.2zM288 473.6c0 6.4 0 19.2 6.4 25.6 0-12.8-6.4-19.2-6.4-25.6zM736 473.6v0zM588.8 236.8v0zM736 428.8v0zM556.8 230.4h-19.2c6.4-6.4 12.8 0 19.2 0zM467.2 230.4c-6.4 0-19.2 6.4-25.6 6.4 12.8-6.4 19.2-6.4 25.6-6.4zM288 428.8v0zM512 224v0zM646.4 268.8l57.6-57.6c19.2 12.8 38.4 25.6 57.6 32l-70.4 70.4c-12.8-19.2-25.6-32-44.8-44.8zM512 492.8l-89.6 89.6c-19.2-12.8-32-25.6-44.8-44.8l89.6-89.6 44.8 44.8zM454.4 166.4c-6.4 0-12.8 0-19.2 6.4 6.4-6.4 12.8-6.4 19.2-6.4zM25.6 409.6c-6.4 6.4-12.8 12.8-12.8 19.2 0-6.4 6.4-12.8 12.8-19.2zM38.4 384c0 6.4-6.4 12.8-12.8 19.2 6.4-6.4 12.8-12.8 12.8-19.2zM64 358.4v0zM563.2 102.4c-19.2 0-32-6.4-51.2-6.4 19.2 0 32 0 51.2 6.4zM569.6 166.4c-19.2-6.4-38.4-6.4-57.6-6.4 19.2 0 38.4 0 57.6 6.4zM633.6 179.2c-12.8-6.4-25.6-6.4-44.8-12.8 12.8 6.4 32 6.4 44.8 12.8zM614.4 108.8c-12.8 0-25.6-6.4-32-6.4 12.8 0 25.6 6.4 32 6.4zM89.6 320c-6.4 12.8-12.8 19.2-19.2 25.6 6.4-6.4 12.8-12.8 19.2-25.6zM409.6 108.8c-6.4 0-12.8 0-19.2 6.4 6.4 0 12.8-6.4 19.2-6.4zM121.6 288c-6.4 6.4-12.8 12.8-19.2 25.6 6.4-12.8 12.8-19.2 19.2-25.6zM377.6 627.2l-57.6 57.6c-19.2-12.8-38.4-25.6-57.6-32l70.4-70.4c12.8 19.2 25.6 32 44.8 44.8zM160 249.6l-25.6 25.6c6.4-6.4 12.8-19.2 25.6-25.6zM166.4 652.8v0zM121.6 608c0 6.4 6.4 6.4 12.8 12.8-6.4-6.4-12.8-6.4-12.8-12.8zM89.6 569.6c0 6.4 6.4 12.8 12.8 19.2-6.4-6.4-12.8-12.8-12.8-19.2zM153.6 857.6l-51.2-51.2 115.2-115.2c19.2 19.2 38.4 32 57.6 38.4l-121.6 128zM19.2 486.4l6.4 6.4s0-6.4-6.4-6.4zM748.8 166.4l121.6-121.6 44.8 44.8-115.2 115.2c-12.8-19.2-32-32-51.2-38.4zM38.4 512c0 6.4 6.4 6.4 6.4 12.8 0-6.4 0-12.8-6.4-12.8zM64 537.6c0 6.4 6.4 12.8 6.4 12.8s-6.4-6.4-6.4-12.8zM665.6 128c-12.8-6.4-25.6-6.4-32-12.8 12.8 0 25.6 6.4 32 12.8zM691.2 134.4v0zM0 454.4s6.4 0 0 0c6.4 0 0 0 0 0zM0 441.6c0 6.4 0 6.4 0 0 0 6.4 0 6.4 0 0zM12.8 428.8c0 6.4-6.4 6.4-6.4 12.8 0 0 0-6.4 6.4-12.8zM460.8 102.4v0zM512 403.2l89.6-89.6c19.2 12.8 32 25.6 44.8 44.8l-89.6 89.6-44.8-44.8zM358.4 128v0zM179.2 576v0zM441.6 793.6v0zM25.6 403.2l-6.4 6.4c6.4 0 6.4-6.4 6.4-6.4zM512 800c19.2 0 38.4 0 51.2-6.4-19.2 6.4-32 6.4-51.2 6.4zM6.4 441.6s-6.4 0 0 0c-6.4 0 0 0 0 0zM339.2 768v0zM390.4 780.8c6.4 0 12.8 0 19.2 6.4-6.4 0-12.8-6.4-19.2-6.4zM633.6 780.8c12.8-6.4 25.6-6.4 32-12.8-6.4 6.4-19.2 12.8-32 12.8zM6.4 454.4s6.4 6.4 6.4 12.8c-6.4-6.4-6.4-6.4-6.4-12.8zM582.4 793.6c12.8 0 25.6-6.4 32-6.4-6.4 0-19.2 6.4-32 6.4zM691.2 761.6v0zM211.2 288v0zM12.8 473.6c0 6.4 6.4 6.4 6.4 12.8 0-6.4 0-12.8-6.4-12.8zM70.4 550.4v0zM512 736c19.2 0 38.4 0 57.6-6.4-19.2 6.4-38.4 6.4-57.6 6.4zM51.2 518.4c0 6.4 6.4 12.8 12.8 19.2-6.4-6.4-12.8-12.8-12.8-19.2zM134.4 275.2v0zM102.4 313.6c-6.4 0-6.4 6.4-12.8 6.4 6.4 0 6.4-6.4 12.8-6.4zM25.6 492.8c6.4 6.4 12.8 12.8 12.8 19.2 0-6.4-6.4-12.8-12.8-19.2zM435.2 729.6c6.4 0 12.8 0 19.2 6.4-6.4-6.4-12.8-6.4-19.2-6.4zM588.8 729.6c12.8 0 32-6.4 44.8-12.8-19.2 6.4-32 6.4-44.8 12.8zM166.4 243.2c-6.4 0-6.4 6.4-12.8 6.4 6.4 0 12.8-6.4 12.8-6.4zM102.4 588.8v0zM134.4 620.8c6.4 6.4 12.8 19.2 25.6 25.6-12.8-6.4-19.2-19.2-25.6-25.6zM70.4 345.6s-6.4 6.4-6.4 12.8c0-6.4 6.4-12.8 6.4-12.8zM44.8 377.6l-6.4 6.4c6.4 0 6.4-6.4 6.4-6.4zM390.4 716.8c12.8 6.4 25.6 6.4 44.8 12.8 6.4 0 12.8 0 19.2 6.4 19.2 0 38.4 6.4 57.6 6.4s38.4 0 57.6-6.4c6.4 0 12.8 0 19.2-6.4 12.8 0 32-6.4 44.8-12.8h12.8l51.2 51.2h-32c-12.8 6.4-25.6 6.4-32 12.8-6.4 0-12.8 0-19.2 6.4-12.8 0-25.6 6.4-32 6.4h-19.2c-12.8 6.4-32 6.4-51.2 6.4s-38.4 0-51.2-6.4h-19.2c-12.8 0-25.6-6.4-32-6.4s-12.8 0-19.2-6.4c-12.8 0-25.6-6.4-32-12.8h-25.6l51.2-57.6c0 6.4 6.4 6.4 6.4 6.4zM211.2 288l-32 32c-38.4 38.4-70.4 76.8-89.6 108.8l-12.8 19.2c32 44.8 64 89.6 108.8 128 6.4 12.8 19.2 25.6 25.6 32l-44.8 44.8-6.4-6.4c-12.8-6.4-19.2-19.2-25.6-25.6s-12.8-6.4-12.8-12.8l-19.2-19.2c-6.4-6.4-12.8-12.8-12.8-19.2l-19.2-19.2s-6.4-6.4-6.4-12.8c-6.4-6.4-12.8-12.8-12.8-19.2-6.4 0-6.4-6.4-12.8-6.4 0-6.4-6.4-12.8-12.8-19.2l-6.4-6.4c0-6.4-6.4-6.4-6.4-12.8 0 0 0-6.4-6.4-6.4 0-6.4-6.4-6.4-6.4-12.8v-12.8s6.4-6.4 6.4-12.8v-6.4c0-6.4 6.4-12.8 12.8-12.8 0 0 0-6.4 6.4-6.4 6.4-6.4 12.8-12.8 12.8-19.2l25.6-25.6c0-6.4 6.4-6.4 6.4-12.8 6.4-6.4 12.8-12.8 19.2-25.6l12.8-12.8c6.4-6.4 12.8-12.8 19.2-25.6 6.4 0 6.4 0 12.8-6.4l25.6-25.6c6.4 0 6.4-6.4 12.8-6.4l38.4 44.8zM320 684.8l-44.8 44.8c-19.2-6.4-38.4-19.2-57.6-32l44.8-44.8c19.2 6.4 38.4 19.2 57.6 32zM435.2 236.8v0zM294.4 492.8c0 6.4 0 12.8 6.4 19.2-6.4-6.4-6.4-12.8-6.4-19.2zM512 608v0zM352 428.8v0zM288 416v0zM288 454.4v0zM531.2 224v0zM723.2 524.8v0zM729.6 492.8c0-6.4 0-12.8 6.4-25.6 0 12.8-6.4 19.2-6.4 25.6zM492.8 224h-19.2c0 6.4 6.4 0 19.2 0zM736 454.4v0zM576 236.8c-6.4 0-19.2-6.4-25.6-6.4 12.8 0 19.2 0 25.6 6.4zM486.4 288l-51.2-51.2h6.4c6.4 0 19.2-6.4 25.6-6.4h76.8c6.4 0 19.2 6.4 25.6 6.4h6.4l-51.2 51.2h-38.4zM672 428.8l51.2-57.6c6.4 12.8 6.4 25.6 12.8 38.4v57.6c0 6.4 0 19.2-6.4 25.6 0 6.4 0 12.8-6.4 19.2 0 6.4 0 6.4-6.4 12.8l-51.2-51.2c6.4-19.2 6.4-32 6.4-44.8zM352 422.4c0 6.4 0 6.4 0 0v44.8l-51.2 57.6c0-6.4 0-6.4-6.4-12.8 0-6.4-6.4-12.8-6.4-19.2s0-12.8-6.4-25.6v-57.6c0-12.8 6.4-25.6 12.8-38.4l57.6 51.2zM486.4 608c6.4 0 6.4 0 0 0h51.2l51.2 51.2c-25.6 6.4-51.2 12.8-76.8 12.8s-51.2-6.4-76.8-12.8l51.2-51.2zM422.4 582.4l-44.8 44.8c-19.2-12.8-32-25.6-44.8-44.8l44.8-44.8c12.8 19.2 25.6 32 44.8 44.8zM601.6 313.6l44.8-44.8c19.2 12.8 32 25.6 44.8 44.8l-44.8 44.8c-12.8-19.2-25.6-32-44.8-44.8zM582.4 102.4v0zM512 96c-19.2 0-38.4 0-51.2 6.4 19.2-6.4 32-6.4 51.2-6.4zM390.4 115.2c-12.8 6.4-25.6 6.4-32 12.8 6.4-6.4 19.2-12.8 32-12.8zM102.4 89.6l44.8-44.8 121.6 121.6-57.6 38.4-108.8-115.2zM332.8 134.4v0zM684.8 128c-6.4 0-12.8-6.4-12.8-6.4 0 6.4 6.4 6.4 12.8 6.4zM633.6 115.2c-6.4 0-12.8 0-19.2-6.4 6.4 0 12.8 6.4 19.2 6.4zM441.6 102.4c-12.8 0-25.6 6.4-32 6.4 6.4 0 19.2-6.4 32-6.4zM889.6 275.2l-25.6-25.6c12.8 6.4 19.2 19.2 25.6 25.6zM512 160c-19.2 0-38.4 0-57.6 6.4 19.2-6.4 38.4-6.4 57.6-6.4zM588.8 166.4c-6.4 0-12.8 0-19.2-6.4 6.4 6.4 12.8 6.4 19.2 6.4zM435.2 166.4c-12.8 0-32 6.4-44.8 12.8 12.8-6.4 32-6.4 44.8-12.8zM953.6 345.6c-6.4-6.4-12.8-12.8-19.2-25.6 6.4 12.8 12.8 19.2 19.2 25.6zM812.8 608v0zM921.6 313.6c-6.4-6.4-12.8-12.8-19.2-25.6 6.4 6.4 12.8 12.8 19.2 25.6zM979.2 377.6c-6.4-6.4-12.8-12.8-12.8-19.2 0 6.4 6.4 12.8 12.8 19.2zM332.8 313.6l-70.4-70.4c19.2-12.8 38.4-25.6 57.6-32l57.6 57.6c-19.2 12.8-32 25.6-44.8 44.8zM691.2 582.4l70.4 70.4c-19.2 12.8-38.4 25.6-57.6 32l-57.6-57.6c19.2-12.8 32-25.6 44.8-44.8zM556.8 448l89.6 89.6c-12.8 19.2-25.6 32-44.8 44.8l-89.6-89.6 44.8-44.8zM467.2 448l-89.6-89.6c12.8-19.2 25.6-32 44.8-44.8l89.6 89.6-44.8 44.8zM1017.6 454.4s6.4 0 0 0c6.4 0 0 0 0 0zM921.6 588.8v0zM953.6 550.4s6.4-6.4 6.4-12.8c0 6.4-6.4 12.8-6.4 12.8zM972.8 518.4c0-6.4 6.4-6.4 6.4-12.8 0 6.4 0 12.8-6.4 12.8zM857.6 652.8v0zM889.6 620.8l12.8-12.8c0 6.4-6.4 6.4-12.8 12.8zM998.4 492.8l6.4-6.4c-6.4 0-6.4 6.4-6.4 6.4zM1011.2 473.6c0-6.4 0-6.4 0 0 0-6.4 0-6.4 0 0zM921.6 806.4l-44.8 44.8-121.6-121.6 57.6-38.4 108.8 115.2zM1017.6 441.6s-6.4-6.4-6.4-12.8c6.4 6.4 6.4 12.8 6.4 12.8zM1011.2 428.8c0-6.4-6.4-12.8-12.8-12.8 6.4 0 12.8 6.4 12.8 12.8zM998.4 403.2c-6.4-6.4-6.4-12.8-12.8-19.2 0 6.4 6.4 12.8 12.8 19.2zM812.8 608l32-32c38.4-38.4 76.8-83.2 108.8-128-6.4-6.4-6.4-12.8-12.8-19.2-19.2-32-51.2-70.4-96-115.2l-32-32 44.8-44.8c6.4 0 6.4 6.4 12.8 6.4l38.4 38.4c6.4 6.4 12.8 12.8 19.2 25.6l12.8 12.8c6.4 6.4 12.8 12.8 19.2 25.6 0 6.4 6.4 6.4 6.4 12.8 6.4 6.4 12.8 12.8 12.8 19.2l6.4 6.4c6.4 6.4 6.4 12.8 12.8 19.2l6.4 6.4c6.4 6.4 6.4 12.8 12.8 12.8v6.4c0 6.4 6.4 6.4 6.4 12.8v12.8s-6.4 6.4-6.4 12.8c0 0 0 6.4-6.4 6.4 0 6.4-6.4 6.4-6.4 12.8l-6.4 6.4c-6.4 6.4-6.4 12.8-12.8 12.8 0 6.4-6.4 6.4-6.4 12.8-6.4 6.4-6.4 12.8-12.8 19.2l-115.2 115.2-38.4-44.8zM761.6 652.8l44.8 44.8-57.6 38.4-44.8-51.2c19.2-12.8 38.4-25.6 57.6-32zM646.4 627.2l-44.8-44.8c19.2-12.8 32-25.6 44.8-44.8l44.8 44.8c-12.8 19.2-25.6 32-44.8 44.8zM377.6 358.4l-44.8-44.8c12.8-19.2 25.6-32 44.8-44.8l44.8 44.8c-19.2 12.8-32 25.6-44.8 44.8zM761.6 243.2c-19.2-12.8-38.4-25.6-57.6-32l44.8-44.8 57.6 38.4-44.8 38.4zM466.739 448l45.254 45.254 45.254-45.254-45.254-45.254zM633.6 179.2c-12.8-6.4-25.6-6.4-44.8-12.8-6.4 0-12.8 0-19.2-6.4-19.2-6.4-38.4-6.4-57.6-6.4s-38.4 0-57.6 6.4c-6.4 0-12.8 0-19.2 6.4-12.8 0-32 6.4-44.8 12.8h-6.4l-51.2-51.2h25.6c12.8-6.4 25.6-6.4 32-12.8 6.4 0 12.8 0 19.2-6.4 12.8 0 25.6-6.4 32-6.4h19.2c19.2 0 32-6.4 51.2-6.4s38.4 0 51.2 6.4h19.2c12.8 0 25.6 6.4 32 6.4s12.8 0 19.2 6.4 25.6 6.4 32 12.8c6.4 0 12.8 6.4 12.8 6.4h6.4l-44.8 51.2c0-6.4-6.4-6.4-6.4-6.4zM262.4 243.2l-44.8-44.8 57.6-38.4 44.8 51.2c-19.2 12.8-38.4 25.6-57.6 32z" />
<glyph unicode="&#xe924;" glyph-name="closed" d="M130.827-64c-72.288 0-130.827 58.54-130.827 130.827v435.499c0 72.288 58.54 130.827 130.827 130.827h45.235l263.428 218.637c-2.217 12.861-3.991 22.174-3.991 31.487 0 42.131 34.148 76.279 76.279 76.279s76.279-34.148 76.279-76.279c0-9.313-1.774-18.626-5.322-27.496l262.098-221.741 47.453-0.887c72.288 0 130.827-58.54 130.827-130.827v-435.499c0-72.288-58.54-130.827-130.827-130.827h-761.459zM130.827 589.249c-48.783 0-86.922-38.139-86.922-86.922v-435.499c0-48.783 38.139-86.922 86.922-86.922h762.346c48.783 0 86.922 38.139 86.922 86.922v435.499c0 48.783-38.139 86.922-86.922 86.922h-762.346zM246.133 633.154h531.735l-221.741 184.932c-16.409-7.096-30.157-11.087-44.348-11.087s-27.939 3.991-39.913 11.531l-225.732-185.375zM511.778 916.095c-18.183 0-32.374-14.191-32.374-32.374s14.191-32.374 32.374-32.374 32.374 14.191 32.374 32.374-14.191 32.374-32.374 32.374zM675.423 99.201c-5.765 0-11.531 2.217-15.522 6.652l-147.68 147.68-147.68-147.68c-3.991-3.991-9.757-6.652-15.522-6.652s-11.531 2.217-15.522 6.652c-8.426 8.426-8.426 22.618 0 31.044l147.68 147.68-147.68 147.68c-8.426 8.426-8.426 22.618 0 31.044 3.991 3.991 9.757 6.652 15.522 6.652s11.531-2.217 15.522-6.652l147.68-147.68 147.68 147.68c3.991 3.991 9.757 6.652 15.522 6.652s11.531-2.217 15.522-6.652c3.991-3.991 6.652-9.757 6.652-15.522s-2.217-11.531-6.652-15.522l-147.68-147.68 147.68-147.68c3.991-3.991 6.652-9.757 6.652-15.522s-2.217-11.531-6.652-15.522c-3.991-3.991-9.757-6.652-15.522-6.652z" />
<glyph unicode="&#xe925;" glyph-name="arrow-long-left" horiz-adv-x="1978" d="M1977.691 449.74v0s0 2.088 0 2.785c0 0.696 0 2.088-0.696 4.873h-6.961s0 0 0 0l6.265 2.785-4.177 9.050s-1.392 1.392-1.392 2.088c0 0.696-1.392 2.088-2.088 2.785l-482.415 480.326s-5.569 3.481-8.354 5.569l-50.817-50.817s2.785-5.569 5.569-8.354l414.891-414.891h-1847.516v-75.878h1848.212l-414.891-414.891s-3.481-4.873-4.873-7.657l50.817-50.817s5.569 2.785 7.657 4.873l481.719 481.022s1.392 1.392 1.392 2.088l4.177 6.961s0.696 1.392 0.696 2.088v2.088s1.392 0.696 1.392 1.392v3.481s1.392 2.088 1.392 2.785v1.392s0 2.088 0 3.481 0 2.088 0 2.088zM1966.553 462.967s0 0 0 0v0s0 0 0 0z" />
<glyph unicode="&#xe926;" glyph-name="twitter-x" d="M659.2 681.6h80l-172.8-198.4 201.6-268.8h-160l-124.8 163.2-144-163.2h-73.6l185.6 211.2-195.2 256h160l112-147.2 131.2 147.2zM633.6 262.4h44.8l-281.6 374.4h-48l284.8-374.4zM512-67.2c-284.8 0-515.2 230.4-515.2 515.2s230.4 512 515.2 512 515.2-227.2 515.2-512-230.4-515.2-515.2-515.2v0zM512 937.6c-272 0-489.6-217.6-489.6-489.6s220.8-489.6 489.6-489.6 492.8 220.8 492.8 489.6c-3.2 272-220.8 489.6-492.8 489.6v0z" />
<glyph unicode="&#xe928;" glyph-name="pdf" horiz-adv-x="1018" d="M670.806 376.175c-30.311 26.358-61.282 58.646-96.206 93.57-23.722 26.358-50.080 63.259-71.825 102.136 41.514 141.673 61.282 276.757 17.133 341.992-19.768 30.311-50.080 45.467-89.616 45.467-43.49 0-76.438-19.768-91.593-56.669-34.924-78.414 17.133-222.064 80.391-340.015-17.133-56.669-39.537-117.951-65.236-185.163-15.156-36.901-32.947-73.802-50.080-108.726-177.915-69.189-286.641-147.604-301.797-222.064-6.589-34.924 4.613-65.236 34.924-89.616 17.133-13.179 36.901-21.745 58.646-21.745 8.566 0 17.133 1.977 26.358 4.613 83.027 21.745 171.985 143.65 237.879 268.19 39.537 15.156 85.004 30.311 135.084 43.49 58.646 17.133 111.362 30.311 156.829 39.537 85.004-67.871 156.829-104.772 220.088-104.772 48.103-1.977 83.027 15.156 115.315 48.103 48.103 48.103 28.335 89.616 21.745 100.16-39.537 61.282-158.806 73.802-338.039 41.514v0zM100.16 16.391c-8.566-1.977-13.179 0-17.133 1.977-8.566 6.589-8.566 11.202-6.589 15.156 4.613 26.358 54.692 73.802 163.418 126.517-52.057-78.414-104.772-135.084-139.696-143.65v0zM409.205 873.019c1.977 4.613 4.613 11.202 21.745 11.202 15.156 0 21.745-6.589 26.358-11.202 19.768-28.335 17.133-100.16-6.589-196.366-36.901 83.027-56.669 161.441-41.514 196.366v0zM470.486 328.072c-21.745-6.589-43.49-13.179-65.236-19.768 6.589 15.156 13.179 30.311 19.768 43.49 15.156 41.514 32.947 83.027 48.103 126.517 17.133-23.722 32.947-45.467 48.103-61.282 19.768-21.745 39.537-41.514 58.646-61.282-34.924-8.566-71.825-17.133-108.726-28.335v0zM930.43 288.535c-15.156-17.133-34.924-23.722-58.646-23.722-32.947 0-71.825 15.156-117.951 45.467 126.517 17.133 198.342 4.613 176.597-21.745v0z" />
<glyph unicode="&#xe92c;" glyph-name="live-hd" horiz-adv-x="1063" d="M373.459 677.629h102.547v-95.789h47.601v227.719h-47.601v-92.557h-102.547v92.557h-47.601v-227.719h47.601v95.789zM0 960v-1024h1063.079v1024h-1063.079zM1016.067 476.355h-969.054v436.632h969.054v-436.632zM719.591 595.356c16.161 9.109 28.502 22.037 37.023 39.373 8.521 17.042 12.929 37.904 12.929 61.998v0c0 24.388-4.407 44.956-12.929 61.704s-21.156 29.677-37.316 38.198c-16.161 8.815-35.554 13.222-58.472 13.222h-86.974v-227.719h86.974c22.919 0 42.312 4.407 58.472 13.516zM621.746 621.213v148.678h33.497c13.81 0 25.857-2.938 35.554-8.521s17.336-13.81 22.331-24.976 7.64-24.388 7.64-39.961v0c0-16.748-2.644-30.558-7.64-41.724s-12.341-19.687-22.037-25.269c-9.696-5.583-21.743-8.521-35.847-8.521h-33.497zM199.805 330.615h47.601v-188.345h99.609v-39.373h-147.209v227.719zM384.331 330.615h47.601v-227.719h-47.601v227.719zM467.191 330.615h52.596l52.008-178.943h0.881l52.008 178.943h52.89l-76.102-227.719h-58.178l-76.102 227.719zM712.539 330.615h150.735v-39.373h-103.135v-54.653h97.258v-37.316h-97.258v-57.003h103.135v-39.373h-150.735v227.719z" />
<glyph unicode="&#xe92d;" glyph-name="share" d="M864 896c-53.019 0-96-42.981-96-96s42.981-96 96-96v0c53.019 0 96 42.981 96 96s-42.981 96-96 96v0zM704 800c0 0.006 0 0.013 0 0.020 0 88.366 71.634 160 160 160s160-71.634 160-160c0-88.366-71.634-160-160-160-48.462 0-91.892 21.546-121.233 55.581l-0.175 0.208-429.952-199.68c4.702-14.385 7.413-30.94 7.413-48.128s-2.711-33.743-7.73-49.26l0.316 1.132 429.952-199.68c29.513 34.182 72.905 55.685 121.319 55.685 88.366 0 160-71.634 160-160s-71.634-160-160-160c-88.366 0-160 71.634-160 160 0 17.233 2.725 33.83 7.766 49.383l-0.317-1.132-429.952 199.68c-29.516-34.254-72.954-55.808-121.425-55.808-88.366 0-160 71.634-160 160s71.634 160 160 160c48.471 0 91.908-21.554 121.25-55.6l0.175-0.208 429.952 199.68c-4.668 14.339-7.36 30.84-7.36 47.969 0 0.056 0 0.112 0 0.167v-0.009zM160 544c-53.019 0-96-42.981-96-96s42.981-96 96-96v0c53.019 0 96 42.981 96 96s-42.981 96-96 96v0zM864 192c-53.019 0-96-42.981-96-96s42.981-96 96-96v0c53.019 0 96 42.981 96 96s-42.981 96-96 96v0z" />
<glyph unicode="&#xe92f;" glyph-name="soundwave" d="M544 832c17.673 0 32-14.327 32-32v0-704c0-17.673-14.327-32-32-32s-32 14.327-32 32v0 704c0 17.673 14.327 32 32 32v0zM416 704c17.673 0 32-14.327 32-32v0-448c0-17.673-14.327-32-32-32s-32 14.327-32 32v0 448c0 17.673 14.327 32 32 32v0zM672 704c17.673 0 32-14.327 32-32v0-448c0-17.673-14.327-32-32-32s-32 14.327-32 32v0 448c0 17.673 14.327 32 32 32v0zM288 608c17.673 0 32-14.327 32-32v0-256c0-17.673-14.327-32-32-32s-32 14.327-32 32v0 256c0 17.673 14.327 32 32 32v0zM800 608c17.673 0 32-14.327 32-32v0-256c0-17.673-14.327-32-32-32s-32 14.327-32 32v0 256c0 17.673 14.327 32 32 32v0zM160 544c17.673 0 32-14.327 32-32v0-128c0-17.673-14.327-32-32-32s-32 14.327-32 32v0 128c0 17.673 14.327 32 32 32v0zM928 544c17.673 0 32-14.327 32-32v0-128c0-17.673-14.327-32-32-32s-32 14.327-32 32v0 128c0 17.673 14.327 32 32 32v0z" />
<glyph unicode="&#xe93c;" glyph-name="profile" horiz-adv-x="854" d="M854.42-15.083s0 0 0 0c0 219.584-163.601 326.658-427.21 326.658s-427.21-106.531-427.21-326.115c0 0 0 0 0-0.544v-48.374h854.42v48.917zM50.004-15.083s0 0 0 0c0 186.429 138.055 276.654 377.206 276.654s377.206-90.225 377.206-276.654c0 0 0 0 0 0h-754.412zM427.21 377.885c138.055 0 250.565 130.446 250.565 290.786s-112.51 291.329-250.565 291.329-250.565-130.446-250.565-291.329 112.51-290.786 250.565-290.786zM427.21 911.083c110.879 0 201.648-108.705 201.648-242.412s-90.225-241.868-201.648-241.868-201.648 108.705-201.648 241.868 90.769 242.412 201.648 242.412z" />
<glyph unicode="&#xe93e;" glyph-name="search" horiz-adv-x="985" d="M981.695-27.661v1.627s-315.119 314.576-315.119 314.576c75.932 74.847 117.153 173.559 117.153 279.322 0.542 216.407-175.186 392.136-391.593 392.136s-392.136-175.729-392.136-392.136 175.729-392.136 392.136-392.136c85.153 0 166.508 27.119 235.932 79.186l318.915-318.915 37.966 33.085-2.712 3.254zM732.746 567.864c0-187.661-152.949-340.61-340.61-340.61s-340.61 152.949-340.61 340.61 152.949 340.61 340.61 340.61 340.61-152.949 340.61-340.61z" />
<glyph unicode="&#xe940;" glyph-name="calendar" horiz-adv-x="1026" d="M843.227 960h-660.188c-100.87 0-183.039-82.169-183.039-183.039v-657.921c0-100.87 82.169-183.039 183.039-183.039h660.188c100.87 0 183.606 82.169 183.606 183.039v657.921c0 100.87-82.169 183.039-183.606 183.039zM183.039 914.665h660.188c75.936 0 137.704-61.769 137.704-137.704v-11.9h-935.597v11.9c0 75.936 61.769 137.704 137.704 137.704zM843.227-18.665h-660.188c-75.936 0-137.704 61.769-137.704 137.704v600.12h935.597v-600.12c0-75.936-61.769-137.704-137.704-137.704zM106.537 380.281h226.107v226.107h-226.107v-226.107zM151.872 561.054h135.438v-135.438h-135.438v135.438zM401.78 380.281h226.107v226.107h-226.107v-226.107zM447.115 561.054h135.438v-135.438h-135.438v135.438zM697.023 380.281h226.107v226.107h-226.107v-226.107zM742.357 561.054h135.438v-135.438h-135.438v135.438zM106.537 82.771h226.107v226.107h-226.107v-226.107zM151.872 263.544h135.438v-135.438h-135.438v135.438zM401.78 82.771h226.107v226.107h-226.107v-226.107zM447.115 263.544h135.438v-135.438h-135.438v135.438zM697.023 82.771h226.107v226.107h-226.107v-226.107zM742.357 263.544h135.438v-135.438h-135.438v135.438z" />
<glyph unicode="&#xe942;" glyph-name="info" horiz-adv-x="1072" d="M0 960v-1024h523.253l548.884 498.872v525.128h-1072.137zM451.985 504.264v-509.499h-393.846s0 909.597 0 909.597h954.608v-400.098h-560.762zM1006.496 448l-495.121-447.609v447.609h495.121z" />
<glyph unicode="&#xe944;" glyph-name="clock" d="M511.695 960c-282.042 0-511.695-229.654-511.695-511.695s229.654-511.695 511.695-511.695 512.305 229.654 512.305 511.695-229.654 511.695-512.305 511.695zM967.348 448.305c0-121.832-47.515-236.355-133.406-322.246s-200.414-133.406-322.246-133.406-236.355 47.515-322.246 133.406c-85.892 85.892-133.406 200.414-133.406 322.246s47.515 236.355 133.406 322.246c86.501 85.892 200.414 132.797 322.246 132.797s236.355-47.515 322.246-133.406c85.892-85.892 133.406-200.414 133.406-322.246zM540.326 740.702h-56.652v-292.397c0-10.356 5.482-18.884 14.011-24.366 64.571-37.159 129.751-74.927 194.932-112.695l21.93-12.792 28.021 48.733-202.851 117.568v275.95z" />
</font>
</defs>
</svg>
