<?xml version="1.0" standalone="no"?>
<!DOCTYPE svg PUBLIC "-//W3C//DTD SVG 1.1//EN" "http://www.w3.org/Graphics/SVG/1.1/DTD/svg11.dtd" >
<svg xmlns="http://www.w3.org/2000/svg" xmlns:xlink="http://www.w3.org/1999/xlink" version="1.1">
<metadata></metadata>
<defs>
<font id="retrobodoni_extrablackregular" horiz-adv-x="1890" >
<font-face units-per-em="2048" ascent="1638" descent="-410" />
<missing-glyph horiz-adv-x="563" />
<glyph horiz-adv-x="0" />
<glyph unicode="&#xd;" horiz-adv-x="563" />
<glyph horiz-adv-x="0" />
<glyph horiz-adv-x="0" />
<glyph unicode=" "  horiz-adv-x="563" />
<glyph unicode="&#x09;" horiz-adv-x="563" />
<glyph unicode="&#xa0;" horiz-adv-x="563" />
<glyph unicode="!" horiz-adv-x="722" d="M45 1427q0 74 30 122.5t77 77.5t102 40.5t106 11.5t107.5 -11.5t103 -40.5t77 -77.5t30.5 -122.5q0 -36 -11.5 -99t-28.5 -140.5t-38.5 -162.5t-42 -162.5t-38.5 -141.5t-27 -98l-9 -33q-8 -31 -40.5 -48.5t-82.5 -17.5q-46 0 -79 18t-41 48l-23 84q-13 46 -30.5 111 t-36.5 137.5t-38 148.5t-34 144t-24 123.5t-9 88.5zM55 195q0 68 29.5 112.5t74 72.5t98 39t103.5 11t105 -11t99.5 -39t74 -73t29.5 -112t-29.5 -111t-74 -71t-99 -38.5t-105.5 -11.5q-50 0 -103.5 11.5t-98 38.5t-74 71t-29.5 111z" />
<glyph unicode="&#x22;" horiz-adv-x="796" d="M31 1303q0 41 16 67.5t42 42t56 22.5t58 7t58 -7t55.5 -22.5t42 -42.5t16.5 -67q0 -22 -7.5 -61t-18 -85.5t-23 -96t-24 -91.5t-20 -72t-10.5 -37q-5 -18 -23.5 -28.5t-45.5 -10.5t-46 10.5t-24 28.5q-2 7 -9.5 37t-19.5 72t-24.5 91t-23.5 96t-18 86t-7 61zM422 1303 q0 41 16.5 67.5t42 42t55.5 22.5t58 7t58 -7t55.5 -22.5t42 -42.5t16.5 -67q0 -22 -7 -61t-18 -85.5t-23 -96t-24 -91.5t-20 -72t-10 -37q-5 -18 -23.5 -28.5t-46.5 -10.5q-27 0 -46 10.5t-24 28.5q-2 7 -9.5 37t-19.5 72t-24.5 91t-23.5 96t-18 86t-7 61z" />
<glyph unicode="#" horiz-adv-x="1744" d="M47 16q0 11 6 27l137 416h-57q-43 0 -60.5 7.5t-17.5 41.5t17.5 41.5t60.5 7.5h90l88 268h-55q-43 0 -60.5 8t-17.5 41q0 34 17.5 42t60.5 8h88l152 460q5 12 13.5 24.5t33.5 12.5h401q24 0 43 -15.5t19 -39.5v-6t-2 -8l-142 -428h178l152 460q5 12 13.5 24.5t33.5 12.5 h401q24 0 43 -15.5t19 -39.5v-6t-2 -8l-141 -428h69q43 0 60.5 -8t17.5 -42t-17.5 -41.5t-60.5 -7.5h-102l-88 -268h67q43 0 60.5 -7.5t17.5 -41.5t-17.5 -41.5t-60.5 -7.5h-100l-145 -447q-5 -15 -17 -31t-39 -16h-389q-10 0 -22.5 3t-23 9.5t-18.5 16t-8 22.5q0 11 7 27 l137 416h-178l-146 -447q-5 -15 -16.5 -31t-38.5 -16h-389q-10 0 -22.5 3t-23.5 9.5t-18.5 16t-7.5 22.5zM741 557h179l88 268h-179z" />
<glyph unicode="$" horiz-adv-x="1687" d="M70 469v8q0 18 14 32.5t35 14.5q17 0 29.5 -9.5t15.5 -27.5q15 -51 50.5 -97.5t84.5 -87t109 -74.5t123.5 -62t128.5 -48t124 -32v365q-79 32 -162 69.5t-161.5 83.5t-147.5 101t-121 121.5t-82 145.5t-30 173q0 89 25.5 162.5t70 131t104 100t127 70t139.5 41t142 13.5 q20 0 47.5 -1t48.5 -3v153q0 46 8 65t42 19t41.5 -18.5t7.5 -65.5v-170q48 -8 97 -17.5t89 -18.5q52 -11 91.5 -19t60.5 -8q25 0 54.5 8.5t59.5 20.5q34 12 67.5 21t57.5 9q25 0 37 -15.5t12 -33.5q0 -22 1.5 -60.5t5.5 -78.5q1 -29 3 -59t3.5 -59t2 -56.5t-0.5 -48.5 q0 -20 -15 -33.5t-36 -13.5q-14 0 -28.5 5.5t-21.5 16.5q-22 33 -71.5 80.5t-121.5 96.5t-160.5 93t-186.5 68v-340q84 -32 172 -67.5t172 -80t158.5 -99t131 -122t89 -150.5t32.5 -183q0 -65 -12.5 -129t-45 -122t-87 -107.5t-138.5 -86.5t-201 -58t-271 -22v-123 q0 -46 -8 -64.5t-41 -18.5q-34 0 -42 18.5t-8 64.5v127q-48 6 -101 15.5t-101 15.5q-34 5 -68.5 10.5t-66 10t-58.5 7t-45 3.5q-49 2 -80.5 -4t-54.5 -12q-20 -5 -39 -9t-47 -4q-18 0 -33.5 14t-15.5 35zM485 1442q0 -31 22.5 -57.5t62.5 -51t95 -48t119 -48.5v324 q-24 2 -46 3t-40 1q-23 0 -58.5 -2t-69.5 -13.5t-59.5 -36.5t-25.5 -71zM883 74h28q55 0 105.5 3t88.5 15.5t60.5 39t22.5 71.5q0 29 -23 55t-64 50.5t-97 49.5t-121 52v-336z" />
<glyph unicode="%" horiz-adv-x="2039" d="M31 1065q0 106 42 178t108 115t146.5 61.5t157.5 18.5q52 0 106.5 -8t105.5 -26t95.5 -46.5t77.5 -70t52.5 -96.5t19.5 -126q0 -97 -36.5 -168.5t-98.5 -117.5t-145 -68.5t-177 -22.5q-78 0 -158 18.5t-146 62.5t-108 116t-42 180zM387 8q0 3 0.5 7t3.5 10l893 1359 q8 12 21.5 24.5t38.5 12.5h212q20 0 35 -10t15 -35q0 -4 -4 -12l-887 -1352q-9 -15 -27 -31t-45 -16h-201q-8 0 -17.5 2t-18 7.5t-14 13.5t-5.5 20zM408 922q0 -80 17 -118t60 -38t60.5 38t17.5 118v284q0 80 -17.5 118t-60.5 38t-60 -38t-17 -118v-284zM1086 354 q0 106 42 178t108 115t146.5 61.5t157.5 18.5q52 0 106.5 -7.5t105.5 -25.5t95.5 -47t77.5 -70t52.5 -96.5t19.5 -126.5q0 -97 -36.5 -168t-98.5 -117t-145 -69t-177 -23q-78 0 -158 18.5t-146 62.5t-108 116t-42 180zM1463 211q0 -80 17 -118t60 -38t60.5 38t17.5 118v285 q0 80 -17.5 117.5t-60.5 37.5t-60 -38t-17 -117v-285z" />
<glyph unicode="&#x26;" horiz-adv-x="1853" d="M33 379q0 69 19.5 121.5t52 92t75 66.5t89 45.5t93.5 29t89 18.5l-97 155q-28 45 -42.5 86t-14.5 80q0 79 37 140.5t104.5 103.5t161.5 64t209 22q75 0 144 -18t122 -56.5t85 -98t32 -143.5q0 -48 -12 -83t-32.5 -63t-49 -51.5t-62.5 -45.5l189 -301q16 19 44.5 54 t56.5 70t48.5 64.5t20.5 38.5q0 10 -15 10h-22q-43 0 -60.5 8t-17.5 41q0 34 17.5 42t60.5 8h313q43 0 60.5 -8t17.5 -42t-17.5 -41.5t-60.5 -7.5h-84q-24 0 -51.5 -20t-48.5 -47l-205 -260q69 -112 119.5 -181t88 -107.5t65 -52.5t51.5 -14q23 0 40.5 2.5t36 8.5t38 14.5 t44.5 19.5q4 2 13 2q14 0 28.5 -9t14.5 -27q0 -23 -26.5 -46t-72 -42t-108 -31.5t-133.5 -12.5q-128 0 -224.5 6t-168.5 19.5t-124 36t-90 55.5q-34 -28 -69 -49t-74.5 -36.5t-85 -23.5t-98.5 -8q-55 0 -115 9t-117.5 28.5t-108.5 50.5t-89.5 75.5t-61 103.5t-22.5 135z M412 561q0 -40 19 -85.5t46 -90.5q32 -51 60 -93.5t56 -73.5t55.5 -47.5t58.5 -16.5q22 0 36.5 1.5t25 4.5t20 8t20.5 12l-309 492q-19 -7 -35 -20t-28 -28.5t-18.5 -32t-6.5 -30.5zM829 1241q0 -18 1 -32t6 -29.5t14.5 -34.5t26.5 -47t42 -68.5t62 -97.5q23 10 43 25.5 t36 35t26 43t10 51.5q0 44 -16 83t-42 67.5t-60 44.5t-71 16q-36 0 -57 -9.5t-21 -47.5z" />
<glyph unicode="'" horiz-adv-x="397" d="M31 1303q0 41 16 67.5t42 42t56 22.5t58 7t58 -7t55.5 -22.5t42 -42.5t16.5 -67q0 -22 -7.5 -61t-18 -85.5t-23 -96t-24 -91.5t-20 -72t-10.5 -37q-5 -18 -23.5 -28.5t-45.5 -10.5t-46 10.5t-24 28.5q-2 7 -9.5 37t-19.5 72t-24.5 91t-23.5 96t-18 86t-7 61z" />
<glyph unicode="(" horiz-adv-x="884" d="M27 596v57q0 112 29.5 219.5t83 203t127 176.5t161 140.5t186.5 93.5t203 36q18 0 30.5 -14.5t12.5 -32.5q0 -14 -22 -31q-70 -43 -126.5 -119t-96.5 -177t-61.5 -224.5t-21.5 -261.5v-74q0 -138 21.5 -261.5t61.5 -225t96.5 -177.5t126.5 -119q23 -16 22 -30 q0 -18 -12 -32.5t-31 -14.5q-103 2 -202.5 35.5t-187 93t-161 140.5t-127 176.5t-83 202.5t-29.5 220z" />
<glyph unicode=")" horiz-adv-x="890" d="M27 -225q0 14 22 30q70 43 126 119t96 177.5t61.5 225t21.5 261.5v74q0 138 -21.5 261.5t-61.5 224.5t-96 177t-126 119q-23 16 -22 31q0 18 12 32.5t31 14.5q103 -2 202.5 -36t187 -93.5t161 -140.5t127 -176.5t83 -203t29.5 -219.5v-57q0 -112 -29.5 -219.5t-83 -203 t-127 -176.5t-161 -140.5t-187 -93t-202.5 -35.5q-18 0 -30.5 14t-12.5 33z" />
<glyph unicode="*" horiz-adv-x="1007" d="M54 1089q-3 29 5.5 58t22.5 55q15 26 36 48.5t47 34t58 10t70 -22.5q18 -12 51 -45q-12 43 -12 67q0 43 14.5 71.5t38 45t52.5 24t59 7.5t59.5 -7.5t52.5 -24t37 -45t14 -71.5q0 -11 -3 -27t-9 -34q14 14 27 24.5t22 16.5q37 22 69 23t58.5 -10.5t47.5 -33t36 -47.5 q14 -27 23 -55.5t6 -57.5t-20 -55.5t-54 -48.5q-11 -6 -26 -10.5t-33 -9.5q18 -5 33 -10.5t26 -10.5q37 -22 54.5 -48.5t20.5 -55.5t-5 -58t-23 -55q-15 -27 -36 -49t-47 -33.5t-58 -10t-70 23.5q-11 6 -24.5 16.5t-28.5 28.5q6 -22 10 -39t4 -29q0 -43 -14.5 -71.5 t-37.5 -45.5t-53 -23.5t-58 -6.5q-30 0 -59.5 6.5t-53 23.5t-37.5 45.5t-14 71.5q0 11 2.5 27t7.5 34q-29 -32 -47 -41q-37 -22 -68.5 -23t-58.5 10.5t-48 33t-36 47.5q-14 26 -23 55t-6 58t20 56t54 48q9 5 24 10l33 11q-18 5 -33 9.5t-24 10.5q-37 22 -54.5 48.5 t-20.5 55.5z" />
<glyph unicode="+" horiz-adv-x="700" d="M14 461q0 34 18.5 41.5t63.5 7.5h206v206q0 45 7.5 63.5t41.5 18.5t41.5 -18.5t7.5 -63.5v-206h206q45 0 63.5 -7.5t18.5 -41.5t-18.5 -41.5t-63.5 -7.5h-206v-206q0 -45 -7.5 -63.5t-41.5 -18.5t-41.5 18.5t-7.5 63.5v206h-206q-45 0 -63.5 7.5t-18.5 41.5z" />
<glyph unicode="," horiz-adv-x="585" d="M25 180q0 59 25 98.5t64 63.5t85.5 33.5t89.5 9.5q56 0 105 -18.5t86 -52t58 -82t21 -107.5q0 -75 -16.5 -132.5t-43.5 -102.5t-63 -80t-74 -64q-20 -15 -41 -23t-38 -8q-14 0 -23.5 6t-9.5 17q0 15 22.5 39t49 52.5t49 58.5t22.5 59q0 20 -19.5 26.5t-45.5 6.5h-39 q-43 0 -89.5 9.5t-85.5 32.5t-64 62t-25 96z" />
<glyph unicode="-" horiz-adv-x="700" d="M14 461q0 34 18.5 41.5t63.5 7.5h510q45 0 63.5 -7.5t18.5 -41.5t-18.5 -41.5t-63.5 -7.5h-510q-45 0 -63.5 7.5t-18.5 41.5z" />
<glyph unicode="." horiz-adv-x="585" d="M25 180q0 59 25 98.5t64 63.5t85.5 33.5t89.5 9.5t89.5 -9.5t85.5 -33.5t64 -63t25 -99q0 -57 -25 -96t-64 -62t-85.5 -32.5t-89.5 -9.5t-89.5 9.5t-85.5 32.5t-64 62t-25 96z" />
<glyph unicode="/" horiz-adv-x="1333" d="M-39 -139q0 3 0.5 7t3.5 9l1082 1649q8 12 21 24.5t38 12.5h201q9 0 19.5 -2.5t20 -8t15.5 -14t6 -20.5q0 -4 -4 -13l-1075 -1640q-9 -15 -27 -31t-45 -16h-201q-8 0 -17.5 2t-18 7t-14 13t-5.5 21z" />
<glyph unicode="0" horiz-adv-x="1241" d="M31 690q0 78 12.5 161t41.5 162.5t74.5 150t111 123.5t152 84.5t198.5 31.5t198 -31.5t151.5 -84.5t111 -123.5t74.5 -150t41.5 -162.5t12.5 -161q0 -77 -12.5 -160t-41.5 -161.5t-74.5 -149.5t-111 -124t-152.5 -84t-197 -31q-111 0 -198 31t-152.5 84t-111 124 t-74.5 149.5t-41.5 161t-12.5 160.5zM530 281q0 -104 17.5 -153.5t73.5 -49.5q55 0 72.5 49t17.5 154v821q0 104 -17.5 153.5t-72.5 49.5t-73 -49.5t-18 -153.5v-821z" />
<glyph unicode="1" horiz-adv-x="856" d="M16 1100q0 11 14 23.5t31 23.5q115 69 218 120.5t181 86.5t125 52t52 17q39 0 39 -45q0 -34 -0.5 -112.5t-0.5 -214.5t-0.5 -335.5t-0.5 -473.5q0 -73 6.5 -108.5t40.5 -35.5h20q43 0 60.5 -7.5t17.5 -41.5q0 -31 -14.5 -40t-48.5 -9h-641q-43 0 -60.5 7.5t-17.5 41.5 t17.5 41.5t60.5 7.5h20q31 0 39 29.5t8 87.5v666q0 88 -6.5 137t-34.5 49q-3 0 -7 -1t-9 -3l-19 -8q-11 -5 -22.5 -9t-24.5 -4q-24 0 -33.5 18.5t-9.5 39.5z" />
<glyph unicode="2" horiz-adv-x="1349" d="M37 43q0 56 31.5 113.5t84 115t118.5 115t135.5 115.5t135.5 116.5t118.5 118t84 118.5t31.5 120q0 69 -20.5 126.5t-58 99.5t-89.5 65.5t-114 23.5q-27 0 -50 -4t-45 -12q38 -3 76 -15.5t68.5 -36t49.5 -60.5t19 -89q0 -54 -20 -93t-53.5 -64t-78 -37.5t-93.5 -12.5 q-40 0 -83.5 10.5t-79.5 34.5t-59.5 63.5t-23.5 98.5v8q0 30 9.5 67t34 75t66 74t105.5 64.5t152.5 45t205.5 16.5q134 0 240.5 -30.5t180.5 -88.5t113.5 -141t39.5 -188q0 -80 -41.5 -148t-111 -128t-160.5 -112.5t-188.5 -101.5t-195.5 -95t-182 -93t-148 -95.5 t-94 -103.5q108 84 241 150q56 28 124 55t144.5 48t162 33.5t176.5 12.5q69 0 112 16.5t72 36t48.5 36t40.5 16.5q17 0 34 -12.5t17 -36.5q0 -5 -1 -10t-3 -11l-121 -385q-9 -28 -19.5 -46.5t-27.5 -18.5q-5 0 -11 3t-13.5 6t-19.5 6t-32 3q-228 0 -389 -0.5t-268.5 -0.5 t-170 -1t-95 -1t-43.5 -0.5t-15 -0.5q-6 0 -15 2t-17.5 7.5t-14.5 14.5t-6 23z" />
<glyph unicode="3" horiz-adv-x="1316" d="M29 287q0 58 23.5 97t59 62.5t79 33t83.5 9.5t83.5 -9.5t79.5 -33t59.5 -62.5t23.5 -97q0 -35 -10.5 -63.5t-24 -51t-24 -37.5t-10.5 -22q0 -22 18 -27.5t39 -5.5q59 0 99 17.5t64.5 55t35 98t10.5 146.5q0 70 -13.5 114.5t-36.5 73t-53 46t-65 35.5q-14 6 -24.5 16.5 t-10.5 30.5q0 19 14.5 30.5t36 21t47 22.5t47 35t36 56.5t14.5 90.5q0 78 -5 139t-24.5 103.5t-57.5 64.5t-106 22q-10 0 -24.5 -1t-27.5 -4t-22.5 -8t-9.5 -13t8.5 -14.5t20.5 -12.5q20 -11 39 -25t33.5 -33.5t23 -44.5t8.5 -57q0 -49 -18.5 -84.5t-49 -58.5t-71 -34 t-84.5 -11q-36 0 -75.5 9t-72 31t-54 58t-21.5 90v15q2 60 27.5 106t67 80.5t94.5 57.5t110 37t113 20t104 6q54 0 117.5 -8t126.5 -25.5t122 -46t104 -68.5t72 -94t27 -123q0 -92 -64 -168.5t-194 -119.5q-16 -5 -35 -8t-35.5 -6t-27 -7t-10.5 -12t10.5 -13t25 -8t28 -5 t20.5 -3q84 -20 145 -53.5t101 -76t59.5 -92.5t19.5 -105q0 -83 -32 -154t-106 -123t-193.5 -81.5t-294.5 -29.5q-144 0 -255 21t-186 61t-113 97.5t-38 130.5z" />
<glyph unicode="4" horiz-adv-x="1335" d="M33 434q0 9 3.5 20t12.5 25l619 905q6 9 15.5 14t18.5 5h5l354 -39q28 -3 34.5 -20.5t6.5 -57.5v-807h108q18 0 30.5 -11.5t12.5 -33.5v-8q0 -18 -12 -31.5t-33 -13.5h-106v-186q0 -49 10 -73t37 -24h20q43 0 60.5 -7.5t17.5 -41.5t-17.5 -41.5t-60.5 -7.5h-626 q-43 0 -60.5 7.5t-17.5 41.5t17.5 41.5t60.5 7.5h20q34 0 40.5 35.5t6.5 108.5v139h-524q-25 0 -39 15t-14 38zM190 498q0 -18 35 -19h385v572q0 17 -4 23.5t-12 6.5q-6 0 -14.5 -6.5t-14.5 -15.5q-88 -127 -180.5 -263t-177.5 -259q-9 -12 -13 -21.5t-4 -17.5z" />
<glyph unicode="5" horiz-adv-x="1284" d="M31 283q0 50 19.5 88.5t52.5 63.5t77.5 37.5t95.5 12.5q50 0 95.5 -12.5t78.5 -37.5t52.5 -63.5t19.5 -88.5q0 -45 -14 -77t-41 -65q-5 -8 -8.5 -14.5t-3.5 -11.5q0 -22 18.5 -27.5t38.5 -5.5q59 0 99 20t64.5 62t35 107t10.5 155q0 160 -62 232.5t-174 72.5 q-65 0 -110 -6t-77 -13t-52.5 -13.5t-34.5 -6.5q-24 0 -35.5 17.5t-11.5 35.5v9l90 579q3 22 14.5 34.5t34.5 12.5h729q35 0 56.5 14t37 30.5t26 30t24.5 13.5q12 0 22 -14t10 -29q0 -1 -1 -3.5t-5.5 -14t-13 -34.5t-24.5 -63t-39.5 -101t-57.5 -148q-8 -18 -17.5 -33.5 t-27.5 -15.5q-12 0 -62 7t-137.5 16t-215 16.5t-294.5 7.5l-43 -258q4 0 9 2q2 0 3 1t3 1q20 6 58.5 16t90 20.5t113.5 17.5t131 7q112 0 215.5 -27t183 -82.5t127 -138.5t47.5 -196q0 -103 -32 -185t-106 -139t-193.5 -87.5t-294.5 -30.5q-289 0 -441.5 79t-152.5 224z" />
<glyph unicode="6" horiz-adv-x="1290" d="M51 582q0 101 32.5 201.5t90.5 191t140.5 168t183 135t216.5 91t242 36.5q18 0 30.5 -14.5t12.5 -32.5q0 -17 -12.5 -28.5t-34.5 -20.5q-92 -40 -158.5 -96.5t-111.5 -124.5t-70 -145.5t-34 -158.5q16 20 41 35t54 24t59 13t54 4q96 0 180 -22t144.5 -74t95.5 -137 t35 -211q0 -84 -26 -149.5t-70 -114t-103 -81.5t-124.5 -53.5t-134 -29t-132.5 -8.5q-161 0 -274.5 33.5t-185.5 106.5t-106 187t-34 275zM559 272q0 -104 17.5 -153t72.5 -49t72.5 49t17.5 153v359q0 38 -4 60.5t-12.5 34t-22 14.5t-30.5 3q-18 0 -38 -12.5t-36 -35.5 t-26.5 -55.5t-10.5 -70.5v-297z" />
<glyph unicode="7" horiz-adv-x="1343" d="M51 874q0 8 2 13l129 405q9 28 19.5 47t27.5 19q5 0 11 -3t13.5 -6t20 -6.5t31.5 -3.5q233 0 464 2t468 2q30 0 40.5 -13.5t10.5 -35.5q0 -24 -8.5 -50t-17.5 -50q-102 -246 -189 -466q-37 -94 -73 -192t-67.5 -188t-55 -167t-33.5 -130q-6 -31 -17.5 -48t-25.5 -25.5 t-29 -10.5t-31 -2q-5 0 -28.5 1t-60.5 3t-84 5.5t-100 7.5t-109.5 8.5t-110.5 9.5q-29 3 -29 31q0 8 2 18t8 23l240 544q39 89 94 150.5t119 107.5t133.5 82.5t135.5 76t125 88.5t104 120q-95 -84 -217 -149q-52 -28 -115.5 -55t-136.5 -48t-156 -34t-174 -13 q-69 0 -112 -16.5t-72 -36t-48.5 -35.5t-39.5 -16q-8 0 -18.5 2t-19.5 6.5t-14.5 11.5t-5.5 16z" />
<glyph unicode="8" horiz-adv-x="1312" d="M76 369q0 68 23 120.5t64 92t96.5 66t121.5 42.5q16 4 31.5 6t27.5 5.5t18.5 7t6.5 10.5t-12 11.5t-28.5 7.5t-35.5 5.5t-35 8.5q-50 16 -92 39t-72.5 57t-47.5 80t-17 106q0 70 23.5 124t63.5 95t93 70t113 46t123 25.5t123 8.5q59 0 122 -8.5t123 -25.5t113 -46t93 -70 t63.5 -95t23.5 -124q0 -60 -17 -106t-47.5 -80t-72.5 -57t-92 -39q-15 -5 -34.5 -8t-36.5 -6t-28.5 -7.5t-11.5 -11.5t7 -10.5t18.5 -7t26.5 -5.5t32 -6q66 -16 121.5 -42.5t96.5 -66t64 -92.5t23 -120q0 -74 -25.5 -132t-69.5 -101.5t-102 -73t-123.5 -48t-133.5 -26.5 t-133 -8t-133.5 8t-134 26.5t-123.5 48t-102 73t-69.5 101t-25.5 132.5zM573 281q0 -104 18 -153.5t73 -49.5t72.5 49t17.5 154v176q0 104 -17.5 153t-72.5 49t-73 -49t-18 -153v-176zM573 961q0 -104 17.5 -153.5t73.5 -49.5q55 0 72.5 49t17.5 154v141q0 101 -17.5 152 t-72.5 51t-73 -49.5t-18 -153.5v-141z" />
<glyph unicode="9" horiz-adv-x="1273" d="M43 969q0 84 26 149.5t70 113.5t103 81.5t124.5 54t133.5 29t133 8.5q161 0 274.5 -37t185.5 -113.5t106 -194t34 -278.5q0 -147 -32.5 -263.5t-90.5 -204.5t-140.5 -150.5t-183 -102t-216.5 -59.5t-242 -22q-18 0 -30.5 14t-12.5 33q0 13 4 20.5t10.5 12.5t15.5 8t17 8 q99 56 166.5 114.5t110.5 122.5t65.5 134.5t32.5 152.5q-16 -20 -41.5 -34.5t-54.5 -24t-59 -13.5t-54 -4q-97 0 -180.5 22t-144 74.5t-95.5 137.5t-35 211zM545 754q0 -39 4 -61t12.5 -34t22 -15t30.5 -3q18 0 38 13t36.5 36t26.5 54.5t10 70.5v297q0 104 -17.5 153.5 t-72.5 49.5t-72.5 -49t-17.5 -154v-358z" />
<glyph unicode=":" horiz-adv-x="585" d="M25 180q0 59 25 98.5t64 63.5t85.5 33.5t89.5 9.5t89.5 -9.5t85.5 -33.5t64 -63t25 -99q0 -57 -25 -96t-64 -62t-85.5 -32.5t-89.5 -9.5t-89.5 9.5t-85.5 32.5t-64 62t-25 96zM25 741q0 59 25 99t64 63.5t85.5 33t89.5 9.5t89.5 -9.5t85.5 -33t64 -63t25 -99.5 q0 -57 -25 -96t-64 -62t-85.5 -32.5t-89.5 -9.5t-89.5 9.5t-85.5 32.5t-64 62t-25 96z" />
<glyph unicode=";" horiz-adv-x="585" d="M25 180q0 59 25 98.5t64 63.5t85.5 33.5t89.5 9.5q56 0 105 -18.5t86 -52t58 -82t21 -107.5q0 -75 -16.5 -132.5t-43.5 -102.5t-63 -80t-74 -64q-20 -15 -41 -23t-38 -8q-14 0 -23.5 6t-9.5 17q0 15 22.5 39t49 52.5t49 58.5t22.5 59q0 20 -19.5 26.5t-45.5 6.5h-39 q-43 0 -89.5 9.5t-85.5 32.5t-64 62t-25 96zM25 741q0 59 25 99t64 63.5t85.5 33t89.5 9.5t89.5 -9.5t85.5 -33t64 -63t25 -99.5q0 -57 -25 -96t-64 -62t-85.5 -32.5t-89.5 -9.5t-89.5 9.5t-85.5 32.5t-64 62t-25 96z" />
<glyph unicode="&#x3c;" horiz-adv-x="870" d="M102 551q0 27 29 43l531 313q32 20 53 -14l16 -29q17 -30 -16 -51l-445 -262l445 -262q34 -22 16 -51l-16 -29q-22 -35 -53 -14l-531 313q-12 6 -20.5 15t-8.5 28z" />
<glyph unicode="=" horiz-adv-x="956" d="M88 385v39q0 20 12.5 31.5t30.5 11.5h692q18 0 30.5 -11.5t12.5 -31.5v-39q0 -39 -45 -39h-688q-45 0 -45 39zM88 754v39q0 20 12.5 31.5t30.5 11.5h692q18 0 30.5 -11.5t12.5 -31.5v-39q0 -39 -45 -39h-688q-45 0 -45 39z" />
<glyph unicode="&#x3e;" horiz-adv-x="870" d="M152 238q-17 30 16 51l444 262l-444 262q-34 22 -16 51l16 29q22 35 53 14l531 -313q29 -16 28 -43q0 -18 -8 -27.5t-20 -15.5l-531 -313q-32 -20 -53 14z" />
<glyph unicode="?" horiz-adv-x="1454" d="M55 1288q0 34 12 77t40.5 87.5t77.5 86.5t124.5 75.5t180 53.5t243.5 20q159 0 285 -36t213.5 -104t133.5 -166.5t46 -222.5q0 -85 -31 -146.5t-82 -106.5t-114 -78t-125 -62q-40 -18 -78 -36.5t-70.5 -38.5t-59.5 -44t-44 -53v-2q-17 -30 -46 -49t-77 -19q-65 0 -98 31 t-33 100q0 33 10.5 61t28 54t40.5 49.5t48 46.5q29 29 58 58.5t52 65t37.5 77t14.5 92.5q0 84 -25.5 155.5t-72 123.5t-111 81t-141.5 29q-33 0 -62.5 -5.5t-58.5 -16.5l4 -19q44 -3 89 -16.5t80.5 -41.5t58 -70t22.5 -101q0 -62 -23.5 -107t-63 -74t-91 -43t-107.5 -14 q-47 0 -97 12t-91.5 40t-69 75.5t-27.5 120.5zM401 195q0 68 29.5 112.5t74 72.5t98.5 39t106 11q50 0 103.5 -11t98 -39t74 -73t29.5 -112t-29.5 -111t-74 -71t-98 -38.5t-103.5 -11.5q-51 0 -105.5 11.5t-99 38.5t-74 71t-29.5 111z" />
<glyph unicode="@" horiz-adv-x="1755" d="M-127 -2585q0 79 18.5 166t59 171.5t106 161t159 134t218.5 91.5t285 34q100 0 201 -16t193.5 -51.5t173.5 -93.5t140.5 -142.5t93 -197t33.5 -257.5q0 -75 -13 -147.5t-42.5 -133t-74.5 -103.5t-107 -56l-35 156q34 20 60 94.5t26 189.5q0 67 -8.5 137.5t-33 137 t-69.5 126t-117.5 104t-176.5 70t-246 25.5q-130 0 -252 -35.5t-216.5 -109.5t-152 -187t-57.5 -268q0 -124 33 -213t88 -150.5t126.5 -99t148 -58t152 -27.5t138.5 -7q56 0 105 5t96.5 11t97 10.5t106.5 4.5q17 0 30.5 -11.5t13.5 -27.5q0 -25 -24 -43t-62.5 -31.5 t-87.5 -21.5t-99 -13t-97.5 -7.5t-82.5 -2.5q-91 0 -190 11t-193 39t-178.5 76.5t-148 124t-101 182t-37.5 249.5zM35 467q0 123 36.5 221t98 173t144 128t175.5 86.5t190 49.5t189 16t190 -14.5t190.5 -46.5t175.5 -84t145 -126.5t98.5 -174.5t36.5 -228q0 -49 -5 -95.5 t-18 -88.5q-20 -72 -53 -119.5t-78.5 -77t-104.5 -41.5t-130 -12h-35q-60 0 -113 4.5t-93.5 18.5t-66 37.5t-32.5 62.5q-32 -31 -60 -53t-58.5 -36t-64.5 -20t-77 -6q-94 0 -162 34.5t-112.5 90t-65.5 127t-21 143.5q0 119 41.5 203.5t111.5 138t162 78.5t193 25 q54 0 113.5 -7.5t117.5 -25.5t109.5 -47.5t91 -74t63 -106.5t23.5 -143v-211q0 -58 6 -89.5t39 -31.5q32 0 56 9t42.5 29t32.5 53t25 81q8 34 12 71t4 77q0 113 -31.5 200.5t-86 153t-126.5 110.5t-153 73t-166.5 40.5t-165.5 12.5t-165 -14t-165.5 -43.5t-152.5 -76.5 t-126 -112.5t-86 -151t-32 -192.5q0 -114 32 -202.5t86 -155t126 -113t152.5 -75.5t165.5 -41.5t165 -12.5q8 0 20.5 -0.5t23.5 -4t18.5 -12t7.5 -22.5q0 -17 -7.5 -27t-18.5 -14.5t-22.5 -5t-21.5 -0.5q-91 0 -188.5 15t-190.5 48t-175.5 86t-144 129.5t-98 178 t-36.5 231.5zM801 268q0 -33 3.5 -52t10.5 -29t18.5 -12.5t26.5 -2.5t31.5 9.5t30.5 28t23 44t9 55.5v389q0 45 -22.5 70t-54.5 25q-34 0 -55 -29.5t-21 -93.5v-402z" />
<glyph unicode="A" horiz-adv-x="2142" d="M55 49q0 16 5.5 26.5t18 15t34.5 6t57 1.5q13 0 25 8.5t21 21t17 29t15 33.5l454 1176q0 4 -0.5 11.5t-4 15.5t-11.5 13t-24 5q-27 0 -52.5 6.5t-34.5 18.5q-9 9 -5.5 27t10.5 30q9 6 18.5 8t30.5 2q43 0 99.5 15t118.5 38.5t124.5 52.5t115.5 56.5t92.5 50t55.5 33.5 q19 12 33.5 10.5t27.5 -16t25.5 -43.5t28.5 -70q0 -6 2 -8q0 -4 4 -8q51 -140 101.5 -286t98.5 -284q42 -120 84 -238.5t83.5 -231.5t81.5 -218t79 -196q15 -37 46.5 -49t68.5 -13h31q30 -3 44.5 -12.5t14.5 -36.5q0 -34 -19 -41.5t-65 -7.5h-907q-45 0 -63.5 7.5 t-18.5 41.5q0 30 12.5 38t48.5 11h35q15 2 26 8t11 23q0 9 -1 11t-3 7v-4l-4 13l-152 444h-467q-36 -97 -74.5 -201.5t-74.5 -203.5q-5 -11 -8 -24.5t-3 -23.5q0 -24 16.5 -36.5t61.5 -12.5q43 0 62.5 -7.5t19.5 -41.5t-18.5 -41.5t-63.5 -7.5h-303q-45 0 -63.5 7.5 t-18.5 41.5zM563 702h391l-188 519z" />
<glyph unicode="B" horiz-adv-x="2000" d="M51 49q0 34 19 41.5t65 7.5h33q24 0 37 11.5t19 34t7.5 56.5t1.5 81q0 66 0.5 140t0.5 152.5t1 160.5t1 163v485q0 53 -12 84.5t-30.5 48t-41 22t-43.5 7.5q-22 3 -40 9t-18 30q0 36 13 45.5t42 9.5h1082q197 0 324 -27t202 -77t104 -121t29 -158q0 -61 -28 -118.5 t-85 -102t-143 -71t-200 -27.5q-14 0 -23.5 -9.5t-9.5 -23.5t15.5 -21.5t27.5 -7.5q111 0 194.5 -16.5t144 -45.5t100.5 -68t63 -85t33 -95t10 -97q0 -103 -33.5 -188.5t-117.5 -147.5t-226.5 -96.5t-360.5 -34.5h-1073q-46 0 -65 7.5t-19 41.5zM920 98q90 0 147 10.5t90 39 t45 79.5t12 131v279q0 72 -23.5 116t-64 68t-94 31.5t-112.5 7.5v-762zM920 946q90 0 147 11t90 40t45 79.5t12 131.5v111q0 72 -23.5 116.5t-64 68.5t-94 32t-112.5 8v-598z" />
<glyph unicode="C" horiz-adv-x="1724" d="M57 821q0 161 39.5 286t106.5 218.5t157 157.5t189.5 104t204 58t202.5 18q46 0 88 -5t79.5 -13t70.5 -17.5t61 -17.5h-2q34 -11 59.5 -18t49.5 -7q25 0 54.5 8t60.5 19q33 11 66 20.5t56 9.5q25 0 37.5 -14.5t12.5 -32.5q0 -22 1.5 -60.5t4.5 -78.5q3 -52 5.5 -106 t2.5 -97q0 -28 -10.5 -48.5t-40.5 -20.5q-14 0 -26 4.5t-17 13.5q-16 27 -44.5 65t-67.5 77.5t-89.5 79t-112.5 71t-137 51t-162 19.5q-48 0 -79 -23.5t-49 -72t-24.5 -122.5t-6.5 -176v-804q0 -131 63 -197t184 -66h21q81 2 161 25t152 58.5t133.5 81t106.5 93.5 q12 12 23 21.5t20 9.5q12 0 22.5 -6t10.5 -20q0 -2 -2 -5q-3 -14 -19.5 -45t-50.5 -73v2q-79 -77 -171 -134.5t-198 -91.5h2q-61 -18 -133 -31t-155 -16q-193 0 -359.5 53.5t-288.5 159.5t-192 265t-70 370zM981 -27l68 131h16q81 3 154.5 25t136 57.5t113 85t85.5 107.5 q20 37 43 51t41 14q13 0 24.5 -7t19.5 -19t11.5 -27t0.5 -31q-6 -22 -23.5 -52t-48.5 -64q-24 -28 -57.5 -58.5t-78.5 -60.5t-103 -57t-130 -48q-67 -22 -134.5 -33.5t-137.5 -13.5z" />
<glyph unicode="D" horiz-adv-x="1990" d="M57 49q0 34 18.5 41.5t63.5 7.5h25q25 0 38.5 11.5t19.5 34t7.5 56.5t1.5 81v1146q0 57 -14 85t-53 28h-25q-45 0 -63.5 7.5t-18.5 41.5t18.5 41.5t63.5 7.5h940q188 0 348 -49.5t275.5 -149.5t180.5 -251t65 -354q0 -190 -53.5 -344.5t-158.5 -263t-261 -167.5t-361 -59 h-975q-45 0 -63.5 7.5t-18.5 41.5zM915 221q0 -39 2.5 -63t8.5 -37t16.5 -18t28.5 -5h37q47 0 85.5 11.5t64.5 37.5t40 68t14 104v1000q0 62 -14 104t-40 68.5t-64.5 37.5t-85.5 11h-37q-17 0 -28 -4.5t-17 -18t-8.5 -37.5t-2.5 -63v-1196z" />
<glyph unicode="E" horiz-adv-x="1742" d="M55 49q0 34 18.5 41.5t63.5 7.5h25q25 0 38.5 11.5t19.5 34t7.5 56.5t1.5 81v1105q0 76 -12 115t-55 39h-25q-45 0 -63.5 7.5t-18.5 41.5t18.5 41.5t63.5 7.5l1219 2h39q37 5 60.5 12t43.5 15q22 8 43 13.5t45 5.5q14 0 22 -7.5t13 -19.5v2l51 -522q2 -17 -8 -34.5 t-29 -23.5q-6 0 -7.5 -1t-4.5 -1q-20 0 -31.5 13t-19.5 30q-16 34 -42 77.5t-58.5 88.5t-71.5 89t-81.5 79t-88 57.5t-90.5 26.5h-228v-655h68q53 0 96 18t74 43t49 52.5t23 48.5q9 38 15.5 61.5t13 37t15.5 18.5t23 5q28 0 35 -20.5t6 -65.5v-495q0 -46 -6.5 -66t-34.5 -20 q-18 0 -29.5 6t-17.5 18.5t-9.5 29.5t-6.5 40v-2l-4 33q-3 19 -21 47t-49.5 53.5t-75 43t-96.5 17.5h-68v-503q0 -60 9.5 -96.5t31 -56.5t55.5 -27t85 -7h34q47 0 99 27t103 70t99.5 96.5t89 108.5t71 104.5t46.5 85.5q8 17 19.5 30t30.5 13q2 0 3 -1t3 -1q24 -5 33.5 -23.5 t9.5 -34.5l-113 -593q-5 -9 -14 -18t-21 -9q-25 0 -44.5 5t-41.5 13q-14 4 -30.5 9.5t-36.5 10t-45.5 7t-59.5 2.5h-1192q-45 0 -63.5 7.5t-18.5 41.5z" />
<glyph unicode="F" horiz-adv-x="1687" d="M55 49q0 34 18.5 41.5t63.5 7.5h25q25 0 38.5 11.5t19.5 34t7.5 56.5t1.5 81v1146q0 57 -14 85t-53 28h-25q-45 0 -63.5 7.5t-18.5 41.5t18.5 41.5t63.5 7.5l1219 2h39q37 5 60.5 12t43.5 15q22 8 43 13.5t45 5.5q14 0 22 -7.5t13 -19.5v2l51 -522q2 -17 -8 -34.5 t-29 -23.5q-6 0 -7.5 -1t-4.5 -1q-20 0 -31.5 13t-19.5 30q-16 34 -42 77.5t-58.5 88.5t-71.5 89t-81.5 79t-88 57.5t-90.5 26.5h-168q-19 0 -31 -10t-18 -30t-8.5 -49t-2.5 -65v-536h84q53 0 96 21.5t73 51.5t47.5 61.5t21.5 51.5q7 41 14 65t15 37t17 17t22 4 q28 0 34 -20.5t6 -65.5v-545q0 -46 -6.5 -66t-33.5 -20q-14 0 -23.5 2.5t-17.5 15t-14 37.5t-13 70q-3 19 -20.5 51t-47.5 62.5t-73 52t-97 21.5h-84v-473q0 -46 1.5 -80.5t8 -57t20 -34t38.5 -11.5h25q45 0 63 -7.5t18 -41.5t-18 -41.5t-63 -7.5h-869q-45 0 -63.5 7.5 t-18.5 41.5z" />
<glyph unicode="G" horiz-adv-x="1953" d="M57 821q0 161 39.5 286t106.5 218.5t157 157.5t189.5 104t204 58t202.5 18h13q85 -5 153.5 -21.5t122.5 -31.5q36 -11 64.5 -18t52.5 -7q25 0 54.5 8t60.5 19q33 11 66 20.5t56 9.5q25 0 37.5 -14.5t12.5 -32.5q0 -22 1.5 -60.5t4.5 -78.5q1 -29 3 -59.5t3.5 -60t2 -57 t-0.5 -48.5q0 -20 -15 -33.5t-36 -13.5q-14 0 -26 4.5t-17 13.5q-16 27 -44.5 65t-67.5 77.5t-89.5 79t-112.5 71t-137 51t-162 19.5q-48 0 -79 -23.5t-49 -72t-24.5 -122.5t-6.5 -176v-704q0 -100 6.5 -173.5t24 -122.5t48.5 -74t80 -27q68 0 105.5 17.5t55 55.5t21 97.5 t3.5 142.5v184q0 36 -21 59t-63 23h-25q-46 0 -66 9.5t-20 41.5q0 31 20 40.5t66 9.5h795q45 0 64.5 -8t19.5 -42q0 -31 -18 -41t-60 -10q-11 0 -24 -7.5t-23.5 -21t-17.5 -31.5t-7 -38v-268q0 -25 -6.5 -42.5t-19 -30.5t-29.5 -24t-39 -22l-27 -14q-65 -36 -144.5 -67.5 t-171 -55t-193 -38.5t-209.5 -16q-95 6 -196 29t-197.5 66t-182 109t-150 158.5t-102 213t-37.5 272.5z" />
<glyph unicode="H" horiz-adv-x="2234" d="M55 49q0 34 18.5 41.5t63.5 7.5h25q25 0 38.5 11.5t19.5 34t7.5 56.5t1.5 81v1146q0 57 -14 85t-53 28h-25q-45 0 -63.5 7.5t-18.5 41.5t18.5 41.5t63.5 7.5h846q23 0 37.5 -1.5t22.5 -6t11 -14.5t3 -27t-3 -27t-11.5 -14.5t-23 -6t-38.5 -1.5q-43 0 -55.5 -39 t-12.5 -115v-460q0 -33 20.5 -51.5t53.5 -18.5h256q31 0 52.5 16.5t21.5 42.5v471q0 76 -11.5 115t-54.5 39q-24 0 -38.5 1.5t-22.5 6t-11 14.5t-3 27q0 16 3 26.5t10.5 15t22 6t37.5 1.5h844q46 0 65 -7.5t19 -41.5t-19 -41.5t-65 -7.5h-25q-37 0 -51 -27.5t-14 -85.5 v-1146q0 -46 1.5 -80.5t7.5 -57t19.5 -34t36.5 -11.5h25q46 0 65 -7.5t19 -41.5t-19 -41.5t-65 -7.5h-844q-24 0 -38 1.5t-21.5 6t-10.5 14.5t-3 27q0 16 5.5 26.5t14.5 15t21 6t24 1.5q15 0 29 5.5t24.5 19t16.5 37.5t6 63v475q0 28 -21.5 45t-52.5 17h-256q-30 0 -52 -17 t-22 -45v-417q0 -46 1.5 -80.5t8.5 -57t20.5 -34t39.5 -11.5q23 0 37.5 -1.5t22.5 -6t11 -14.5t3 -27t-3 -27t-11 -14.5t-22.5 -6t-37.5 -1.5h-846q-45 0 -63.5 7.5t-18.5 41.5z" />
<glyph unicode="I" horiz-adv-x="1134" d="M55 49q0 34 18.5 41.5t63.5 7.5h25q25 0 38.5 11.5t19.5 34t7.5 56.5t1.5 81v1146q0 57 -14 85t-53 28h-25q-45 0 -63.5 7.5t-18.5 41.5t18.5 41.5t63.5 7.5h869q45 0 63 -7.5t18 -41.5t-18 -41.5t-63 -7.5h-25q-43 0 -55.5 -39t-12.5 -115v-1105q0 -46 1.5 -80.5t8 -57 t20 -34t38.5 -11.5h25q45 0 63 -7.5t18 -41.5t-18 -41.5t-63 -7.5h-869q-45 0 -63.5 7.5t-18.5 41.5z" />
<glyph unicode="J" horiz-adv-x="1499" d="M-14 399q0 100 64.5 157.5t178.5 57.5q50 0 94.5 -15t77 -44t51.5 -69.5t19 -90.5q0 -48 -20 -88t-54.5 -68.5t-80.5 -45.5t-99 -19q66 -59 164 -59q24 0 60.5 10.5t71.5 38t60 75t25 119.5v1004q0 45 -1.5 79t-7.5 56t-20 32.5t-39 10.5h-24q-45 0 -63.5 9t-18.5 42 q0 34 18.5 41.5t63.5 7.5h868q45 0 63.5 -7.5t18.5 -41.5t-18.5 -42.5t-63.5 -8.5h-24q-25 0 -39 -10.5t-20 -32.5t-7.5 -56t-1.5 -79v-758q0 -169 -55.5 -288t-157.5 -195t-246.5 -111t-322.5 -35q-69 0 -133.5 15t-122 42.5t-105 66t-81.5 85.5t-53 101.5t-19 113.5z" />
<glyph unicode="K" horiz-adv-x="2355" d="M55 49q0 34 18.5 41.5t63.5 7.5h25q25 0 38.5 11.5t19.5 34t7.5 56.5t1.5 81v1146q0 57 -14 85t-53 28h-25q-45 0 -63.5 7.5t-18.5 41.5t18.5 41.5t63.5 7.5h869q45 0 63 -7.5t18 -41.5t-18 -41.5t-63 -7.5h-25q-43 0 -55.5 -39t-12.5 -115v-555l605 609h-2 q28 27 40.5 45t12.5 31q0 15 -11.5 19.5t-31.5 4.5q-24 0 -41 7.5t-17 41.5q0 17 6.5 27.5t18.5 15t30 5.5t42 1h497q45 0 62.5 -8t17.5 -41q0 -34 -18 -41.5t-62 -7.5h-37q-94 0 -164.5 -22t-127.5 -58.5t-104 -84t-93 -97.5l-57 -61v2l-265 -265q17 -34 37 -48.5t43 -14.5 q28 0 58 14.5t63 34.5q22 12 44 24.5t48 20.5h-2q15 4 29 4q28 1 54 -15q40 -24 65 -67l436 -739q24 -39 57.5 -53.5t63.5 -16.5h16q46 0 66 -9.5t20 -39.5q0 -33 -20 -41t-66 -8h-749q-46 0 -70.5 13t-42.5 42l-383 645q-24 35 -43 35q-11 0 -18 -8.5t-7 -32.5v-413 q0 -46 1.5 -80.5t8 -57t20 -34t38.5 -11.5h25q45 0 63 -7.5t18 -41.5t-18 -41.5t-63 -7.5h-869q-45 0 -63.5 7.5t-18.5 41.5z" />
<glyph unicode="L" horiz-adv-x="1746" d="M55 49q0 34 18.5 41.5t63.5 7.5h25q25 0 38.5 11.5t19.5 34t7.5 56.5t1.5 81v1146q0 57 -14 85t-53 28h-25q-45 0 -63.5 7.5t-18.5 41.5t18.5 41.5t63.5 7.5h869q45 0 63 -7.5t18 -41.5t-18 -41.5t-63 -7.5h-25q-43 0 -55.5 -39t-12.5 -115v-1101q0 -58 9 -94.5t29 -57 t52 -28t78 -7.5h47q47 0 101 27t108 70t105 96.5t94 108.5t76 104.5t49 85.5q8 17 19.5 30t29.5 13q2 0 3 -1t3 -1q24 -5 33.5 -23.5t9.5 -34.5q-33 -145 -68.5 -296.5t-68.5 -296.5q-5 -9 -14 -18t-21 -9q-25 0 -44.5 5t-41.5 13q-14 4 -30.5 9.5t-36.5 10t-45.5 7 t-59.5 2.5h-1192q-45 0 -63.5 7.5t-18.5 41.5z" />
<glyph unicode="M" horiz-adv-x="2625" d="M55 49q0 14 2 24t9 15.5t19.5 7.5t35.5 2h41q22 0 36 14t22.5 37t13 52.5t6.5 62.5l49 1204q0 13 -3 26t-12 23.5t-24.5 16.5t-38.5 6q-45 0 -63.5 7.5t-18.5 41.5q0 33 20.5 41t71.5 8h787q14 0 24.5 -9t18.5 -20q8 -13 14 -30l270 -647q33 78 69 160.5t72.5 166t73 166 t70.5 160.5q4 8 10 18t14 17.5t15.5 12.5t15.5 5h723q46 0 66 -9.5t20 -39.5q0 -34 -20 -41.5t-66 -7.5h-16q-25 0 -34 -13t-9 -34l57 -1282v-10q1 -15 3 -33t8.5 -33.5t19 -26t35.5 -10.5h41q42 0 54.5 -9.5t12.5 -39.5t-12.5 -39.5t-54.5 -9.5h-873q-48 0 -71 6.5 t-23 40.5t23 42.5t71 8.5h17q17 0 29 10t19 24.5t10 32t3 34.5v10l-47 1177l-19 5l-262 -578q12 -30 30 -43t34 -22q8 -5 16.5 -12.5t14.5 -16.5h-2q4 -11 1 -19.5t-10 -15.5t-16.5 -13t-20.5 -12v3l-10 -9q-67 -39 -119.5 -94t-94.5 -117t-72.5 -126t-52 -119.5 t-34.5 -97.5t-18 -60l-2 -8q-6 -8 -11.5 -14.5t-8.5 -6.5q-17 0 -30 10t-20 27l-43 103l-2 6l-274 684l-232 555l-18 -4l-51 -1184q-1 -24 0.5 -43.5t7.5 -34t18 -23t31 -8.5h47q23 0 36 -2t21 -7t10.5 -14.5t2.5 -25.5q0 -25 -13 -37t-57 -12h-317q-23 0 -35.5 2t-19.5 7 t-9 15t-2 25z" />
<glyph unicode="N" horiz-adv-x="1957" d="M55 49q0 34 18.5 41.5t63.5 7.5h25q25 0 38.5 11.5t19.5 34t7.5 56.5t1.5 81v1146q0 57 -14 85t-53 28h-25q-45 0 -63.5 7.5t-18.5 41.5t18.5 41.5t63.5 7.5h688q17 0 37 -13t36 -29.5t27 -31t13 -16.5l709 -1054v864q0 46 -1.5 80.5t-8 57t-19.5 33.5t-37 11h-25 q-46 0 -64.5 7.5t-18.5 41.5t18.5 41.5t64.5 7.5h277q46 0 65 -7.5t19 -41.5t-19 -41.5t-65 -7.5h-25q-24 0 -37 -11t-19 -33.5t-7.5 -57t-1.5 -80.5v-1061q17 -25 35.5 -32.5t33.5 -10.5q17 -4 23 -8q8 -5 8 -19q0 -6 -3.5 -16t-6.5 -18q-8 -8 -19.5 -10.5t-31.5 -2.5 q-53 0 -112 -23.5t-116.5 -57.5t-108.5 -73t-89 -69q-20 -17 -35 -30t-21 -15h-2q-22 -12 -34 -12q-9 0 -18.5 16.5t-18.5 38.5q-8 17 -20.5 42t-26.5 46q-201 298 -406 599t-405 599q-5 8 -16 18.5t-29 22.5v-1001q0 -46 1.5 -80.5t7.5 -57t20 -34t38 -11.5h25 q45 0 63.5 -7.5t18.5 -41.5t-18.5 -41.5t-63.5 -7.5h-279q-45 0 -63.5 7.5t-18.5 41.5z" />
<glyph unicode="O" d="M37 821q0 161 39.5 286t106.5 218.5t156.5 157.5t189.5 104t204.5 58t202.5 18t203.5 -18t205.5 -58t189.5 -104t156.5 -157.5t106.5 -218.5t39.5 -286q0 -146 -34 -266.5t-94 -214.5t-144 -163t-184 -114.5t-213 -67.5t-232 -22q-98 0 -202.5 18t-204.5 59t-189.5 106 t-156.5 159.5t-106.5 219.5t-39.5 286zM776 467q0 -102 7 -177t24.5 -124t49 -72.5t79.5 -23.5t79.5 23.5t49 72.5t24.5 124t7 177v704q0 101 -7 175.5t-24.5 123t-49 72t-79.5 23.5t-79.5 -23.5t-49 -72t-24.5 -122.5t-7 -176v-704z" />
<glyph unicode="P" horiz-adv-x="1978" d="M55 49q0 34 18.5 41.5t63.5 7.5h25q25 0 38.5 11.5t19.5 34t7.5 56.5t1.5 81v1146q0 57 -14 85t-53 28h-25q-45 0 -63.5 7.5t-18.5 41.5t18.5 41.5t63.5 7.5h1329q100 0 188 -38t152.5 -102.5t102 -148.5t37.5 -175q0 -105 -40 -192.5t-112 -150.5t-171 -98t-218 -35 l-492 2v-419q0 -46 1.5 -80.5t8 -57t20 -34t38.5 -11.5h25q45 0 63 -7.5t18 -41.5t-18 -41.5t-63 -7.5h-869q-45 0 -63.5 7.5t-18.5 41.5zM913 801q90 0 147.5 10.5t91 40t46 80.5t12.5 131v256q0 62 -14 104t-40.5 68.5t-64.5 37.5t-85 11h-37q-17 0 -28 -4.5t-17 -18 t-8.5 -37.5t-2.5 -63v-616z" />
<glyph unicode="Q" d="M37 821q0 161 39.5 286t106.5 218.5t156.5 157.5t189.5 104t204.5 58t202.5 18t203.5 -18t205.5 -58t189.5 -104t156.5 -157.5t106.5 -218.5t39.5 -286q0 -165 -43 -295.5t-118 -229.5t-178 -167.5t-224 -105.5l4 -21q93 -2 158.5 -15.5t109 -35t68.5 -49.5t38.5 -59.5 t18.5 -65.5t8 -66q3 -39 8.5 -72.5t22 -59.5t48.5 -41t89 -15q27 0 44.5 -12.5t17.5 -36.5q0 -19 -4.5 -31t-14 -18.5t-23.5 -8.5t-32 -2h-16q-8 1 -25 1.5t-52.5 1t-94.5 1t-152 0.5q-97 0 -164 14t-110.5 37.5t-68.5 56t-36.5 69t-14 75.5t-3.5 78q-1 40 -3.5 77 t-14.5 66.5t-36.5 51t-68.5 30.5h-39q-98 0 -202.5 18t-204.5 59t-189.5 106t-156.5 159.5t-106.5 219.5t-39.5 286zM776 467q0 -102 7 -177t24.5 -124t49 -72.5t79.5 -23.5t79.5 23.5t49 72.5t24.5 124t7 177v704q0 101 -7 175.5t-24.5 123t-49 72t-79.5 23.5t-79.5 -23.5 t-49 -72t-24.5 -122.5t-7 -176v-704z" />
<glyph unicode="R" horiz-adv-x="2197" d="M55 49q0 34 18.5 41.5t63.5 7.5h25q25 0 38.5 11.5t19.5 34t7.5 56.5t1.5 81v1146q0 57 -14 85t-53 28h-25q-45 0 -63.5 7.5t-18.5 41.5t18.5 41.5t63.5 7.5h1276q118 0 214 -31.5t164.5 -87.5t105 -132t36.5 -164t-29.5 -160t-88 -122.5t-146 -77.5t-203.5 -27 q-8 0 -16 -9t-8 -18q0 -11 8 -19t16 -8q101 0 172 -18t118 -49t74 -72.5t41 -88t19 -96.5t8 -98q3 -54 8.5 -101.5t22.5 -83t48.5 -56.5t88.5 -21q25 0 43.5 -9.5t18.5 -39.5q0 -33 -18.5 -41t-55.5 -8h-465q-97 0 -163.5 19t-110 51.5t-67.5 76t-36 94t-14.5 104 t-3.5 106.5q-1 62 -4.5 118t-20.5 98.5t-54 67.5t-103 25h-99v-537q2 -63 15.5 -94t52.5 -31h25q45 0 63 -7.5t18 -41.5t-18 -41.5t-63 -7.5h-869q-45 0 -63.5 7.5t-18.5 41.5zM913 856q90 0 147.5 11.5t91 40.5t46 80t12.5 132v199q0 62 -14 104t-40.5 68.5t-64.5 37.5 t-85 11h-37q-17 0 -28 -4.5t-17 -18t-8.5 -37.5t-2.5 -63v-561z" />
<glyph unicode="S" horiz-adv-x="1687" d="M70 469v8q0 18 14 32.5t35 14.5q17 0 29.5 -9.5t15.5 -27.5q18 -62 66.5 -117t114 -101t142 -82t153.5 -61.5t147.5 -38.5t123.5 -13q55 0 105.5 3t88.5 15.5t60.5 39t22.5 71.5q0 31 -25.5 58t-70.5 53t-106 52t-132 56q-81 33 -170 71t-175 85t-164 102.5t-136.5 125.5 t-93.5 153t-35 186q0 89 25.5 162.5t70 131t104 100t127 70t139.5 41t142 13.5q44 0 95 -5.5t102 -14t100.5 -18.5t91.5 -19q48 -11 85.5 -19t58.5 -8q25 0 54.5 8.5t59.5 20.5q34 12 67.5 21t57.5 9q25 0 37 -15.5t12 -33.5q0 -22 1.5 -60.5t5.5 -78.5q1 -29 3 -59t3.5 -59 t2 -56.5t-0.5 -48.5q0 -20 -15 -33.5t-36 -13.5q-14 0 -28.5 5.5t-21.5 16.5q-18 29 -56 67t-90.5 78.5t-118 79t-140 69.5t-155.5 50t-165 19q-23 0 -58.5 -2t-69.5 -13.5t-59.5 -36.5t-25.5 -71q0 -35 28 -64t75.5 -56t112.5 -52.5t141 -52.5q85 -32 176.5 -68t180 -80.5 t168.5 -100t140.5 -125t95.5 -155t35 -190.5q0 -66 -12.5 -130.5t-45 -122.5t-87 -108t-138.5 -86.5t-201 -57t-273 -20.5q-29 0 -65 3.5t-76.5 8.5t-83.5 11.5t-85 13.5q-70 11 -129 20t-98 9q-12 1 -23 1q-33 0 -57 -5q-32 -6 -55 -12q-20 -5 -39 -9t-47 -4 q-18 0 -33.5 14t-15.5 35z" />
<glyph unicode="T" horiz-adv-x="1908" d="M47 1241q6 97 14.5 193.5t14.5 193.5v-2q3 33 26 33q30 0 57.5 -3.5t55.5 -6.5q25 -3 54.5 -6t62.5 -3h1249q34 0 61 3l54 6t53.5 6.5t58.5 3.5q11 0 18 -6.5t9 -24.5l31 -387q2 -25 -13.5 -36t-33.5 -11q-17 0 -27.5 7.5t-13.5 17.5q-5 9 -10.5 19.5t-10.5 23.5 q-17 38 -41 86t-61 91t-90 72t-125 29h-80q-20 0 -32 -10t-18 -30t-8 -49t-2 -65v-1163q2 -63 15.5 -94t50.5 -31h25q46 0 65 -7.5t19 -41.5t-19 -41.5t-65 -7.5h-867q-46 0 -65 7.5t-19 41.5t19 41.5t65 7.5h25q24 0 37 11.5t19 34t7.5 56.5t1.5 81v1146q0 52 -13 82.5 t-46 30.5h-66q-81 0 -137.5 -31t-96 -75.5t-64.5 -94.5t-41 -88h2l-13 -28q-5 -11 -15.5 -20t-29.5 -9q-18 0 -33.5 11.5t-13.5 35.5z" />
<glyph unicode="U" horiz-adv-x="1853" d="M35 1589q0 33 20 41t66 8h899q46 0 66 -7.5t20 -41.5t-20 -41.5t-66 -7.5h-33q-30 0 -47.5 -16.5t-17.5 -42.5v-903q0 -117 10.5 -205t42.5 -147.5t89.5 -89.5t152.5 -30t159.5 32t104.5 92.5t56.5 148.5t16.5 201v778q0 46 -1.5 80.5t-8 57t-20.5 33.5t-37 11h-25 q-46 0 -65 7.5t-19 41.5t19 41.5t65 7.5h279q45 0 63.5 -7.5t18.5 -41.5t-18.5 -41.5t-63.5 -7.5h-25q-25 0 -38.5 -11t-19.5 -33.5t-7.5 -57t-1.5 -80.5v-737q0 -85 -7 -166.5t-30 -155t-67 -134.5t-119 -105.5t-186.5 -69.5t-266.5 -25q-165 0 -286.5 21t-206.5 61 t-138 99t-83.5 134t-41 166.5t-10.5 196.5v776q0 24 -1 46t-6.5 39t-17.5 26.5t-35 9.5h-26q-46 0 -66 7.5t-20 41.5z" />
<glyph unicode="V" horiz-adv-x="2091" d="M18 1589q0 34 18.5 41.5t63.5 7.5h908q46 0 65 -7.5t19 -41.5q0 -27 -14 -38t-48 -11h-37q-14 -2 -24.5 -7.5t-10.5 -23.5q0 -6 2.5 -13t4.5 -13l374 -1067l394 1028h-2q8 12 10 24t2 23q0 16 -6.5 25.5t-17.5 14.5t-25.5 6.5t-30.5 2.5q-14 1 -28.5 3t-26 6.5t-18.5 14 t-7 25.5q0 34 19 41.5t65 7.5h301q46 0 65 -7.5t19 -41.5t-19 -41.5t-65 -7.5h-31q-14 0 -25.5 -8t-22 -21.5t-18.5 -30t-13 -32.5l-455 -1176q0 -4 0.5 -11t3.5 -14t10 -13t21 -7h12q16 -2 32 -5t28.5 -8.5t20 -12.5t7.5 -17q0 -30 -14.5 -39.5t-46.5 -9.5q-43 0 -100 -15 t-119 -38.5t-124 -52.5t-114.5 -56t-93 -50t-56.5 -34q-22 -12 -34 -12q-11 0 -21 9t-19.5 27t-20 45.5t-23.5 64.5q-42 116 -83 231.5t-81 230.5q-48 138 -95.5 272.5t-93.5 260.5t-90.5 242t-87.5 219q-15 36 -44.5 48.5t-67.5 12.5h-33q-28 0 -43 11.5t-15 37.5z" />
<glyph unicode="W" horiz-adv-x="3145" d="M82 1589q0 34 18.5 41.5t63.5 7.5h1941q46 0 65 -7.5t19 -41.5q0 -27 -14.5 -38t-48.5 -11h-37q-22 0 -28.5 -7t-6.5 -22v-10.5t2 -9.5q0 -3 1 -5q0 -2 1 -3l326 -1024l348 987q5 9 7.5 21.5t2.5 23.5q0 16 -6.5 25.5t-17.5 14.5t-25 6.5t-31 2.5q-14 1 -28.5 3 t-25.5 6.5t-18 14t-7 25.5q0 34 18.5 41.5t64.5 7.5h285q46 0 65 -7.5t19 -41.5t-19 -41.5t-65 -7.5h-33q-14 0 -25 -8t-21 -20.5t-17.5 -28.5t-13.5 -31l-414 -1151q-3 -10 -5 -19t0 -15.5t9.5 -11t24.5 -5.5h8q31 -3 57.5 -14t26.5 -29q0 -28 -12.5 -37.5t-43.5 -9.5 q-41 0 -95.5 -15t-114 -38.5t-118.5 -51.5t-109.5 -55.5t-88.5 -50t-53 -33.5h2q-11 -5 -20.5 -8.5t-14.5 -3.5q-24 0 -39.5 35t-42.5 108v-2l-248 776q-20 -58 -44 -124t-48.5 -133.5t-49 -134.5t-44.5 -126q-3 -8 -5 -16.5t-0.5 -16.5t8.5 -13.5t24 -6.5h10 q31 -3 56.5 -14t25.5 -29q0 -28 -12.5 -37.5t-43.5 -9.5q-41 0 -95 -15t-113 -38.5t-118.5 -51.5t-110 -55.5t-88.5 -50t-54 -33.5h2q-11 -5 -20 -8.5t-15 -3.5q-20 0 -35 29t-37 90v-3q-2 5 -3 10.5t-7 16.5h2l-456 1432q-14 36 -45 48.5t-70 12.5h-31q-28 0 -39.5 11.5 t-11.5 37.5zM989 1511q0 -16 6 -28l324 -1024l168 473q4 13 7 23t3 18.5t-2.5 18.5t-7.5 26v-2l-146 461q-12 37 -40.5 50t-65.5 13h-211q-20 0 -27.5 -7t-7.5 -22z" />
<glyph unicode="X" horiz-adv-x="2103" d="M55 49q0 34 19.5 41.5t62.5 7.5h56q22 0 40.5 9.5t30.5 23.5l471 557l-516 819q-12 18 -28.5 26t-34.5 9.5t-35.5 1t-31 2t-22.5 12t-8 31.5q0 33 20 41t66 8h947q45 0 65.5 -7.5t20.5 -41.5t-15.5 -41.5t-46.5 -7.5h-35q-25 0 -37 -8t-12 -23q0 -6 1 -10.5t3 -9.5 l236 -373l311 367q6 6 8 11t2 11q0 35 -53 35h-33q-31 0 -46 7.5t-15 41.5t20 41.5t66 7.5h323q46 0 66.5 -8t20.5 -41q0 -34 -20.5 -41.5t-63.5 -7.5h-52q-22 0 -41.5 -9t-31.5 -24l-406 -481l561 -895q12 -18 29.5 -26t35.5 -9.5t35.5 -1t31.5 -2t22 -12t8 -31.5 q0 -33 -20.5 -41t-65.5 -8h-946q-46 0 -66 7.5t-20 41.5t15.5 41.5t45.5 7.5h35q25 0 37 8.5t12 22.5q0 6 -3 13.5t-9 19.5l-274 436l-379 -444q-3 -6 -6 -12.5t-3 -12.5q0 -14 13.5 -22.5t38.5 -8.5h34q31 0 46.5 -7.5t15.5 -41.5t-20.5 -41.5t-65.5 -7.5h-326 q-45 0 -64.5 8t-19.5 41z" />
<glyph unicode="Y" horiz-adv-x="2080" d="M45 1589q0 33 20 41t66 8h940q46 0 66 -7.5t20 -41.5t-15.5 -41.5t-45.5 -7.5h-35q-37 0 -46 -15.5t5 -39.5l334 -567l383 561q6 9 6.5 19.5t-5.5 20t-18.5 15.5t-31.5 6h-13q-23 0 -38.5 0.5t-25.5 5t-15 15t-5 28.5q0 34 19.5 41.5t64.5 7.5h287q46 0 65 -7.5t19 -41.5 t-20.5 -41.5t-63.5 -7.5q-37 0 -57.5 -11t-34.5 -30l-481 -706v-594q0 -14 4 -31.5t12 -33t20.5 -26t28.5 -10.5h33q46 0 66 -7.5t20 -41.5t-20 -41.5t-66 -7.5h-883q-45 0 -65.5 7.5t-20.5 41.5q0 33 20.5 41t65.5 8h33q20 0 33 11.5t20 27.5t9.5 33t2.5 31v467l-497 839 q-11 18 -32.5 25.5t-45.5 7.5q-43 0 -62.5 7.5t-19.5 41.5z" />
<glyph unicode="Z" horiz-adv-x="1792" d="M70 37q0 12 7.5 28.5t16.5 34.5l815 1440h-262q-59 0 -109.5 -17.5t-92 -45.5t-74 -63.5t-57 -70.5t-42 -67t-26.5 -53h2q-5 -11 -16 -20t-31 -9q-18 0 -31.5 11.5t-13.5 35.5q6 97 14 193.5t14 193.5q2 17 10 24t17 7q30 0 57.5 -3.5t55.5 -6.5q25 -3 54.5 -6t61.5 -3 h1241q18 0 28.5 -12.5t10.5 -28.5q0 -6 -2.5 -13t-5.5 -13l-831 -1475h272q72 0 141 30t128.5 76t105.5 102t71 110q8 17 19.5 30t30.5 13q25 0 37 -17t12 -34q0 -1 -0.5 -3.5t-2.5 -14t-7.5 -35.5t-14.5 -67.5t-24 -110.5t-35 -165q-3 -27 -33 -26q-27 0 -50 2t-44 4 q-30 3 -71.5 5.5t-102.5 2.5h-1223q-8 0 -14 11.5t-6 25.5z" />
<glyph unicode="[" horiz-adv-x="835" d="M31 -338v1784q0 30 7 45t32 12l692 -51q25 -3 35 -16t10 -25q0 -7 -0.5 -18t-6 -21t-19.5 -17t-40 -7h-172q-17 0 -26 -10t-14 -27t-6 -38.5t-1 -43.5v-1350q0 -24 1 -44.5t6 -37.5t14 -27t26 -10h172q26 0 40 -7t19.5 -17t6 -21t0.5 -18q0 -12 -10.5 -25t-34.5 -16 l-692 -51q-25 -3 -32 12t-7 45z" />
<glyph unicode="\" horiz-adv-x="1333" d="M-39 1518q0 12 6 20.5t15.5 14t20 8t20.5 2.5h200q25 0 38 -12.5t22 -24.5l1081 -1649q3 -5 3.5 -9t0.5 -7q0 -12 -5.5 -20.5t-14 -13.5t-18 -7t-17.5 -2h-201q-27 0 -44.5 15.5t-27.5 31.5l-1075 1640q-4 8 -4 13z" />
<glyph unicode="]" horiz-adv-x="835" d="M37 -303q0 7 0.5 18t6 21t19 17t39.5 7h172q16 0 26 10t14.5 27t6 38t1.5 44v1350q0 23 -1.5 44t-6 38t-14 27t-26.5 10h-172q-27 0 -40 7t-18.5 17t-6 21t-0.5 18q0 12 10 25t35 16l692 51q25 3 32 -12t7 -45v-1784q0 -30 -7 -45t-32 -12l-692 51q-25 3 -35 16t-10 25z " />
<glyph unicode="^" horiz-adv-x="931" d="M120 804q-4 15 5 30l313 530q6 12 15.5 20.5t27.5 8.5q12 0 24.5 -8.5t18.5 -20.5l314 -530q9 -14 5 -29t-20 -25l-28 -16q-15 -9 -28.5 -4t-23.5 20l-262 445l-262 -445q-9 -15 -22.5 -20t-28.5 4l-29 16q-15 9 -19 24z" />
<glyph unicode="_" horiz-adv-x="1067" d="M18 -47h1024v-103h-1024v103z" />
<glyph unicode="`" horiz-adv-x="587" d="M55 1522q0 48 31.5 75t85.5 27q18 0 39.5 -4t44.5 -15t45.5 -28.5t42.5 -44.5q16 -22 42 -54.5t54 -69.5t55.5 -72.5t47.5 -63.5q12 -18 12 -31q0 -17 -15 -24t-32 -7t-27 7q-41 25 -89 47.5t-95 45t-90.5 46t-77.5 49.5t-54 54.5t-20 62.5z" />
<glyph unicode="a" horiz-adv-x="1470" d="M39 49q0 17 4 27.5t15 15t28.5 5.5t46.5 1q11 0 19 13t16 28q0 2 1 5t1 6l303 784q-2 2 -5 4t-9 2q-20 0 -38.5 6.5t-27.5 16.5q-12 11 -10 30.5t10 28.5q9 11 19 12.5t28 1.5q27 0 64 10t77 25t80 34t74.5 36.5t61 32.5t37.5 22q22 13 35.5 14t24 -9.5t20.5 -34 t24 -60.5v-2q33 -88 64.5 -177.5t62.5 -176.5q60 -173 117 -332t112 -287q6 -18 21.5 -24.5t36.5 -8.5h22q27 0 41.5 -9.5t14.5 -39.5q0 -33 -16 -41t-56 -8h-604q-42 0 -58 8t-16 41q0 30 12.5 39.5t44.5 9.5h25q2 0 4 1.5t2 4.5q0 2 -0.5 5t-3.5 8l-98 282h-283 q-24 -65 -47 -127t-47 -127q-6 -11 -7 -18t-1 -12q0 -8 6 -12.5t26 -4.5q19 0 33.5 -1t23.5 -5.5t13 -14.5t4 -28q0 -33 -16 -41t-58 -8h-200q-42 0 -58 8t-16 41zM424 502h209l-51 136t-50 138q-28 -73 -54 -137.5t-54 -136.5z" />
<glyph unicode="b" horiz-adv-x="1374" d="M39 49q0 17 3.5 27.5t12 15t22 5.5t34.5 1h20q20 0 24.5 26.5t4.5 78.5q0 88 1 195.5t1 215.5v326q0 30 -7 47.5t-17 26.5t-22.5 11.5t-23.5 4.5q-24 1 -38.5 7t-14.5 34q0 36 10.5 45.5t40.5 9.5h721q136 0 225 -19.5t141 -54.5t72.5 -85.5t20.5 -112.5q0 -45 -20.5 -86 t-60.5 -72.5t-100.5 -50.5t-140.5 -20q-4 0 -4 -4q0 -2 3.5 -3.5t6.5 -1.5q116 0 190.5 -25.5t117 -67t58 -93t15.5 -102.5q0 -73 -23 -133t-80 -103.5t-155.5 -67.5t-249.5 -24h-716q-40 0 -56 8t-16 41zM649 98q51 0 83.5 7t50.5 24.5t24 48t6 78.5v184q0 41 -13.5 66.5 t-36 40t-52 20t-62.5 6.5v-475zM649 664q51 0 83.5 7t50.5 25t24 48.5t6 78.5v74q0 41 -13.5 66t-36 39.5t-52 19.5t-62.5 6v-364z" />
<glyph unicode="c" horiz-adv-x="1191" d="M41 563q0 111 27 197t73 150.5t107.5 108.5t129.5 71.5t140 40t139 12.5t118.5 -12.5t88.5 -24.5h-2q22 -6 39.5 -11t26.5 -5q12 0 30 5t39 13q24 8 45.5 15t44.5 7q25 0 37.5 -16.5t12.5 -34.5q0 -15 1 -38.5t3 -51.5q2 -34 4 -70t2 -67q0 -25 -10.5 -43t-40.5 -18 q-12 0 -24.5 4t-18.5 12q-15 28 -47.5 68t-82 78t-116 64.5t-150.5 26.5q-27 0 -44 -14.5t-27.5 -45t-14.5 -77t-4 -108.5v-539q0 -79 37.5 -117.5t110.5 -38.5h2h12h10q24 0 52 7q6 0 12 1t12 3l25 8q67 20 119.5 60.5t82.5 95.5q15 28 35 39.5t35 11.5q13 0 25 -7 t19.5 -18t10 -25.5t-1.5 -29.5q-3 -14 -15 -36.5t-36 -45.5q-3 -3 -5.5 -6t-4.5 -6l-29 -27q-34 -31 -84 -61t-121 -54q-2 0 -4 -1t-4 -1q-46 -12 -93.5 -20t-98.5 -10h-6q-131 0 -245 36.5t-198 110t-132 182.5t-48 252z" />
<glyph unicode="d" horiz-adv-x="1368" d="M41 49q0 17 3.5 27.5t12.5 15t23 5.5t35 1h16q18 0 22.5 26.5t4.5 78.5v766q0 59 -27 59h-16q-20 0 -34.5 1t-23.5 5.5t-12.5 15t-3.5 27.5q0 33 16 41t58 8h624q130 0 240.5 -33.5t189.5 -102.5t123.5 -173.5t44.5 -245.5q0 -131 -37 -236.5t-110 -179.5t-180.5 -114.5 t-247.5 -40.5h-647q-42 0 -58 8t-16 41zM649 164q0 -20 0.5 -33t2.5 -20.5t6 -10t10 -2.5h24q55 0 87 29.5t32 101.5v668q0 73 -31.5 102t-87.5 29h-24q-12 0 -15.5 -12t-3.5 -53v-799z" />
<glyph unicode="e" horiz-adv-x="1202" d="M39 49q0 17 3.5 27.5t12 15t23 5.5t35.5 1h16q18 0 22.5 26.5t4.5 78.5v737q0 45 -4.5 66.5t-22.5 21.5h-16q-20 0 -35 1t-23.5 5.5t-12 15t-3.5 27.5q0 33 16 41t58 8l813 2h24q18 3 33 7.5t31 9.5q15 5 29.5 8.5t35.5 3.5q36 0 39 -33l35 -346q3 -15 -6.5 -34.5 t-30.5 -22.5q-2 0 -4.5 -1t-7.5 -1q-24 0 -32.5 10.5t-16.5 28.5h2q-16 32 -45.5 76t-66.5 84.5t-79.5 71.5t-85.5 38h-133v-405h27q32 0 57.5 10t43.5 25.5t28.5 32t13.5 28.5q7 29 13.5 46.5t12.5 28.5t14.5 15t23.5 4q30 0 37.5 -17t7.5 -57v-331q0 -40 -8 -57t-37 -17 q-19 0 -30.5 5.5t-18 16t-9 25t-4.5 33.5q0 3 -1 7t-1 9v2v-2v2q-2 12 -13 28.5t-29.5 31t-43.5 24.5t-57 10h-27v-319q0 -36 5 -57t17.5 -33t32 -15.5t48.5 -3.5h22q28 0 59 17t62.5 44t62 61.5t57 70t48 68.5t35.5 59q6 15 17 27t36 12q2 0 4 -1t4 -1q20 -3 30 -22.5 t7 -35.5l-76 -397q-2 -12 -11.5 -21.5t-27.5 -9.5q-22 0 -35.5 3.5t-27.5 9.5q-18 6 -43.5 12t-65.5 6h-794q-42 0 -58 8t-16 41z" />
<glyph unicode="f" horiz-adv-x="1167" d="M39 49q0 17 3.5 27.5t12 15t23 5.5t35.5 1h16q18 0 22.5 26.5t4.5 78.5v766q0 59 -27 59h-16q-20 0 -35 1t-23.5 5.5t-12 15t-3.5 27.5q0 33 16 41t58 8l813 2h22q20 3 35 7.5t31 9.5q15 5 29.5 8.5t35.5 3.5q36 0 39 -33l35 -346q3 -15 -6.5 -34.5t-30.5 -22.5 q-2 0 -4.5 -1t-7.5 -1q-24 0 -32.5 10.5t-16.5 28.5h2q-16 32 -45.5 76t-66.5 84.5t-79.5 71.5t-85.5 38h-110q-15 0 -19 -23t-4 -65v-340h39q32 0 56.5 13t42.5 31.5t28 37t12 31.5q7 32 13 50t13 28t16 13t22 3q28 0 36.5 -18.5t8.5 -55.5v-364q0 -40 -7.5 -57t-37.5 -17 q-13 0 -22.5 2t-16.5 11t-13 28.5t-12 54.5q-2 12 -11.5 31t-27 37.5t-43 31.5t-57.5 13h-39v-301q0 -52 4 -78.5t23 -26.5h16q20 0 34.5 -1t23.5 -5.5t12.5 -14.5t3.5 -28q0 -33 -16 -41t-58 -8h-577q-42 0 -58 8t-16 41z" />
<glyph unicode="g" horiz-adv-x="1343" d="M41 563q0 111 27 197t73 150.5t107.5 108.5t129.5 71.5t140 40t139 12.5h9q60 -3 108 -14.5t84 -22.5q22 -6 40 -11t30 -5t30 5t39 13q24 8 45.5 15t44.5 7q25 0 37.5 -16.5t12.5 -34.5q0 -15 1 -37.5t3 -50.5q1 -18 2.5 -39t2.5 -41.5t1.5 -39.5t-0.5 -33 q0 -20 -15 -33.5t-36 -13.5q-12 0 -24.5 4t-18.5 12q-15 28 -47.5 68t-82 78t-116 64.5t-150.5 26.5q-27 0 -44 -14.5t-27.5 -45t-14.5 -77t-4 -108.5v-471q0 -63 3.5 -109t14 -76t28 -45t44.5 -16q38 0 59.5 10.5t32.5 34t13 59t2 86.5v123q0 17 -9.5 27t-29.5 10h-16 q-40 0 -57 9.5t-17 41.5q0 31 17 40t57 9h528q20 0 34.5 -1t24 -5.5t13.5 -14.5t4 -28q0 -31 -17 -41t-53 -10q-11 0 -21 -14.5t-10 -34.5v-178q0 -20 -5.5 -33.5t-15.5 -24.5t-24.5 -19t-31.5 -17l-15 -7q-45 -25 -98.5 -47t-115 -39t-129.5 -26.5t-142 -9.5 q-67 2 -136.5 15.5t-135 43t-124.5 74t-103 108.5t-69.5 148.5t-25.5 191.5z" />
<glyph unicode="h" horiz-adv-x="1529" d="M39 49q0 17 3.5 27.5t12 15t23 5.5t35.5 1h16q18 0 22.5 26.5t4.5 78.5v766q0 59 -27 59h-16q-20 0 -35 1t-23.5 5.5t-12 15t-3.5 27.5q0 33 16 41t58 8h563q40 0 52.5 -8.5t12.5 -40.5q0 -17 -2.5 -27.5t-10 -15t-21 -5.5t-33.5 -1q-18 0 -22.5 -21.5t-4.5 -66.5v-305 q0 -14 9.5 -21.5t23.5 -7.5h170q12 0 22.5 5.5t10.5 17.5v311q0 45 -5.5 66.5t-23.5 21.5q-20 0 -33.5 1t-21 5.5t-10.5 15t-3 27.5q0 32 13 40.5t53 8.5h565q40 0 56 -8t16 -41q0 -17 -3.5 -27.5t-12.5 -15t-22.5 -5.5t-33.5 -1h-16q-29 0 -29 -59v-766q0 -52 4 -78.5 t25 -26.5h16q19 0 33 -1t23 -5.5t12.5 -14.5t3.5 -28q0 -33 -16 -41t-56 -8h-565q-20 0 -32.5 1.5t-20 6.5t-10.5 15t-3 26q0 18 6 28t14.5 14.5t19.5 5.5t22 1q12 0 23.5 14t11.5 54v315q0 12 -10.5 18.5t-22.5 6.5h-170q-14 0 -23.5 -6t-9.5 -19v-278q0 -52 4 -78.5 t25 -26.5q19 0 32 -1t20.5 -5.5t10 -14.5t2.5 -28q0 -16 -2.5 -26t-10 -15t-20.5 -6.5t-32 -1.5h-563q-42 0 -58 8t-16 41z" />
<glyph unicode="i" horiz-adv-x="798" d="M39 49q0 17 3.5 27.5t12 15t23 5.5t35.5 1h16q18 0 22.5 26.5t4.5 78.5v766q0 59 -27 59h-16q-20 0 -35 1t-23.5 5.5t-12 15t-3.5 27.5q0 33 16 41t58 8h577q42 0 58 -8t16 -41q0 -17 -3.5 -27.5t-12.5 -15t-23 -5.5t-35 -1h-16q-18 0 -22.5 -21.5t-4.5 -66.5v-737 q0 -52 4 -78.5t23 -26.5h16q20 0 34.5 -1t23.5 -5.5t12.5 -14.5t3.5 -28q0 -33 -16 -41t-58 -8h-577q-42 0 -58 8t-16 41z" />
<glyph unicode="j" horiz-adv-x="1040" d="M-6 285q0 73 47.5 115t130.5 42q38 0 70.5 -11t57.5 -32t38.5 -51t13.5 -67q0 -65 -38.5 -107t-98.5 -53q12 -6 26.5 -8t32.5 -2q14 0 36.5 6.5t42.5 23t34 44.5t14 71v668q0 54 -4 79t-22 25h-17q-20 0 -34.5 1.5t-23 6.5t-12 15.5t-3.5 27.5q0 33 15.5 41t57.5 8h578 q42 0 58 -8t16 -41q0 -17 -4 -27.5t-12.5 -15.5t-23 -6.5t-34.5 -1.5h-16q-18 0 -22.5 -25t-4.5 -79v-504q0 -119 -38.5 -202t-109 -135t-170.5 -75.5t-223 -23.5q-73 0 -137.5 23t-114 63.5t-78 95.5t-28.5 119z" />
<glyph unicode="k" horiz-adv-x="1609" d="M39 49q0 17 3.5 27.5t12 15t23 5.5t35.5 1h16q18 0 22.5 26.5t4.5 78.5v766q0 59 -27 59h-16q-20 0 -35 1t-23.5 5.5t-12 15t-3.5 27.5q0 33 16 41t58 8h577q42 0 58 -8t16 -41q0 -17 -3.5 -27.5t-12.5 -15t-23 -5.5t-35 -1h-16q-18 0 -22.5 -21.5t-4.5 -66.5v-324 l371 373v-2q31 34 31 41h-11q-11 0 -21.5 1t-18.5 5.5t-12.5 15t-4.5 27.5t5.5 27.5t16.5 15t26 5.5t36 1h330q41 0 56 -8.5t15 -40.5q0 -18 -3.5 -28.5t-11.5 -15t-22 -5t-34 -0.5h-25q-56 0 -101 -15t-82 -38.5t-67.5 -53t-58.5 -59.5l-41 -45l-168 -168q7 -13 18.5 -16.5 t24.5 -0.5t28 10t29 15q17 9 35 18.5t35 14.5h-2q13 5 26 5q20 1 40 -11q32 -18 51 -53v2l288 -494q14 -22 32.5 -30.5t35.5 -10.5h12q40 0 57 -9.5t17 -39.5q0 -33 -17 -41t-57 -8h-499q-19 0 -33 2t-23.5 7t-17 14t-14.5 22v-2l-256 432q-5 8 -9 11t-6 3v-286 q0 -52 4 -78.5t23 -26.5h16q20 0 34.5 -1t23.5 -5.5t12.5 -14.5t3.5 -28q0 -33 -16 -41t-58 -8h-577q-42 0 -58 8t-16 41z" />
<glyph unicode="l" horiz-adv-x="1206" d="M39 49q0 17 3.5 27.5t12 15t23 5.5t35.5 1h16q18 0 22.5 26.5t4.5 78.5v766q0 59 -27 59h-16q-20 0 -35 1t-23.5 5.5t-12 15t-3.5 27.5q0 33 16 41t58 8h577q42 0 58 -8t16 -41q0 -17 -3.5 -27.5t-12.5 -15t-23 -5.5t-35 -1h-16q-18 0 -22.5 -21.5t-4.5 -66.5v-733 q0 -34 5 -55t16 -33.5t29 -16.5t44 -4h31q28 0 60 17t65 44t65.5 61.5t61.5 70t51.5 68.5t36.5 59q6 15 17.5 27t35.5 12q2 0 4 -1t5 -1q20 -3 29.5 -22.5t6.5 -35.5l-92 -397q-2 -12 -11.5 -21.5t-27.5 -9.5q-22 0 -35.5 3.5t-27.5 9.5q-18 6 -43.5 12t-65.5 6h-794 q-42 0 -58 8t-16 41z" />
<glyph unicode="m" horiz-adv-x="1789" d="M39 49q0 29 10.5 39t50.5 10h29q18 0 25.5 30t7.5 67l33 802q0 11 -6.5 21t-26.5 10t-34.5 1t-23.5 5.5t-12.5 15t-3.5 27.5q0 33 17.5 41t62.5 8h524q14 0 24 -7t17 -15q8 -10 15 -23l163 -397q42 94 86 198.5t86 198.5q8 17 21.5 31t34.5 14h481q40 0 57 -9.5t17 -39.5 q0 -17 -4 -27.5t-13 -15t-23.5 -5.5t-33.5 -1h-12q-6 0 -8.5 -4.5t-2.5 -9.5l37 -856v-8q1 -8 1.5 -17t3.5 -16.5t8.5 -13t15.5 -5.5h25q39 0 51 -9.5t12 -39.5t-12.5 -39.5t-50.5 -9.5h-582q-39 0 -58.5 6.5t-19.5 40.5q0 37 19.5 44t58.5 7h12q12 0 17.5 18.5t7.5 39.5 l-29 741l-151 -338q5 -11 13.5 -18t14.5 -13q16 -10 27 -26q5 -12 3 -21.5t-8.5 -17t-16.5 -13.5t-19 -10q-2 0 -2.5 -0.5t2.5 2.5q-42 -25 -76 -59.5t-61 -74.5t-47 -81.5t-34.5 -77.5t-23 -65t-12.5 -43l-4 -12h-2q-5 -9 -13 -16t-16 -7q-14 0 -27.5 11.5t-21.5 25.5 q-6 14 -14 32.5t-13 33.5l-2 10v-4l-184 454q-17 42 -33.5 81t-33 77.5t-33 78t-33.5 83.5l-33 -735q-2 -22 2 -39t19 -17h30q41 0 53.5 -9t12.5 -40q0 -25 -12.5 -37t-53.5 -12h-211q-40 0 -50.5 9t-10.5 40z" />
<glyph unicode="n" horiz-adv-x="1357" d="M39 49q0 17 3.5 27.5t12 15t23 5.5t35.5 1h16q18 0 22.5 26.5t4.5 78.5v766q0 59 -27 59h-16q-20 0 -35 1t-23.5 5.5t-12 15t-3.5 27.5q0 33 16 41t58 8h458q15 0 30.5 -10t29.5 -22q14 -14 28 -33l443 -662v525q0 52 -4 78t-25 26h-16q-20 0 -33.5 1t-22.5 5.5t-12.5 15 t-3.5 27.5q0 33 16 41t56 8h186q40 0 56 -8t16 -41q0 -17 -3.5 -27.5t-12.5 -15t-22.5 -5.5t-33.5 -1h-16q-20 0 -24.5 -26t-4.5 -78v-701q9 -8 20 -13t17 -7q8 -2 12 -2t10 -6q8 -8 9 -25q0 -9 -5 -22t-10 -21q-6 -6 -14 -7t-29 -1q-33 0 -70 -15.5t-74 -38t-71 -47.5 t-59 -45l-37 -28h-2q-22 -12 -33 -13q-17 0 -24 12.5t-15 32.5q-5 14 -13 30.5t-17 31.5l-539 795v-631q0 -52 4 -78.5t23 -26.5h16q20 0 34.5 -1t23.5 -5.5t12.5 -14.5t3.5 -28q0 -33 -16 -41t-58 -8h-184q-42 0 -58 8t-16 41z" />
<glyph unicode="o" horiz-adv-x="1300" d="M29 563q0 111 27 197t73 150.5t107.5 108.5t129.5 71.5t140 40t139 12.5q68 0 139.5 -12.5t140 -40t130 -71.5t108 -108.5t74 -150.5t27.5 -197q0 -150 -51 -259t-136 -181t-197 -106.5t-235 -34.5q-68 0 -139.5 12t-139.5 39.5t-129.5 73t-107.5 110t-73 150t-27 196.5z M555 328q0 -63 4 -110t14.5 -77t27.5 -44.5t44 -14.5t44.5 14.5t27.5 44.5t14 76.5t4 110.5v471q0 126 -18.5 185.5t-71.5 59.5q-27 0 -44 -14.5t-27.5 -45t-14.5 -77t-4 -108.5v-471z" />
<glyph unicode="p" horiz-adv-x="1359" d="M39 49q0 17 3.5 27.5t12 15t23 5.5t35.5 1h16q18 0 22.5 26.5t4.5 78.5v766q0 59 -27 59h-16q-20 0 -35 1t-23.5 5.5t-12 15t-3.5 27.5q0 33 16 41t58 8h886q70 0 131.5 -27t107 -72t71.5 -104t26 -122q0 -75 -28 -136.5t-78 -106t-119.5 -69t-151.5 -24.5l-311 2v-264 q0 -52 4 -78.5t23 -26.5h16q20 0 34.5 -1t23.5 -5.5t12.5 -14.5t3.5 -28q0 -33 -16 -41t-58 -8h-577q-42 0 -58 8t-16 41zM647 567q51 0 83 7t49.5 24.5t23.5 49t6 79.5v170q0 73 -32 102t-87 29h-24q-12 0 -15.5 -12t-3.5 -53v-396z" />
<glyph unicode="q" horiz-adv-x="1300" d="M29 563q0 111 27 197t73 150.5t107.5 108.5t129.5 71.5t140 40t139 12.5q68 0 139.5 -12.5t140 -40t130 -71.5t108 -108.5t74 -150.5t27.5 -197q0 -103 -26 -188t-70.5 -151t-105.5 -114t-132 -77q80 -7 124 -28.5t65.5 -51t27 -63.5t8.5 -66q2 -22 5.5 -41.5t13 -34.5 t28.5 -24t51 -9q24 0 41 -12t17 -37q0 -36 -17.5 -45.5t-48.5 -9.5h-229q-103 0 -160 22t-83.5 56.5t-31.5 76t-6 82.5q-1 24 -2.5 46t-7.5 40t-19.5 30t-37.5 18h-23q-68 0 -139.5 12t-139.5 39.5t-129.5 73t-107.5 110t-73 150t-27 196.5zM555 328q0 -63 4 -110t14.5 -77 t27.5 -44.5t44 -14.5t44.5 14.5t27.5 44.5t14 76.5t4 110.5v471q0 126 -18.5 185.5t-71.5 59.5q-27 0 -44 -14.5t-27.5 -45t-14.5 -77t-4 -108.5v-471z" />
<glyph unicode="r" horiz-adv-x="1505" d="M39 49q0 17 3.5 27.5t12 15t23 5.5t35.5 1h16q18 0 22.5 26.5t4.5 78.5v766q0 59 -27 59h-16q-20 0 -35 1t-23.5 5.5t-12 15t-3.5 27.5q0 33 16 41t58 8h850q83 0 150 -22.5t114.5 -62t73.5 -92.5t26 -115t-20 -112.5t-59 -86.5t-97 -56.5t-135 -21.5q68 -1 115 -15 t78 -36.5t48.5 -51.5t27 -62t12.5 -67t6 -67q2 -33 5 -61.5t12 -50.5t27.5 -35t51.5 -13q25 0 41 -9.5t16 -39.5q0 -33 -17.5 -41t-47.5 -8h-310q-69 0 -116 13.5t-78.5 36.5t-48.5 54t-25 66.5t-10 73t-2 73.5q-1 38 -3 72t-12.5 60t-31 41.5t-58.5 15.5h-49v-340 q2 -36 6.5 -52t20.5 -16h16q20 0 34.5 -1t23.5 -5.5t12.5 -14.5t3.5 -28q0 -33 -16 -41t-58 -8h-577q-42 0 -58 8t-16 41zM647 606q51 0 83 7t49.5 24.5t23.5 48t6 78.5v133q0 73 -32 102t-87 29h-24q-12 0 -15.5 -12t-3.5 -53v-357z" />
<glyph unicode="s" horiz-adv-x="1167" d="M49 334q0 22 14.5 36.5t34.5 14.5q17 0 30 -12t19 -29q11 -40 42 -75t73 -64t91.5 -52t99 -39t95.5 -24t81 -8q32 0 62 2t53 9t37 21.5t14 39.5q0 15 -16.5 30t-46 30t-68 31.5t-82.5 35.5q-55 22 -115 47.5t-118.5 57t-112 70.5t-94 87t-64 107t-23.5 130q0 61 18 112.5 t49.5 92t73 70t88.5 49t97 29.5t98 10q32 0 66.5 -3.5t68 -10t65.5 -13t60 -12.5q34 -8 59 -12.5t38 -4.5q12 0 30.5 5.5t38.5 13.5q22 8 44.5 14t43.5 6q25 0 37 -15.5t12 -33.5q0 -15 1 -38.5t4 -51.5q3 -39 5 -81q1 -24 2 -44q0 -16 -1 -28q0 -20 -15 -34t-37 -14 q-12 0 -25 6.5t-20 18.5v-2q-16 26 -60 66t-107.5 77.5t-141.5 64.5t-162 27q-13 0 -33.5 -1t-40.5 -7t-34.5 -19t-14.5 -38q0 -17 18.5 -34t50.5 -34t73.5 -34t87.5 -33q56 -20 118 -45.5t122 -56.5t113.5 -69.5t95 -86t65.5 -106.5t24 -130q0 -70 -20.5 -136.5t-78.5 -118 t-160.5 -82.5t-264.5 -31q-40 0 -96.5 7.5t-114.5 16.5q-45 8 -83.5 14.5t-61.5 6.5q-33 2 -52 -1.5t-34 -9.5l-26 -6.5t-36 -3.5q-20 0 -34.5 14t-14.5 35z" />
<glyph unicode="t" horiz-adv-x="1314" d="M35 844l20 260q0 17 10 26t25 9q22 0 39.5 -2t36.5 -4q17 -2 35.5 -3.5t40.5 -1.5h831q22 0 39.5 1t36.5 4q18 2 37 4t41 2q12 0 22.5 -9t12.5 -26l18 -260q-2 -22 -15.5 -34.5t-31.5 -12.5t-29.5 8t-17.5 20l-8 21q-10 24 -25.5 55.5t-39 59.5t-56 47.5t-76.5 19.5h-55 q-15 0 -19 -23t-4 -65v-774q2 -36 6.5 -52t22.5 -16h16q19 0 33 -1t23 -5.5t12.5 -14.5t3.5 -28q0 -33 -16 -41t-56 -8h-579q-40 0 -56 8t-16 41q0 17 3.5 27.5t12.5 15t22 5.5t34 1h16q20 0 24.5 26.5t4.5 78.5v766q0 28 -5.5 43.5t-17.5 15.5h-45q-47 0 -81.5 -19.5 t-59 -47t-40 -59t-26.5 -54.5l-10 -23q-5 -12 -16 -20t-31 -8q-18 0 -33.5 10t-13.5 37z" />
<glyph unicode="u" horiz-adv-x="1275" d="M27 1077q0 33 16.5 41t56.5 8h600q40 0 57 -8t17 -41q0 -17 -4 -27.5t-12.5 -15t-23 -5.5t-34.5 -1h-20q-14 0 -21.5 -7t-7.5 -15v-605q0 -74 7 -129t26 -92t54.5 -55.5t92.5 -18.5q58 0 98 19.5t64.5 57.5t34.5 93.5t10 126.5v521q0 52 -3 78t-23 26h-17q-20 0 -33.5 1 t-22 5.5t-12 15t-3.5 27.5q0 33 15.5 41t55.5 8h185q42 0 57.5 -8t15.5 -41q0 -17 -3.5 -27.5t-12 -15t-23 -5.5t-34.5 -1h-17q-18 0 -22 -26t-4 -78v-492q0 -59 -5 -116t-20.5 -107.5t-46.5 -92.5t-82.5 -73t-128.5 -48.5t-184 -17.5q-114 0 -198 14.5t-142.5 42.5 t-95 68.5t-57 93t-28.5 115.5t-8 135v519q0 11 -0.5 22t-2.5 20.5t-6.5 15t-12.5 5.5h-19q-20 0 -34 1t-22.5 5.5t-12.5 15t-4 27.5z" />
<glyph unicode="v" horiz-adv-x="1435" d="M14 1077q0 33 16 41t58 8h604q40 0 56 -8t16 -41q0 -30 -12 -39.5t-45 -9.5h-21q-3 -2 -6.5 -2.5t-3.5 -3.5t6 -12l231 -660q61 161 123.5 317.5t122.5 317.5q6 15 6 27q0 8 -11 10t-26 4q-12 1 -24 2.5t-22.5 6.5t-16.5 15t-6 27q0 33 16 41t55 8h203q40 0 56 -8t16 -41 q0 -17 -3.5 -27.5t-12.5 -15t-22.5 -5.5t-33.5 -1h-22q-8 0 -17.5 -18t-17.5 -33l-303 -784q0 -2 0.5 -4.5t5.5 -2.5h10q28 -5 51 -15t23 -32q0 -30 -12.5 -39.5t-44.5 -9.5q-28 0 -65 -9.5t-77 -25t-80.5 -34.5t-74.5 -36.5t-60 -32t-37 -22.5h-2q-22 -12 -32 -12 q-25 0 -40 30t-32 79q-33 87 -63.5 175t-61.5 173q-60 173 -117.5 332.5t-111.5 287.5q-9 20 -24 26.5t-36 6.5h-20q-28 0 -43 11t-15 38z" />
<glyph unicode="w" horiz-adv-x="2111" d="M57 1077q0 33 16 41t58 8h1294q40 0 56 -8t16 -41q0 -30 -13 -39.5t-46 -9.5h-25q-6 0 -6 -4l4 -12l199 -631q54 156 107 304t108 302q3 8 5.5 15t2.5 10q0 8 -11.5 10t-25.5 4q-12 1 -24.5 2.5t-22.5 6.5t-16.5 15t-6.5 27q0 33 16 41t56 8h191q40 0 55.5 -8t15.5 -41 q0 -17 -3.5 -27.5t-12 -15t-22.5 -5.5t-33 -1h-23q-8 0 -17.5 -18t-17.5 -33q-67 -188 -137.5 -382t-136.5 -382q-2 -5 -2 -8.5t8 -3.5q30 -5 52 -15.5t22 -31.5q0 -28 -12.5 -38t-43.5 -10q-27 0 -62 -9.5t-73 -24.5t-76 -34t-71 -36t-57.5 -31.5t-34.5 -21.5 q-11 -8 -19.5 -10t-13.5 -2q-25 0 -37.5 23t-30.5 71l-4 16v-2l-147 463q-27 -74 -54.5 -147.5t-54.5 -147.5l-2 -4q-2 -3 -0.5 -5.5t10.5 -2.5q27 -5 49.5 -15.5t22.5 -31.5q0 -28 -11 -38t-42 -10q-27 0 -62 -9.5t-73.5 -24.5t-77 -34t-71.5 -36t-58 -31.5t-35 -21.5 q-11 -8 -19.5 -10t-11.5 -2q-25 0 -37.5 23t-29.5 71l-4 16v-4l-306 952q-8 14 -24 23.5t-33 9.5h-22q-28 0 -40 11t-12 38zM698 1019.5q0 -2.5 2 -7.5l201 -631l94 264v-2q5 14 5.5 22t-5.5 25l-96 307v-2q-6 20 -20.5 26.5t-34.5 6.5h-139q-5 0 -6 -1t-1 -3v-4.5z" />
<glyph unicode="x" horiz-adv-x="1443" d="M39 49q0 18 4.5 28t14 14.5t23 5.5t32.5 1h34q22 0 35 17l307 362l-335 535q-9 12 -22.5 14t-29.5 2q-12 0 -22.5 0.5t-19 5t-13 15t-4.5 28.5q0 33 17 41t57 8h631q42 0 57.5 -8t15.5 -41q0 -17 -3.5 -27.5t-11 -15t-18.5 -5.5t-24 -1h-23q-9 0 -12.5 -2t-3.5 -4h-2 l147 -231l205 241l-10 -10q0 2 -4 4t-12 2h-25q-14 0 -24.5 1t-18 5.5t-11 15t-3.5 27.5q0 33 16.5 41t56.5 8h217q40 0 57 -8t17 -41q0 -18 -4 -28.5t-13 -15t-22.5 -5t-31.5 -0.5h-35q-24 0 -37 -16l-262 -310l368 -587q9 -15 23 -17t29 -2q11 0 21.5 -0.5t18.5 -4.5 t12.5 -13.5t4.5 -28.5q0 -33 -16 -41t-58 -8h-631q-40 0 -56.5 8t-16.5 41q0 17 3.5 27.5t11 15t18 5.5t24.5 1h23q16 0 16 11l-176 278l-236 -278l-4 -5q0 -6 19 -6h22q13 0 24 -1t18.5 -5.5t11 -14.5t3.5 -28q0 -33 -15.5 -41t-57.5 -8h-215q-42 0 -59 8t-17 41z" />
<glyph unicode="y" horiz-adv-x="1429" d="M33 1077q0 33 17 41t56 8h629q40 0 57 -8t17 -41q0 -17 -3.5 -27.5t-11.5 -15t-18.5 -5.5t-23.5 -1h-23q-11 0 -15 -3.5t-1 -8.5v2l211 -356l239 350v-2q3 6 -1 12t-15 6h-8q-20 0 -34.5 0.5t-24 5t-13.5 15t-4 28.5q0 33 17 41t59 8h188q43 0 59.5 -8.5t16.5 -40.5 q0 -17 -5 -27.5t-14.5 -15t-23.5 -5.5t-33 -1q-17 0 -28 -5.5t-19 -14.5q-79 -115 -159 -235t-158 -234v-389q0 -6 2 -15t5.5 -17t8.5 -14t12 -6h21q19 0 33.5 -1t23 -5.5t12.5 -14t4 -28.5q0 -33 -16.5 -41t-56.5 -8h-588q-42 0 -58 8t-16 41t16 41t58 8h20q8 0 14 6t9 14 t4.5 17t1.5 17v307l-330 553q-5 8 -15 12t-22 4q-18 0 -32 0.5t-23 5t-13.5 15t-4.5 28.5z" />
<glyph unicode="z" horiz-adv-x="1234" d="M49 41q0 9 5.5 22.5t15.5 28.5l528 936h-147q-52 0 -94 -23.5t-73 -56.5t-52 -67t-31 -56q-5 -11 -16.5 -19.5t-28.5 -8.5q-22 0 -36 10t-14 37l21 260q3 35 35 35q22 0 39.5 -2t36.5 -4q17 -2 35.5 -3.5t39.5 -1.5h828q22 0 32.5 -13t10.5 -32q0 -8 -2.5 -14t-7.5 -14 l-539 -957h153q44 0 87.5 19t81 49t67.5 65.5t47 69.5q6 14 17.5 26.5t31.5 12.5q25 0 37 -17t12 -34q0 -1 -0.5 -3t-2 -10.5t-4.5 -24t-9 -45.5t-16 -75t-23 -111q-9 -31 -41 -30q-17 0 -32 1t-29 3q-20 2 -48.5 4t-68.5 2h-813q-14 0 -23.5 13.5t-9.5 27.5z" />
<glyph unicode="{" horiz-adv-x="776" d="M53 561q0 26 14.5 37.5t36 15t45 3t41.5 1.5q17 18 26 49.5t9 67.5q0 41 -4.5 82t-9.5 82t-9.5 81.5t-4.5 80.5q0 97 40.5 169.5t108 120t155 70.5t181.5 23q24 0 36.5 -13.5t12.5 -33.5q0 -24 -11.5 -37.5t-33.5 -13.5h-14q-92 0 -155.5 -26t-103.5 -73t-57.5 -112.5 t-17.5 -145.5q0 -17 1.5 -40.5t3.5 -50t3.5 -51t1.5 -42.5q0 -46 -9.5 -86t-21 -72t-21 -54t-9.5 -32q1 -11 10.5 -33.5t21 -54t20.5 -70.5t9 -84q0 -18 -1.5 -42.5t-3.5 -50.5t-3.5 -50t-1.5 -41q0 -80 17.5 -145.5t57.5 -112.5t103.5 -72.5t155.5 -25.5h14q22 0 33.5 -14 t11.5 -37q0 -20 -12.5 -33.5t-36.5 -13.5q-94 0 -181.5 23t-155 70.5t-108 119.5t-40.5 169q0 40 4.5 80.5t9.5 81.5t9.5 82t4.5 82q0 36 -8.5 67t-26.5 50q-18 2 -41.5 1.5t-45 3t-36 14.5t-14.5 36z" />
<glyph unicode="|" horiz-adv-x="507" d="M213 -170v1513q0 43 7.5 60.5t41.5 17.5t41.5 -17.5t7.5 -60.5v-1513q0 -43 -7.5 -60.5t-41.5 -17.5t-41.5 17.5t-7.5 60.5z" />
<glyph unicode="}" horiz-adv-x="776" d="M45 -272q0 24 12 37.5t33 13.5h14q92 0 156 25.5t103.5 72.5t57 112.5t17.5 145.5q0 16 -1.5 40.5t-3.5 50.5t-3.5 50.5t-1.5 42.5q0 44 9 83.5t20.5 71t21 54t10.5 33.5q0 10 -9.5 32t-21 54t-21 72t-9.5 86q0 18 1.5 42.5t3.5 51t3.5 50t1.5 40.5q0 80 -17.5 145.5 t-57 112.5t-103 73t-156.5 26h-14q-22 0 -33.5 13.5t-11.5 37.5q0 20 13 33.5t36 13.5q93 0 180.5 -23t155.5 -70.5t109 -120t41 -169.5q0 -40 -5 -80.5t-10 -81.5t-9.5 -82t-4.5 -82q0 -36 8.5 -67t26.5 -50q18 -2 41.5 -1.5t45 -3t36 -15t14.5 -37.5t-14.5 -36.5t-36 -14 t-45 -3t-41.5 -1.5q-17 -18 -26 -49.5t-9 -67.5q0 -41 4.5 -82t9.5 -82t10 -81.5t5 -80.5q0 -97 -41 -169t-109 -119.5t-155.5 -70.5t-180.5 -23q-24 0 -36.5 13t-12.5 34z" />
<glyph unicode="~" horiz-adv-x="1028" d="M92 500q0 38 17 75t47 67.5t72.5 49.5t93.5 19q38 0 71 -12.5t63.5 -31.5t60 -40.5t59 -40.5t62 -31t69.5 -12q19 0 38.5 3t37 13t31 29t22.5 51q2 9 4.5 20t8 20t14.5 15t26 6q16 0 26 -6.5t15 -16.5t6.5 -23t1.5 -25q0 -38 -17 -75.5t-47 -67.5t-72.5 -49t-92.5 -19 q-39 0 -73 12t-64 31t-59.5 40.5t-59 40.5t-62 31.5t-67.5 12.5q-19 0 -39 -3t-37.5 -13.5t-31.5 -29.5t-21 -51q-2 -9 -5 -19.5t-8.5 -20t-14.5 -15.5t-26 -6q-16 0 -26 6.5t-15 17t-6.5 23t-1.5 25.5z" />
<glyph unicode="&#xa1;" horiz-adv-x="634" d="M61 -491q0 -74 30 -122.5t77 -77.5t102 -40.5t106 -11.5t107.5 11.5t103 40.5t77 77.5t30.5 122.5q0 36 -11.5 99t-28.5 140.5t-38.5 162.5t-42 162.5t-38.5 141.5t-27 98l-9 33q-8 31 -40.5 48.5t-82.5 17.5q-46 0 -79 -18t-41 -48l-23 -84q-13 -46 -30.5 -111 t-36.5 -137.5t-38 -148.5t-34 -144t-24 -123.5t-9 -88.5zM71 741q0 -68 29.5 -112.5t74 -72.5t98 -39t103.5 -11t105 11t99.5 39t74 73t29.5 112t-29.5 111t-74 71t-99 38.5t-105.5 11.5q-50 0 -103.5 -11.5t-98 -38.5t-74 -71t-29.5 -111z" />
<glyph unicode="&#xa2;" horiz-adv-x="1153" d="M78 469q0 127 45.5 214t118.5 142.5t164 83.5t182 37v305q0 43 7.5 60.5t41.5 17.5t41.5 -17.5t7.5 -60.5v-299h21q46 0 98 -5.5t104 -19.5t99.5 -37t83.5 -56.5t57.5 -79.5t21.5 -107q0 -50 -21.5 -83.5t-55 -53.5t-74 -28.5t-78.5 -8.5t-78.5 8.5t-74 28.5t-55 53.5 t-21.5 83.5q0 55 24.5 90.5t63.5 57.5q23 13 22 24q0 12 -24.5 22.5t-75.5 10.5t-80.5 -20.5t-44 -55.5t-19 -81.5t-4.5 -98.5v-154q0 -71 4 -133t20.5 -109t51 -74.5t94.5 -27.5q112 0 190.5 27t121.5 76q6 6 15.5 14t21.5 8q18 0 28.5 -6t10.5 -24q0 -8 -5.5 -16 t-11.5 -17q-28 -40 -71.5 -73.5t-98 -58t-117.5 -38t-129 -13.5h-14v-258q0 -43 -7.5 -60t-41.5 -17t-41.5 17t-7.5 60v265q-57 5 -116.5 18t-116.5 37t-107 61t-88 89t-60 121t-22 159z" />
<glyph unicode="&#xa3;" horiz-adv-x="1382" d="M16 45q0 8 14.5 45t37.5 107.5t50 178.5t54 261h-35q-43 0 -60.5 7.5t-17.5 41.5t17.5 41.5t60.5 7.5h51q11 73 20.5 155t18.5 175q6 65 32 115t67 88.5t94 64.5t113.5 43t125.5 24t129 7q118 0 203 -17t144.5 -45t96 -64.5t56.5 -74.5t26.5 -74.5t6.5 -66.5v-8 q0 -59 -23.5 -98.5t-59.5 -64t-79.5 -34.5t-83.5 -10q-49 0 -93.5 12t-78.5 37.5t-54 64t-20 93.5q0 52 19 89t50 60.5t69 35.5t75 15q-52 18 -96 19q-60 0 -102 -27t-69 -71.5t-43 -102t-25 -117.5t-14 -118.5t-11 -104.5h203q43 0 60.5 -7.5t17.5 -41.5t-17.5 -41.5 t-60.5 -7.5h-223q-22 -77 -57.5 -129t-79 -90t-93 -69t-99.5 -64.5t-98.5 -77.5t-89.5 -109q98 84 230 150q55 28 123 55t147.5 48t169.5 33.5t191 12.5q69 0 111.5 16.5t72 36t48.5 36t40 16.5q8 0 18.5 -2.5t19 -7.5t14 -11.5t5.5 -15.5q0 -8 -2 -12l-129 -406 q-9 -28 -19 -46.5t-28 -18.5q-5 0 -10.5 3t-13.5 6t-20 6t-32 3q-116 0 -244.5 -0.5t-260.5 -1.5t-261.5 -1.5t-246.5 -0.5q-30 0 -41 14t-11 35z" />
<glyph unicode="&#xa4;" horiz-adv-x="1372" d="M152 463q0 115 32 196.5t86 139.5l-77 78q-18 18 -28.5 31.5t-10.5 25.5q0 7 5.5 15.5t13 16.5t16.5 13.5t16 5.5q12 0 25.5 -10t31.5 -29l82 -84q76 49 161.5 69.5t164.5 20.5q83 0 170.5 -20t163.5 -68l86 84q18 17 30.5 28t24.5 11q7 0 15.5 -5.5t16.5 -13t13.5 -16.5 t5.5 -16q0 -12 -10 -25.5t-29 -31.5l-78 -78q54 -57 87.5 -139.5t33.5 -198.5q0 -115 -33 -197t-88 -139l78 -78q18 -18 28.5 -30.5t10.5 -24.5q0 -8 -5.5 -17t-14 -16.5t-17.5 -12.5t-16 -5q-2 0 -20 11t-41 28.5t-45.5 39.5t-32.5 44q-76 -49 -163.5 -69t-170.5 -20 q-79 0 -164.5 20t-161.5 69l-82 -84q-18 -18 -31.5 -28.5t-25.5 -10.5q-8 0 -17 5.5t-16.5 13t-12.5 16.5t-5 16q0 12 10 25.5t29 31.5l77 78q-54 55 -86 137t-32 197zM242 465q0 -78 19.5 -138t52 -104.5t76.5 -75t93 -49t100 -27t99 -8.5q44 0 93 8.5t97 27t91 49t75.5 75 t52 104.5t19.5 138t-19.5 138t-52 104.5t-75.5 75t-91 49t-97 26.5t-93 8q-48 0 -99 -8t-100 -26.5t-93 -49t-76.5 -75t-52 -104.5t-19.5 -138z" />
<glyph unicode="&#xa5;" horiz-adv-x="2080" d="M154 1333q0 33 18 41t61 8h785q43 0 61.5 -7.5t18.5 -41.5t-15 -41.5t-45 -7.5h-28q-24 0 -30.5 -9t1.5 -24l272 -463l312 457q8 12 -0.5 25.5t-32.5 13.5h-10q-22 0 -37.5 0.5t-24.5 5t-13.5 15t-4.5 28.5q0 34 18.5 41.5t61.5 7.5h237q44 0 62 -7.5t18 -41.5t-20 -41.5 t-60 -7.5q-28 0 -43 -7.5t-26 -23.5l-400 -587v-54h78q43 0 60.5 -7.5t17.5 -41.5t-17.5 -41.5t-60.5 -7.5h-78v-108h78q43 0 60.5 -8t17.5 -42t-17.5 -41.5t-60.5 -7.5h-78v-133q0 -10 3 -23t9.5 -24.5t15 -20t19.5 -8.5h27q22 0 37 -1t24.5 -5.5t14 -14.5t4.5 -28 q0 -34 -18.5 -41.5t-61.5 -7.5h-735q-43 0 -61.5 7.5t-18.5 41.5q0 33 18.5 41t61.5 8h26q14 0 23.5 8.5t14.5 20.5t7 25.5t2 23.5v131h-77q-43 0 -60.5 8t-17.5 41q0 34 17.5 42t60.5 8h77v108h-77q-43 0 -60.5 7.5t-17.5 41.5t17.5 41.5t60.5 7.5h47l-383 648 q-8 12 -24 18t-34 6q-20 0 -34.5 1t-24 5.5t-14 15t-4.5 27.5z" />
<glyph unicode="&#xa6;" horiz-adv-x="507" d="M193 -367v746q0 17 10.5 29t27.5 12h41q17 0 28 -12.5t11 -32.5v-742q0 -17 -12.5 -29t-28.5 -12h-41q-17 0 -26.5 11.5t-9.5 29.5zM193 678v745q0 17 10.5 29t27.5 12h41q17 0 28 -12t11 -33v-741q0 -17 -12.5 -29t-28.5 -12h-41q-17 0 -26.5 11t-9.5 30z" />
<glyph unicode="&#xa7;" horiz-adv-x="1028" d="M111 569q0 59 12 107t32 85.5t46.5 65.5t56.5 50q-37 37 -59.5 91t-22.5 115q0 69 32.5 126t86 98.5t122.5 64.5t144 23q59 0 113 -17.5t94.5 -48.5t64 -71t23.5 -87q0 -34 -19.5 -52.5t-43.5 -18.5q-36 0 -56 19.5t-35 51.5q0 23 -16.5 46t-43 41t-58 29t-62.5 11 q-46 0 -87.5 -15.5t-72 -42t-49 -60.5t-18.5 -72q0 -43 15.5 -78.5t41.5 -62.5q4 -6 20 -13t38 -13.5t47 -13t49 -14.5q91 -27 166.5 -69.5t129 -98t82.5 -121.5t29 -139q0 -54 -12.5 -97.5t-33 -79t-47 -62.5t-54.5 -47q45 -42 70.5 -96.5t25.5 -120.5q0 -72 -30.5 -132 t-83 -103t-120 -67t-141.5 -24q-59 0 -115 17.5t-99.5 47t-70 69t-26.5 83.5q0 25 15.5 46.5t48.5 21.5h11t11 -2q12 -4 24.5 -19.5t26.5 -36t31.5 -43t41.5 -42t54.5 -32t71.5 -12.5q42 0 82.5 12.5t71.5 37t50 61t19 84.5q0 45 -20 86t-56 65q-62 9 -126.5 28.5t-125.5 50 t-114.5 70t-94 88.5t-64 107t-23.5 125zM238 602q0 -51 21.5 -96.5t55 -85.5t75.5 -73t82.5 -57.5t74.5 -41t53 -21.5q36 4 68 24t57 49t39 63t14 69q0 30 -12.5 64t-46.5 73q-79 113 -157.5 177t-151.5 88q-36 -7 -67.5 -27t-54.5 -49.5t-36.5 -69t-13.5 -86.5z" />
<glyph unicode="&#xa8;" horiz-adv-x="856" d="M18 1395q0 47 18.5 78t46.5 49.5t61.5 26t64.5 7.5q32 0 65.5 -7.5t62 -26t46.5 -49.5t18 -78t-18 -78.5t-46.5 -50t-62 -26t-65.5 -7.5q-31 0 -64.5 7.5t-61.5 26t-46.5 50t-18.5 78.5zM455 1395q0 47 18.5 78t46 49.5t61 26t64.5 7.5q32 0 65.5 -7.5t62 -26t47 -49.5 t18.5 -78t-18.5 -78.5t-47 -50t-62 -26t-65.5 -7.5q-31 0 -64.5 7.5t-61 26t-46 50t-18.5 78.5z" />
<glyph unicode="&#xa9;" horiz-adv-x="1640" d="M76 674q0 104 26.5 201t74.5 180t115.5 151t150.5 116.5t178 74.5t198 26q105 0 201.5 -25.5t179.5 -73t150 -114.5t114.5 -150.5t74 -181t26.5 -204.5q0 -103 -25.5 -199t-72.5 -179t-113.5 -150.5t-149.5 -116t-180 -75t-205 -26.5q-163 0 -299.5 58t-235 159 t-153.5 237t-55 292zM193 674q0 -158 55 -279t144 -202.5t201 -123.5t226 -42q101 0 187 26t156 71t123 107t89.5 134t55 150.5t18.5 158.5q0 102 -25.5 189.5t-70.5 160t-106 127.5t-130.5 93t-145.5 57.5t-151 19.5q-86 0 -166.5 -22t-150 -63t-127 -99.5t-97.5 -130 t-62.5 -156t-22.5 -176.5zM420 678q0 69 25 139t73 126.5t118.5 93t160.5 36.5q29 0 58 -7t52 -16.5t39 -16.5t19 -7q4 0 9.5 4.5t12 11t15 11t18.5 4.5q24 0 34 -8t19 -25q10 -11 20.5 -35t18.5 -50.5t13 -48t5 -28.5q0 -41 -38 -41q-9 0 -24.5 3.5t-18.5 13.5 q-31 63 -91.5 102t-140.5 39q-61 0 -109.5 -25t-81 -66t-50 -92.5t-17.5 -103.5v-14q0 -54 23 -107t61.5 -95.5t89.5 -68.5t109 -26q39 0 73.5 9t64 24.5t53.5 35.5t42 42q5 6 12 9t13 3q8 0 15 -3.5t13 -8.5q12 -11 15.5 -18t3.5 -15t-4.5 -18t-20.5 -31q-55 -60 -130 -97 t-169 -37q-91 0 -165.5 31.5t-127.5 85t-81.5 127t-28.5 158.5z" />
<glyph unicode="&#xaa;" horiz-adv-x="1101" d="M31 913q0 62 30.5 101t78.5 61t108 31t119 14.5t110.5 11t83.5 19.5v76q0 23 -3 44t-11 38t-22 28t-36 11q-17 0 -36.5 -6t-36.5 -15q14 -9 25.5 -28.5t11.5 -49.5t-18 -49.5t-45.5 -32t-58.5 -17.5t-57 -5q-30 0 -61.5 5.5t-57.5 18t-43.5 32t-17.5 48.5q0 47 33 81 t93 56t142 33t183 11q49 0 98.5 -3.5t94 -12t83 -24.5t67 -42t44.5 -63t16 -87v-280q0 -30 1 -48.5t4.5 -29.5t11.5 -15t22 -4h14q34 0 49 -5.5t15 -33.5q0 -20 -26.5 -31t-64.5 -16.5t-80 -6.5t-73 -1q-33 0 -72 2.5t-74.5 13.5t-62 32.5t-32.5 60.5q-15 -24 -38 -44 t-55.5 -35t-77.5 -23.5t-106 -8.5q-25 0 -54.5 1t-59.5 6.5t-59 17.5t-51 33t-35 52.5t-13 77.5zM420 942q0 -30 3 -47t7.5 -26.5t10.5 -12t14 -2.5h18q13 0 29 6t29 19t21.5 32t8.5 45v119q-41 -14 -68 -20t-43.5 -17t-23 -32t-6.5 -64z" />
<glyph unicode="&#xab;" horiz-adv-x="1122" d="M49 459q0 9 3.5 14t8.5 16l379 365q6 8 13 10t16 2q7 0 16.5 -5t17.5 -12.5t13.5 -17t5.5 -18.5q0 -8 -3 -16.5t-9 -14.5l-289 -323l289 -328q5 -5 8.5 -13.5t3.5 -15.5q0 -8 -4.5 -17t-12 -17t-17 -13.5t-19.5 -5.5q-15 0 -31 12l-377 369q-12 12 -12 29zM567 459 q0 8 4.5 15t10.5 15q96 91 190 181.5t189 183.5q5 5 12.5 8.5t13.5 3.5q7 0 17 -5t18.5 -12.5t14 -17t5.5 -18.5q0 -8 -3 -16.5t-9 -14.5l-289 -323l289 -328q5 -5 8.5 -13.5t3.5 -15.5q0 -8 -4.5 -17t-12 -17t-18 -13.5t-20.5 -5.5q-17 0 -26 12l-379 369q-5 0 -10 10.5 t-5 18.5z" />
<glyph unicode="&#xac;" horiz-adv-x="1028" d="M86 623v39q0 20 12.5 31.5t30.5 11.5h758q18 0 30.5 -11.5t12.5 -31.5l-2 -338q0 -18 -11.5 -30.5t-31.5 -12.5h-39q-18 0 -28.5 12t-10.5 33v258h-676q-20 0 -32.5 10t-12.5 29z" />
<glyph unicode="&#xad;" horiz-adv-x="827" d="M57 455q0 34 17.5 41.5t60.5 7.5h545q43 0 60.5 -8t17.5 -41q0 -34 -17.5 -41.5t-60.5 -7.5h-545q-43 0 -60.5 7.5t-17.5 41.5z" />
<glyph unicode="&#xae;" horiz-adv-x="1640" d="M221 848q0 115 42 213.5t115.5 172t171 115.5t210.5 42q115 0 213 -41t170 -114t113.5 -172t41.5 -216q0 -113 -40 -211t-112 -171t-170.5 -115t-215.5 -42q-119 0 -218 42t-170 115t-111 171t-40 211zM305 848q0 -114 40 -201t104.5 -146.5t146 -89.5t164.5 -30 q109 0 193.5 40.5t142.5 106.5t88 150t30 170q0 112 -40.5 199t-106 146.5t-146 91.5t-161.5 32q-94 0 -177 -35.5t-144.5 -98.5t-97.5 -149t-36 -186zM492 545v10q5 18 14 21.5t39 3.5q11 0 13.5 4t2.5 18v490q0 31 -4.5 39t-15.5 8q-24 0 -33 3t-14 21v13q5 17 14 20.5 t33 3.5h219q50 0 90.5 -14t69 -38t44 -56t15.5 -70q0 -79 -37.5 -124t-114.5 -62q10 -12 23.5 -30.5t27.5 -38t27.5 -40.5t24.5 -39q4 -7 12 -20t18.5 -28t20.5 -29.5t18 -24.5q5 -2 15 -2h18q15 -5 24 -12t9 -21q0 -8 -2 -15.5t-14 -15.5q-5 -2 -17 -2h-26h-56 q-15 0 -28.5 14t-18.5 31q-18 25 -34 50.5t-33 52.5q-17 33 -39 67.5t-43 65.5q-8 9 -28.5 15.5t-47.5 6.5h-29v-217q0 -15 4 -19.5t11 -4.5h14q25 0 33.5 -3.5t13.5 -21.5v-10q-5 -18 -14 -22.5t-33 -4.5h-139q-25 0 -33.5 4t-13.5 23zM651 885h19q6 0 14 -1t16 -1 q47 0 82 10.5t58 29t35 42t12 49.5q0 36 -14.5 60t-39 38t-59 20.5t-74.5 6.5h-22q-11 0 -19 -2t-8 -9v-243z" />
<glyph unicode="&#xaf;" horiz-adv-x="727" d="M12 1499q0 23 9 38t22.5 24t30 12.5t30.5 3.5h521q15 0 31.5 -3.5t29.5 -12.5t22 -24t9 -38t-9 -37t-22 -22.5t-29.5 -12.5t-31.5 -4h-521q-14 0 -30.5 4t-30 12.5t-22.5 22.5t-9 37z" />
<glyph unicode="&#xb0;" horiz-adv-x="745" d="M68 1100q0 60 23 114t64 94t96.5 63.5t121.5 23.5q67 0 123 -22.5t96.5 -62.5t63 -94t22.5 -116q0 -60 -23 -114t-64 -94t-97 -63.5t-121 -23.5q-67 0 -123 22.5t-96.5 62.5t-63 94t-22.5 116zM176 1100q0 -42 16 -79t43 -64t63 -42.5t75 -15.5t74.5 15.5t63 42.5t43 64 t15.5 79t-15.5 78t-43 63t-63 42t-74.5 15t-75 -15t-63 -42t-43 -63t-16 -78z" />
<glyph unicode="&#xb1;" horiz-adv-x="827" d="M76 707q0 34 18.5 41.5t63.5 7.5h206v206q0 45 7.5 63t41.5 18t41.5 -18t7.5 -63v-206h206q45 0 63.5 -8t18.5 -41q0 -34 -18.5 -42t-63.5 -8h-206v-205q0 -45 -8 -63.5t-41 -18.5q-34 0 -41.5 18.5t-7.5 63.5v205h-206q-45 0 -63.5 8t-18.5 42zM84 137q0 34 18.5 41.5 t63.5 7.5h510q45 0 63.5 -7.5t18.5 -41.5t-18.5 -41.5t-63.5 -7.5h-510q-45 0 -63.5 7.5t-18.5 41.5z" />
<glyph unicode="&#xb2;" horiz-adv-x="1349" d="M6 676q0 57 24 102t63.5 81.5t90 65t104 53t104.5 47t90.5 45.5t64 48.5t24.5 57.5q0 45 -15.5 77t-44 52t-68.5 29t-87 9q-20 0 -38 -2t-33 -8q29 -2 58 -9.5t52.5 -23.5t38.5 -40.5t15 -59.5q0 -36 -16 -62t-42 -43t-60.5 -24.5t-72.5 -7.5q-30 0 -62.5 6.5t-60 22 t-45.5 42t-18 66.5v4q0 31 18 70.5t66.5 74.5t134 60t219.5 25q102 0 183 -17t137.5 -51.5t86 -86.5t29.5 -122q0 -53 -22.5 -87.5t-62.5 -57t-94 -36t-117 -26.5t-131.5 -27.5t-137.5 -37t-135 -57.5t-123 -89q74 45 168 80q40 15 89 29.5t105.5 26t120.5 18t133 6.5 q52 0 85.5 13t55 28t36.5 28t30 13q14 0 27.5 -7.5t13.5 -25.5q0 -4 -4 -12l-92 -256q-8 -18 -15.5 -31.5t-19.5 -13.5q-8 0 -19 6t-38 6q-175 0 -298 -0.5t-205 -0.5t-130 -1t-72.5 -1t-33 -0.5t-11.5 -0.5q-5 0 -12 1.5t-14 5.5t-12 10.5t-5 15.5z" />
<glyph unicode="&#xb3;" horiz-adv-x="966" d="M12 834q0 36 17.5 60t45 38t61 20t65.5 6q29 0 61 -6t59 -20t44.5 -38.5t17.5 -59.5q0 -20 -8 -38t-17.5 -31t-17.5 -22.5t-8 -13.5q0 -12 13.5 -16t29.5 -4q45 0 75.5 4.5t49 21t27 47t8.5 82.5q0 43 -12 70t-29 41.5t-37.5 22.5t-37.5 13.5t-28.5 13.5t-11.5 24 q0 11 11 15.5t27.5 7.5t36 7t36 15t27.5 30.5t11 53.5q0 47 -3.5 80.5t-17.5 54.5t-44 31t-82 10q-7 0 -18 -0.5t-21 -2t-17.5 -5.5t-7.5 -9q0 -10 23 -16q31 -12 55.5 -35t24.5 -65q0 -30 -14 -51t-37.5 -35t-54 -20.5t-64.5 -6.5q-28 0 -57.5 5.5t-54 18.5t-40.5 34.5 t-16 54.5v10q2 37 21 65t50 49t71 35.5t82.5 23t85 12t79.5 3.5q41 0 89.5 -5t97 -15.5t93 -27.5t79 -42t55 -58t20.5 -75q0 -35 -20.5 -57t-51.5 -35t-67 -20t-67 -12t-51.5 -9.5t-20.5 -13.5q0 -8 23 -14t57 -12t74 -15.5t74.5 -26t57.5 -43.5t23 -68q0 -50 -24.5 -91.5 t-80 -71t-146 -46t-222.5 -16.5q-221 0 -336 50t-115 139z" />
<glyph unicode="&#xb4;" horiz-adv-x="587" d="M55 1208q1 14 15 31q19 28 46.5 63.5t56 72.5t54 70t41.5 54q42 54 87.5 73t84.5 19q54 0 84.5 -27t30.5 -75q0 -25 -14.5 -55t-53.5 -64q-17 -15 -52 -35.5t-77.5 -41.5t-87.5 -42t-81.5 -37t-61 -26t-25.5 -10q-15 0 -31 6.5t-16 23.5z" />
<glyph unicode="&#xb5;" horiz-adv-x="1507" d="M23 -422q0 34 17 41.5t60 7.5h21q34 0 40.5 35.5t6.5 108.5v934q0 26 -1.5 45.5t-7 34.5t-16.5 25t-30 15q-24 6 -37 14.5t-19.5 17t-8 17t-1.5 15.5q0 12 13 20.5t34 10.5q139 7 238 14.5t162 13t93.5 9.5t33.5 4q25 0 31.5 -14t6.5 -44v-588q0 -74 16 -107.5t68 -33.5 q18 0 38.5 12t37 32t27 47.5t10.5 60.5v379q0 26 -1.5 45.5t-7 34.5t-16.5 25t-30 15q-24 6 -36.5 14.5t-19.5 17t-8.5 17t-1.5 15.5q0 12 13 20.5t34 10.5q142 10 241.5 18t162 12.5t92 7.5t31.5 3q25 0 32 -14t7 -44v-661q0 -73 6.5 -108.5t40.5 -35.5h20q43 0 60.5 -7.5 t17.5 -41.5q0 -27 -13.5 -35t-45.5 -14q-57 -11 -123.5 -15.5t-124.5 -4.5q-70 0 -124 7.5t-93.5 28t-64.5 56.5t-38 92q-8 -25 -19.5 -53t-30.5 -52.5t-46 -40.5t-63 -16q-23 0 -48 6v-237q0 -73 7 -108.5t41 -35.5h20q43 0 60.5 -7.5t17.5 -41.5t-17.5 -41.5t-60.5 -7.5 h-627q-43 0 -60 7.5t-17 41.5z" />
<glyph unicode="&#xb6;" horiz-adv-x="968" d="M25 989q0 115 44 191t117.5 121t170.5 63t202 18q31 0 96 1t168 1q43 0 60.5 -7.5t17.5 -41.5t-17.5 -41.5t-60.5 -7.5h-8v-1608q0 -43 -7.5 -60t-41.5 -17t-41.5 17t-7.5 60v1608h-107v-1608q0 -43 -7.5 -60t-41.5 -17t-41.5 17t-7.5 60v930q-40 3 -91.5 10.5t-106 22.5 t-106 41.5t-92.5 68t-66 99.5t-25 139z" />
<glyph unicode="&#xb7;" horiz-adv-x="391" d="M66 477q0 35 11.5 57.5t30 36.5t40 19.5t40.5 5.5q22 0 45 -5.5t41.5 -19.5t30.5 -36.5t12 -57.5q0 -34 -12 -56.5t-30.5 -35.5t-41.5 -19t-45 -6q-19 0 -40.5 6t-40 19t-30 35.5t-11.5 56.5z" />
<glyph unicode="&#xb8;" horiz-adv-x="542" d="M20 -377q0 20 18.5 31.5t43.5 11.5q19 0 33 -3t26 -7t22.5 -7t24.5 -3q25 0 47.5 13.5t22.5 35.5q0 26 -20.5 37.5t-45 19t-45 16.5t-20.5 29q0 6 8.5 29t21 53t26.5 61.5t24 55.5q0 2 1 3t1 3h102l-53 -133q15 5 38 9.5t48 4.5q33 0 64.5 -9t56 -26.5t40 -42.5t15.5 -57 q0 -42 -16.5 -79t-50 -64.5t-86.5 -43.5t-125 -16q-27 0 -65 2.5t-72.5 10.5t-59.5 23.5t-25 41.5z" />
<glyph unicode="&#xb9;" horiz-adv-x="673" d="M8 1202q0 8 10.5 18.5t24.5 18.5q90 53 170 93t140.5 67t97 41t41.5 14q14 0 22 -9.5t8 -25.5v-21.5t-0.5 -13.5t-0.5 -29.5t-0.5 -70.5t-0.5 -138v-231q0 -57 5 -84.5t32 -27.5h14q36 0 49 -5t13 -32q0 -25 -11.5 -32t-37.5 -7h-500q-34 0 -47.5 6t-13.5 33t13.5 32 t47.5 5h16q25 0 31 23t6 69v135q0 70 -4.5 108t-26.5 38q-3 0 -7 -1t-7 -1l-14 -7q-8 -3 -18 -6.5t-19 -3.5q-17 0 -25 15t-8 30z" />
<glyph unicode="&#xba;" horiz-adv-x="817" d="M49 891q0 75 31 138.5t81.5 109.5t115.5 72t135 26q85 0 151 -28.5t111 -76.5t68.5 -109.5t23.5 -127.5q0 -76 -27.5 -140.5t-77 -111.5t-116 -73.5t-144.5 -26.5q-69 0 -132 24.5t-112 69.5t-78.5 109.5t-29.5 144.5zM188 877q4 -63 25 -108.5t52 -74.5t68 -43t73 -14 q50 0 90.5 19t69.5 51.5t45 76t16 93.5q0 61 -18 110t-48.5 84t-69.5 53.5t-81 18.5q-62 0 -104.5 -25t-68.5 -64t-37.5 -86t-11.5 -91z" />
<glyph unicode="&#xbb;" horiz-adv-x="1122" d="M80 102q0 16 12 29l289 328l-289 323q-8 6 -10 14.5t-2 16.5q0 14 12 27l14 16q10 10 27 10t29 -14q96 -91 190 -181t189 -184q6 0 10 -11t4 -17q0 -14 -10 -25l-6 -6l-377 -367q-3 0 -12 -6t-17 -6q-16 0 -29 12l-12 13q-12 12 -12 28zM600 102q0 16 12 29l289 328 l-289 323q-8 6 -10 14.5t-2 16.5q0 14 12 27l15 16q13 10 26 10q16 0 31 -14q94 -91 188.5 -181t188.5 -184q6 0 10 -11t4 -17q0 -14 -10 -25l-6 -6l-377 -367q-6 -8 -13 -10t-16 -2q-14 0 -26 12l-15 13q-12 12 -12 28z" />
<glyph unicode="&#xbd;" horiz-adv-x="2023" d="M49 1154q0 8 10.5 18.5t24.5 18.5q90 53 170 93t140.5 67t97 41t41.5 14q14 0 22 -9.5t8 -25.5v-21.5t-0.5 -13.5t-0.5 -29.5t-0.5 -70.5t-0.5 -138v-231q0 -57 5 -84.5t32 -27.5h14q36 0 49 -5t13 -32q0 -25 -11.5 -32t-37.5 -7h-500q-34 0 -47.5 6t-13.5 33t13.5 32 t47.5 5h16q25 0 31 23t6 69v135q0 70 -4.5 108t-26.5 38q-3 0 -7 -1t-7 -1l-14 -7q-8 -3 -18 -6.5t-19 -3.5q-17 0 -25 15t-8 30zM184 -139q0 3 0.5 7t3.5 9l1082 1649q8 12 21 24.5t38 12.5h201q9 0 19.5 -2.5t20 -8t15.5 -14t6 -20.5q0 -4 -4 -13l-1075 -1640 q-9 -15 -27 -31t-45 -16h-201q-8 0 -17.5 2t-18 7t-14 13t-5.5 21zM987 30q0 57 24 102t63.5 81.5t90 65t104 53t104.5 47t90.5 45.5t64 48.5t24.5 57.5q0 45 -15.5 77t-44 52t-68.5 29t-87 9q-20 0 -38 -2t-33 -8q29 -2 58 -9.5t52.5 -23.5t38.5 -40.5t15 -59.5 q0 -36 -16 -62t-42 -43t-60.5 -24.5t-72.5 -7.5q-30 0 -62.5 6.5t-60 22t-45.5 42t-18 66.5v4q0 31 18 70.5t66.5 74.5t134 60t219.5 25q102 0 183 -17t137.5 -51.5t86 -86.5t29.5 -122q0 -53 -22.5 -87.5t-62.5 -57t-94 -36t-117 -26.5t-131.5 -27.5t-137.5 -37t-135 -57.5 t-123 -89q74 45 168 80q40 15 89 29.5t105.5 26t120.5 18t133 6.5q52 0 85.5 13t55 28t36.5 28t30 13q14 0 27.5 -7.5t13.5 -25.5q0 -4 -4 -12l-92 -256q-8 -18 -15.5 -31.5t-19.5 -13.5q-8 0 -19 6t-38 6q-175 0 -298 -0.5t-205 -0.5t-130 -1t-72.5 -1t-33 -0.5t-11.5 -0.5 q-5 0 -12 1.5t-14 5.5t-12 10.5t-5 15.5z" />
<glyph unicode="&#xbf;" horiz-adv-x="953" d="M-197 -223q0 85 31 146.5t82 106.5t114 78t125 62q40 18 78 36.5t70.5 38.5t59.5 44t44 53v2q17 30 46 49t77 19q65 0 98 -31t33 -100q0 -33 -10.5 -61t-28 -54t-40.5 -49.5t-48 -46.5q-29 -29 -58 -58.5t-52 -65t-37.5 -77t-14.5 -92.5q0 -84 25.5 -155.5t72 -123.5 t111 -81t141.5 -29q33 0 62.5 5.5t58.5 16.5l-4 19q-44 3 -89 16.5t-80.5 41.5t-58 70t-22.5 101q0 62 23.5 107t63 74t91 43t107.5 14q47 0 97 -12t91.5 -40t69 -75.5t27.5 -120.5q0 -34 -12 -77t-40.5 -87.5t-77.5 -86.5t-124.5 -75.5t-180 -53.5t-243.5 -20 q-159 0 -285 36t-213.5 104t-133.5 166.5t-46 222.5zM200 741q0 67 29.5 111t74 71t98 38.5t103.5 11.5q51 0 105.5 -11.5t99 -38.5t74 -71t29.5 -111q0 -68 -29.5 -112.5t-74 -72.5t-98.5 -39t-106 -11q-50 0 -103.5 11t-98 39t-74 73t-29.5 112z" />
<glyph unicode="&#xc0;" horiz-adv-x="2142" d="M55 49q0 16 5.5 26.5t18 15t34.5 6t57 1.5q13 0 25 8.5t21 21t17 29t15 33.5l454 1176q0 4 -0.5 11.5t-4 15.5t-11.5 13t-24 5q-27 0 -52.5 6.5t-34.5 18.5q-9 9 -5.5 27t10.5 30q9 6 18.5 8t30.5 2q43 0 99.5 15t118.5 38.5t124.5 52.5t115.5 56.5t92.5 50t55.5 33.5 q19 12 33.5 10.5t27.5 -16t25.5 -43.5t28.5 -70q0 -6 2 -8q0 -4 4 -8q51 -140 101.5 -286t98.5 -284q42 -120 84 -238.5t83.5 -231.5t81.5 -218t79 -196q15 -37 46.5 -49t68.5 -13h31q30 -3 44.5 -12.5t14.5 -36.5q0 -34 -19 -41.5t-65 -7.5h-907q-45 0 -63.5 7.5 t-18.5 41.5q0 30 12.5 38t48.5 11h35q15 2 26 8t11 23q0 9 -1 11t-3 7v-4l-4 13l-152 444h-467q-36 -97 -74.5 -201.5t-74.5 -203.5q-5 -11 -8 -24.5t-3 -23.5q0 -24 16.5 -36.5t61.5 -12.5q43 0 62.5 -7.5t19.5 -41.5t-18.5 -41.5t-63.5 -7.5h-303q-45 0 -63.5 7.5 t-18.5 41.5zM399 1942q0 48 31.5 75t85.5 27q18 0 39.5 -4t44.5 -15t45.5 -28.5t42.5 -44.5q16 -22 42 -54.5t54 -69.5t55.5 -72.5t47.5 -63.5q12 -18 12 -31q0 -17 -15 -24t-32 -7t-27 7q-41 25 -89 47.5t-95 45t-90.5 46t-77.5 49.5t-54 54.5t-20 62.5zM563 702h391 l-188 519z" />
<glyph unicode="&#xc1;" horiz-adv-x="2142" d="M55 49q0 16 5.5 26.5t18 15t34.5 6t57 1.5q13 0 25 8.5t21 21t17 29t15 33.5l454 1176q0 4 -0.5 11.5t-4 15.5t-11.5 13t-24 5q-27 0 -52.5 6.5t-34.5 18.5q-9 9 -5.5 27t10.5 30q9 6 18.5 8t30.5 2q43 0 99.5 15t118.5 38.5t124.5 52.5t115.5 56.5t92.5 50t55.5 33.5 q19 12 33.5 10.5t27.5 -16t25.5 -43.5t28.5 -70q0 -6 2 -8q0 -4 4 -8q51 -140 101.5 -286t98.5 -284q42 -120 84 -238.5t83.5 -231.5t81.5 -218t79 -196q15 -37 46.5 -49t68.5 -13h31q30 -3 44.5 -12.5t14.5 -36.5q0 -34 -19 -41.5t-65 -7.5h-907q-45 0 -63.5 7.5 t-18.5 41.5q0 30 12.5 38t48.5 11h35q15 2 26 8t11 23q0 9 -1 11t-3 7v-4l-4 13l-152 444h-467q-36 -97 -74.5 -201.5t-74.5 -203.5q-5 -11 -8 -24.5t-3 -23.5q0 -24 16.5 -36.5t61.5 -12.5q43 0 62.5 -7.5t19.5 -41.5t-18.5 -41.5t-63.5 -7.5h-303q-45 0 -63.5 7.5 t-18.5 41.5zM563 702h391l-188 519zM798 1679q1 14 15 31q19 28 46.5 63.5t56 72.5t54 70t41.5 54q42 54 87.5 73t84.5 19q54 0 84.5 -27t30.5 -75q0 -25 -14.5 -55t-53.5 -64q-17 -15 -52 -35.5t-77.5 -41.5t-87.5 -42t-81.5 -37t-61 -26t-25.5 -10q-15 0 -31 6.5t-16 23.5 z" />
<glyph unicode="&#xc2;" horiz-adv-x="2142" d="M55 49q0 16 5.5 26.5t18 15t34.5 6t57 1.5q13 0 25 8.5t21 21t17 29t15 33.5l454 1176q0 4 -0.5 11.5t-4 15.5t-11.5 13t-24 5q-27 0 -52.5 6.5t-34.5 18.5q-9 9 -5.5 27t10.5 30q9 6 18.5 8t30.5 2q43 0 99.5 15t118.5 38.5t124.5 52.5t115.5 56.5t92.5 50t55.5 33.5 q19 12 33.5 10.5t27.5 -16t25.5 -43.5t28.5 -70q0 -6 2 -8q0 -4 4 -8q51 -140 101.5 -286t98.5 -284q42 -120 84 -238.5t83.5 -231.5t81.5 -218t79 -196q15 -37 46.5 -49t68.5 -13h31q30 -3 44.5 -12.5t14.5 -36.5q0 -34 -19 -41.5t-65 -7.5h-907q-45 0 -63.5 7.5 t-18.5 41.5q0 30 12.5 38t48.5 11h35q15 2 26 8t11 23q0 9 -1 11t-3 7v-4l-4 13l-152 444h-467q-36 -97 -74.5 -201.5t-74.5 -203.5q-5 -11 -8 -24.5t-3 -23.5q0 -24 16.5 -36.5t61.5 -12.5q43 0 62.5 -7.5t19.5 -41.5t-18.5 -41.5t-63.5 -7.5h-303q-45 0 -63.5 7.5 t-18.5 41.5zM508 1667q0 6 2 15t11 18q4 4 18.5 20t35.5 39t48 50.5t54.5 57t54.5 57t51 51.5q14 14 37 21t41 7q17 0 37.5 -5t35.5 -19q24 -23 51.5 -51t55.5 -57t54 -58t47.5 -52.5t35.5 -40t19 -20.5q8 -9 10 -17.5t2 -15.5q0 -20 -16.5 -30.5t-41.5 -10.5 q-12 0 -39.5 14t-66 38t-85.5 55.5t-99 67.5q-56 -36 -105 -68t-87.5 -55.5t-65 -37.5t-37.5 -14q-25 0 -41.5 10.5t-16.5 30.5zM563 702h391l-188 519z" />
<glyph unicode="&#xc3;" horiz-adv-x="2142" d="M55 49q0 16 5.5 26.5t18 15t34.5 6t57 1.5q13 0 25 8.5t21 21t17 29t15 33.5l454 1176q0 4 -0.5 11.5t-4 15.5t-11.5 13t-24 5q-27 0 -52.5 6.5t-34.5 18.5q-9 9 -5.5 27t10.5 30q9 6 18.5 8t30.5 2q43 0 99.5 15t118.5 38.5t124.5 52.5t115.5 56.5t92.5 50t55.5 33.5 q19 12 33.5 10.5t27.5 -16t25.5 -43.5t28.5 -70q0 -6 2 -8q0 -4 4 -8q51 -140 101.5 -286t98.5 -284q42 -120 84 -238.5t83.5 -231.5t81.5 -218t79 -196q15 -37 46.5 -49t68.5 -13h31q30 -3 44.5 -12.5t14.5 -36.5q0 -34 -19 -41.5t-65 -7.5h-907q-45 0 -63.5 7.5 t-18.5 41.5q0 30 12.5 38t48.5 11h35q15 2 26 8t11 23q0 9 -1 11t-3 7v-4l-4 13l-152 444h-467q-36 -97 -74.5 -201.5t-74.5 -203.5q-5 -11 -8 -24.5t-3 -23.5q0 -24 16.5 -36.5t61.5 -12.5q43 0 62.5 -7.5t19.5 -41.5t-18.5 -41.5t-63.5 -7.5h-303q-45 0 -63.5 7.5 t-18.5 41.5zM516 1776q0 27 14.5 69t41 81.5t63 68.5t81.5 29q46 0 87.5 -11.5t79.5 -24.5t72.5 -24.5t66.5 -11.5q25 0 44.5 11t35 23t27 23t20.5 11q15 0 31 -8.5t16 -22.5q0 -27 -15 -69t-41 -81.5t-63.5 -68.5t-81.5 -29q-41 0 -78.5 11t-74.5 24t-74 24t-78 11 q-25 0 -45 -10.5t-35 -22.5t-27 -22.5t-20 -10.5q-15 0 -31 8.5t-16 22.5zM563 702h391l-188 519z" />
<glyph unicode="&#xc4;" horiz-adv-x="2142" d="M55 49q0 16 5.5 26.5t18 15t34.5 6t57 1.5q13 0 25 8.5t21 21t17 29t15 33.5l454 1176q0 4 -0.5 11.5t-4 15.5t-11.5 13t-24 5q-27 0 -52.5 6.5t-34.5 18.5q-9 9 -5.5 27t10.5 30q9 6 18.5 8t30.5 2q43 0 99.5 15t118.5 38.5t124.5 52.5t115.5 56.5t92.5 50t55.5 33.5 q19 12 33.5 10.5t27.5 -16t25.5 -43.5t28.5 -70q0 -6 2 -8q0 -4 4 -8q51 -140 101.5 -286t98.5 -284q42 -120 84 -238.5t83.5 -231.5t81.5 -218t79 -196q15 -37 46.5 -49t68.5 -13h31q30 -3 44.5 -12.5t14.5 -36.5q0 -34 -19 -41.5t-65 -7.5h-907q-45 0 -63.5 7.5 t-18.5 41.5q0 30 12.5 38t48.5 11h35q15 2 26 8t11 23q0 9 -1 11t-3 7v-4l-4 13l-152 444h-467q-36 -97 -74.5 -201.5t-74.5 -203.5q-5 -11 -8 -24.5t-3 -23.5q0 -24 16.5 -36.5t61.5 -12.5q43 0 62.5 -7.5t19.5 -41.5t-18.5 -41.5t-63.5 -7.5h-303q-45 0 -63.5 7.5 t-18.5 41.5zM561 1960q0 47 18.5 78t46.5 49.5t61.5 26t64.5 7.5q32 0 65.5 -7.5t62 -26t46.5 -49.5t18 -78t-18 -78.5t-46.5 -50t-62 -26t-65.5 -7.5q-31 0 -64.5 7.5t-61.5 26t-46.5 50t-18.5 78.5zM563 702h391l-188 519zM998 1960q0 47 18.5 78t46 49.5t61 26t64.5 7.5 q32 0 65.5 -7.5t62 -26t47 -49.5t18.5 -78t-18.5 -78.5t-47 -50t-62 -26t-65.5 -7.5q-31 0 -64.5 7.5t-61 26t-46 50t-18.5 78.5z" />
<glyph unicode="&#xc5;" horiz-adv-x="2142" d="M55 49q0 16 5.5 26.5t18 15t34.5 6t57 1.5q13 0 25 8.5t21 21t17 29t15 33.5l454 1176q0 4 -0.5 11.5t-4 15.5t-11.5 13t-24 5q-27 0 -52.5 6.5t-34.5 18.5q-9 9 -5.5 27t10.5 30q9 6 18.5 8t30.5 2q43 0 99.5 15t118.5 38.5t124.5 52.5t115.5 56.5t92.5 50t55.5 33.5 q19 12 33.5 10.5t27.5 -16t25.5 -43.5t28.5 -70q0 -6 2 -8q0 -4 4 -8q51 -140 101.5 -286t98.5 -284q42 -120 84 -238.5t83.5 -231.5t81.5 -218t79 -196q15 -37 46.5 -49t68.5 -13h31q30 -3 44.5 -12.5t14.5 -36.5q0 -34 -19 -41.5t-65 -7.5h-907q-45 0 -63.5 7.5 t-18.5 41.5q0 30 12.5 38t48.5 11h35q15 2 26 8t11 23q0 9 -1 11t-3 7v-4l-4 13l-152 444h-467q-36 -97 -74.5 -201.5t-74.5 -203.5q-5 -11 -8 -24.5t-3 -23.5q0 -24 16.5 -36.5t61.5 -12.5q43 0 62.5 -7.5t19.5 -41.5t-18.5 -41.5t-63.5 -7.5h-303q-45 0 -63.5 7.5 t-18.5 41.5zM563 702h391l-188 519zM641 1827q0 56 19.5 93t49.5 59t65.5 31t68.5 9q35 0 71.5 -9t67.5 -31t50.5 -59t19.5 -93q0 -55 -19.5 -92t-50.5 -58.5t-67.5 -31t-71.5 -9.5q-33 0 -68.5 9.5t-65.5 31t-49.5 58.5t-19.5 92zM809 1827q0 -46 4.5 -69t32.5 -23t32.5 23 t4.5 69t-5 69t-32 23q-28 0 -32.5 -23t-4.5 -69z" />
<glyph unicode="&#xc6;" horiz-adv-x="2621" d="M49 49q0 33 20.5 41t65.5 8h33q13 0 26.5 8.5t25.5 20.5t23.5 27.5t20.5 29.5l672 1141l10 23v-2q12 20 18.5 36.5t6.5 36.5q0 32 -12.5 44t-24.5 18q-9 3 -16 9.5t-7 25.5q0 12 2.5 21t12 15.5t28 10t50.5 4.5l1222 73l88 9q34 3 68 6.5t74 3.5q9 0 16.5 -6.5t9.5 -24.5 q6 -97 14.5 -193.5t14.5 -193.5q2 -25 -12.5 -36t-32.5 -11q-20 0 -31 8.5t-16 20.5h2q-10 22 -27.5 54t-42.5 67.5t-58 71t-74 62.5t-91 42.5t-109 11.5l-235 -16v-631h67q53 0 96 18t73.5 43t48 52.5t22.5 48.5q10 38 17 61.5t14 37t15.5 18.5t23.5 5q28 0 34.5 -20.5 t6.5 -65.5v-495q0 -46 -7 -66t-34 -20q-19 0 -30.5 6.5t-18.5 19.5t-10.5 31t-6.5 41v-2l-4 29q-2 19 -20 47t-48.5 53.5t-74 43t-97.5 17.5h-67v-503q0 -63 10 -101t33 -56.5t61 -24t92 -5.5h60q69 0 136 30.5t124.5 76.5t102.5 102.5t71 108.5q8 17 19.5 30t29.5 13 q27 0 38 -17t11 -34q0 -1 -0.5 -3.5t-2.5 -14t-7 -35.5t-14.5 -67.5t-24 -110.5t-35.5 -165q-3 -27 -32 -26q-27 0 -50 2t-45 4q-30 3 -71 5.5t-103 2.5h-1179q-46 0 -65 7.5t-19 41.5t19 41.5t65 7.5h24q24 0 37.5 11.5t20.5 34t8.5 56.5t1.5 81v309h-484l-231 -395 q-9 -14 -12.5 -29t-3.5 -25q0 -14 6 -22t16.5 -13t25 -6t29.5 -2q14 -1 29 -2.5t27 -6t19 -14t7 -26.5q0 -34 -19.5 -41.5t-68.5 -7.5h-317q-43 0 -58.5 7.5t-15.5 41.5zM674 690h428v725z" />
<glyph unicode="&#xc7;" horiz-adv-x="1724" d="M57 821q0 161 39.5 286t106.5 218.5t157 157.5t189.5 104t204 58t202.5 18q46 0 88 -5t79.5 -13t70.5 -17.5t61 -17.5h-2q34 -11 59.5 -18t49.5 -7q25 0 54.5 8t60.5 19q33 11 66 20.5t56 9.5q25 0 37.5 -14.5t12.5 -32.5q0 -22 1.5 -60.5t4.5 -78.5q3 -52 5.5 -106 t2.5 -97q0 -28 -10.5 -48.5t-40.5 -20.5q-14 0 -26 4.5t-17 13.5q-16 27 -44.5 65t-67.5 77.5t-89.5 79t-112.5 71t-137 51t-162 19.5q-48 0 -79 -23.5t-49 -72t-24.5 -122.5t-6.5 -176v-804q0 -131 63 -197t184 -66h21q81 2 161 25t152 58.5t133.5 81t106.5 93.5 q12 12 23 21.5t20 9.5q12 0 22.5 -6t10.5 -20q0 -2 -2 -5q-3 -14 -19.5 -45t-50.5 -73v2q-79 -77 -171 -134.5t-198 -91.5h2q-61 -18 -133 -31t-155 -16q-193 0 -359.5 53.5t-288.5 159.5t-192 265t-70 370zM598 -377q0 20 18.5 31.5t43.5 11.5q19 0 33 -3t26 -7t22.5 -7 t24.5 -3q25 0 47.5 13.5t22.5 35.5q0 26 -20.5 37.5t-45 19t-45 16.5t-20.5 29q0 6 8.5 29t21 53t26.5 61.5t24 55.5q0 2 1 3t1 3h102l-53 -133q15 5 38 9.5t48 4.5q33 0 64.5 -9t56 -26.5t40 -42.5t15.5 -57q0 -42 -16.5 -79t-50 -64.5t-86.5 -43.5t-125 -16q-27 0 -65 2.5 t-72.5 10.5t-59.5 23.5t-25 41.5zM981 -27l68 131h16q81 3 154.5 25t136 57.5t113 85t85.5 107.5q20 37 43 51t41 14q13 0 24.5 -7t19.5 -19t11.5 -27t0.5 -31q-6 -22 -23.5 -52t-48.5 -64q-24 -28 -57.5 -58.5t-78.5 -60.5t-103 -57t-130 -48q-67 -22 -134.5 -33.5 t-137.5 -13.5z" />
<glyph unicode="&#xc8;" horiz-adv-x="1742" d="M55 49q0 34 18.5 41.5t63.5 7.5h25q25 0 38.5 11.5t19.5 34t7.5 56.5t1.5 81v1105q0 76 -12 115t-55 39h-25q-45 0 -63.5 7.5t-18.5 41.5t18.5 41.5t63.5 7.5l1219 2h39q37 5 60.5 12t43.5 15q22 8 43 13.5t45 5.5q14 0 22 -7.5t13 -19.5v2l51 -522q2 -17 -8 -34.5 t-29 -23.5q-6 0 -7.5 -1t-4.5 -1q-20 0 -31.5 13t-19.5 30q-16 34 -42 77.5t-58.5 88.5t-71.5 89t-81.5 79t-88 57.5t-90.5 26.5h-228v-655h68q53 0 96 18t74 43t49 52.5t23 48.5q9 38 15.5 61.5t13 37t15.5 18.5t23 5q28 0 34.5 -20.5t6.5 -65.5v-495q0 -46 -6.5 -66 t-34.5 -20q-18 0 -29.5 6t-17.5 18.5t-9.5 29.5t-6.5 40v-2l-4 33q-3 19 -21 47t-49.5 53.5t-75 43t-96.5 17.5h-68v-503q0 -60 9.5 -96.5t31 -56.5t55.5 -27t85 -7h34q47 0 99 27t103 70t99.5 96.5t89 108.5t71 104.5t46.5 85.5q8 17 19.5 30t30.5 13q2 0 3 -1t3 -1 q24 -5 33.5 -23.5t9.5 -34.5l-113 -593q-5 -9 -14 -18t-21 -9q-25 0 -44.5 5t-41.5 13q-14 4 -30.5 9.5t-36.5 10t-45.5 7t-59.5 2.5h-1192q-45 0 -63.5 7.5t-18.5 41.5zM313 1946q0 48 31.5 75t85.5 27q18 0 39.5 -4t44.5 -15t45.5 -28.5t42.5 -44.5q16 -22 42 -54.5 t54 -69.5t55.5 -72.5t47.5 -63.5q12 -18 12 -31q0 -17 -15 -24t-32 -7t-27 7q-41 25 -89 47.5t-95 45t-90.5 46t-77.5 49.5t-54 54.5t-20 62.5z" />
<glyph unicode="&#xc9;" horiz-adv-x="1742" d="M55 49q0 34 18.5 41.5t63.5 7.5h25q25 0 38.5 11.5t19.5 34t7.5 56.5t1.5 81v1105q0 76 -12 115t-55 39h-25q-45 0 -63.5 7.5t-18.5 41.5t18.5 41.5t63.5 7.5l1219 2h39q37 5 60.5 12t43.5 15q22 8 43 13.5t45 5.5q14 0 22 -7.5t13 -19.5v2l51 -522q2 -17 -8 -34.5 t-29 -23.5q-6 0 -7.5 -1t-4.5 -1q-20 0 -31.5 13t-19.5 30q-16 34 -42 77.5t-58.5 88.5t-71.5 89t-81.5 79t-88 57.5t-90.5 26.5h-228v-655h68q53 0 96 18t74 43t49 52.5t23 48.5q9 38 15.5 61.5t13 37t15.5 18.5t23 5q28 0 34.5 -20.5t6.5 -65.5v-495q0 -46 -6.5 -66 t-34.5 -20q-18 0 -29.5 6t-17.5 18.5t-9.5 29.5t-6.5 40v-2l-4 33q-3 19 -21 47t-49.5 53.5t-75 43t-96.5 17.5h-68v-503q0 -60 9.5 -96.5t31 -56.5t55.5 -27t85 -7h34q47 0 99 27t103 70t99.5 96.5t89 108.5t71 104.5t46.5 85.5q8 17 19.5 30t30.5 13q2 0 3 -1t3 -1 q24 -5 33.5 -23.5t9.5 -34.5l-113 -593q-5 -9 -14 -18t-21 -9q-25 0 -44.5 5t-41.5 13q-14 4 -30.5 9.5t-36.5 10t-45.5 7t-59.5 2.5h-1192q-45 0 -63.5 7.5t-18.5 41.5zM612 1671q1 14 15 31q19 28 46.5 63.5t56 72.5t54 70t41.5 54q42 54 87.5 73t84.5 19q54 0 84.5 -27 t30.5 -75q0 -25 -14.5 -55t-53.5 -64q-17 -15 -52 -35.5t-77.5 -41.5t-87.5 -42t-81.5 -37t-61 -26t-25.5 -10q-15 0 -31 6.5t-16 23.5z" />
<glyph unicode="&#xca;" horiz-adv-x="1742" d="M55 49q0 34 18.5 41.5t63.5 7.5h25q25 0 38.5 11.5t19.5 34t7.5 56.5t1.5 81v1105q0 76 -12 115t-55 39h-25q-45 0 -63.5 7.5t-18.5 41.5t18.5 41.5t63.5 7.5l1219 2h39q37 5 60.5 12t43.5 15q22 8 43 13.5t45 5.5q14 0 22 -7.5t13 -19.5v2l51 -522q2 -17 -8 -34.5 t-29 -23.5q-6 0 -7.5 -1t-4.5 -1q-20 0 -31.5 13t-19.5 30q-16 34 -42 77.5t-58.5 88.5t-71.5 89t-81.5 79t-88 57.5t-90.5 26.5h-228v-655h68q53 0 96 18t74 43t49 52.5t23 48.5q9 38 15.5 61.5t13 37t15.5 18.5t23 5q28 0 34.5 -20.5t6.5 -65.5v-495q0 -46 -6.5 -66 t-34.5 -20q-18 0 -29.5 6t-17.5 18.5t-9.5 29.5t-6.5 40v-2l-4 33q-3 19 -21 47t-49.5 53.5t-75 43t-96.5 17.5h-68v-503q0 -60 9.5 -96.5t31 -56.5t55.5 -27t85 -7h34q47 0 99 27t103 70t99.5 96.5t89 108.5t71 104.5t46.5 85.5q8 17 19.5 30t30.5 13q2 0 3 -1t3 -1 q24 -5 33.5 -23.5t9.5 -34.5l-113 -593q-5 -9 -14 -18t-21 -9q-25 0 -44.5 5t-41.5 13q-14 4 -30.5 9.5t-36.5 10t-45.5 7t-59.5 2.5h-1192q-45 0 -63.5 7.5t-18.5 41.5zM370 1656q0 6 2 15t11 18q4 4 18.5 20t35.5 39t48 50.5t54.5 57t54.5 57t51 51.5q14 14 37 21t41 7 q17 0 37.5 -5t35.5 -19q24 -23 51.5 -51t55.5 -57t54 -58t47.5 -52.5t35.5 -40t19 -20.5q8 -9 10 -17.5t2 -15.5q0 -20 -16.5 -30.5t-41.5 -10.5q-12 0 -39.5 14t-66 38t-85.5 55.5t-99 67.5q-56 -36 -105 -68t-87.5 -55.5t-65 -37.5t-37.5 -14q-25 0 -41.5 10.5t-16.5 30.5 z" />
<glyph unicode="&#xcb;" horiz-adv-x="1742" d="M55 49q0 34 18.5 41.5t63.5 7.5h25q25 0 38.5 11.5t19.5 34t7.5 56.5t1.5 81v1105q0 76 -12 115t-55 39h-25q-45 0 -63.5 7.5t-18.5 41.5t18.5 41.5t63.5 7.5l1219 2h39q37 5 60.5 12t43.5 15q22 8 43 13.5t45 5.5q14 0 22 -7.5t13 -19.5v2l51 -522q2 -17 -8 -34.5 t-29 -23.5q-6 0 -7.5 -1t-4.5 -1q-20 0 -31.5 13t-19.5 30q-16 34 -42 77.5t-58.5 88.5t-71.5 89t-81.5 79t-88 57.5t-90.5 26.5h-228v-655h68q53 0 96 18t74 43t49 52.5t23 48.5q9 38 15.5 61.5t13 37t15.5 18.5t23 5q28 0 34.5 -20.5t6.5 -65.5v-495q0 -46 -6.5 -66 t-34.5 -20q-18 0 -29.5 6t-17.5 18.5t-9.5 29.5t-6.5 40v-2l-4 33q-3 19 -21 47t-49.5 53.5t-75 43t-96.5 17.5h-68v-503q0 -60 9.5 -96.5t31 -56.5t55.5 -27t85 -7h34q47 0 99 27t103 70t99.5 96.5t89 108.5t71 104.5t46.5 85.5q8 17 19.5 30t30.5 13q2 0 3 -1t3 -1 q24 -5 33.5 -23.5t9.5 -34.5l-113 -593q-5 -9 -14 -18t-21 -9q-25 0 -44.5 5t-41.5 13q-14 4 -30.5 9.5t-36.5 10t-45.5 7t-59.5 2.5h-1192q-45 0 -63.5 7.5t-18.5 41.5zM323 1819q0 47 18.5 78t46.5 49.5t61.5 26t64.5 7.5q32 0 65.5 -7.5t62 -26t46.5 -49.5t18 -78 t-18 -78.5t-46.5 -50t-62 -26t-65.5 -7.5q-31 0 -64.5 7.5t-61.5 26t-46.5 50t-18.5 78.5zM760 1819q0 47 18.5 78t46 49.5t61 26t64.5 7.5q32 0 65.5 -7.5t62 -26t47 -49.5t18.5 -78t-18.5 -78.5t-47 -50t-62 -26t-65.5 -7.5q-31 0 -64.5 7.5t-61 26t-46 50t-18.5 78.5z " />
<glyph unicode="&#xcc;" horiz-adv-x="1134" d="M55 49q0 34 18.5 41.5t63.5 7.5h25q25 0 38.5 11.5t19.5 34t7.5 56.5t1.5 81v1146q0 57 -14 85t-53 28h-25q-45 0 -63.5 7.5t-18.5 41.5t18.5 41.5t63.5 7.5h869q45 0 63 -7.5t18 -41.5t-18 -41.5t-63 -7.5h-25q-43 0 -55.5 -39t-12.5 -115v-1105q0 -46 1.5 -80.5t8 -57 t20 -34t38.5 -11.5h25q45 0 63 -7.5t18 -41.5t-18 -41.5t-63 -7.5h-869q-45 0 -63.5 7.5t-18.5 41.5zM71 1950q0 48 31.5 75t85.5 27q18 0 39.5 -4t44.5 -15t45.5 -28.5t42.5 -44.5q16 -22 42 -54.5t54 -69.5t55.5 -72.5t47.5 -63.5q12 -18 12 -31q0 -17 -15 -24t-32 -7 t-27 7q-41 25 -89 47.5t-95 45t-90.5 46t-77.5 49.5t-54 54.5t-20 62.5z" />
<glyph unicode="&#xcd;" horiz-adv-x="1134" d="M55 49q0 34 18.5 41.5t63.5 7.5h25q25 0 38.5 11.5t19.5 34t7.5 56.5t1.5 81v1146q0 57 -14 85t-53 28h-25q-45 0 -63.5 7.5t-18.5 41.5t18.5 41.5t63.5 7.5h869q45 0 63 -7.5t18 -41.5t-18 -41.5t-63 -7.5h-25q-43 0 -55.5 -39t-12.5 -115v-1105q0 -46 1.5 -80.5t8 -57 t20 -34t38.5 -11.5h25q45 0 63 -7.5t18 -41.5t-18 -41.5t-63 -7.5h-869q-45 0 -63.5 7.5t-18.5 41.5zM370 1691q1 14 15 31q19 28 46.5 63.5t56 72.5t54 70t41.5 54q42 54 87.5 73t84.5 19q54 0 84.5 -27t30.5 -75q0 -25 -14.5 -55t-53.5 -64q-17 -15 -52 -35.5t-77.5 -41.5 t-87.5 -42t-81.5 -37t-61 -26t-25.5 -10q-15 0 -31 6.5t-16 23.5z" />
<glyph unicode="&#xce;" horiz-adv-x="1134" d="M55 49q0 34 18.5 41.5t63.5 7.5h25q25 0 38.5 11.5t19.5 34t7.5 56.5t1.5 81v1146q0 57 -14 85t-53 28h-25q-45 0 -63.5 7.5t-18.5 41.5t18.5 41.5t63.5 7.5h869q45 0 63 -7.5t18 -41.5t-18 -41.5t-63 -7.5h-25q-43 0 -55.5 -39t-12.5 -115v-1105q0 -46 1.5 -80.5t8 -57 t20 -34t38.5 -11.5h25q45 0 63 -7.5t18 -41.5t-18 -41.5t-63 -7.5h-869q-45 0 -63.5 7.5t-18.5 41.5zM127 1677q0 6 2 15t11 18q4 4 18.5 20t35.5 39t48 50.5t54.5 57t54.5 57t51 51.5q14 14 37 21t41 7q17 0 37.5 -5t35.5 -19q24 -23 51.5 -51t55.5 -57t54 -58t47.5 -52.5 t35.5 -40t19 -20.5q8 -9 10 -17.5t2 -15.5q0 -20 -16.5 -30.5t-41.5 -10.5q-12 0 -39.5 14t-66 38t-85.5 55.5t-99 67.5q-56 -36 -105 -68t-87.5 -55.5t-65 -37.5t-37.5 -14q-25 0 -41.5 10.5t-16.5 30.5z" />
<glyph unicode="&#xcf;" horiz-adv-x="1134" d="M55 49q0 34 18.5 41.5t63.5 7.5h25q25 0 38.5 11.5t19.5 34t7.5 56.5t1.5 81v1146q0 57 -14 85t-53 28h-25q-45 0 -63.5 7.5t-18.5 41.5t18.5 41.5t63.5 7.5h869q45 0 63 -7.5t18 -41.5t-18 -41.5t-63 -7.5h-25q-43 0 -55.5 -39t-12.5 -115v-1105q0 -46 1.5 -80.5t8 -57 t20 -34t38.5 -11.5h25q45 0 63 -7.5t18 -41.5t-18 -41.5t-63 -7.5h-869q-45 0 -63.5 7.5t-18.5 41.5zM106 1813q0 47 18.5 78t46.5 49.5t61.5 26t64.5 7.5q32 0 65.5 -7.5t62 -26t46.5 -49.5t18 -78t-18 -78.5t-46.5 -50t-62 -26t-65.5 -7.5q-31 0 -64.5 7.5t-61.5 26 t-46.5 50t-18.5 78.5zM543 1813q0 47 18.5 78t46 49.5t61 26t64.5 7.5q32 0 65.5 -7.5t62 -26t47 -49.5t18.5 -78t-18.5 -78.5t-47 -50t-62 -26t-65.5 -7.5q-31 0 -64.5 7.5t-61 26t-46 50t-18.5 78.5z" />
<glyph unicode="&#xd0;" horiz-adv-x="1990" d="M57 39q0 34 18.5 41.5t63.5 7.5h25q25 0 38.5 11.5t19.5 34t7.5 56.5t1.5 80v1147q0 57 -14 85t-53 28h-25q-45 0 -63.5 7.5t-18.5 41.5t18.5 41.5t63.5 7.5h940q188 0 348 -49.5t275.5 -149.5t180.5 -251t65 -355q0 -190 -53.5 -344t-158.5 -262.5t-261 -167.5t-361 -59 h-975q-45 0 -63.5 7.5t-18.5 41.5zM59 838q0 34 19 41.5t65 7.5h875q45 0 63.5 -8t18.5 -41q0 -34 -18.5 -42t-63.5 -8h-875q-46 0 -65 8t-19 42zM915 211q0 -39 2.5 -63t8.5 -37.5t16.5 -18t28.5 -4.5h37q47 0 85.5 11.5t64.5 37.5t40 68t14 104v1000q0 62 -14 104t-40 68 t-64.5 37.5t-85.5 11.5h-37q-17 0 -28 -4.5t-17 -18t-8.5 -37.5t-2.5 -63v-1196z" />
<glyph unicode="&#xd1;" horiz-adv-x="1957" d="M55 49q0 34 18.5 41.5t63.5 7.5h25q25 0 38.5 11.5t19.5 34t7.5 56.5t1.5 81v1146q0 57 -14 85t-53 28h-25q-45 0 -63.5 7.5t-18.5 41.5t18.5 41.5t63.5 7.5h688q17 0 37 -13t36 -29.5t27 -31t13 -16.5l709 -1054v864q0 46 -1.5 80.5t-8 57t-19.5 33.5t-37 11h-25 q-46 0 -64.5 7.5t-18.5 41.5t18.5 41.5t64.5 7.5h277q46 0 65 -7.5t19 -41.5t-19 -41.5t-65 -7.5h-25q-24 0 -37 -11t-19 -33.5t-7.5 -57t-1.5 -80.5v-1061q17 -25 35.5 -32.5t33.5 -10.5q17 -4 23 -8q8 -5 8 -19q0 -6 -3.5 -16t-6.5 -18q-8 -8 -19.5 -10.5t-31.5 -2.5 q-53 0 -112 -23.5t-116.5 -57.5t-108.5 -73t-89 -69q-20 -17 -35 -30t-21 -15h-2q-22 -12 -34 -12q-9 0 -18.5 16.5t-18.5 38.5q-8 17 -20.5 42t-26.5 46q-201 298 -406 599t-405 599q-5 8 -16 18.5t-29 22.5v-1001q0 -46 1.5 -80.5t7.5 -57t20 -34t38 -11.5h25 q45 0 63.5 -7.5t18.5 -41.5t-18.5 -41.5t-63.5 -7.5h-279q-45 0 -63.5 7.5t-18.5 41.5zM279 1980q0 27 14.5 69t41 81.5t63 68.5t81.5 29q46 0 87.5 -11.5t79.5 -24.5t72.5 -24.5t66.5 -11.5q25 0 44.5 11t35 23t27 23t20.5 11q15 0 31 -8.5t16 -22.5q0 -27 -15 -69 t-41 -81.5t-63.5 -68.5t-81.5 -29q-41 0 -78.5 11t-74.5 24t-74 24t-78 11q-25 0 -45 -10.5t-35 -22.5t-27 -22.5t-20 -10.5q-15 0 -31 8.5t-16 22.5z" />
<glyph unicode="&#xd2;" d="M37 821q0 161 39.5 286t106.5 218.5t156.5 157.5t189.5 104t204.5 58t202.5 18t203.5 -18t205.5 -58t189.5 -104t156.5 -157.5t106.5 -218.5t39.5 -286q0 -146 -34 -266.5t-94 -214.5t-144 -163t-184 -114.5t-213 -67.5t-232 -22q-98 0 -202.5 18t-204.5 59t-189.5 106 t-156.5 159.5t-106.5 219.5t-39.5 286zM250 2124q0 48 31.5 75t85.5 27q18 0 39.5 -4t44.5 -15t45.5 -28.5t42.5 -44.5q16 -22 42 -54.5t54 -69.5t55.5 -72.5t47.5 -63.5q12 -18 12 -31q0 -17 -15 -24t-32 -7t-27 7q-41 25 -89 47.5t-95 45t-90.5 46t-77.5 49.5t-54 54.5 t-20 62.5zM776 467q0 -102 7 -177t24.5 -124t49 -72.5t79.5 -23.5t79.5 23.5t49 72.5t24.5 124t7 177v704q0 101 -7 175.5t-24.5 123t-49 72t-79.5 23.5t-79.5 -23.5t-49 -72t-24.5 -122.5t-7 -176v-704z" />
<glyph unicode="&#xd3;" d="M37 821q0 161 39.5 286t106.5 218.5t156.5 157.5t189.5 104t204.5 58t202.5 18t203.5 -18t205.5 -58t189.5 -104t156.5 -157.5t106.5 -218.5t39.5 -286q0 -146 -34 -266.5t-94 -214.5t-144 -163t-184 -114.5t-213 -67.5t-232 -22q-98 0 -202.5 18t-204.5 59t-189.5 106 t-156.5 159.5t-106.5 219.5t-39.5 286zM610 1798q1 14 15 31q19 28 46.5 63.5t56 72.5t54 70t41.5 54q42 54 87.5 73t84.5 19q54 0 84.5 -27t30.5 -75q0 -25 -14.5 -55t-53.5 -64q-17 -15 -52 -35.5t-77.5 -41.5t-87.5 -42t-81.5 -37t-61 -26t-25.5 -10q-15 0 -31 6.5 t-16 23.5zM776 467q0 -102 7 -177t24.5 -124t49 -72.5t79.5 -23.5t79.5 23.5t49 72.5t24.5 124t7 177v704q0 101 -7 175.5t-24.5 123t-49 72t-79.5 23.5t-79.5 -23.5t-49 -72t-24.5 -122.5t-7 -176v-704z" />
<glyph unicode="&#xd4;" d="M37 821q0 161 39.5 286t106.5 218.5t156.5 157.5t189.5 104t204.5 58t202.5 18t203.5 -18t205.5 -58t189.5 -104t156.5 -157.5t106.5 -218.5t39.5 -286q0 -146 -34 -266.5t-94 -214.5t-144 -163t-184 -114.5t-213 -67.5t-232 -22q-98 0 -202.5 18t-204.5 59t-189.5 106 t-156.5 159.5t-106.5 219.5t-39.5 286zM323 1712q0 6 2 15t11 18q4 4 18.5 20t35.5 39t48 50.5t54.5 57t54.5 57t51 51.5q14 14 37 21t41 7q17 0 37.5 -5t35.5 -19q24 -23 51.5 -51t55.5 -57t54 -58t47.5 -52.5t35.5 -40t19 -20.5q8 -9 10 -17.5t2 -15.5q0 -20 -16.5 -30.5 t-41.5 -10.5q-12 0 -39.5 14t-66 38t-85.5 55.5t-99 67.5q-56 -36 -105 -68t-87.5 -55.5t-65 -37.5t-37.5 -14q-25 0 -41.5 10.5t-16.5 30.5zM776 467q0 -102 7 -177t24.5 -124t49 -72.5t79.5 -23.5t79.5 23.5t49 72.5t24.5 124t7 177v704q0 101 -7 175.5t-24.5 123t-49 72 t-79.5 23.5t-79.5 -23.5t-49 -72t-24.5 -122.5t-7 -176v-704z" />
<glyph unicode="&#xd5;" d="M37 821q0 161 39.5 286t106.5 218.5t156.5 157.5t189.5 104t204.5 58t202.5 18t203.5 -18t205.5 -58t189.5 -104t156.5 -157.5t106.5 -218.5t39.5 -286q0 -146 -34 -266.5t-94 -214.5t-144 -163t-184 -114.5t-213 -67.5t-232 -22q-98 0 -202.5 18t-204.5 59t-189.5 106 t-156.5 159.5t-106.5 219.5t-39.5 286zM305 1978q0 27 14.5 69t41 81.5t63 68.5t81.5 29q46 0 87.5 -11.5t79.5 -24.5t72.5 -24.5t66.5 -11.5q25 0 44.5 11t35 23t27 23t20.5 11q15 0 31 -8.5t16 -22.5q0 -27 -15 -69t-41 -81.5t-63.5 -68.5t-81.5 -29q-41 0 -78.5 11 t-74.5 24t-74 24t-78 11q-25 0 -45 -10.5t-35 -22.5t-27 -22.5t-20 -10.5q-15 0 -31 8.5t-16 22.5zM776 467q0 -102 7 -177t24.5 -124t49 -72.5t79.5 -23.5t79.5 23.5t49 72.5t24.5 124t7 177v704q0 101 -7 175.5t-24.5 123t-49 72t-79.5 23.5t-79.5 -23.5t-49 -72 t-24.5 -122.5t-7 -176v-704z" />
<glyph unicode="&#xd6;" d="M37 821q0 161 39.5 286t106.5 218.5t156.5 157.5t189.5 104t204.5 58t202.5 18t203.5 -18t205.5 -58t189.5 -104t156.5 -157.5t106.5 -218.5t39.5 -286q0 -146 -34 -266.5t-94 -214.5t-144 -163t-184 -114.5t-213 -67.5t-232 -22q-98 0 -202.5 18t-204.5 59t-189.5 106 t-156.5 159.5t-106.5 219.5t-39.5 286zM323 1739q0 47 18.5 78t46.5 49.5t61.5 26t64.5 7.5q32 0 65.5 -7.5t62 -26t46.5 -49.5t18 -78t-18 -78.5t-46.5 -50t-62 -26t-65.5 -7.5q-31 0 -64.5 7.5t-61.5 26t-46.5 50t-18.5 78.5zM760 1739q0 47 18.5 78t46 49.5t61 26 t64.5 7.5q32 0 65.5 -7.5t62 -26t47 -49.5t18.5 -78t-18.5 -78.5t-47 -50t-62 -26t-65.5 -7.5q-31 0 -64.5 7.5t-61 26t-46 50t-18.5 78.5zM776 467q0 -102 7 -177t24.5 -124t49 -72.5t79.5 -23.5t79.5 23.5t49 72.5t24.5 124t7 177v704q0 101 -7 175.5t-24.5 123t-49 72 t-79.5 23.5t-79.5 -23.5t-49 -72t-24.5 -122.5t-7 -176v-704z" />
<glyph unicode="&#xd7;" horiz-adv-x="1021" d="M102.5 691q-0.5 17 14.5 32l137 137q30 26 59 -4l199 -201l201 201q14 15 29.5 16.5t29.5 -12.5l137 -137q14 -14 13.5 -30.5t-13.5 -28.5l-202 -203l198 -199q15 -14 17 -29.5t-13 -29.5l-137 -137q-14 -14 -30.5 -13.5t-28.5 13.5l-201 200l-199 -198 q-12 -14 -29 -14.5t-32 14.5l-137 137q-12 14 -11.5 29.5t15.5 29.5l196 197l-198 201q-14 12 -14.5 29z" />
<glyph unicode="&#xd8;" d="M37 821q0 161 39.5 286t106.5 218.5t156.5 157.5t189.5 104t204.5 58t202.5 18t203.5 -18t205.5 -58t189.5 -104t156.5 -157.5t106.5 -218.5t39.5 -286q0 -146 -34 -266.5t-94 -214.5t-144 -163t-184 -114.5t-213 -67.5t-232 -22q-98 0 -202.5 18t-204.5 59t-189.5 106 t-156.5 159.5t-106.5 219.5t-39.5 286zM164 -139q0 3 0.5 7t3.5 9l1081 1649q8 12 21.5 24.5t38.5 12.5q9 0 19.5 -2.5t20 -8t15.5 -14t6 -20.5q0 -4 -4 -13l-1075 -1640q-9 -15 -27 -31t-45 -16q-8 0 -18 2t-18 7t-13.5 13t-5.5 21zM776 467q0 -102 7 -177t24.5 -124 t49 -72.5t79.5 -23.5t79.5 23.5t49 72.5t24.5 124t7 177v704q0 101 -7 175.5t-24.5 123t-49 72t-79.5 23.5t-79.5 -23.5t-49 -72t-24.5 -122.5t-7 -176v-704z" />
<glyph unicode="&#xd9;" horiz-adv-x="1853" d="M35 1589q0 33 20 41t66 8h899q46 0 66 -7.5t20 -41.5t-20 -41.5t-66 -7.5h-33q-30 0 -47.5 -16.5t-17.5 -42.5v-903q0 -117 10.5 -205t42.5 -147.5t89.5 -89.5t152.5 -30t159.5 32t104.5 92.5t56.5 148.5t16.5 201v778q0 46 -1.5 80.5t-8 57t-20.5 33.5t-37 11h-25 q-46 0 -65 7.5t-19 41.5t19 41.5t65 7.5h279q45 0 63.5 -7.5t18.5 -41.5t-18.5 -41.5t-63.5 -7.5h-25q-25 0 -38.5 -11t-19.5 -33.5t-7.5 -57t-1.5 -80.5v-737q0 -85 -7 -166.5t-30 -155t-67 -134.5t-119 -105.5t-186.5 -69.5t-266.5 -25q-165 0 -286.5 21t-206.5 61 t-138 99t-83.5 134t-41 166.5t-10.5 196.5v776q0 24 -1 46t-6.5 39t-17.5 26.5t-35 9.5h-26q-46 0 -66 7.5t-20 41.5zM481 1948q0 48 31.5 75t85.5 27q18 0 39.5 -4t44.5 -15t45.5 -28.5t42.5 -44.5q16 -22 42 -54.5t54 -69.5t55.5 -72.5t47.5 -63.5q12 -18 12 -31 q0 -17 -15 -24t-32 -7t-27 7q-41 25 -89 47.5t-95 45t-90.5 46t-77.5 49.5t-54 54.5t-20 62.5z" />
<glyph unicode="&#xda;" horiz-adv-x="1853" d="M35 1589q0 33 20 41t66 8h899q46 0 66 -7.5t20 -41.5t-20 -41.5t-66 -7.5h-33q-30 0 -47.5 -16.5t-17.5 -42.5v-903q0 -117 10.5 -205t42.5 -147.5t89.5 -89.5t152.5 -30t159.5 32t104.5 92.5t56.5 148.5t16.5 201v778q0 46 -1.5 80.5t-8 57t-20.5 33.5t-37 11h-25 q-46 0 -65 7.5t-19 41.5t19 41.5t65 7.5h279q45 0 63.5 -7.5t18.5 -41.5t-18.5 -41.5t-63.5 -7.5h-25q-25 0 -38.5 -11t-19.5 -33.5t-7.5 -57t-1.5 -80.5v-737q0 -85 -7 -166.5t-30 -155t-67 -134.5t-119 -105.5t-186.5 -69.5t-266.5 -25q-165 0 -286.5 21t-206.5 61 t-138 99t-83.5 134t-41 166.5t-10.5 196.5v776q0 24 -1 46t-6.5 39t-17.5 26.5t-35 9.5h-26q-46 0 -66 7.5t-20 41.5zM774 1685q1 14 15 31q19 28 46.5 63.5t56 72.5t54 70t41.5 54q42 54 87.5 73t84.5 19q54 0 84.5 -27t30.5 -75q0 -25 -14.5 -55t-53.5 -64 q-17 -15 -52 -35.5t-77.5 -41.5t-87.5 -42t-81.5 -37t-61 -26t-25.5 -10q-15 0 -31 6.5t-16 23.5z" />
<glyph unicode="&#xdb;" horiz-adv-x="1853" d="M35 1589q0 33 20 41t66 8h899q46 0 66 -7.5t20 -41.5t-20 -41.5t-66 -7.5h-33q-30 0 -47.5 -16.5t-17.5 -42.5v-903q0 -117 10.5 -205t42.5 -147.5t89.5 -89.5t152.5 -30t159.5 32t104.5 92.5t56.5 148.5t16.5 201v778q0 46 -1.5 80.5t-8 57t-20.5 33.5t-37 11h-25 q-46 0 -65 7.5t-19 41.5t19 41.5t65 7.5h279q45 0 63.5 -7.5t18.5 -41.5t-18.5 -41.5t-63.5 -7.5h-25q-25 0 -38.5 -11t-19.5 -33.5t-7.5 -57t-1.5 -80.5v-737q0 -85 -7 -166.5t-30 -155t-67 -134.5t-119 -105.5t-186.5 -69.5t-266.5 -25q-165 0 -286.5 21t-206.5 61 t-138 99t-83.5 134t-41 166.5t-10.5 196.5v776q0 24 -1 46t-6.5 39t-17.5 26.5t-35 9.5h-26q-46 0 -66 7.5t-20 41.5zM520 1673q0 6 2 15t11 18q4 4 18.5 20t35.5 39t48 50.5t54.5 57t54.5 57t51 51.5q14 14 37 21t41 7q17 0 37.5 -5t35.5 -19q24 -23 51.5 -51t55.5 -57 t54 -58t47.5 -52.5t35.5 -40t19 -20.5q8 -9 10 -17.5t2 -15.5q0 -20 -16.5 -30.5t-41.5 -10.5q-12 0 -39.5 14t-66 38t-85.5 55.5t-99 67.5q-56 -36 -105 -68t-87.5 -55.5t-65 -37.5t-37.5 -14q-25 0 -41.5 10.5t-16.5 30.5z" />
<glyph unicode="&#xdc;" horiz-adv-x="1853" d="M35 1589q0 33 20 41t66 8h899q46 0 66 -7.5t20 -41.5t-20 -41.5t-66 -7.5h-33q-30 0 -47.5 -16.5t-17.5 -42.5v-903q0 -117 10.5 -205t42.5 -147.5t89.5 -89.5t152.5 -30t159.5 32t104.5 92.5t56.5 148.5t16.5 201v778q0 46 -1.5 80.5t-8 57t-20.5 33.5t-37 11h-25 q-46 0 -65 7.5t-19 41.5t19 41.5t65 7.5h279q45 0 63.5 -7.5t18.5 -41.5t-18.5 -41.5t-63.5 -7.5h-25q-25 0 -38.5 -11t-19.5 -33.5t-7.5 -57t-1.5 -80.5v-737q0 -85 -7 -166.5t-30 -155t-67 -134.5t-119 -105.5t-186.5 -69.5t-266.5 -25q-165 0 -286.5 21t-206.5 61 t-138 99t-83.5 134t-41 166.5t-10.5 196.5v776q0 24 -1 46t-6.5 39t-17.5 26.5t-35 9.5h-26q-46 0 -66 7.5t-20 41.5zM483 1817q0 47 18.5 78t46.5 49.5t61.5 26t64.5 7.5q32 0 65.5 -7.5t62 -26t46.5 -49.5t18 -78t-18 -78.5t-46.5 -50t-62 -26t-65.5 -7.5q-31 0 -64.5 7.5 t-61.5 26t-46.5 50t-18.5 78.5zM920 1817q0 47 18.5 78t46 49.5t61 26t64.5 7.5q32 0 65.5 -7.5t62 -26t47 -49.5t18.5 -78t-18.5 -78.5t-47 -50t-62 -26t-65.5 -7.5q-31 0 -64.5 7.5t-61 26t-46 50t-18.5 78.5z" />
<glyph unicode="&#xdd;" horiz-adv-x="2080" d="M45 1589q0 33 20 41t66 8h940q46 0 66 -7.5t20 -41.5t-15.5 -41.5t-45.5 -7.5h-35q-37 0 -46 -15.5t5 -39.5l334 -567l383 561q6 9 6.5 19.5t-5.5 20t-18.5 15.5t-31.5 6h-13q-23 0 -38.5 0.5t-25.5 5t-15 15t-5 28.5q0 34 19.5 41.5t64.5 7.5h287q46 0 65 -7.5t19 -41.5 t-20.5 -41.5t-63.5 -7.5q-37 0 -57.5 -11t-34.5 -30l-481 -706v-594q0 -14 4 -31.5t12 -33t20.5 -26t28.5 -10.5h33q46 0 66 -7.5t20 -41.5t-20 -41.5t-66 -7.5h-883q-45 0 -65.5 7.5t-20.5 41.5q0 33 20.5 41t65.5 8h33q20 0 33 11.5t20 27.5t9.5 33t2.5 31v467l-497 839 q-11 18 -32.5 25.5t-45.5 7.5q-43 0 -62.5 7.5t-19.5 41.5zM882 1685q1 14 15 31q19 28 46.5 63.5t56 72.5t54 70t41.5 54q42 54 87.5 73t84.5 19q54 0 84.5 -27t30.5 -75q0 -25 -14.5 -55t-53.5 -64q-17 -15 -52 -35.5t-77.5 -41.5t-87.5 -42t-81.5 -37t-61 -26t-25.5 -10 q-15 0 -31 6.5t-16 23.5z" />
<glyph unicode="&#xde;" horiz-adv-x="1665" d="M37 49q0 34 17.5 41.5t60.5 7.5h20q34 0 40.5 35.5t6.5 108.5v899q0 73 -6.5 108t-40.5 35h-20q-43 0 -60.5 7.5t-17.5 41.5t17.5 41.5t60.5 7.5h723q43 0 60 -7.5t17 -41.5t-17 -41.5t-60 -7.5h-21q-34 0 -40.5 -35.5t-6.5 -107.5v-49h453q85 0 159 -33t129.5 -88 t87 -126t31.5 -149q0 -90 -33.5 -164t-94.5 -128t-145.5 -83.5t-185.5 -29.5h-401v-49q0 -73 6.5 -108.5t40.5 -35.5h21q43 0 60 -7.5t17 -41.5t-17 -41.5t-60 -7.5h-723q-43 0 -60.5 7.5t-17.5 41.5zM770 461q0 -42 8 -55t29 -13h31q89 0 125 52t36 159v213q0 49 -11 83 t-32 54.5t-50.5 29.5t-67.5 9h-31q-20 0 -28.5 -11.5t-8.5 -51.5v-469z" />
<glyph unicode="&#xdf;" horiz-adv-x="1505" d="M37 49q0 34 17.5 41.5t60.5 7.5h20q34 0 40.5 35.5t6.5 108.5v585h-67q-43 0 -60.5 8t-17.5 42t17.5 41.5t60.5 7.5h67v55q0 100 27 189.5t92.5 156t176 105t278.5 38.5q113 0 217 -27.5t184 -77.5t128 -120t48 -155q0 -46 -12.5 -93t-28 -91.5t-28.5 -85t-13 -72.5 q0 -23 14 -49.5t34.5 -58t45 -69t45 -82.5t34.5 -97t14 -113q0 -60 -19 -114t-71 -95.5t-143 -65.5t-236 -24q-8 0 -31 0.5t-52.5 2.5t-61 6.5t-58.5 12.5t-44 21t-17 32q0 9 4.5 19.5t11 18.5t14 14t15.5 6q13 0 26.5 -6.5t26.5 -13.5t27 -13t30 -6q24 0 41.5 13.5t28 36 t15.5 51t5 56.5q0 38 -14 81.5t-35.5 90t-46.5 93t-46.5 91.5t-35.5 87t-14 78q0 24 7 60.5t17.5 79.5t22.5 89.5t22.5 91t17.5 84t7 68.5q0 65 -19.5 105t-68.5 40q-32 0 -50 -16.5t-27 -42t-11 -56.5t-2 -61v-1036q0 -36 -3 -64.5t-14 -49.5t-31 -32.5t-55 -11.5h-456 q-43 0 -60.5 7.5t-17.5 41.5z" />
<glyph unicode="&#xe0;" horiz-adv-x="1470" d="M39 49q0 17 4 27.5t15 15t28.5 5.5t46.5 1q11 0 19 13t16 28q0 2 1 5t1 6l303 784q-2 2 -5 4t-9 2q-20 0 -38.5 6.5t-27.5 16.5q-12 11 -10 30.5t10 28.5q9 11 19 12.5t28 1.5q27 0 64 10t77 25t80 34t74.5 36.5t61 32.5t37.5 22q22 13 35.5 14t24 -9.5t20.5 -34 t24 -60.5v-2q33 -88 64.5 -177.5t62.5 -176.5q60 -173 117 -332t112 -287q6 -18 21.5 -24.5t36.5 -8.5h22q27 0 41.5 -9.5t14.5 -39.5q0 -33 -16 -41t-56 -8h-604q-42 0 -58 8t-16 41q0 30 12.5 39.5t44.5 9.5h25q2 0 4 1.5t2 4.5q0 2 -0.5 5t-3.5 8l-98 282h-283 q-24 -65 -47 -127t-47 -127q-6 -11 -7 -18t-1 -12q0 -8 6 -12.5t26 -4.5q19 0 33.5 -1t23.5 -5.5t13 -14.5t4 -28q0 -33 -16 -41t-58 -8h-200q-42 0 -58 8t-16 41zM260 1553q0 48 31.5 75t85.5 27q18 0 39.5 -4t44.5 -15t45.5 -28.5t42.5 -44.5q16 -22 42 -54.5t54 -69.5 t55.5 -72.5t47.5 -63.5q12 -18 12 -31q0 -17 -15 -24t-32 -7t-27 7q-41 25 -89 47.5t-95 45t-90.5 46t-77.5 49.5t-54 54.5t-20 62.5zM424 502h209l-51 136t-50 138q-28 -73 -54 -137.5t-54 -136.5z" />
<glyph unicode="&#xe1;" horiz-adv-x="1470" d="M39 49q0 17 4 27.5t15 15t28.5 5.5t46.5 1q11 0 19 13t16 28q0 2 1 5t1 6l303 784q-2 2 -5 4t-9 2q-20 0 -38.5 6.5t-27.5 16.5q-12 11 -10 30.5t10 28.5q9 11 19 12.5t28 1.5q27 0 64 10t77 25t80 34t74.5 36.5t61 32.5t37.5 22q22 13 35.5 14t24 -9.5t20.5 -34 t24 -60.5v-2q33 -88 64.5 -177.5t62.5 -176.5q60 -173 117 -332t112 -287q6 -18 21.5 -24.5t36.5 -8.5h22q27 0 41.5 -9.5t14.5 -39.5q0 -33 -16 -41t-56 -8h-604q-42 0 -58 8t-16 41q0 30 12.5 39.5t44.5 9.5h25q2 0 4 1.5t2 4.5q0 2 -0.5 5t-3.5 8l-98 282h-283 q-24 -65 -47 -127t-47 -127q-6 -11 -7 -18t-1 -12q0 -8 6 -12.5t26 -4.5q19 0 33.5 -1t23.5 -5.5t13 -14.5t4 -28q0 -33 -16 -41t-58 -8h-200q-42 0 -58 8t-16 41zM424 502h209l-51 136t-50 138q-28 -73 -54 -137.5t-54 -136.5zM581 1228q1 14 15 31q19 28 46.5 63.5 t56 72.5t54 70t41.5 54q42 54 87.5 73t84.5 19q54 0 84.5 -27t30.5 -75q0 -25 -14.5 -55t-53.5 -64q-17 -15 -52 -35.5t-77.5 -41.5t-87.5 -42t-81.5 -37t-61 -26t-25.5 -10q-15 0 -31 6.5t-16 23.5z" />
<glyph unicode="&#xe2;" horiz-adv-x="1470" d="M39 49q0 17 4 27.5t15 15t28.5 5.5t46.5 1q11 0 19 13t16 28q0 2 1 5t1 6l303 784q-2 2 -5 4t-9 2q-20 0 -38.5 6.5t-27.5 16.5q-12 11 -10 30.5t10 28.5q9 11 19 12.5t28 1.5q27 0 64 10t77 25t80 34t74.5 36.5t61 32.5t37.5 22q22 13 35.5 14t24 -9.5t20.5 -34 t24 -60.5v-2q33 -88 64.5 -177.5t62.5 -176.5q60 -173 117 -332t112 -287q6 -18 21.5 -24.5t36.5 -8.5h22q27 0 41.5 -9.5t14.5 -39.5q0 -33 -16 -41t-56 -8h-604q-42 0 -58 8t-16 41q0 30 12.5 39.5t44.5 9.5h25q2 0 4 1.5t2 4.5q0 2 -0.5 5t-3.5 8l-98 282h-283 q-24 -65 -47 -127t-47 -127q-6 -11 -7 -18t-1 -12q0 -8 6 -12.5t26 -4.5q19 0 33.5 -1t23.5 -5.5t13 -14.5t4 -28q0 -33 -16 -41t-58 -8h-200q-42 0 -58 8t-16 41zM299 1244q0 6 2 15t11 18q4 4 18.5 20t35.5 39t48 50.5t54.5 57t54.5 57t51 51.5q14 14 37 21t41 7 q17 0 37.5 -5t35.5 -19q24 -23 51.5 -51t55.5 -57t54 -58t47.5 -52.5t35.5 -40t19 -20.5q8 -9 10 -17.5t2 -15.5q0 -20 -16.5 -30.5t-41.5 -10.5q-12 0 -39.5 14t-66 38t-85.5 55.5t-99 67.5q-56 -36 -105 -68t-87.5 -55.5t-65 -37.5t-37.5 -14q-25 0 -41.5 10.5t-16.5 30.5 zM424 502h209l-51 136t-50 138q-28 -73 -54 -137.5t-54 -136.5z" />
<glyph unicode="&#xe3;" horiz-adv-x="1470" d="M39 49q0 17 4 27.5t15 15t28.5 5.5t46.5 1q11 0 19 13t16 28q0 2 1 5t1 6l303 784q-2 2 -5 4t-9 2q-20 0 -38.5 6.5t-27.5 16.5q-12 11 -10 30.5t10 28.5q9 11 19 12.5t28 1.5q27 0 64 10t77 25t80 34t74.5 36.5t61 32.5t37.5 22q22 13 35.5 14t24 -9.5t20.5 -34 t24 -60.5v-2q33 -88 64.5 -177.5t62.5 -176.5q60 -173 117 -332t112 -287q6 -18 21.5 -24.5t36.5 -8.5h22q27 0 41.5 -9.5t14.5 -39.5q0 -33 -16 -41t-56 -8h-604q-42 0 -58 8t-16 41q0 30 12.5 39.5t44.5 9.5h25q2 0 4 1.5t2 4.5q0 2 -0.5 5t-3.5 8l-98 282h-283 q-24 -65 -47 -127t-47 -127q-6 -11 -7 -18t-1 -12q0 -8 6 -12.5t26 -4.5q19 0 33.5 -1t23.5 -5.5t13 -14.5t4 -28q0 -33 -16 -41t-58 -8h-200q-42 0 -58 8t-16 41zM308 1306q0 27 14.5 69t41 81.5t63 68.5t81.5 29q46 0 87.5 -11.5t79.5 -24.5t72.5 -24.5t66.5 -11.5 q25 0 44.5 11t35 23t27 23t20.5 11q15 0 31 -8.5t16 -22.5q0 -27 -15 -69t-41 -81.5t-63.5 -68.5t-81.5 -29q-41 0 -78.5 11t-74.5 24t-74 24t-78 11q-25 0 -45 -10.5t-35 -22.5t-27 -22.5t-20 -10.5q-15 0 -31 8.5t-16 22.5zM424 502h209l-51 136t-50 138 q-28 -73 -54 -137.5t-54 -136.5z" />
<glyph unicode="&#xe4;" horiz-adv-x="1470" d="M39 49q0 17 4 27.5t15 15t28.5 5.5t46.5 1q11 0 19 13t16 28q0 2 1 5t1 6l303 784q-2 2 -5 4t-9 2q-20 0 -38.5 6.5t-27.5 16.5q-12 11 -10 30.5t10 28.5q9 11 19 12.5t28 1.5q27 0 64 10t77 25t80 34t74.5 36.5t61 32.5t37.5 22q22 13 35.5 14t24 -9.5t20.5 -34 t24 -60.5v-2q33 -88 64.5 -177.5t62.5 -176.5q60 -173 117 -332t112 -287q6 -18 21.5 -24.5t36.5 -8.5h22q27 0 41.5 -9.5t14.5 -39.5q0 -33 -16 -41t-56 -8h-604q-42 0 -58 8t-16 41q0 30 12.5 39.5t44.5 9.5h25q2 0 4 1.5t2 4.5q0 2 -0.5 5t-3.5 8l-98 282h-283 q-24 -65 -47 -127t-47 -127q-6 -11 -7 -18t-1 -12q0 -8 6 -12.5t26 -4.5q19 0 33.5 -1t23.5 -5.5t13 -14.5t4 -28q0 -33 -16 -41t-58 -8h-200q-42 0 -58 8t-16 41zM239 1361q0 47 18.5 78t46.5 49.5t61.5 26t64.5 7.5q32 0 65.5 -7.5t62 -26t46.5 -49.5t18 -78t-18 -78.5 t-46.5 -50t-62 -26t-65.5 -7.5q-31 0 -64.5 7.5t-61.5 26t-46.5 50t-18.5 78.5zM424 502h209l-51 136t-50 138q-28 -73 -54 -137.5t-54 -136.5zM676 1361q0 47 18.5 78t46 49.5t61 26t64.5 7.5q32 0 65.5 -7.5t62 -26t47 -49.5t18.5 -78t-18.5 -78.5t-47 -50t-62 -26 t-65.5 -7.5q-31 0 -64.5 7.5t-61 26t-46 50t-18.5 78.5z" />
<glyph unicode="&#xe5;" horiz-adv-x="1470" d="M39 49q0 17 4 27.5t15 15t28.5 5.5t46.5 1q11 0 19 13t16 28q0 2 1 5t1 6l303 784q-2 2 -5 4t-9 2q-20 0 -38.5 6.5t-27.5 16.5q-12 11 -10 30.5t10 28.5q9 11 19 12.5t28 1.5q27 0 64 10t77 25t80 34t74.5 36.5t61 32.5t37.5 22q22 13 35.5 14t24 -9.5t20.5 -34 t24 -60.5v-2q33 -88 64.5 -177.5t62.5 -176.5q60 -173 117 -332t112 -287q6 -18 21.5 -24.5t36.5 -8.5h22q27 0 41.5 -9.5t14.5 -39.5q0 -33 -16 -41t-56 -8h-604q-42 0 -58 8t-16 41q0 30 12.5 39.5t44.5 9.5h25q2 0 4 1.5t2 4.5q0 2 -0.5 5t-3.5 8l-98 282h-283 q-24 -65 -47 -127t-47 -127q-6 -11 -7 -18t-1 -12q0 -8 6 -12.5t26 -4.5q19 0 33.5 -1t23.5 -5.5t13 -14.5t4 -28q0 -33 -16 -41t-58 -8h-200q-42 0 -58 8t-16 41zM424 502h209l-51 136t-50 138q-28 -73 -54 -137.5t-54 -136.5zM430 1363q0 56 19.5 93t49.5 59t65.5 31 t68.5 9q35 0 71.5 -9t67.5 -31t50.5 -59t19.5 -93q0 -55 -19.5 -92t-50.5 -58.5t-67.5 -31t-71.5 -9.5q-33 0 -68.5 9.5t-65.5 31t-49.5 58.5t-19.5 92zM598 1363q0 -46 4.5 -69t32.5 -23t32.5 23t4.5 69t-5 69t-32 23q-28 0 -32.5 -23t-4.5 -69z" />
<glyph unicode="&#xe6;" horiz-adv-x="1914" d="M23 49q0 34 18 41.5t55 7.5h23q9 0 23 17.5t26 36.5l444 755v-2l9 13q0 2 2 5t2 5q6 11 9 19t3 18q0 9 -5 13t-11 9h2q-9 3 -17 12t-8 29q0 22 18 35t60 16l817 49l59 7q20 3 46.5 4.5t48.5 1.5q14 0 23 -9.5t11 -27.5l19 -258q2 -25 -11 -37t-36 -12q-22 0 -31 7t-12 13 q-10 23 -30.5 58.5t-52 69.5t-74.5 57.5t-97 19.5l-142 -10v-387h27q32 0 57.5 10t44 24.5t29.5 30.5t14 27q9 31 15.5 49.5t12.5 29.5t14 15t20 4q32 0 38.5 -19t6.5 -57v-331q0 -19 -1 -33.5t-5.5 -23.5t-13.5 -13t-25 -4q-18 0 -29 5.5t-17 16t-8.5 25t-4.5 33.5v4.5 t-3 7.5q-2 12 -13 29.5t-29.5 33t-44.5 26.5t-58 11h-27v-319q0 -36 6 -57.5t19.5 -33t35 -15t54.5 -3.5h39q39 0 79.5 19.5t77.5 50t67 66.5t50 69v-2q8 14 21 26.5t29 12.5q25 0 37 -17t12 -34v-3t-2 -10.5t-5 -24t-9.5 -45.5t-16 -75t-22.5 -111q-5 -15 -13.5 -22.5 t-25.5 -7.5q-14 0 -33 1t-31 3h-8q-2 0 -3 1t-3 1q-18 2 -44 3t-59 1h-786q-20 0 -34 1t-23 5.5t-13 15t-4 27.5t4 27.5t13 15t22.5 5.5t34.5 1h16q18 0 22.5 26.5t4.5 78.5v190h-295l-149 -256q-12 -25 -8 -32t28 -7h18q13 -1 24 -2t19 -5.5t12.5 -14t4.5 -27.5 q0 -17 -4 -27.5t-13.5 -15t-23.5 -5.5t-35 -1h-213q-20 0 -32.5 1t-20 5.5t-10 15t-2.5 27.5zM489 494h236v401z" />
<glyph unicode="&#xe7;" horiz-adv-x="1191" d="M41 563q0 111 27 197t73 150.5t107.5 108.5t129.5 71.5t140 40t139 12.5t118.5 -12.5t88.5 -24.5h-2q22 -6 39.5 -11t26.5 -5q12 0 30 5t39 13q24 8 45.5 15t44.5 7q25 0 37.5 -16.5t12.5 -34.5q0 -15 1 -38.5t3 -51.5q2 -34 4 -70t2 -67q0 -25 -10.5 -43t-40.5 -18 q-12 0 -24.5 4t-18.5 12q-15 28 -47.5 68t-82 78t-116 64.5t-150.5 26.5q-27 0 -44 -14.5t-27.5 -45t-14.5 -77t-4 -108.5v-539q0 -79 37.5 -117.5t110.5 -38.5h2h12h10q24 0 52 7q6 0 12 1t12 3l25 8q67 20 119.5 60.5t82.5 95.5q15 28 35 39.5t35 11.5q13 0 25 -7 t19.5 -18t10 -25.5t-1.5 -29.5q-3 -14 -15 -36.5t-36 -45.5q-3 -3 -5.5 -6t-4.5 -6l-29 -27q-34 -31 -84 -61t-121 -54q-2 0 -4 -1t-4 -1q-46 -12 -93.5 -20t-98.5 -10h-6q-131 0 -245 36.5t-198 110t-132 182.5t-48 252zM415 -377q0 20 18.5 31.5t43.5 11.5q19 0 33 -3 t26 -7t22.5 -7t24.5 -3q25 0 47.5 13.5t22.5 35.5q0 26 -20.5 37.5t-45 19t-45 16.5t-20.5 29q0 6 8.5 29t21 53t26.5 61.5t24 55.5q0 2 1 3t1 3h102l-53 -133q15 5 38 9.5t48 4.5q33 0 64.5 -9t56 -26.5t40 -42.5t15.5 -57q0 -42 -16.5 -79t-50 -64.5t-86.5 -43.5t-125 -16 q-27 0 -65 2.5t-72.5 10.5t-59.5 23.5t-25 41.5z" />
<glyph unicode="&#xe8;" horiz-adv-x="1202" d="M39 49q0 17 3.5 27.5t12 15t23 5.5t35.5 1h16q18 0 22.5 26.5t4.5 78.5v737q0 45 -4.5 66.5t-22.5 21.5h-16q-20 0 -35 1t-23.5 5.5t-12 15t-3.5 27.5q0 33 16 41t58 8l813 2h24q18 3 33 7.5t31 9.5q15 5 29.5 8.5t35.5 3.5q36 0 39 -33l35 -346q3 -15 -6.5 -34.5 t-30.5 -22.5q-2 0 -4.5 -1t-7.5 -1q-24 0 -32.5 10.5t-16.5 28.5h2q-16 32 -45.5 76t-66.5 84.5t-79.5 71.5t-85.5 38h-133v-405h27q32 0 57.5 10t43.5 25.5t28.5 32t13.5 28.5q7 29 13.5 46.5t12.5 28.5t14.5 15t23.5 4q30 0 37.5 -17t7.5 -57v-331q0 -40 -8 -57t-37 -17 q-19 0 -30.5 5.5t-18 16t-9 25t-4.5 33.5q0 3 -1 7t-1 9v2v-2v2q-2 12 -13 28.5t-29.5 31t-43.5 24.5t-57 10h-27v-319q0 -36 5 -57t17.5 -33t32 -15.5t48.5 -3.5h22q28 0 59 17t62.5 44t62 61.5t57 70t48 68.5t35.5 59q6 15 17 27t36 12q2 0 4 -1t4 -1q20 -3 30 -22.5 t7 -35.5l-76 -397q-2 -12 -11.5 -21.5t-27.5 -9.5q-22 0 -35.5 3.5t-27.5 9.5q-18 6 -43.5 12t-65.5 6h-794q-42 0 -58 8t-16 41zM293 1490q0 48 31.5 75t85.5 27q18 0 39.5 -4t44.5 -15t45.5 -28.5t42.5 -44.5q16 -22 42 -54.5t54 -69.5t55.5 -72.5t47.5 -63.5 q12 -18 12 -31q0 -17 -15 -24t-32 -7t-27 7q-41 25 -89 47.5t-95 45t-90.5 46t-77.5 49.5t-54 54.5t-20 62.5z" />
<glyph unicode="&#xe9;" horiz-adv-x="1202" d="M39 49q0 17 3.5 27.5t12 15t23 5.5t35.5 1h16q18 0 22.5 26.5t4.5 78.5v737q0 45 -4.5 66.5t-22.5 21.5h-16q-20 0 -35 1t-23.5 5.5t-12 15t-3.5 27.5q0 33 16 41t58 8l813 2h24q18 3 33 7.5t31 9.5q15 5 29.5 8.5t35.5 3.5q36 0 39 -33l35 -346q3 -15 -6.5 -34.5 t-30.5 -22.5q-2 0 -4.5 -1t-7.5 -1q-24 0 -32.5 10.5t-16.5 28.5h2q-16 32 -45.5 76t-66.5 84.5t-79.5 71.5t-85.5 38h-133v-405h27q32 0 57.5 10t43.5 25.5t28.5 32t13.5 28.5q7 29 13.5 46.5t12.5 28.5t14.5 15t23.5 4q30 0 37.5 -17t7.5 -57v-331q0 -40 -8 -57t-37 -17 q-19 0 -30.5 5.5t-18 16t-9 25t-4.5 33.5q0 3 -1 7t-1 9v2v-2v2q-2 12 -13 28.5t-29.5 31t-43.5 24.5t-57 10h-27v-319q0 -36 5 -57t17.5 -33t32 -15.5t48.5 -3.5h22q28 0 59 17t62.5 44t62 61.5t57 70t48 68.5t35.5 59q6 15 17 27t36 12q2 0 4 -1t4 -1q20 -3 30 -22.5 t7 -35.5l-76 -397q-2 -12 -11.5 -21.5t-27.5 -9.5q-22 0 -35.5 3.5t-27.5 9.5q-18 6 -43.5 12t-65.5 6h-794q-42 0 -58 8t-16 41zM493 1228q1 14 15 31q19 28 46.5 63.5t56 72.5t54 70t41.5 54q42 54 87.5 73t84.5 19q54 0 84.5 -27t30.5 -75q0 -25 -14.5 -55t-53.5 -64 q-17 -15 -52 -35.5t-77.5 -41.5t-87.5 -42t-81.5 -37t-61 -26t-25.5 -10q-15 0 -31 6.5t-16 23.5z" />
<glyph unicode="&#xea;" horiz-adv-x="1202" d="M39 49q0 17 3.5 27.5t12 15t23 5.5t35.5 1h16q18 0 22.5 26.5t4.5 78.5v737q0 45 -4.5 66.5t-22.5 21.5h-16q-20 0 -35 1t-23.5 5.5t-12 15t-3.5 27.5q0 33 16 41t58 8l813 2h24q18 3 33 7.5t31 9.5q15 5 29.5 8.5t35.5 3.5q36 0 39 -33l35 -346q3 -15 -6.5 -34.5 t-30.5 -22.5q-2 0 -4.5 -1t-7.5 -1q-24 0 -32.5 10.5t-16.5 28.5h2q-16 32 -45.5 76t-66.5 84.5t-79.5 71.5t-85.5 38h-133v-405h27q32 0 57.5 10t43.5 25.5t28.5 32t13.5 28.5q7 29 13.5 46.5t12.5 28.5t14.5 15t23.5 4q30 0 37.5 -17t7.5 -57v-331q0 -40 -8 -57t-37 -17 q-19 0 -30.5 5.5t-18 16t-9 25t-4.5 33.5q0 3 -1 7t-1 9v2v-2v2q-2 12 -13 28.5t-29.5 31t-43.5 24.5t-57 10h-27v-319q0 -36 5 -57t17.5 -33t32 -15.5t48.5 -3.5h22q28 0 59 17t62.5 44t62 61.5t57 70t48 68.5t35.5 59q6 15 17 27t36 12q2 0 4 -1t4 -1q20 -3 30 -22.5 t7 -35.5l-76 -397q-2 -12 -11.5 -21.5t-27.5 -9.5q-22 0 -35.5 3.5t-27.5 9.5q-18 6 -43.5 12t-65.5 6h-794q-42 0 -58 8t-16 41zM252 1219q0 6 2 15t11 18q4 4 18.5 20t35.5 39t48 50.5t54.5 57t54.5 57t51 51.5q14 14 37 21t41 7q17 0 37.5 -5t35.5 -19q24 -23 51.5 -51 t55.5 -57t54 -58t47.5 -52.5t35.5 -40t19 -20.5q8 -9 10 -17.5t2 -15.5q0 -20 -16.5 -30.5t-41.5 -10.5q-12 0 -39.5 14t-66 38t-85.5 55.5t-99 67.5q-56 -36 -105 -68t-87.5 -55.5t-65 -37.5t-37.5 -14q-25 0 -41.5 10.5t-16.5 30.5z" />
<glyph unicode="&#xeb;" horiz-adv-x="1202" d="M39 49q0 17 3.5 27.5t12 15t23 5.5t35.5 1h16q18 0 22.5 26.5t4.5 78.5v737q0 45 -4.5 66.5t-22.5 21.5h-16q-20 0 -35 1t-23.5 5.5t-12 15t-3.5 27.5q0 33 16 41t58 8l813 2h24q18 3 33 7.5t31 9.5q15 5 29.5 8.5t35.5 3.5q36 0 39 -33l35 -346q3 -15 -6.5 -34.5 t-30.5 -22.5q-2 0 -4.5 -1t-7.5 -1q-24 0 -32.5 10.5t-16.5 28.5h2q-16 32 -45.5 76t-66.5 84.5t-79.5 71.5t-85.5 38h-133v-405h27q32 0 57.5 10t43.5 25.5t28.5 32t13.5 28.5q7 29 13.5 46.5t12.5 28.5t14.5 15t23.5 4q30 0 37.5 -17t7.5 -57v-331q0 -40 -8 -57t-37 -17 q-19 0 -30.5 5.5t-18 16t-9 25t-4.5 33.5q0 3 -1 7t-1 9v2v-2v2q-2 12 -13 28.5t-29.5 31t-43.5 24.5t-57 10h-27v-319q0 -36 5 -57t17.5 -33t32 -15.5t48.5 -3.5h22q28 0 59 17t62.5 44t62 61.5t57 70t48 68.5t35.5 59q6 15 17 27t36 12q2 0 4 -1t4 -1q20 -3 30 -22.5 t7 -35.5l-76 -397q-2 -12 -11.5 -21.5t-27.5 -9.5q-22 0 -35.5 3.5t-27.5 9.5q-18 6 -43.5 12t-65.5 6h-794q-42 0 -58 8t-16 41zM157 1361q0 47 18.5 78t46.5 49.5t61.5 26t64.5 7.5q32 0 65.5 -7.5t62 -26t46.5 -49.5t18 -78t-18 -78.5t-46.5 -50t-62 -26t-65.5 -7.5 q-31 0 -64.5 7.5t-61.5 26t-46.5 50t-18.5 78.5zM594 1361q0 47 18.5 78t46 49.5t61 26t64.5 7.5q32 0 65.5 -7.5t62 -26t47 -49.5t18.5 -78t-18.5 -78.5t-47 -50t-62 -26t-65.5 -7.5q-31 0 -64.5 7.5t-61 26t-46 50t-18.5 78.5z" />
<glyph unicode="&#xec;" horiz-adv-x="798" d="M19 1492q0 48 31.5 75t85.5 27q18 0 39.5 -4t44.5 -15t45.5 -28.5t42.5 -44.5q16 -22 42 -54.5t54 -69.5t55.5 -72.5t47.5 -63.5q12 -18 12 -31q0 -17 -15 -24t-32 -7t-27 7q-41 25 -89 47.5t-95 45t-90.5 46t-77.5 49.5t-54 54.5t-20 62.5zM39 49q0 17 3.5 27.5t12 15 t23 5.5t35.5 1h16q18 0 22.5 26.5t4.5 78.5v766q0 59 -27 59h-16q-20 0 -35 1t-23.5 5.5t-12 15t-3.5 27.5q0 33 16 41t58 8h577q42 0 58 -8t16 -41q0 -17 -3.5 -27.5t-12.5 -15t-23 -5.5t-35 -1h-16q-18 0 -22.5 -21.5t-4.5 -66.5v-737q0 -52 4 -78.5t23 -26.5h16 q20 0 34.5 -1t23.5 -5.5t12.5 -14.5t3.5 -28q0 -33 -16 -41t-58 -8h-577q-42 0 -58 8t-16 41z" />
<glyph unicode="&#xed;" horiz-adv-x="798" d="M39 49q0 17 3.5 27.5t12 15t23 5.5t35.5 1h16q18 0 22.5 26.5t4.5 78.5v766q0 59 -27 59h-16q-20 0 -35 1t-23.5 5.5t-12 15t-3.5 27.5q0 33 16 41t58 8h577q42 0 58 -8t16 -41q0 -17 -3.5 -27.5t-12.5 -15t-23 -5.5t-35 -1h-16q-18 0 -22.5 -21.5t-4.5 -66.5v-737 q0 -52 4 -78.5t23 -26.5h16q20 0 34.5 -1t23.5 -5.5t12.5 -14.5t3.5 -28q0 -33 -16 -41t-58 -8h-577q-42 0 -58 8t-16 41zM303 1218q1 14 15 31q19 28 46.5 63.5t56 72.5t54 70t41.5 54q42 54 87.5 73t84.5 19q54 0 84.5 -27t30.5 -75q0 -25 -14.5 -55t-53.5 -64 q-17 -15 -52 -35.5t-77.5 -41.5t-87.5 -42t-81.5 -37t-61 -26t-25.5 -10q-15 0 -31 6.5t-16 23.5z" />
<glyph unicode="&#xee;" horiz-adv-x="798" d="M39 49q0 17 3.5 27.5t12 15t23 5.5t35.5 1h16q18 0 22.5 26.5t4.5 78.5v766q0 59 -27 59h-16q-20 0 -35 1t-23.5 5.5t-12 15t-3.5 27.5q0 33 16 41t58 8h577q42 0 58 -8t16 -41q0 -17 -3.5 -27.5t-12.5 -15t-23 -5.5t-35 -1h-16q-18 0 -22.5 -21.5t-4.5 -66.5v-737 q0 -52 4 -78.5t23 -26.5h16q20 0 34.5 -1t23.5 -5.5t12.5 -14.5t3.5 -28q0 -33 -16 -41t-58 -8h-577q-42 0 -58 8t-16 41zM43 1207q0 6 2 15t11 18q4 4 18.5 20t35.5 39t48 50.5t54.5 57t54.5 57t51 51.5q14 14 37 21t41 7q17 0 37.5 -5t35.5 -19q24 -23 51.5 -51t55.5 -57 t54 -58t47.5 -52.5t35.5 -40t19 -20.5q8 -9 10 -17.5t2 -15.5q0 -20 -16.5 -30.5t-41.5 -10.5q-12 0 -39.5 14t-66 38t-85.5 55.5t-99 67.5q-56 -36 -105 -68t-87.5 -55.5t-65 -37.5t-37.5 -14q-25 0 -41.5 10.5t-16.5 30.5z" />
<glyph unicode="&#xef;" horiz-adv-x="798" d="M21 1331q0 44 17 72.5t42.5 45.5t56.5 24t60 7t60 -7t57.5 -24t43 -45.5t16.5 -72.5q0 -43 -16.5 -72.5t-43 -46.5t-57.5 -24t-60 -7t-60 7t-56.5 24t-42.5 46.5t-17 72.5zM39 49q0 17 3.5 27.5t12 15t23 5.5t35.5 1h16q18 0 22.5 26.5t4.5 78.5v766q0 59 -27 59h-16 q-20 0 -35 1t-23.5 5.5t-12 15t-3.5 27.5q0 33 16 41t58 8h577q42 0 58 -8t16 -41q0 -17 -3.5 -27.5t-12.5 -15t-23 -5.5t-35 -1h-16q-18 0 -22.5 -21.5t-4.5 -66.5v-737q0 -52 4 -78.5t23 -26.5h16q20 0 34.5 -1t23.5 -5.5t12.5 -14.5t3.5 -28q0 -33 -16 -41t-58 -8h-577 q-42 0 -58 8t-16 41zM424 1331q0 44 17 72.5t42.5 45.5t56 24t59.5 7q30 0 60.5 -7t57 -24t43.5 -45.5t17 -72.5q0 -43 -17 -72.5t-43.5 -46.5t-57 -24t-60.5 -7q-29 0 -59.5 7t-56 24t-42.5 46.5t-17 72.5z" />
<glyph unicode="&#xf0;" horiz-adv-x="1333" d="M63 467q0 117 37.5 205t101.5 147.5t149.5 89t183.5 29.5q25 0 52.5 -4t55 -13.5t51 -23.5t39.5 -35q-11 90 -39.5 159t-83.5 126l-114 -78q-7 -5 -17.5 -10.5t-23 -8.5t-24 -0.5t-21.5 15.5q-6 7 -6.5 18t3 21t9.5 19t12 14l109 73q-74 52 -179 99q-22 9 -34.5 20 t-12.5 29t12.5 32.5t30.5 14.5q94 -2 182.5 -22t170.5 -54l124 86q6 4 16 9.5t21 7.5t22 0t19 -13q10 -11 12.5 -22.5t-0.5 -21.5t-10 -18t-14 -14l-92 -63q105 -57 191.5 -136.5t148.5 -171.5t96.5 -194t34.5 -205q0 -168 -43 -281.5t-123 -182.5t-194 -99t-257 -30 q-63 0 -132 9.5t-135.5 31.5t-126 58.5t-104 90.5t-71.5 127.5t-27 169.5zM571 283q0 -104 17.5 -153.5t73.5 -49.5q55 0 72.5 49t17.5 154v344q0 38 -10.5 70t-27 55t-36 36t-37.5 13q-17 0 -30.5 -3t-22 -15t-13 -34.5t-4.5 -60.5v-405z" />
<glyph unicode="&#xf1;" horiz-adv-x="1357" d="M39 49q0 17 3.5 27.5t12 15t23 5.5t35.5 1h16q18 0 22.5 26.5t4.5 78.5v766q0 59 -27 59h-16q-20 0 -35 1t-23.5 5.5t-12 15t-3.5 27.5q0 33 16 41t58 8h458q15 0 30.5 -10t29.5 -22q14 -14 28 -33l443 -662v525q0 52 -4 78t-25 26h-16q-20 0 -33.5 1t-22.5 5.5t-12.5 15 t-3.5 27.5q0 33 16 41t56 8h186q40 0 56 -8t16 -41q0 -17 -3.5 -27.5t-12.5 -15t-22.5 -5.5t-33.5 -1h-16q-20 0 -24.5 -26t-4.5 -78v-701q9 -8 20 -13t17 -7q8 -2 12 -2t10 -6q8 -8 9 -25q0 -9 -5 -22t-10 -21q-6 -6 -14 -7t-29 -1q-33 0 -70 -15.5t-74 -38t-71 -47.5 t-59 -45l-37 -28h-2q-22 -12 -33 -13q-17 0 -24 12.5t-15 32.5q-5 14 -13 30.5t-17 31.5l-539 795v-631q0 -52 4 -78.5t23 -26.5h16q20 0 34.5 -1t23.5 -5.5t12.5 -14.5t3.5 -28q0 -33 -16 -41t-58 -8h-184q-42 0 -58 8t-16 41zM678 1324q0 27 14.5 69t41 81.5t63 68.5 t81.5 29q46 0 87.5 -11.5t79.5 -24.5t72.5 -24.5t66.5 -11.5q25 0 44.5 11t35 23t27 23t20.5 11q15 0 31 -8.5t16 -22.5q0 -27 -15 -69t-41 -81.5t-63.5 -68.5t-81.5 -29q-41 0 -78.5 11t-74.5 24t-74 24t-78 11q-25 0 -45 -10.5t-35 -22.5t-27 -22.5t-20 -10.5 q-15 0 -31 8.5t-16 22.5z" />
<glyph unicode="&#xf2;" horiz-adv-x="1300" d="M29 563q0 111 27 197t73 150.5t107.5 108.5t129.5 71.5t140 40t139 12.5q68 0 139.5 -12.5t140 -40t130 -71.5t108 -108.5t74 -150.5t27.5 -197q0 -150 -51 -259t-136 -181t-197 -106.5t-235 -34.5q-68 0 -139.5 12t-139.5 39.5t-129.5 73t-107.5 110t-73 150t-27 196.5z M333 1488q0 48 31.5 75t85.5 27q18 0 39.5 -4t44.5 -15t45.5 -28.5t42.5 -44.5q16 -22 42 -54.5t54 -69.5t55.5 -72.5t47.5 -63.5q12 -18 12 -31q0 -17 -15 -24t-32 -7t-27 7q-41 25 -89 47.5t-95 45t-90.5 46t-77.5 49.5t-54 54.5t-20 62.5zM555 328q0 -63 4 -110t14.5 -77 t27.5 -44.5t44 -14.5t44.5 14.5t27.5 44.5t14 76.5t4 110.5v471q0 126 -18.5 185.5t-71.5 59.5q-27 0 -44 -14.5t-27.5 -45t-14.5 -77t-4 -108.5v-471z" />
<glyph unicode="&#xf3;" horiz-adv-x="1300" d="M29 563q0 111 27 197t73 150.5t107.5 108.5t129.5 71.5t140 40t139 12.5q68 0 139.5 -12.5t140 -40t130 -71.5t108 -108.5t74 -150.5t27.5 -197q0 -150 -51 -259t-136 -181t-197 -106.5t-235 -34.5q-68 0 -139.5 12t-139.5 39.5t-129.5 73t-107.5 110t-73 150t-27 196.5z M446 1220q1 14 15 31q19 28 46.5 63.5t56 72.5t54 70t41.5 54q42 54 87.5 73t84.5 19q54 0 84.5 -27t30.5 -75q0 -25 -14.5 -55t-53.5 -64q-17 -15 -52 -35.5t-77.5 -41.5t-87.5 -42t-81.5 -37t-61 -26t-25.5 -10q-15 0 -31 6.5t-16 23.5zM555 328q0 -63 4 -110t14.5 -77 t27.5 -44.5t44 -14.5t44.5 14.5t27.5 44.5t14 76.5t4 110.5v471q0 126 -18.5 185.5t-71.5 59.5q-27 0 -44 -14.5t-27.5 -45t-14.5 -77t-4 -108.5v-471z" />
<glyph unicode="&#xf4;" horiz-adv-x="1300" d="M29 563q0 111 27 197t73 150.5t107.5 108.5t129.5 71.5t140 40t139 12.5q68 0 139.5 -12.5t140 -40t130 -71.5t108 -108.5t74 -150.5t27.5 -197q0 -150 -51 -259t-136 -181t-197 -106.5t-235 -34.5q-68 0 -139.5 12t-139.5 39.5t-129.5 73t-107.5 110t-73 150t-27 196.5z M294 1219q0 6 2 15t11 18q4 4 18.5 20t35.5 39t48 50.5t54.5 57t54.5 57t51 51.5q14 14 37 21t41 7q17 0 37.5 -5t35.5 -19q24 -23 51.5 -51t55.5 -57t54 -58t47.5 -52.5t35.5 -40t19 -20.5q8 -9 10 -17.5t2 -15.5q0 -20 -16.5 -30.5t-41.5 -10.5q-12 0 -39.5 14t-66 38 t-85.5 55.5t-99 67.5q-56 -36 -105 -68t-87.5 -55.5t-65 -37.5t-37.5 -14q-25 0 -41.5 10.5t-16.5 30.5zM555 328q0 -63 4 -110t14.5 -77t27.5 -44.5t44 -14.5t44.5 14.5t27.5 44.5t14 76.5t4 110.5v471q0 126 -18.5 185.5t-71.5 59.5q-27 0 -44 -14.5t-27.5 -45t-14.5 -77 t-4 -108.5v-471z" />
<glyph unicode="&#xf5;" horiz-adv-x="1300" d="M29 563q0 111 27 197t73 150.5t107.5 108.5t129.5 71.5t140 40t139 12.5q68 0 139.5 -12.5t140 -40t130 -71.5t108 -108.5t74 -150.5t27.5 -197q0 -150 -51 -259t-136 -181t-197 -106.5t-235 -34.5q-68 0 -139.5 12t-139.5 39.5t-129.5 73t-107.5 110t-73 150t-27 196.5z M306 1318q0 27 14.5 69t41 81.5t63 68.5t81.5 29q46 0 87.5 -11.5t79.5 -24.5t72.5 -24.5t66.5 -11.5q25 0 44.5 11t35 23t27 23t20.5 11q15 0 31 -8.5t16 -22.5q0 -27 -15 -69t-41 -81.5t-63.5 -68.5t-81.5 -29q-41 0 -78.5 11t-74.5 24t-74 24t-78 11q-25 0 -45 -10.5 t-35 -22.5t-27 -22.5t-20 -10.5q-15 0 -31 8.5t-16 22.5zM555 328q0 -63 4 -110t14.5 -77t27.5 -44.5t44 -14.5t44.5 14.5t27.5 44.5t14 76.5t4 110.5v471q0 126 -18.5 185.5t-71.5 59.5q-27 0 -44 -14.5t-27.5 -45t-14.5 -77t-4 -108.5v-471z" />
<glyph unicode="&#xf6;" horiz-adv-x="1300" d="M29 563q0 111 27 197t73 150.5t107.5 108.5t129.5 71.5t140 40t139 12.5q68 0 139.5 -12.5t140 -40t130 -71.5t108 -108.5t74 -150.5t27.5 -197q0 -150 -51 -259t-136 -181t-197 -106.5t-235 -34.5q-68 0 -139.5 12t-139.5 39.5t-129.5 73t-107.5 110t-73 150t-27 196.5z M252 1355q0 47 18.5 78t46.5 49.5t61.5 26t64.5 7.5q32 0 65.5 -7.5t62 -26t46.5 -49.5t18 -78t-18 -78.5t-46.5 -50t-62 -26t-65.5 -7.5q-31 0 -64.5 7.5t-61.5 26t-46.5 50t-18.5 78.5zM555 328q0 -63 4 -110t14.5 -77t27.5 -44.5t44 -14.5t44.5 14.5t27.5 44.5t14 76.5 t4 110.5v471q0 126 -18.5 185.5t-71.5 59.5q-27 0 -44 -14.5t-27.5 -45t-14.5 -77t-4 -108.5v-471zM689 1355q0 47 18.5 78t46 49.5t61 26t64.5 7.5q32 0 65.5 -7.5t62 -26t47 -49.5t18.5 -78t-18.5 -78.5t-47 -50t-62 -26t-65.5 -7.5q-31 0 -64.5 7.5t-61 26t-46 50 t-18.5 78.5z" />
<glyph unicode="&#xf7;" horiz-adv-x="940" d="M14 461q0 34 18.5 41.5t63.5 7.5h510q45 0 63.5 -7.5t18.5 -41.5t-18.5 -41.5t-63.5 -7.5h-510q-45 0 -63.5 7.5t-18.5 41.5zM209 72q0 59 25 95t64 56t85.5 26.5t89.5 6.5t89.5 -6.5t85.5 -26.5t64 -56t25 -95q0 -57 -25 -96t-64 -62.5t-85.5 -33t-89.5 -9.5t-89.5 9.5 t-85.5 33t-64 62.5t-25 96zM209 858q0 59 25 98.5t64 63t85.5 33.5t89.5 10t89.5 -10t85.5 -33.5t64 -62.5t25 -99q0 -57 -25 -92.5t-64 -55t-85.5 -26t-89.5 -6.5t-89.5 6.5t-85.5 26t-64 55t-25 92.5z" />
<glyph unicode="&#xf8;" horiz-adv-x="1300" d="M29 563q0 111 27 197t73 150.5t107.5 108.5t129.5 71.5t140 40t139 12.5q68 0 139.5 -12.5t140 -40t130 -71.5t108 -108.5t74 -150.5t27.5 -197q0 -150 -51 -259t-136 -181t-197 -106.5t-235 -34.5q-68 0 -139.5 12t-139.5 39.5t-129.5 73t-107.5 110t-73 150t-27 196.5z M147 -137q0 3 0.5 7t4.5 9l858 1311q8 12 21 24.5t38 12.5q9 0 20 -2.5t20 -8t15 -14t6 -20.5q0 -4 -4 -13l-852 -1302q-9 -15 -27 -31t-44 -16q-8 0 -18 2t-18 7t-14 13t-6 21zM555 328q0 -63 4 -110t14.5 -77t27.5 -44.5t44 -14.5t44.5 14.5t27.5 44.5t14 76.5t4 110.5 v471q0 126 -18.5 185.5t-71.5 59.5q-27 0 -44 -14.5t-27.5 -45t-14.5 -77t-4 -108.5v-471z" />
<glyph unicode="&#xf9;" horiz-adv-x="1275" d="M27 1077q0 33 16.5 41t56.5 8h600q40 0 57 -8t17 -41q0 -17 -4 -27.5t-12.5 -15t-23 -5.5t-34.5 -1h-20q-14 0 -21.5 -7t-7.5 -15v-605q0 -74 7 -129t26 -92t54.5 -55.5t92.5 -18.5q58 0 98 19.5t64.5 57.5t34.5 93.5t10 126.5v521q0 52 -3 78t-23 26h-17q-20 0 -33.5 1 t-22 5.5t-12 15t-3.5 27.5q0 33 15.5 41t55.5 8h185q42 0 57.5 -8t15.5 -41q0 -17 -3.5 -27.5t-12 -15t-23 -5.5t-34.5 -1h-17q-18 0 -22 -26t-4 -78v-492q0 -59 -5 -116t-20.5 -107.5t-46.5 -92.5t-82.5 -73t-128.5 -48.5t-184 -17.5q-114 0 -198 14.5t-142.5 42.5 t-95 68.5t-57 93t-28.5 115.5t-8 135v519q0 11 -0.5 22t-2.5 20.5t-6.5 15t-12.5 5.5h-19q-20 0 -34 1t-22.5 5.5t-12.5 15t-4 27.5zM341 1488q0 48 31.5 75t85.5 27q18 0 39.5 -4t44.5 -15t45.5 -28.5t42.5 -44.5q16 -22 42 -54.5t54 -69.5t55.5 -72.5t47.5 -63.5 q12 -18 12 -31q0 -17 -15 -24t-32 -7t-27 7q-41 25 -89 47.5t-95 45t-90.5 46t-77.5 49.5t-54 54.5t-20 62.5z" />
<glyph unicode="&#xfa;" horiz-adv-x="1275" d="M27 1077q0 33 16.5 41t56.5 8h600q40 0 57 -8t17 -41q0 -17 -4 -27.5t-12.5 -15t-23 -5.5t-34.5 -1h-20q-14 0 -21.5 -7t-7.5 -15v-605q0 -74 7 -129t26 -92t54.5 -55.5t92.5 -18.5q58 0 98 19.5t64.5 57.5t34.5 93.5t10 126.5v521q0 52 -3 78t-23 26h-17q-20 0 -33.5 1 t-22 5.5t-12 15t-3.5 27.5q0 33 15.5 41t55.5 8h185q42 0 57.5 -8t15.5 -41q0 -17 -3.5 -27.5t-12 -15t-23 -5.5t-34.5 -1h-17q-18 0 -22 -26t-4 -78v-492q0 -59 -5 -116t-20.5 -107.5t-46.5 -92.5t-82.5 -73t-128.5 -48.5t-184 -17.5q-114 0 -198 14.5t-142.5 42.5 t-95 68.5t-57 93t-28.5 115.5t-8 135v519q0 11 -0.5 22t-2.5 20.5t-6.5 15t-12.5 5.5h-19q-20 0 -34 1t-22.5 5.5t-12.5 15t-4 27.5zM518 1226q1 14 15 31q19 28 46.5 63.5t56 72.5t54 70t41.5 54q42 54 87.5 73t84.5 19q54 0 84.5 -27t30.5 -75q0 -25 -14.5 -55t-53.5 -64 q-17 -15 -52 -35.5t-77.5 -41.5t-87.5 -42t-81.5 -37t-61 -26t-25.5 -10q-15 0 -31 6.5t-16 23.5z" />
<glyph unicode="&#xfb;" horiz-adv-x="1275" d="M27 1077q0 33 16.5 41t56.5 8h600q40 0 57 -8t17 -41q0 -17 -4 -27.5t-12.5 -15t-23 -5.5t-34.5 -1h-20q-14 0 -21.5 -7t-7.5 -15v-605q0 -74 7 -129t26 -92t54.5 -55.5t92.5 -18.5q58 0 98 19.5t64.5 57.5t34.5 93.5t10 126.5v521q0 52 -3 78t-23 26h-17q-20 0 -33.5 1 t-22 5.5t-12 15t-3.5 27.5q0 33 15.5 41t55.5 8h185q42 0 57.5 -8t15.5 -41q0 -17 -3.5 -27.5t-12 -15t-23 -5.5t-34.5 -1h-17q-18 0 -22 -26t-4 -78v-492q0 -59 -5 -116t-20.5 -107.5t-46.5 -92.5t-82.5 -73t-128.5 -48.5t-184 -17.5q-114 0 -198 14.5t-142.5 42.5 t-95 68.5t-57 93t-28.5 115.5t-8 135v519q0 11 -0.5 22t-2.5 20.5t-6.5 15t-12.5 5.5h-19q-20 0 -34 1t-22.5 5.5t-12.5 15t-4 27.5zM361 1217q0 6 2 15t11 18q4 4 18.5 20t35.5 39t48 50.5t54.5 57t54.5 57t51 51.5q14 14 37 21t41 7q17 0 37.5 -5t35.5 -19 q24 -23 51.5 -51t55.5 -57t54 -58t47.5 -52.5t35.5 -40t19 -20.5q8 -9 10 -17.5t2 -15.5q0 -20 -16.5 -30.5t-41.5 -10.5q-12 0 -39.5 14t-66 38t-85.5 55.5t-99 67.5q-56 -36 -105 -68t-87.5 -55.5t-65 -37.5t-37.5 -14q-25 0 -41.5 10.5t-16.5 30.5z" />
<glyph unicode="&#xfc;" horiz-adv-x="1275" d="M27 1077q0 33 16.5 41t56.5 8h600q40 0 57 -8t17 -41q0 -17 -4 -27.5t-12.5 -15t-23 -5.5t-34.5 -1h-20q-14 0 -21.5 -7t-7.5 -15v-605q0 -74 7 -129t26 -92t54.5 -55.5t92.5 -18.5q58 0 98 19.5t64.5 57.5t34.5 93.5t10 126.5v521q0 52 -3 78t-23 26h-17q-20 0 -33.5 1 t-22 5.5t-12 15t-3.5 27.5q0 33 15.5 41t55.5 8h185q42 0 57.5 -8t15.5 -41q0 -17 -3.5 -27.5t-12 -15t-23 -5.5t-34.5 -1h-17q-18 0 -22 -26t-4 -78v-492q0 -59 -5 -116t-20.5 -107.5t-46.5 -92.5t-82.5 -73t-128.5 -48.5t-184 -17.5q-114 0 -198 14.5t-142.5 42.5 t-95 68.5t-57 93t-28.5 115.5t-8 135v519q0 11 -0.5 22t-2.5 20.5t-6.5 15t-12.5 5.5h-19q-20 0 -34 1t-22.5 5.5t-12.5 15t-4 27.5zM279 1359q0 47 18.5 78t46.5 49.5t61.5 26t64.5 7.5q32 0 65.5 -7.5t62 -26t46.5 -49.5t18 -78t-18 -78.5t-46.5 -50t-62 -26t-65.5 -7.5 q-31 0 -64.5 7.5t-61.5 26t-46.5 50t-18.5 78.5zM716 1359q0 47 18.5 78t46 49.5t61 26t64.5 7.5q32 0 65.5 -7.5t62 -26t47 -49.5t18.5 -78t-18.5 -78.5t-47 -50t-62 -26t-65.5 -7.5q-31 0 -64.5 7.5t-61 26t-46 50t-18.5 78.5z" />
<glyph unicode="&#xfd;" horiz-adv-x="1429" d="M33 1077q0 33 17 41t56 8h629q40 0 57 -8t17 -41q0 -17 -3.5 -27.5t-11.5 -15t-18.5 -5.5t-23.5 -1h-23q-11 0 -15 -3.5t-1 -8.5v2l211 -356l239 350v-2q3 6 -1 12t-15 6h-8q-20 0 -34.5 0.5t-24 5t-13.5 15t-4 28.5q0 33 17 41t59 8h188q43 0 59.5 -8.5t16.5 -40.5 q0 -17 -5 -27.5t-14.5 -15t-23.5 -5.5t-33 -1q-17 0 -28 -5.5t-19 -14.5q-79 -115 -159 -235t-158 -234v-389q0 -6 2 -15t5.5 -17t8.5 -14t12 -6h21q19 0 33.5 -1t23 -5.5t12.5 -14t4 -28.5q0 -33 -16.5 -41t-56.5 -8h-588q-42 0 -58 8t-16 41t16 41t58 8h20q8 0 14 6t9 14 t4.5 17t1.5 17v307l-330 553q-5 8 -15 12t-22 4q-18 0 -32 0.5t-23 5t-13.5 15t-4.5 28.5zM684 1218q1 14 15 31q19 28 46.5 63.5t56 72.5t54 70t41.5 54q42 54 87.5 73t84.5 19q54 0 84.5 -27t30.5 -75q0 -25 -14.5 -55t-53.5 -64q-17 -15 -52 -35.5t-77.5 -41.5t-87.5 -42 t-81.5 -37t-61 -26t-25.5 -10q-15 0 -31 6.5t-16 23.5z" />
<glyph unicode="&#xfe;" horiz-adv-x="1460" d="M10 -422q0 34 17.5 41.5t60.5 7.5h21q34 0 40.5 35.5t6.5 108.5v1403q0 37 -11.5 59.5t-44.5 32.5q-24 6 -36.5 14t-19 17t-8 17t-1.5 15q0 12 12.5 20t34.5 11q142 17 241.5 29t162 19t91.5 10t31 3q25 0 32 -13.5t7 -43.5v-524q67 61 149 86.5t160 25.5q49 0 102 -10.5 t102.5 -34t93.5 -61.5t77 -93t52.5 -128t19.5 -166q0 -100 -29 -187.5t-86 -152.5t-140 -102t-192 -37q-93 0 -167.5 26t-141.5 84v-319q0 -73 6.5 -108.5t40.5 -35.5h21q43 0 60.5 -7.5t17.5 -41.5t-17.5 -41.5t-60.5 -7.5h-627q-43 0 -60.5 7.5t-17.5 41.5zM647 289 q0 -36 11 -64.5t27 -49.5t35.5 -32.5t37.5 -11.5q17 0 30.5 3t22 15t12.5 34t4 61v450q0 38 -4 60.5t-12.5 34.5t-22 15t-30.5 3t-37 -12t-36 -33t-27 -50.5t-11 -64.5v-358z" />
<glyph unicode="&#xff;" horiz-adv-x="1429" d="M33 1077q0 33 17 41t56 8h629q40 0 57 -8t17 -41q0 -17 -3.5 -27.5t-11.5 -15t-18.5 -5.5t-23.5 -1h-23q-11 0 -15 -3.5t-1 -8.5v2l211 -356l239 350v-2q3 6 -1 12t-15 6h-8q-20 0 -34.5 0.5t-24 5t-13.5 15t-4 28.5q0 33 17 41t59 8h188q43 0 59.5 -8.5t16.5 -40.5 q0 -17 -5 -27.5t-14.5 -15t-23.5 -5.5t-33 -1q-17 0 -28 -5.5t-19 -14.5q-79 -115 -159 -235t-158 -234v-389q0 -6 2 -15t5.5 -17t8.5 -14t12 -6h21q19 0 33.5 -1t23 -5.5t12.5 -14t4 -28.5q0 -33 -16.5 -41t-56.5 -8h-588q-42 0 -58 8t-16 41t16 41t58 8h20q8 0 14 6t9 14 t4.5 17t1.5 17v307l-330 553q-5 8 -15 12t-22 4q-18 0 -32 0.5t-23 5t-13.5 15t-4.5 28.5zM391 1361q0 47 18.5 78t46.5 49.5t61.5 26t64.5 7.5q32 0 65.5 -7.5t62 -26t46.5 -49.5t18 -78t-18 -78.5t-46.5 -50t-62 -26t-65.5 -7.5q-31 0 -64.5 7.5t-61.5 26t-46.5 50 t-18.5 78.5zM828 1361q0 47 18.5 78t46 49.5t61 26t64.5 7.5q32 0 65.5 -7.5t62 -26t47 -49.5t18.5 -78t-18.5 -78.5t-47 -50t-62 -26t-65.5 -7.5q-31 0 -64.5 7.5t-61 26t-46 50t-18.5 78.5z" />
<glyph unicode="&#x152;" horiz-adv-x="2668" d="M37 821q0 160 39 284.5t106 218t156 158t189 105t205 58.5t204 18q38 0 64.5 -0.5t48 -1t39.5 -2t38 -2.5q29 -2 68 -4t102.5 -4t158 -4.5t237 -3.5t338.5 -2t462 -1q12 0 22 -6t15 -24l7.5 -67.5t9 -86l9 -91t8 -83.5t5.5 -62.5t2 -27.5q0 -17 -6.5 -30t-34.5 -13 q-5 0 -14 11t-21.5 29.5t-26 43t-28.5 51.5q-24 43 -50 88.5t-53 83.5t-54.5 62t-53.5 24h-393v-655h68q53 0 96 18t73.5 43t48.5 52.5t23 48.5q9 38 16 61.5t13.5 37t15.5 18.5t23 5q28 0 34.5 -20.5t6.5 -65.5v-495q0 -46 -7 -66t-34 -20q-18 0 -29.5 6t-17.5 18.5 t-10 29.5t-7 40v-2l-4 33q-3 19 -21 47t-49 53.5t-74.5 43t-96.5 17.5h-68v-503q0 -63 10 -101t33.5 -56.5t61 -24t92.5 -5.5h176q27 0 58.5 25t65 65t68 88.5t66.5 94.5q19 30 37.5 56.5t34 46.5t26.5 31t16 11q17 0 32.5 -8.5t15.5 -30.5q0 -4 -2.5 -23t-5.5 -48t-7 -66 t-8 -78l-25 -233q-3 -17 -10.5 -23t-15.5 -6q-245 0 -431 -1t-326 -2.5t-240.5 -3.5t-172 -4t-122 -4.5t-88.5 -4.5q-29 -2 -54.5 -3.5t-53.5 -2t-59 -1t-71 -0.5q-98 0 -202.5 18t-204.5 59t-189.5 106t-156.5 159.5t-106.5 219.5t-39.5 286zM776 467q0 -102 7 -177 t24.5 -124t49 -72.5t79.5 -23.5t79.5 23.5t49 72.5t24.5 124t7 177v704q0 101 -7 175.5t-24.5 123t-49 72t-79.5 23.5t-79.5 -23.5t-49 -72t-24.5 -122.5t-7 -176v-704z" />
<glyph unicode="&#x153;" horiz-adv-x="1916" d="M41 467q0 92 25.5 164t69 126t102 91.5t123.5 60.5t133 33t133 10q60 0 123 -8t124 -29q24 -8 49 -25t40 -32q11 15 35 30t44 23q63 22 129.5 31.5t131.5 9.5q56 0 121.5 -9.5t129.5 -30.5t123.5 -54.5t105 -79t72.5 -105.5t27 -134q0 -42 -13.5 -65t-51.5 -23h-605v-175 q0 -36 6 -68.5t22 -57t46 -39.5t78 -15q72 0 124.5 9.5t89.5 23.5t61.5 30.5t41 31t27.5 23.5t23 9q18 0 28 -6t10 -24q0 -8 -5 -16t-11 -17q-29 -41 -75.5 -74.5t-102.5 -57.5t-116.5 -37.5t-117.5 -13.5q-20 0 -51.5 2t-69.5 6.5t-81.5 12.5t-87.5 22q-22 6 -44.5 21 t-39.5 33q-12 -15 -36.5 -31t-45.5 -25q-60 -20 -125.5 -29t-132.5 -9q-65 0 -133 10.5t-133 33.5t-123.5 61t-102 91.5t-69 126t-25.5 164.5zM537 283q0 -104 17 -153.5t73 -49.5q55 0 72.5 49t17.5 154v366q0 104 -17.5 153.5t-72.5 49.5t-72.5 -49t-17.5 -154v-366z M1212 547h181v102q0 104 -17.5 153.5t-72.5 49.5t-73 -49t-18 -154v-102z" />
<glyph unicode="&#x178;" horiz-adv-x="2080" d="M45 1589q0 33 20 41t66 8h940q46 0 66 -7.5t20 -41.5t-15.5 -41.5t-45.5 -7.5h-35q-37 0 -46 -15.5t5 -39.5l334 -567l383 561q6 9 6.5 19.5t-5.5 20t-18.5 15.5t-31.5 6h-13q-23 0 -38.5 0.5t-25.5 5t-15 15t-5 28.5q0 34 19.5 41.5t64.5 7.5h287q46 0 65 -7.5t19 -41.5 t-20.5 -41.5t-63.5 -7.5q-37 0 -57.5 -11t-34.5 -30l-481 -706v-594q0 -14 4 -31.5t12 -33t20.5 -26t28.5 -10.5h33q46 0 66 -7.5t20 -41.5t-20 -41.5t-66 -7.5h-883q-45 0 -65.5 7.5t-20.5 41.5q0 33 20.5 41t65.5 8h33q20 0 33 11.5t20 27.5t9.5 33t2.5 31v467l-497 839 q-11 18 -32.5 25.5t-45.5 7.5q-43 0 -62.5 7.5t-19.5 41.5zM557 1819q0 47 18.5 78t46.5 49.5t61.5 26t64.5 7.5q32 0 65.5 -7.5t62 -26t46.5 -49.5t18 -78t-18 -78.5t-46.5 -50t-62 -26t-65.5 -7.5q-31 0 -64.5 7.5t-61.5 26t-46.5 50t-18.5 78.5zM994 1819q0 47 18.5 78 t46 49.5t61 26t64.5 7.5q32 0 65.5 -7.5t62 -26t47 -49.5t18.5 -78t-18.5 -78.5t-47 -50t-62 -26t-65.5 -7.5q-31 0 -64.5 7.5t-61 26t-46 50t-18.5 78.5z" />
<glyph unicode="&#x2c6;" horiz-adv-x="733" d="M16 1255q0 6 2 15t11 18q4 4 18.5 20t35.5 39t48 50.5t54.5 57t54.5 57t51 51.5q14 14 37 21t41 7q17 0 37.5 -5t35.5 -19q24 -23 51.5 -51t55.5 -57t54 -58t47.5 -52.5t35.5 -40t19 -20.5q8 -9 10 -17.5t2 -15.5q0 -20 -16.5 -30.5t-41.5 -10.5q-12 0 -39.5 14t-66 38 t-85.5 55.5t-99 67.5q-56 -36 -105 -68t-87.5 -55.5t-65 -37.5t-37.5 -14q-25 0 -41.5 10.5t-16.5 30.5z" />
<glyph unicode="&#x2dc;" horiz-adv-x="825" d="M72 1409q0 27 14.5 69t41 81.5t63 68.5t81.5 29q46 0 87.5 -11.5t79.5 -24.5t72.5 -24.5t66.5 -11.5q25 0 44.5 11t35 23t27 23t20.5 11q15 0 31 -8.5t16 -22.5q0 -27 -15 -69t-41 -81.5t-63.5 -68.5t-81.5 -29q-41 0 -78.5 11t-74.5 24t-74 24t-78 11q-25 0 -45 -10.5 t-35 -22.5t-27 -22.5t-20 -10.5q-15 0 -31 8.5t-16 22.5z" />
<glyph unicode="&#x2000;" horiz-adv-x="1114" />
<glyph unicode="&#x2001;" horiz-adv-x="2228" />
<glyph unicode="&#x2002;" horiz-adv-x="1114" />
<glyph unicode="&#x2003;" horiz-adv-x="2228" />
<glyph unicode="&#x2004;" horiz-adv-x="742" />
<glyph unicode="&#x2005;" horiz-adv-x="557" />
<glyph unicode="&#x2006;" horiz-adv-x="371" />
<glyph unicode="&#x2007;" horiz-adv-x="371" />
<glyph unicode="&#x2008;" horiz-adv-x="278" />
<glyph unicode="&#x2009;" horiz-adv-x="445" />
<glyph unicode="&#x200a;" horiz-adv-x="123" />
<glyph unicode="&#x2010;" horiz-adv-x="700" d="M14 461q0 34 18.5 41.5t63.5 7.5h510q45 0 63.5 -7.5t18.5 -41.5t-18.5 -41.5t-63.5 -7.5h-510q-45 0 -63.5 7.5t-18.5 41.5z" />
<glyph unicode="&#x2011;" horiz-adv-x="700" d="M14 461q0 34 18.5 41.5t63.5 7.5h510q45 0 63.5 -7.5t18.5 -41.5t-18.5 -41.5t-63.5 -7.5h-510q-45 0 -63.5 7.5t-18.5 41.5z" />
<glyph unicode="&#x2012;" horiz-adv-x="700" d="M14 461q0 34 18.5 41.5t63.5 7.5h510q45 0 63.5 -7.5t18.5 -41.5t-18.5 -41.5t-63.5 -7.5h-510q-45 0 -63.5 7.5t-18.5 41.5z" />
<glyph unicode="&#x2013;" horiz-adv-x="980" d="M59 379v194q0 20 12.5 31.5t30.5 11.5h791q18 0 30.5 -11t12.5 -32v-194q0 -18 -12.5 -28.5t-32.5 -10.5h-787q-20 0 -32.5 10t-12.5 29z" />
<glyph unicode="&#x2014;" horiz-adv-x="1609" d="M59 379v194q0 20 12.5 31.5t30.5 11.5h1409q18 0 30.5 -11t12.5 -32v-194q0 -18 -12 -28.5t-33 -10.5h-1405q-20 0 -32.5 10t-12.5 29z" />
<glyph unicode="&#x2018;" horiz-adv-x="622" d="M29 1018q0 67 21 125.5t53 107.5t71 88t75.5 66t65.5 41t41 14t23.5 -9t11.5 -36q0 -6 -21 -28t-46.5 -53.5t-46.5 -70t-21 -77.5q0 -13 8.5 -21t20.5 -12.5t24.5 -6t20.5 -1.5q51 0 98.5 -12t84 -36.5t58 -62.5t21.5 -90q0 -50 -22.5 -90t-60 -68t-85.5 -43.5t-98 -15.5 q-63 0 -117.5 16.5t-94.5 51.5t-62.5 90t-22.5 133z" />
<glyph unicode="&#x2019;" horiz-adv-x="622" d="M25 1202q0 50 22.5 90t59.5 68.5t85 43.5t99 15q63 0 117.5 -16.5t94.5 -51.5t62.5 -90t22.5 -133q0 -68 -21 -126t-53.5 -107t-71.5 -88t-75 -65.5t-65.5 -41t-41.5 -14.5t-23.5 9.5t-11.5 35.5q0 6 21 28t46.5 54t46.5 70.5t21 77.5q0 13 -8.5 20.5t-20.5 12t-24.5 6 t-19.5 1.5q-51 0 -99 12t-84 36.5t-57.5 62.5t-21.5 90z" />
<glyph unicode="&#x201a;" horiz-adv-x="630" d="M25 199q0 50 22.5 90t59.5 68t85 43.5t99 15.5q63 0 117.5 -16.5t94.5 -52t62.5 -90t22.5 -132.5q-3 -67 -24.5 -125.5t-54 -108t-71 -88.5t-74 -65.5t-64 -40.5t-40.5 -14t-23.5 9t-11.5 36q0 6 21 28t46.5 53.5t46.5 70t21 77.5q0 13 -8.5 21t-20.5 12.5t-24.5 6 t-19.5 1.5q-51 0 -99 12t-84 36.5t-57.5 62t-21.5 90.5z" />
<glyph unicode="&#x201c;" horiz-adv-x="1241" d="M29 1018q0 67 21 125.5t53 107.5t71 88t75.5 66t65.5 41t41 14t23.5 -9t11.5 -36q0 -6 -21 -28t-46.5 -53.5t-46.5 -70t-21 -77.5q0 -13 8.5 -21t20.5 -12.5t24.5 -6t20.5 -1.5q51 0 98.5 -12t84 -36.5t58 -62.5t21.5 -90q0 -50 -22.5 -90t-60 -68t-85.5 -43.5t-98 -15.5 q-63 0 -117.5 16.5t-94.5 51.5t-62.5 90t-22.5 133zM643 1018q0 67 21 125.5t53.5 107.5t71 88t75 66t65.5 41t42 14q12 0 23.5 -9t11.5 -36q0 -6 -21 -28t-47 -53.5t-47 -70t-21 -77.5q0 -13 9 -21t20.5 -12.5t24 -6t20.5 -1.5q51 0 99 -12t84 -36.5t57.5 -62.5t21.5 -90 q0 -50 -22.5 -90t-60 -68t-85.5 -43.5t-98 -15.5q-63 0 -117.5 16.5t-94.5 51.5t-62.5 90t-22.5 133z" />
<glyph unicode="&#x201d;" horiz-adv-x="1249" d="M29 1243q0 50 22.5 90t59.5 68.5t85 43.5t99 15q63 0 117.5 -16.5t94.5 -51.5t62.5 -90t22.5 -133q0 -68 -21 -126t-53.5 -107t-71 -88t-75 -65.5t-66 -41t-41.5 -14.5t-23.5 9t-11.5 36q0 6 21 28t47 54t47 70.5t21 76.5q0 13 -9 21t-20.5 12.5t-24.5 6t-20 1.5 q-51 0 -99 12t-84 36.5t-57.5 62.5t-21.5 90zM643 1243q0 50 22.5 90t60 68.5t85 43.5t98.5 15q63 0 117.5 -16.5t94.5 -51.5t62.5 -90t22.5 -133q0 -68 -21 -126t-53 -107t-71 -88t-75.5 -65.5t-65.5 -41t-41 -14.5t-23.5 9t-11.5 36q0 6 21 28t46.5 54t46.5 70.5t21 76.5 q0 13 -8.5 21t-20.5 12.5t-25 6t-20 1.5q-51 0 -98.5 12t-84 36.5t-58 62.5t-21.5 90z" />
<glyph unicode="&#x201e;" horiz-adv-x="1247" d="M29 199q0 50 22.5 90t59.5 68t85 43.5t99 15.5q63 0 117.5 -16.5t94.5 -52t62.5 -90t22.5 -132.5q0 -67 -21 -125.5t-53.5 -108t-71 -88.5t-75 -65.5t-66 -40.5t-41.5 -14t-23.5 9t-11.5 36q0 6 21 28t47 53.5t47 70t21 77.5q0 13 -9 21t-20.5 12.5t-24.5 6t-20 1.5 q-51 0 -99 12t-84 36.5t-57.5 62t-21.5 90.5zM643 199q0 50 22.5 90t60 68t85 43.5t98.5 15.5q63 0 117.5 -16.5t94.5 -52t62.5 -90t22.5 -132.5q0 -67 -21 -125.5t-53 -108t-71 -88.5t-75.5 -65.5t-65.5 -40.5t-41 -14t-23.5 9t-11.5 36q0 6 21 28t46.5 53.5t46.5 70 t21 77.5q0 13 -8.5 21t-20.5 12.5t-25 6t-20 1.5q-51 0 -98.5 12t-84 36.5t-58 62t-21.5 90.5z" />
<glyph unicode="&#x2022;" horiz-adv-x="575" d="M78 477q0 56 19.5 93t49.5 59t65.5 31.5t68.5 9.5q35 0 71.5 -9.5t67.5 -31.5t50 -58.5t19 -93.5q0 -55 -19 -92t-50 -58.5t-68 -30.5t-71 -9q-33 0 -68.5 9t-65.5 30.5t-49.5 58.5t-19.5 92z" />
<glyph unicode="&#x2026;" horiz-adv-x="1757" d="M25 180q0 59 25 98.5t64 63.5t85.5 33.5t89.5 9.5t89.5 -9.5t85.5 -33.5t64 -63t25 -99q0 -57 -25 -96t-64 -62t-85.5 -32.5t-89.5 -9.5t-89.5 9.5t-85.5 32.5t-64 62t-25 96zM610 180q0 59 25 98.5t64 63.5t85.5 33.5t89.5 9.5t90 -9.5t86 -33.5t64 -63t25 -99 q0 -57 -25 -96t-64 -62t-85.5 -32.5t-90.5 -9.5q-43 0 -89.5 9.5t-85.5 32.5t-64 62t-25 96zM1196 180q0 59 25 98.5t64 63.5t85.5 33.5t89.5 9.5t89.5 -9.5t85.5 -33.5t64 -63t25 -99q0 -57 -25 -96t-64 -62t-85.5 -32.5t-89.5 -9.5t-89.5 9.5t-85.5 32.5t-64 62t-25 96z " />
<glyph unicode="&#x202f;" horiz-adv-x="445" />
<glyph unicode="&#x2039;" horiz-adv-x="583" d="M33 459q0 16 14 30q94 91 188.5 181.5t188.5 183.5q3 0 11.5 6t17.5 6q16 0 28 -12l15 -14q12 -12 12 -27q0 -16 -14 -31l-289 -323q74 -82 145.5 -163.5t145.5 -164.5q0 -3 6 -11.5t6 -17.5q0 -16 -12 -28l-17 -15q-10 -10 -26 -10t-29 12l-365 357l-14 12 q-12 12 -12 29z" />
<glyph unicode="&#x203a;" horiz-adv-x="583" d="M76 102q0 8 4 15.5t10 13.5l289 328l-291 323q0 6 -6 14t-6 17q0 14 12 27l14 16q13 10 27 10q16 0 31 -14l379 -365q8 -6 10 -13t2 -15q0 -11 -7 -19.5t-7 -11.5l-379 -367q-6 -8 -13.5 -10t-15.5 -2q-14 0 -27 12l-14 13q-12 12 -12 28z" />
<glyph unicode="&#x205f;" horiz-adv-x="557" />
<glyph unicode="&#x20ac;" horiz-adv-x="1503" d="M33 584q0 34 17.5 41.5t60.5 7.5h30q-2 14 -2 28v29v24.5t2 26.5h-30q-43 0 -60.5 8t-17.5 42t17.5 41.5t60.5 7.5h45q24 109 81.5 208.5t145.5 176.5t205 122.5t258 45.5q55 0 113 -8t111 -20.5t98 -29.5t75 -37q15 -11 26 -14.5t17 -3.5q13 0 15 15t3.5 32.5t9.5 32 t36 14.5q22 0 35.5 -20.5t21.5 -65.5t11 -117.5t3 -177.5q0 -27 -12 -43t-39 -16q-17 0 -29.5 10.5t-15.5 28.5q-13 57 -45.5 114.5t-83 103t-119 73.5t-153.5 28q-54 0 -89.5 -13.5t-55.5 -37.5t-28 -56.5t-8 -68.5v-53v-65.5t-0.5 -76t-1.5 -81.5h316q43 0 60.5 -8 t17.5 -41q0 -34 -17.5 -42t-60.5 -8h-316q0 -30 -1 -55.5t-1 -52.5h318q43 0 60.5 -8t17.5 -41q0 -34 -17.5 -41.5t-60.5 -7.5h-318v-197q0 -125 49 -182.5t154 -57.5q70 0 127 18t105.5 47.5t89.5 67t77 78.5q15 17 23 27t20 10t23.5 -11.5t11.5 -27.5q0 -14 -14.5 -44.5 t-48.5 -63.5q-53 -53 -106 -96.5t-112 -74t-126.5 -47t-149.5 -16.5q-143 0 -262.5 45.5t-210 124t-150 181.5t-83.5 219h-45q-43 0 -60.5 7.5t-17.5 41.5z" />
<glyph unicode="&#x2122;" horiz-adv-x="2541" d="M61 1143q0 5 3 24.5t6.5 46.5t7.5 57.5t7.5 56.5t6 44.5t2.5 22.5q0 15 8 21.5t17 6.5h7.5t23.5 -8q25 -8 63.5 -10t89.5 -2h541q52 0 94 1.5t66 10.5q5 3 13 5.5t17 2.5t17 -6.5t8 -21.5q0 -3 1.5 -22t3.5 -45t4.5 -56.5t5 -57.5t4.5 -46.5t3 -24.5q3 -20 -8.5 -29.5 t-25.5 -9.5q-9 0 -19.5 15.5t-24 39t-28 50t-33 50t-39.5 39t-45 15.5h-67q-18 0 -22.5 -21.5t-4.5 -58.5v-379q0 -33 6 -48t25 -15h14q28 0 38.5 -5t10.5 -28q0 -22 -10.5 -26.5t-38.5 -4.5h-473q-28 0 -38.5 4.5t-10.5 26.5q0 24 10.5 28.5t38.5 4.5h14q22 0 26.5 23 t4.5 71v370q0 27 -6 42.5t-21 15.5h-67q-27 0 -47.5 -15.5t-37 -38.5t-30 -49.5t-26 -49.5t-24 -38.5t-24.5 -15.5q-15 0 -26 8t-11 29zM1077 758q0 20 7 26.5t34 6.5h23q20 0 27.5 26t9.5 60l26 428q0 12 -7.5 23t-29.5 11q-28 0 -39.5 5t-11.5 26q0 22 12.5 27.5t45.5 5.5 h425q10 0 17 -5t12 -12t8 -16l115 -217l150 217l14 21t22 12h418q30 0 41.5 -6t11.5 -27q0 -22 -11.5 -26.5t-41.5 -4.5h-8q-11 0 -14.5 -5.5t-3.5 -14.5l30 -473q1 -7 1.5 -16.5t3 -18t9 -14.5t17.5 -6h23q27 0 35 -6.5t8 -26.5q0 -18 -8.5 -24.5t-34.5 -6.5h-476 q-28 0 -41.5 3.5t-13.5 27.5t14 28.5t41 4.5h11q15 0 21.5 16.5t6.5 32.5v6l-26 411l-322 -497q-5 -11 -12 -20t-19 -9q-11 0 -19 6.5t-13 18.5l-269 458l-28 -370q0 -22 4.5 -37.5t21.5 -15.5h25q28 0 35.5 -6.5t7.5 -26.5q0 -15 -7.5 -23t-35.5 -8h-201q-28 0 -34.5 5 t-6.5 26z" />
<glyph unicode="&#x25fc;" horiz-adv-x="1126" d="M0 0v1126h1126v-1126h-1126z" />
<glyph unicode="&#xfb01;" horiz-adv-x="1976" d="M39 49q0 17 3.5 27.5t12 15t23 5.5t35.5 1h16q18 0 22.5 26.5t4.5 78.5v766q0 59 -27 59h-16q-20 0 -35 1t-23.5 5.5t-12 15t-3.5 27.5q0 33 16 41t58 8l813 2h22q20 3 35 7.5t31 9.5q15 5 29.5 8.5t35.5 3.5q36 0 39 -33l35 -346q3 -15 -6.5 -34.5t-30.5 -22.5 q-2 0 -4.5 -1t-7.5 -1q-24 0 -32.5 10.5t-16.5 28.5h2q-16 32 -45.5 76t-66.5 84.5t-79.5 71.5t-85.5 38h-110q-15 0 -19 -23t-4 -65v-340h39q32 0 56.5 13t42.5 31.5t28 37t12 31.5q7 32 13 50t13 28t16 13t22 3q28 0 36.5 -18.5t8.5 -55.5v-364q0 -40 -7.5 -57t-37.5 -17 q-13 0 -22.5 2t-16.5 11t-13 28.5t-12 54.5q-2 12 -11.5 31t-27 37.5t-43 31.5t-57.5 13h-39v-301q0 -52 4 -78.5t23 -26.5h16q20 0 34.5 -1t23.5 -5.5t12.5 -14.5t3.5 -28q0 -33 -16 -41t-58 -8h-577q-42 0 -58 8t-16 41zM1169 49q0 17 3.5 27.5t12 15t23 5.5t35.5 1h16 q18 0 22.5 26.5t4.5 78.5v766q0 59 -27 59h-16q-20 0 -35 1t-23.5 5.5t-12 15t-3.5 27.5q0 33 16 41t58 8h577q42 0 58 -8t16 -41q0 -17 -3.5 -27.5t-12.5 -15t-23 -5.5t-35 -1h-16q-18 0 -22.5 -21.5t-4.5 -66.5v-737q0 -52 4 -78.5t23 -26.5h16q20 0 34.5 -1t23.5 -5.5 t12.5 -14.5t3.5 -28q0 -33 -16 -41t-58 -8h-577q-42 0 -58 8t-16 41z" />
<glyph unicode="&#xfb02;" horiz-adv-x="1529" />
</font>
</defs>
</svg>
