<?xml version="1.0" standalone="no"?>
<!DOCTYPE svg PUBLIC "-//W3C//DTD SVG 1.1//EN" "http://www.w3.org/Graphics/SVG/1.1/DTD/svg11.dtd" >
<svg xmlns="http://www.w3.org/2000/svg" xmlns:xlink="http://www.w3.org/1999/xlink" version="1.1">
<metadata></metadata>
<defs>
<font id="cinematograficaregular" horiz-adv-x="500" >
<font-face units-per-em="2048" ascent="1638" descent="-410" />
<missing-glyph horiz-adv-x="244" />
<glyph horiz-adv-x="0" />
<glyph horiz-adv-x="682" />
<glyph unicode=" "  horiz-adv-x="244" />
<glyph unicode="&#x09;" horiz-adv-x="244" />
<glyph unicode="&#xa0;" horiz-adv-x="244" />
<glyph unicode="!" horiz-adv-x="241" d="M32 57q0 33 20.5 52t63.5 19q44 0 65 -19t21 -52t-21 -52.5t-65 -19.5q-43 0 -63.5 19t-20.5 53zM55 267v1143q0 11 6 18.5t18 7.5h63q31 0 50.5 -17t17.5 -45l-28 -1071q-2 -28 -21 -44.5t-49 -16.5h-33q-12 0 -18 7.5t-6 17.5z" />
<glyph unicode="&#x22;" horiz-adv-x="381" d="M53 1104v314q0 20 20 20h34q26 0 41.5 -14t15.5 -36v-254q0 -22 -16 -36.5t-41 -14.5h-34q-19 0 -20 21zM217 1104v314q0 20 20 20h34q26 0 41.5 -14t15.5 -36v-254q0 -22 -16 -36.5t-41 -14.5h-34q-19 0 -20 21z" />
<glyph unicode="#" horiz-adv-x="726" d="M52 499l5 50q1 13 5.5 17t16.5 4h75l26 251h-47q-20 0 -31.5 14.5t-10.5 33.5l5 49q1 14 5.5 18t15.5 4h75l46 439q1 7 4 17t10 18.5t19 14t29 5.5h55q23 0 20 -27l-48 -467h126l46 439q1 7 4.5 17t10.5 18.5t18.5 14t28.5 5.5h56q23 0 20 -27l-48 -467h45q19 0 31 -13.5 t10 -33.5l-4 -50q-1 -15 -8.5 -18.5t-16.5 -3.5h-68l-27 -251h43q20 0 32 -13t10 -34l-5 -49q-1 -15 -7.5 -19t-15.5 -4h-68l-41 -400q-2 -23 -19.5 -37t-38.5 -14h-60q-15 0 -19.5 5.5t-2.5 19.5l44 426h-125l-40 -400q-2 -23 -19.5 -37t-39.5 -14h-60q-15 0 -19 5.5 t-2 19.5l44 426h-48q-20 0 -32 14.5t-10 33.5zM290 570h125l27 251h-125z" />
<glyph unicode="$" d="M51 220v253q0 21 24 21h63q7 0 16 -2t16.5 -7t13 -13t5.5 -19v-298q0 -21 15 -37.5t46 -16.5q32 0 46.5 16t14.5 38q0 98 -17.5 185t-44.5 168t-59.5 160t-61.5 162.5t-49.5 175.5t-25.5 198q-2 65 10 128q12 46 47 77t91 42v91q0 14 2.5 29t9 27t17 19.5t26.5 7.5h17 q17 0 21 -19t4 -38v-118q46 -7 75.5 -30.5t46 -55.5t23 -71.5t6.5 -78.5v-263q0 -21 -24 -21h-62q-16 0 -34 9.5t-18 32.5v307q0 21 -14.5 37.5t-46.5 16.5t-47 -17t-15 -37q0 -92 17.5 -174t44.5 -161t59.5 -158.5t61.5 -165t50 -181.5t25 -208q1 -32 -1 -64.5t-9 -64.5 q-12 -47 -47 -77.5t-91 -40.5v-98q0 -14 -2.5 -28.5t-8 -26t-16.5 -19t-27 -7.5h-18q-17 0 -21 8t-4 17v155q-47 7 -76.5 29.5t-45.5 54.5t-22 71t-6 80z" />
<glyph unicode="%" horiz-adv-x="977" d="M52 796v499q0 29 10 56.5t31.5 48.5t54.5 33.5t80 12.5q46 0 79 -12.5t54.5 -33.5t31 -48.5t9.5 -56.5v-499q0 -28 -10 -54.5t-31.5 -48t-55 -35t-80.5 -13.5q-48 0 -81 13.5t-53.5 35.5t-29.5 48.5t-9 53.5zM170 799q0 -20 13.5 -34.5t44.5 -14.5t44 15.5t13 33.5v493 q0 19 -13.5 34.5t-44.5 15.5t-44 -14.5t-13 -35.5v-493zM278 25l297 1354q2 7 5.5 17t10.5 18t17.5 14t27.5 6h44q12 0 17.5 -7t1.5 -20l-294 -1356q-5 -22 -21.5 -36.5t-38.5 -14.5h-45q-16 0 -20.5 6t-1.5 19zM573 140v499q0 29 10 56.5t31.5 48.5t54.5 33.5t80 12.5 q46 0 79 -12.5t54.5 -33.5t31 -48.5t9.5 -56.5v-499q0 -28 -10 -54.5t-31.5 -48t-55 -35t-80.5 -13.5q-48 0 -81 13.5t-53.5 35.5t-29.5 48.5t-9 53.5zM691 143q0 -20 13.5 -34.5t44.5 -14.5t44 15.5t13 33.5v493q0 19 -13.5 34.5t-44.5 15.5t-44 -14.5t-13 -35.5v-493z" />
<glyph unicode="&#x26;" horiz-adv-x="1296" d="M37 21v23q0 21 7.5 35t26.5 16l1162 87q12 1 14.5 -0.5t2.5 -15.5v-22q0 -19 -7 -35t-28 -18l-1158 -87q-9 0 -14.5 3t-5.5 14zM37 1041v22q0 21 7.5 35.5t26.5 16.5l1161 88q12 1 14.5 -0.5t2.5 -16.5v-21q0 -19 -7 -34.5t-28 -17.5l-1157 -89q-9 -1 -14.5 2t-5.5 15z M65 179l88 762q2 18 12 21t31 5l74 7q22 1 25 -23l87 -746q2 -12 -1.5 -16t-15.5 -6l-42 -3q-18 -2 -31.5 7.5t-15.5 27.5l-8 89l-90 -6l-7 -90q-1 -18 -14.5 -30t-31.5 -13l-43 -4q-12 -1 -15 3.5t-2 14.5zM183 372l80 6l-38 442h-3zM462 204v765q0 12 3 16t15 5l45 3 q16 1 28.5 -17t19.5 -53l112 -429l-17 468q-2 18 11 31t31 14l43 4q12 0 15 -3t3 -15v-765q0 -11 -3.5 -15.5t-15.5 -5.5l-41 -3q-12 -1 -20 4t-13.5 14t-9 21.5t-7.5 25.5l-113 438l17 -472q2 -18 -11 -31t-31 -15l-42 -3q-19 -1 -19 18zM883 241v760q0 12 3.5 16t14.5 5 l139 11q53 4 84 -15t46.5 -46.5t20 -59t4.5 -53.5v-378q0 -45 -6 -87.5t-22.5 -76.5t-47 -56.5t-78.5 -25.5l-140 -11q-12 -1 -15 2.5t-3 14.5zM987 321l56 4q25 2 36.5 17t11.5 33v525q0 18 -12.5 30.5t-40.5 10.5l-51 -3v-617z" />
<glyph unicode="'" horiz-adv-x="217" d="M53 1104v314q0 20 20 20h34q26 0 41.5 -14t15.5 -36v-254q0 -22 -16 -36.5t-41 -14.5h-34q-19 0 -20 21z" />
<glyph unicode="(" horiz-adv-x="328" d="M53 620v193q0 146 11.5 255t30 187.5t42 131.5t48 86t48 51t42.5 29q9 3 21 3.5t18 -6.5l11 -18q9 -13 6 -22q-3 -11 -14.5 -21t-27 -33t-33 -66.5t-32 -120t-24 -193.5t-9.5 -288v-144q0 -171 9.5 -287.5t24 -193.5t32 -120t33 -66.5t26.5 -33.5t15 -21q3 -7 -6 -21 l-11 -17q-5 -9 -17.5 -8.5t-21.5 5.5q-18 10 -42 27.5t-48.5 51.5t-48 86t-42 131t-30 188t-11.5 255z" />
<glyph unicode=")" horiz-adv-x="330" d="M0 -78q2 11 14 21t27.5 33.5t33 66.5t32 120t24 194t9.5 287v144q0 171 -9.5 288t-24 193.5t-32 120t-33 66.5t-27.5 33.5t-14 20.5q-3 9 5 22l12 18q5 7 17.5 6.5t20.5 -3.5q18 -11 42.5 -29t49 -51t48 -86t42 -131.5t29.5 -187.5t11 -255v-193q0 -146 -11 -255 t-29.5 -188t-42 -131t-48 -86t-48.5 -52t-43 -27q-9 -4 -21 -5t-17 8l-12 17q-9 14 -5 21z" />
<glyph unicode="*" horiz-adv-x="522" d="M53 683v35q0 11 3 23t8.5 20.5t15 12t20.5 -4.5l102 -34l-59 97q-6 12 -5.5 19t13.5 15l31 18q10 5 21.5 8.5t22.5 3t17.5 -7t6.5 -20.5l21 -106l55 101q7 12 14 14.5t21 -4.5l30 -19q10 -5 18.5 -13.5t13.5 -18t2.5 -18.5t-14.5 -16l-78 -70l112 2q14 0 19 -4.5t5 -18.5 v-37q0 -11 -2.5 -23t-8.5 -20.5t-15 -11.5t-21 4l-101 33l60 -97q6 -12 5 -18t-15 -15l-31 -17q-10 -5 -21.5 -9t-21.5 -3.5t-17 6.5t-7 20l-22 103l-55 -99q-5 -12 -12 -14.5t-20 6.5l-31 18q-10 5 -18.5 13t-13.5 17.5t-3.5 18.5t13.5 16l84 73l-117 -2q-14 0 -19.5 4.5 t-5.5 19.5z" />
<glyph unicode="+" horiz-adv-x="498" d="M45 657v35q0 17 9 28.5t24 18t34 8.5t39 2h38v106q0 13 3 26t26 13h34q17 0 28 -9t17.5 -24t9 -34.5t2.5 -39.5v-38h108q18 0 27 -3.5t9 -23.5v-30q0 -34 -32 -48.5t-74 -14.5h-38v-121q0 -13 -4 -18.5t-20 -5.5h-32q-18 0 -30 8.5t-20 23.5t-11 35t-3 41v37h-107 q-14 0 -25.5 3.5t-11.5 24.5z" />
<glyph unicode="," horiz-adv-x="232" d="M32 57q0 34 22 52.5t62 18.5q45 0 66 -26t21 -61q0 -32 -6 -58.5t-16.5 -45.5t-24 -29.5t-28.5 -10.5q-5 0 -9 2.5t-4 9.5v76q-41 1 -62 19.5t-21 52.5z" />
<glyph unicode="-" horiz-adv-x="428" d="M49 533v45q0 23 14.5 39t36.5 16h256q14 0 19.5 -4.5t5.5 -19.5v-39q0 -27 -14.5 -44.5t-39.5 -17.5h-252q-10 0 -18 4t-8 21z" />
<glyph unicode="." horiz-adv-x="233" d="M32 57q0 33 20.5 52t63.5 19q44 0 65 -19t21 -52t-21 -52.5t-65 -19.5q-43 0 -63.5 19t-20.5 53z" />
<glyph unicode="/" horiz-adv-x="362" d="M17 25l175 1354q1 7 4 17t10 18.5t19 14t29 5.5h56q22 0 20 -27l-173 -1356q-2 -23 -20 -37t-39 -14h-59q-16 0 -20 5.5t-2 19.5z" />
<glyph unicode="0" d="M51 149v1134q0 33 12 64t36.5 55t62 38.5t90.5 14.5q51 0 88.5 -14.5t61.5 -38.5t35.5 -55t11.5 -64v-1134q0 -31 -11.5 -61t-37 -54t-63.5 -39t-90 -15q-53 0 -90.5 15t-60.5 39.5t-34 54t-11 60.5zM189 155q0 -21 15 -37.5t48 -16.5q32 0 45.5 17t13.5 37v565 l-122 -115v-450zM189 694l122 117v468q0 21 -14 37.5t-47 16.5q-32 0 -46.5 -16t-14.5 -39v-584z" />
<glyph unicode="1" horiz-adv-x="393" d="M21.5 1374.5q3.5 6.5 15.5 11.5l119 37q12 3 24 7t27 4h21q37 0 38 -38v-1282h38q35 0 51 -14t16 -52v-20q0 -28 -23 -28h-300q-15 0 -20.5 6t-5.5 21v21q0 38 18 52t51 14h37v1178l-29 -8q-19 -7 -39.5 2t-30.5 46l-7 21q-4 15 -0.5 21.5z" />
<glyph unicode="2" d="M28 34q0 12 12 51t32 98t45.5 133t52 156.5t52 168t45.5 167t32 154t12 128.5v189q0 21 -14 37.5t-47 16.5q-32 0 -46.5 -16t-14.5 -39v-266q0 -22 -16 -37t-39 -15h-58q-15 0 -20 5.5t-5 17.5v300q0 33 12 64t36.5 55t62 38.5t90.5 14.5q51 0 88.5 -14.5t61.5 -38.5 t35.5 -55t11.5 -64v-196q0 -53 -14.5 -134.5t-38 -174.5t-52 -192.5t-58.5 -189t-57 -163t-47 -115.5h205q30 0 46.5 -17.5t16.5 -52.5v-20q0 -28 -24 -28h-363q-18 0 -26.5 10t-8.5 24z" />
<glyph unicode="3" d="M51 149v322q0 15 5 20t20 5h59q20 0 37 -14.5t17 -38.5v-288q0 -21 15 -37.5t48 -16.5q32 0 45.5 17t13.5 37v456q0 21 -14 37.5t-47 16.5h-39q-22 0 -37 14t-15 35v52q0 15 5 18.5t19 3.5h69q32 0 45.5 16.5t13.5 36.5v438q0 21 -14 37.5t-47 16.5q-32 0 -46.5 -16 t-14.5 -39v-266q0 -22 -16 -37t-39 -15h-58q-15 0 -20 5.5t-5 17.5v300q0 33 12 64t36.5 55t62 38.5t90.5 14.5q51 0 88.5 -14.5t61.5 -38.5t35.5 -55t11.5 -64v-445q0 -37 -16 -65t-53 -44q37 -16 53 -44.5t16 -67.5v-468q0 -31 -11.5 -61t-37 -54t-63 -39t-90.5 -15 t-90.5 15t-60.5 39.5t-34 54t-11 60.5z" />
<glyph unicode="4" horiz-adv-x="499" d="M26 326l162 1053q1 7 4.5 17.5t10.5 18.5t18.5 14t28.5 6h55q23 0 20 -27l-148 -988h133v425q0 23 16.5 37.5t38.5 14.5h60q15 0 19.5 -5.5t4.5 -17.5v-845q0 -16 -5.5 -22.5t-21.5 -6.5h-58q-21 0 -37.5 15t-16.5 37v249h-258q-17 0 -23 5t-3 20z" />
<glyph unicode="5" horiz-adv-x="501" d="M51 149v322q0 15 5 20t20 5h59q20 0 37 -14.5t17 -38.5v-288q0 -21 15 -37.5t48 -16.5q32 0 45.5 17t13.5 37v578q0 21 -14.5 36.5t-37.5 15.5q-26 0 -44.5 -14t-22.5 -34q-5 -22 -18.5 -38t-33.5 -16h-66q-15 0 -19 5t-4 19v701q0 15 5 20.5t20 5.5h321q25 0 24 -28v-20 q0 -70 -65 -71h-167v-478q3 22 34.5 44t89.5 22t97 -41t39 -125v-588q0 -31 -11.5 -61t-37 -54t-63 -39t-90.5 -15t-90.5 15t-60.5 39.5t-34 54t-11 60.5z" />
<glyph unicode="6" d="M51 149v1134q0 31 12 62t36 55.5t60.5 39.5t87.5 15t89 -15t63.5 -39t37.5 -55t12 -62v-304q0 -20 -24 -20h-62q-16 0 -34 9.5t-18 31.5v278q0 21 -14.5 37.5t-46.5 16.5t-46.5 -16.5t-14.5 -37.5v-498q5 30 31.5 48.5t77.5 18.5q35 0 63 -13.5t48 -36.5t30 -53.5 t10 -67.5v-528q0 -41 -15.5 -72t-42 -52.5t-64 -33t-80.5 -11.5q-49 0 -85.5 12.5t-61 35.5t-37 54t-12.5 67zM189 155q0 -21 15 -37.5t48 -16.5q32 0 45.5 17t13.5 37v520q0 21 -13.5 38t-47.5 17q-30 0 -45.5 -22.5t-15.5 -46.5v-506z" />
<glyph unicode="7" horiz-adv-x="448" d="M32 1386v20q0 28 25 28h343q25 0 21 -27l-211 -1356q-2 -23 -20 -37t-40 -14h-58q-16 0 -20.5 5.5t-2.5 19.5l203 1290h-176q-31 0 -47.5 17.5t-16.5 53.5z" />
<glyph unicode="8" d="M51 149v469q0 39 15.5 67.5t51.5 44.5q-38 16 -52.5 44.5t-14.5 64.5v444q0 33 12 64t36.5 55t62 38.5t90.5 14.5q51 0 88.5 -14.5t61.5 -38.5t35.5 -55t11.5 -64v-444q0 -36 -16 -64t-53 -45q37 -15 53 -43.5t16 -68.5v-469q0 -31 -11.5 -61t-37 -54t-63.5 -39t-90 -15 q-53 0 -90.5 15t-60.5 39.5t-34 54t-11 60.5zM189 155q0 -21 15 -37.5t48 -16.5q32 2 45.5 18t13.5 36v459q0 21 -14 37.5t-47 16.5q-32 0 -46.5 -15.5t-14.5 -39.5v-458zM189 843q0 -21 15 -37.5t48 -16.5q32 0 45.5 17t13.5 37v436q0 21 -14 37.5t-47 16.5 q-32 0 -46.5 -16t-14.5 -39v-435z" />
<glyph unicode="9" d="M51 773v511q0 31 12 62t36.5 55t62.5 39t90 15q54 0 91.5 -15.5t61 -39.5t34 -55t10.5 -61v-1134q0 -36 -13.5 -67.5t-39 -54.5t-62 -35.5t-82.5 -12.5t-83 12.5t-63 35.5t-40 54.5t-14 67.5v323q0 20 24 20h62q16 0 33.5 -9t17.5 -31v-298q0 -19 12.5 -35.5t40.5 -18.5 h8q33 0 47 16t14 38v521q-5 -31 -31 -52t-77 -21q-37 0 -65.5 13.5t-48 37t-29 54.5t-9.5 65zM189 775q0 -22 13 -38t48 -16q31 0 46 22.5t15 44.5v491q0 21 -14.5 37.5t-47.5 16.5q-32 0 -46 -17t-14 -37v-504z" />
<glyph unicode=":" horiz-adv-x="233" d="M32 55q0 33 20.5 52t63.5 19q44 0 65 -19t21 -52t-21 -52.5t-65 -19.5q-43 0 -63.5 19t-20.5 53zM32 1037q0 33 20.5 52t63.5 19q44 0 65 -19t21 -52t-21 -52.5t-65 -19.5q-43 0 -63.5 19t-20.5 53z" />
<glyph unicode=";" horiz-adv-x="233" d="M32 57q0 34 22 52.5t62 18.5q45 0 66 -26t21 -61q0 -32 -6 -58.5t-16.5 -45.5t-24 -29.5t-28.5 -10.5q-5 0 -9 2.5t-4 9.5v76q-41 1 -62 19.5t-21 52.5zM32 1037q0 33 20.5 52t63.5 19q44 0 65 -19t21 -52t-21 -52.5t-65 -19.5q-43 0 -63.5 19t-20.5 53z" />
<glyph unicode="&#x3c;" horiz-adv-x="340" d="M30 716l128 283q7 15 20.5 29t40.5 14h58q9 0 14.5 -4t1.5 -12l-149 -310l149 -310q3 -6 -2 -11t-14 -5h-58q-27 0 -40.5 14t-20.5 29z" />
<glyph unicode="=" horiz-adv-x="487" d="M49 544v37q0 22 14.5 39.5t46.5 17.5h306q14 0 19.5 -4.5t5.5 -19.5v-33q0 -21 -14.5 -42t-47.5 -21h-304q-10 0 -18 4.5t-8 21.5zM49 763v37q0 22 14.5 39.5t46.5 17.5h306q14 0 19.5 -4.5t5.5 -19.5v-33q0 -21 -14.5 -42t-47.5 -21h-304q-10 0 -18 4.5t-8 21.5z" />
<glyph unicode="&#x3e;" horiz-adv-x="340" d="M43 405l149 310l-149 310q-3 6 2 11t14 5h58q27 0 40.5 -14t20.5 -29l128 -283l-128 -283q-7 -15 -20.5 -29t-40.5 -14h-58q-9 0 -14.5 4t-1.5 12z" />
<glyph unicode="?" horiz-adv-x="510" d="M60 988v208q0 46 8.5 92t31 83.5t61 60.5t99.5 23q73 0 119.5 -32t62.5 -84q9 -41 12 -82t1 -82q-3 -96 -13.5 -165.5t-25.5 -125t-32 -102t-32.5 -96t-26 -107.5t-12.5 -137q-1 -31 -4.5 -66.5t-12 -64.5t-22.5 -49t-35 -20h-34q-14 0 -19.5 7t-5.5 19v54 q-1 123 10 212.5t26 161.5t33.5 133.5t34.5 127t26.5 142t10.5 180.5q0 20 -15 37t-47 17t-47 -16.5t-15 -37.5v-272q0 -21 -17.5 -31t-33.5 -10h-62q-25 0 -24 22zM157 57q0 33 20.5 52t63.5 19q44 0 64.5 -19t20.5 -52t-20.5 -52.5t-64.5 -19.5q-43 0 -63.5 19t-20.5 53z " />
<glyph unicode="@" horiz-adv-x="928" d="M68 166v876q0 87 28.5 157.5t81 120t128 75.5t168.5 26t167 -27t125.5 -76t80 -118.5t28.5 -157.5v-880q0 -37 -13 -66.5t-34.5 -49t-49.5 -30t-59 -10.5q-78 0 -123 45q-19 -27 -50 -41.5t-73 -14.5q-51 0 -88.5 15t-62.5 39.5t-37 54.5t-12 61v879q0 33 13 64t38 55 t61.5 38.5t85.5 14.5q50 0 87.5 -14.5t62.5 -38t37.5 -55t12.5 -64.5v-880q0 -28 20 -47t43 -19t40 18t17 47v871q0 143 -85.5 222t-241.5 79q-70 0 -127.5 -19.5t-98.5 -58t-63 -95t-22 -128.5v-853q0 -146 78.5 -227t242.5 -81h64q16 0 26 -10t10 -25v-31q0 -6 -3.5 -11.5 t-13.5 -5.5h-83q-92 0 -166.5 25t-127.5 73t-82.5 118t-29.5 160zM411 170q0 -22 15 -38.5t48 -16.5q32 0 45.5 16.5t13.5 38.5v871q0 21 -14 37.5t-48 16.5q-32 0 -46 -16.5t-14 -37.5v-871z" />
<glyph unicode="A" horiz-adv-x="460" d="M17 25l117 1379q2 19 13 24.5t29 5.5h108q19 0 28.5 -5.5t11.5 -24.5l118 -1379q1 -14 -3 -19.5t-19 -5.5h-65q-21 0 -36.5 14t-16.5 37l-13 194h-119l-13 -194q-1 -23 -16 -37t-36 -14h-66q-16 0 -19.5 5.5t-2.5 19.5zM175 359h109l-55 873z" />
<glyph unicode="B" d="M51 26v1382q0 15 5 20.5t20 5.5h176q53 0 91 -16t61.5 -40.5t34 -55.5t10.5 -60v-376q0 -48 -9 -89.5t-41 -65.5q32 -25 41 -64t9 -80v-415q0 -29 -10.5 -59.5t-34.5 -55.5t-62.5 -41t-94.5 -16h-171q-15 0 -20 5.5t-5 20.5zM189 118h61q32 0 46.5 16.5t14.5 38.5v413 q0 14 -1 29t-6.5 28t-17 21.5t-31.5 8.5h-66v-555zM189 787h66q20 0 31.5 8.5t17 21.5t6.5 28.5t1 29.5v386q0 21 -14.5 37.5t-46.5 16.5h-61v-528z" />
<glyph unicode="C" horiz-adv-x="504" d="M53 150v1134q0 36 14 67t40 54t63.5 36.5t83.5 13.5t82 -13.5t61.5 -37t39.5 -54.5t14 -66v-454q0 -21 -23 -21h-62q-16 0 -33.5 9.5t-17.5 30.5v430q0 21 -16 37.5t-47 16.5t-46 -16.5t-15 -37.5v-1124q0 -21 15 -37.5t47 -16.5q34 0 47.5 18t13.5 36v428q0 11 5 19 t12.5 13t16.5 7t17 2h62q25 0 24 -20v-454q0 -36 -14 -67.5t-40 -54.5t-63 -35.5t-83 -12.5t-82.5 12.5t-62 35.5t-39.5 54.5t-14 67.5z" />
<glyph unicode="D" d="M53 26v1382q0 15 5 20.5t20 5.5h176q51 0 88 -14.5t61.5 -38t36 -55t11.5 -64.5v-1089q0 -83 -54.5 -128t-146.5 -45h-167q-18 0 -24 5t-6 21zM191 118h66q29 0 43 17.5t14 37.5v1088q0 21 -15 37.5t-47 16.5h-61v-1197z" />
<glyph unicode="E" horiz-adv-x="410" d="M53 26v1382q0 15 5 20.5t20 5.5h270q25 0 24 -28v-20q0 -34 -16.5 -52.5t-46.5 -18.5h-118v-546h136q25 0 25 -27v-21q0 -34 -16.5 -52t-46.5 -18h-98v-533h118q30 0 46.5 -17.5t16.5 -52.5v-20q0 -28 -24 -28h-264q-20 0 -25.5 5.5t-5.5 20.5z" />
<glyph unicode="F" horiz-adv-x="382" d="M51 28v1380q0 15 5 20.5t20 5.5h270q25 0 24 -28v-20q0 -70 -63 -71h-118v-546h136q25 0 25 -28v-20q0 -70 -63 -70h-98v-599q0 -22 -16.5 -37t-38.5 -15h-58q-15 0 -20 6.5t-5 21.5z" />
<glyph unicode="G" horiz-adv-x="498" d="M50 150v1134q0 36 14 67t40.5 54t63.5 36.5t84 13.5q45 0 81.5 -13.5t62 -37t39.5 -54.5t14 -66v-454q0 -21 -24 -21h-62q-7 0 -16.5 2t-17 6.5t-13 12.5t-5.5 19v430q0 21 -15 37.5t-46 16.5t-46.5 -16.5t-15.5 -37.5v-1124q0 -21 15 -37.5t47 -16.5q34 0 47.5 18 t13.5 36v386h-13q-30 0 -41.5 17t-11.5 51v33q0 27 25 27h156q23 0 23 -23v-496q0 -36 -14 -67.5t-40.5 -54.5t-64 -35.5t-83.5 -12.5t-82 12.5t-61.5 35.5t-39.5 54.5t-14 67.5z" />
<glyph unicode="H" horiz-adv-x="496" d="M51 26v1383q0 14 4.5 19.5t20.5 5.5h59q21 0 37.5 -14.5t16.5 -39.5v-593h118v593q0 25 16 39.5t38 14.5h59q16 0 20.5 -5.5t4.5 -19.5v-1383q0 -14 -5.5 -20t-20.5 -6h-56q-23 0 -39.5 15t-16.5 39v618h-118v-618q0 -25 -16 -39.5t-40 -14.5h-56q-15 0 -20.5 6t-5.5 20z " />
<glyph unicode="I" horiz-adv-x="244" d="M53 31v1349q0 25 16.5 39.5t38.5 14.5h58q16 0 20.5 -5.5t4.5 -19.5v-1378q0 -31 -31 -31h-77q-30 0 -30 31z" />
<glyph unicode="J" horiz-adv-x="499" d="M51 150v497q0 21 24 22h63q7 0 16 -2t16.5 -7t13 -13t5.5 -19v-473q0 -20 13 -36.5t44 -17.5q37 0 51 19t14 36v1225q0 22 17 37.5t38 15.5h59q15 0 19.5 -5.5t4.5 -20.5v-1257q0 -33 -13 -63.5t-37.5 -54.5t-61 -38.5t-85.5 -14.5q-53 0 -91 16t-62 40.5t-36 55 t-12 58.5z" />
<glyph unicode="K" d="M51 26v1382q0 15 5 20.5t20 5.5h58q21 0 38 -15t17 -38v-595h47l95 596q3 23 22 37.5t41 14.5h64q16 0 18.5 -5.5t0.5 -19.5l-111 -683l111 -701q2 -14 -0.5 -19.5t-18.5 -5.5h-64q-21 0 -41 14t-22 37l-96 621h-46v-620q0 -22 -16.5 -37t-38.5 -15h-58q-15 0 -20 5.5 t-5 20.5z" />
<glyph unicode="L" horiz-adv-x="393" d="M51 26v1382q0 15 5 20.5t20 5.5h58q21 0 38 -15t17 -38v-1263h118q63 0 63 -70v-20q0 -28 -24 -28h-270q-15 0 -20 6t-5 20z" />
<glyph unicode="M" horiz-adv-x="682" d="M51 26v1383q0 15 5.5 20t24.5 5h110q21 0 38.5 -14t20.5 -38l91 -1119l92 1119q2 23 20 37.5t40 14.5h115q15 0 19 -5.5t4 -19.5v-1383q0 -14 -4.5 -20t-19.5 -6h-57q-23 0 -39 15t-16 39l21 940l-3 76l-96 -1040q-1 -30 -33 -30h-85q-30 0 -33 30l-95 1039l-4 -75 l22 -940q0 -25 -16 -39.5t-40 -14.5h-56q-15 0 -20.5 6t-5.5 20z" />
<glyph unicode="N" horiz-adv-x="496" d="M51 26v1383q0 14 4.5 19.5t20.5 5.5h59q20 0 34 -12.5t19 -33.5l138 -840l-19 832q-1 25 15.5 39.5t38.5 14.5h59q16 0 20.5 -5.5t4.5 -19.5v-1383q0 -14 -5.5 -20t-20.5 -6h-56q-21 0 -36.5 13t-19.5 34l-137 839l19 -832q1 -25 -15.5 -39.5t-40.5 -14.5h-56 q-15 0 -20.5 6t-5.5 20z" />
<glyph unicode="O" d="M51 153v1130q0 33 13 64t38 54.5t62.5 38t86.5 14.5t86.5 -14.5t62.5 -38t37.5 -54.5t12.5 -64v-1130q0 -31 -11.5 -61.5t-36.5 -55t-62.5 -40t-88.5 -15.5t-88.5 15t-62.5 39.5t-37 55.5t-12 62zM189 156q0 -21 15 -38t48 -17q32 0 46.5 16.5t14.5 38.5v1123 q0 21 -15 37.5t-47 16.5q-33 0 -47.5 -16.5t-14.5 -37.5v-1123z" />
<glyph unicode="P" horiz-adv-x="478" d="M51 26v1382q0 15 5 20.5t20 5.5h176q46 0 82 -13t61.5 -36.5t39.5 -55t14 -67.5v-554q0 -36 -14 -67.5t-40.5 -54.5t-64 -35.5t-83.5 -12.5h-58v-486q0 -22 -16.5 -37t-38.5 -15h-58q-15 0 -20 5.5t-5 20.5zM189 656h66q29 0 42.5 17t13.5 37v551q0 21 -14.5 37.5 t-46.5 16.5h-61v-659z" />
<glyph unicode="Q" d="M51 153v1130q0 33 13 64t38 54.5t62.5 38t86.5 14.5t86.5 -14.5t62.5 -38t37.5 -54.5t12.5 -64v-1130q0 -50 -32 -97t-99 -66v-70q0 -9 -6 -15t-15 -6h-60q-31 0 -46.5 17t-15.5 45v30q-32 10 -55.5 27t-39 38.5t-23 46.5t-7.5 50zM189 156q0 -12 3 -22q9 9 22 14t31 5 q44 0 61 -23q6 11 7 26v1123q0 21 -15 37.5t-47 16.5q-33 0 -47.5 -16.5t-14.5 -37.5v-1123z" />
<glyph unicode="R" horiz-adv-x="499" d="M51 26v1382q0 15 5 20.5t20 5.5h176q51 0 88 -14.5t61.5 -38.5t36 -55t11.5 -64v-475q0 -96 -67 -138q67 -30 67 -108v-515q0 -15 -5.5 -20.5t-20.5 -5.5h-58q-21 0 -37.5 15t-16.5 37v488q0 21 -14.5 37.5t-46.5 16.5h-61v-542q0 -22 -16.5 -37t-38.5 -15h-58 q-15 0 -20 5.5t-5 20.5zM189 713h66q16 0 27 6.5t17.5 18t9 24.5t2.5 27v472q0 21 -14.5 37.5t-46.5 16.5h-61v-602z" />
<glyph unicode="S" d="M50 1284q0 36 14 67t39.5 54t62.5 36.5t81 13.5q46 0 83.5 -13.5t64 -36.5t40.5 -53.5t14 -67.5v-333q0 -21 -24 -21h-62q-16 0 -34 9.5t-18 32.5v307q0 21 -14.5 37.5t-46.5 16.5t-47 -17t-15 -37q0 -98 19 -185.5t48.5 -172.5t63 -169.5t63 -177.5t48.5 -197t19 -227 q0 -36 -14 -67.5t-39.5 -54.5t-62.5 -35.5t-83 -12.5q-47 0 -84 12.5t-62.5 35.5t-39 54.5t-13.5 67.5v323q0 21 24 21h63q7 0 16 -2t16.5 -7t13 -13t5.5 -19v-298q0 -21 15 -37.5t46 -16.5q32 0 46.5 16t14.5 38q0 106 -19 198t-48.5 178.5t-63 170.5t-62.5 174.5 t-48.5 190.5t-19.5 217z" />
<glyph unicode="T" horiz-adv-x="422" d="M15 1386v20q0 28 24 28h346q25 0 25 -28v-20q0 -35 -16.5 -53t-46.5 -18h-63v-1285q0 -30 -30 -30h-79q-16 0 -22.5 7t-6.5 23v1285h-68q-63 0 -63 71z" />
<glyph unicode="U" d="M51 150v1258q0 15 5 20.5t20 5.5h58q21 0 38 -15t17 -38v-1226q0 -18 13 -36t48 -18q33 0 47 16t14 38v1226q0 22 16 37.5t38 15.5h58q15 0 20.5 -5.5t5.5 -20.5v-1258q0 -31 -12 -61.5t-37 -54.5t-61.5 -39t-86.5 -15q-48 0 -85.5 13.5t-63 37.5t-39 54.5t-13.5 64.5z " />
<glyph unicode="V" horiz-adv-x="451" d="M13 1409q-2 14 2 19.5t20 5.5h58q21 0 39 -14t21 -38l72 -1178l73 1178q2 23 19.5 37.5t38.5 14.5h59q16 0 19.5 -5.5t2.5 -19.5l-118 -1379q-1 -30 -32 -30h-125q-16 0 -23 7t-9 23z" />
<glyph unicode="W" horiz-adv-x="763" d="M14 1409q-2 14 2 19.5t20 5.5h59q21 0 38.5 -14t20.5 -38l72 -1184l75 1184q2 21 17.5 36t34.5 15h56q19 0 35.5 -14.5t17.5 -36.5l76 -1189l72 1189q2 23 19.5 37.5t39.5 14.5h58q16 0 20 -5.5t3 -19.5l-117 -1379q-2 -19 -13 -24.5t-29 -5.5l-1 1v-1h-115q-32 0 -32 30 l-62 1057l-60 -1057q-1 -30 -34 -30h-124q-31 0 -32 30z" />
<glyph unicode="X" horiz-adv-x="439" d="M14 29l108 688l-108 688q-2 14 3 21.5t21 7.5h54q21 0 41.5 -14t22.5 -38l64 -583l64 583q2 23 22 37.5t42 14.5h53q16 0 21.5 -7.5t3.5 -21.5l-108 -688l108 -688q2 -14 -3.5 -21.5t-21.5 -7.5h-53q-21 0 -41.5 14t-22.5 37l-64 585l-64 -585q-2 -23 -22.5 -37 t-41.5 -14h-54q-16 0 -21 7.5t-3 21.5z" />
<glyph unicode="Y" horiz-adv-x="440" d="M15 1405q-2 14 2.5 21.5t20.5 7.5h54q21 0 41.5 -14t22.5 -38l64 -681l64 681q2 23 22 37.5t42 14.5h53q30 0 25 -29l-137 -936v-438q0 -31 -31 -31h-77q-30 0 -30 31v437z" />
<glyph unicode="Z" horiz-adv-x="384" d="M29 51l164 1264h-99q-28 0 -43 17.5t-15 53.5v20q0 28 23 28h260q18 0 24.5 -6t3.5 -24l-178 -1285h130q59 0 58 -71v-20q0 -28 -22 -28h-258q-22 0 -38 13.5t-10 37.5z" />
<glyph unicode="[" horiz-adv-x="332" d="M53 -86v1607q0 19 21 19h215q9 0 14.5 -5t5.5 -14v-13q0 -26 -13.5 -41.5t-36.5 -15.5h-68v-1468h68q22 0 36 -16t14 -42v-11q0 -9 -5.5 -14.5t-14.5 -5.5h-215q-20 0 -21 20z" />
<glyph unicode="\" horiz-adv-x="362" d="M17 1407q-3 27 20 27h56q17 0 28.5 -5.5t18.5 -14t10.5 -18t4.5 -17.5l175 -1354q2 -14 -2.5 -19.5t-19.5 -5.5h-59q-21 0 -39 14t-20 37z" />
<glyph unicode="]" horiz-adv-x="325" d="M16 -75q0 26 14 42t36 16h68v1468h-68q-22 0 -36 16t-14 41v13q0 19 20 19h216q20 0 20 -19v-1607q0 -19 -20 -20h-216q-20 0 -20 20v11z" />
<glyph unicode="^" horiz-adv-x="498" d="M55 491l99 425q4 15 10 22t23 7h124q16 0 22 -7t10 -22l99 -425q7 -25 -22 -25h-58q-21 0 -38.5 14t-21.5 36l-53 294l-54 -294q-4 -22 -20.5 -36t-37.5 -14h-59q-30 0 -23 25z" />
<glyph unicode="_" horiz-adv-x="486" d="M49 -71q0 23 14.5 36t36.5 13h316q14 0 19.5 -4.5t5.5 -20.5v-11q0 -21 -14.5 -37.5t-39.5 -16.5h-312q-10 0 -18 4.5t-8 21.5v15z" />
<glyph unicode="`" horiz-adv-x="269" d="M59.5 1547q9.5 15 42.5 15h38q13 0 22 -7t11 -18l44 -236q2 -12 -3.5 -18.5t-17.5 -6.5h-18q-25 0 -36.5 14.5t-20.5 38.5l-61 177q-10 26 -0.5 41z" />
<glyph unicode="a" horiz-adv-x="427" d="M13 25l105 1154q2 16 9 23t23 7h125q30 0 33 -30l104 -1154q2 -14 -2.5 -19.5t-19.5 -5.5h-58q-21 0 -39.5 14t-19.5 37l-11 162h-100l-9 -162q-2 -23 -20 -37t-39 -14h-59q-15 0 -19 5.5t-3 19.5zM169 319h87l-43 698l-1 -5z" />
<glyph unicode="b" horiz-adv-x="504" d="M53 26v1161q0 15 5 20.5t20 5.5h176q53 0 91 -16t61.5 -40.5t34 -55.5t10.5 -60v-283q0 -47 -10.5 -83t-43.5 -57q33 -21 43.5 -62t10.5 -82v-302q0 -29 -10.5 -59.5t-34.5 -55.5t-62.5 -41t-93.5 -16h-172q-15 0 -20 5.5t-5 20.5zM191 118h61q32 0 47 16.5t15 38.5v300 q0 14 -2.5 29t-8 28t-17 21.5t-29.5 8.5h-66v-442zM191 673h66q18 0 29.5 8.5t17 22t8 29t2.5 28.5v279q0 21 -15 37.5t-47 16.5h-61v-421z" />
<glyph unicode="c" horiz-adv-x="504" d="M53 150v909q0 36 14 67t40 54t63.5 36.5t83.5 13.5t82 -13.5t61.5 -37t39.5 -54.5t14 -66v-369q0 -21 -23 -21h-62q-16 0 -33.5 9.5t-17.5 30.5v345q0 21 -16 37.5t-47 16.5t-46 -16.5t-15 -37.5v-899q0 -21 15 -37.5t47 -16.5q34 0 47.5 18t13.5 36v334q0 11 5 18.5 t12.5 12.5t16.5 7t17 2h62q25 0 24 -20v-359q0 -36 -14 -67.5t-40 -54.5t-63 -35.5t-83 -12.5t-82.5 12.5t-62 35.5t-39.5 54.5t-14 67.5z" />
<glyph unicode="d" horiz-adv-x="499" d="M51 26v1157q0 15 5 20.5t20 5.5h176q52 0 90 -16t61.5 -41.5t34.5 -55.5t11 -60v-862q0 -41 -14.5 -73t-40 -54t-61.5 -34.5t-81 -12.5h-176q-15 0 -20 5.5t-5 20.5zM189 118h66q29 0 42.5 17.5t13.5 37.5v863q0 21 -14.5 37.5t-46.5 16.5h-61v-972z" />
<glyph unicode="e" horiz-adv-x="390" d="M51 26v1157q0 20 9 23t40 3h246q25 0 24 -28v-20q0 -35 -16.5 -53t-46.5 -18h-118v-435h136q25 0 25 -28v-21q0 -42 -25 -55.5t-59 -13.5h-77v-419h118q63 0 63 -70v-20q0 -28 -24 -28h-265q-19 0 -24.5 5.5t-5.5 20.5z" />
<glyph unicode="f" horiz-adv-x="380" d="M51 26v1157q0 15 6 20.5t24 5.5h265q25 0 24 -26v-22q0 -35 -16.5 -53t-46.5 -18h-118v-435h136q25 0 25 -28v-21q0 -34 -16.5 -51.5t-46.5 -17.5h-98v-484q0 -20 -15 -36.5t-40 -16.5h-58q-15 0 -20 5.5t-5 20.5z" />
<glyph unicode="g" horiz-adv-x="504" d="M50 150v908q0 36 14 67.5t40.5 54.5t63.5 36.5t84 13.5q45 -1 81.5 -14.5t62 -36.5t39.5 -54t14 -67v-320q0 -21 -24 -21h-62q-7 0 -16.5 2t-17 7t-13 13t-5.5 18v297q0 21 -15 37.5t-46 16.5t-46.5 -16.5t-15.5 -37.5v-899q0 -21 15 -37.5t47 -16.5q34 0 47.5 18 t13.5 36v324h-13q-30 0 -41.5 17.5t-11.5 51.5v32q0 27 25 27h87h6h63q23 0 23 -22v-435q0 -36 -14 -67.5t-40.5 -54.5t-64 -35.5t-83.5 -12.5t-82 12.5t-61.5 35.5t-39.5 54.5t-14 67.5z" />
<glyph unicode="h" horiz-adv-x="496" d="M51 26v1157q0 15 5 20.5t20 5.5h58q25 0 40 -15.5t15 -40.5v-491h118v494q0 22 16.5 37.5t38.5 15.5h58q15 0 20 -5.5t5 -20.5v-1157q0 -15 -5 -20.5t-20 -5.5h-58q-21 0 -38 14.5t-17 36.5v497h-118v-496q0 -22 -16.5 -37t-38.5 -15h-58q-15 0 -20 5.5t-5 20.5z" />
<glyph unicode="i" horiz-adv-x="240" d="M51 31v1124q0 23 16.5 38.5t38.5 15.5h58q16 0 20.5 -5t4.5 -20v-1153q0 -31 -31 -31h-77q-30 0 -30 31z" />
<glyph unicode="j" horiz-adv-x="499" d="M51 150v497q0 21 24 22h63q7 0 16 -2t16.5 -7t13 -13t5.5 -19v-473q0 -20 13 -36.5t44 -17.5q37 0 51 19t14 36v1000q0 22 17 37.5t38 15.5h59q15 0 19.5 -5.5t4.5 -20.5v-1032q0 -33 -13 -63.5t-37.5 -54.5t-61 -38.5t-85.5 -14.5q-53 0 -91 16t-62 40.5t-36 55 t-12 58.5z" />
<glyph unicode="k" horiz-adv-x="504" d="M51 26v1157q0 15 5 20.5t20 5.5h58q25 0 40 -14.5t15 -35.5v-491h48l94 498q3 19 22 31t41 12h64q16 0 18.5 -5t0.5 -17l-111 -575l111 -591q2 -12 -0.5 -16.5t-18.5 -4.5h-64q-21 0 -40.5 11.5t-22.5 31.5l-94 511h-48v-502q0 -22 -16.5 -37t-38.5 -15h-58 q-15 0 -20 5.5t-5 20.5z" />
<glyph unicode="l" horiz-adv-x="374" d="M51 27v1156q0 15 5 20.5t20 5.5h58q25 0 40 -15.5t15 -40.5v-1035h115q62 0 62 -70v-20q0 -28 -24 -28h-266q-15 0 -20 6t-5 21z" />
<glyph unicode="m" horiz-adv-x="683" d="M51 26v1158q0 15 4.5 20t20.5 5h115q21 0 38.5 -14t20.5 -38l89 -916l90 916q2 19 12.5 29.5t26.5 15t35.5 6t37.5 1.5h63q15 0 19 -5t4 -20v-1158q0 -26 -24 -26h-57q-23 0 -39 15t-16 39l21 683l-6 142l-93 -849q-1 -30 -33 -30h-81q-30 0 -33 30l-93 849l-6 -142 l22 -683q0 -25 -16 -39.5t-40 -14.5h-56q-15 0 -20.5 6t-5.5 20z" />
<glyph unicode="n" horiz-adv-x="496" d="M51 26v1158q0 14 4.5 19.5t20.5 5.5h59q21 0 37 -23t24 -64l136 -690l-25 723q-2 23 15 38.5t39 15.5h59q16 0 20.5 -5.5t4.5 -19.5v-1158q0 -14 -5.5 -20t-20.5 -6h-56q-15 0 -24.5 7t-17 18t-12 26t-7.5 30l-138 699l25 -726q2 -25 -15 -39.5t-41 -14.5h-56 q-15 0 -20.5 6t-5.5 20z" />
<glyph unicode="o" horiz-adv-x="504" d="M53 153v905q0 33 13 64t38 55t62 38.5t86 14.5q50 0 87.5 -14.5t62.5 -38.5t37 -55t12 -64v-905q0 -31 -11.5 -61.5t-36 -55t-62 -40t-88.5 -15.5t-88.5 15t-62.5 39.5t-37 55.5t-12 62zM191 156q0 -21 15 -38t48 -17q32 0 46 16.5t14 38.5v898q0 21 -14.5 37.5 t-47.5 16.5q-32 0 -46.5 -16.5t-14.5 -37.5v-898z" />
<glyph unicode="p" horiz-adv-x="473" d="M51 26v1157q0 15 5 20.5t20 5.5h176q46 0 82 -13.5t61.5 -36.5t39.5 -54.5t14 -67.5v-449q0 -36 -14 -67.5t-40.5 -54.5t-64 -36t-83.5 -13h-58v-365q0 -22 -16.5 -37t-38.5 -15h-58q-15 0 -20 5.5t-5 20.5zM189 535h66q29 0 42.5 17.5t13.5 36.5v447q0 21 -14.5 37.5 t-46.5 16.5h-61v-555z" />
<glyph unicode="q" d="M53 153v905q0 33 13 64t38 55t62 38.5t86 14.5q50 0 87.5 -14.5t62.5 -38.5t37 -55t12 -64v-905q0 -26 -8 -51t-24 -47.5t-41 -39.5t-59 -26v-69q0 -9 -6 -15t-15 -6h-60q-31 0 -46.5 17t-15.5 45v32q-31 10 -54.5 26.5t-38.5 38t-22.5 46t-7.5 49.5zM191 156 q0 -11 3 -21q19 17 51 18q25 0 39.5 -6.5t22.5 -17.5q6 11 7 27v898q0 21 -14.5 37.5t-47.5 16.5q-32 0 -46.5 -16.5t-14.5 -37.5v-898z" />
<glyph unicode="r" horiz-adv-x="499" d="M51 26v1158q0 15 5 20.5t20 5.5h176q51 0 88 -14.5t61.5 -38.5t36 -55t11.5 -64v-347q0 -97 -67 -137q67 -31 67 -109v-419q0 -15 -5.5 -20.5t-20.5 -5.5h-58q-21 0 -37.5 15t-16.5 37v393q0 21 -14.5 37t-46.5 16h-61v-446q0 -22 -16.5 -37t-38.5 -15h-58q-15 0 -20 5.5 t-5 20.5zM189 617h66q16 0 27 6.5t17.5 18t9 24.5t2.5 27v344q0 21 -14.5 37.5t-46.5 16.5h-61v-474z" />
<glyph unicode="s" d="M50 1058q0 36 14 67.5t39.5 54.5t62.5 36t81 13q46 0 83.5 -13t64 -36t40.5 -54.5t14 -67.5v-268q0 -20 -24 -20h-62q-16 0 -34 9.5t-18 31.5v243q0 21 -14.5 37.5t-46.5 16.5t-47 -17t-15 -37q0 -98 19 -169.5t48.5 -131t63 -115.5t63 -123t48.5 -154.5t19 -210.5 q0 -36 -14 -67.5t-39.5 -54.5t-62.5 -35.5t-83 -12.5q-47 0 -84 12.5t-62.5 35.5t-39 54.5t-13.5 67.5v259q0 20 24 20h63q7 0 16 -2t16.5 -7t13 -12.5t5.5 -18.5v-234q0 -21 15 -37.5t46 -16.5q32 0 46.5 16t14.5 38q0 101 -19 174.5t-48.5 135t-63 118t-62.5 123 t-48.5 151t-19.5 201.5z" />
<glyph unicode="t" horiz-adv-x="423" d="M15 1161v20q0 28 24 28h346q25 0 25 -28v-20q0 -35 -16.5 -53t-46.5 -18h-63v-1060q0 -30 -30 -30h-79q-16 0 -22.5 7t-6.5 23v1060h-68q-63 0 -63 71z" />
<glyph unicode="u" d="M51 150v1034q0 15 5 20.5t20 5.5h58q21 0 38 -15t17 -38v-1002q0 -18 13 -36t48 -18q33 0 47 16t14 38v1002q0 22 16 37.5t38 15.5h58q15 0 20.5 -5.5t5.5 -20.5v-1034q0 -31 -12 -61.5t-37 -54.5t-61.5 -39t-86.5 -15q-48 0 -85.5 13.5t-63 37.5t-39 54.5t-13.5 64.5z " />
<glyph unicode="v" horiz-adv-x="426" d="M13 1184q-1 14 3 19.5t19 5.5h59q21 0 39 -14t21 -38l58 -948l60 948q2 23 20 37.5t40 14.5h58q15 0 19.5 -5.5t2.5 -19.5l-104 -1154q-3 -30 -33 -30h-125q-31 0 -32 30z" />
<glyph unicode="w" horiz-adv-x="725" d="M15 1184q-2 14 2 19.5t20 5.5h59q21 0 39.5 -14t19.5 -38l59 -948l63 948q1 23 19 37.5t39 14.5h55q21 0 39.5 -14t20.5 -38l62 -948l60 948q1 23 19.5 37.5t39.5 14.5h58q16 0 20.5 -5.5t1.5 -19.5l-104 -1154q-2 -16 -9 -23t-24 -7h-89h-24.5t-21 2t-16 8.5t-6.5 19.5 l-54 886l-54 -886q-1 -30 -32 -30h-124q-17 0 -24 7t-10 23z" />
<glyph unicode="x" horiz-adv-x="444" d="M21 26l103 579l-103 578q-2 12 3.5 19t21.5 7h53q21 0 41.5 -12t22.5 -31l60 -492l60 492q2 19 22 31t42 12h53q28 0 25 -26l-104 -578l104 -579q3 -26 -25 -26h-53q-21 0 -41.5 11.5t-22.5 31.5l-60 492l-60 -492q-2 -19 -22 -31t-42 -12h-53q-16 0 -21.5 7t-3.5 19z " />
<glyph unicode="y" horiz-adv-x="418" d="M15 1184q-2 12 2.5 18.5t20.5 6.5h54q21 0 41.5 -12t22.5 -31l54 -547l55 547q1 19 21 31t41 12h54q16 0 21 -6.5t3 -18.5l-127 -785v-373q0 -26 -31 -26h-75q-31 0 -31 26v373z" />
<glyph unicode="z" horiz-adv-x="382" d="M29 51l162 1039h-97q-28 0 -43 17.5t-15 53.5v20q0 28 23 28h261q18 0 23.5 -6.5t3.5 -23.5l-175 -1060h127q59 0 58 -71v-20q0 -28 -22 -28h-258q-22 0 -38 13.5t-10 37.5z" />
<glyph unicode="{" horiz-adv-x="397" d="M39 679v75q0 13 9 18t21 5q28 0 46.5 17t18.5 51q0 29 -3 71t-6.5 84t-7 80t-3.5 59q0 103 8 173.5t23.5 116t37.5 69t49 34t58.5 12t66.5 1.5q34 0 34 -19v-20q0 -9 -2 -14t-9 -6q-16 -5 -31.5 -4.5t-29.5 -4t-25.5 -20t-21 -52t-14.5 -100t-6 -165.5q0 -21 2.5 -59.5 t6.5 -81.5t7 -83t3 -65q0 -110 -102 -134q102 -26 102 -135q0 -25 -3 -64.5t-7 -83t-6.5 -81.5t-2.5 -60q1 -101 6 -164.5t14.5 -100.5t21 -52t25.5 -19.5t29.5 -4t31.5 -4.5q7 -1 9 -6.5t2 -14.5v-20q0 -18 -34 -18q-35 0 -66.5 1t-58.5 12t-49 34t-37.5 68.5t-23.5 116 t-8 173.5q0 21 3.5 59t7 80.5t6.5 84.5t3 71q0 34 -18.5 51t-46.5 17q-13 0 -21.5 5t-8.5 17z" />
<glyph unicode="|" horiz-adv-x="297" d="M52 -84v1576q0 23 16.5 38.5t38.5 15.5h58q16 0 20.5 -5.5t4.5 -19.5v-1580q0 -22 -15 -36.5t-38 -14.5h-59q-17 0 -21.5 7.5t-4.5 18.5z" />
<glyph unicode="}" horiz-adv-x="397" d="M5 -73q0 9 2.5 14.5t9.5 6.5q16 5 31.5 4.5t29.5 4t25.5 19.5t20.5 52t14.5 100.5t6.5 164.5q0 21 -3 59.5t-6.5 82t-6.5 83.5t-3 64q0 109 101 135q-51 12 -76 46t-25 88q0 25 3 65t6.5 83t6.5 81.5t3 59.5q-1 101 -6.5 165t-14.5 100.5t-20.5 52t-25.5 20t-29.5 4 t-31.5 4.5q-7 1 -9.5 6.5t-2.5 13.5v20q0 18 34 19q35 0 67 -1.5t59 -12t49 -34t37.5 -69t23.5 -116t8 -173.5q0 -21 -3.5 -59t-7 -80l-7 -84t-3.5 -71q0 -34 18.5 -51t45.5 -17q13 0 21.5 -5t8.5 -18v-75q0 -13 -8.5 -17.5t-21.5 -4.5q-28 0 -46 -17t-18 -51q0 -29 3.5 -71 t7 -84.5t7 -80t3.5 -59.5q0 -103 -8 -173.5t-23.5 -116t-37.5 -68.5t-49 -34t-58.5 -12t-67.5 -1q-34 0 -34 18v20z" />
<glyph unicode="~" horiz-adv-x="486" d="M47 613v32q0 20 9.5 37t26 28.5t38 18t43.5 6.5q29 0 51.5 -10t41 -22t35.5 -22t38 -10q23 0 43 8t34 14.5t22.5 5.5t8.5 -20v-29q0 -22 -9 -40t-24 -29.5t-34 -18t-39 -6.5q-30 0 -53 10t-42.5 21.5t-38 22t-38.5 10.5q-26 0 -46.5 -9t-35.5 -15.5t-23 -5t-8 22.5z" />
<glyph unicode="&#xa1;" horiz-adv-x="246" d="M32 1155q0 -33 20.5 -52t63.5 -19q44 0 65 19t21 52t-21 52.5t-65 19.5q-43 0 -63.5 -19t-20.5 -53zM55 -198q0 -11 6 -18.5t18 -7.5h63q31 0 50.5 17t17.5 45l-28 1071q-2 28 -21 44.5t-49 16.5h-33q-12 0 -18 -7.5t-6 -17.5v-1143z" />
<glyph unicode="&#xa2;" horiz-adv-x="504" d="M53 150v909q0 62 40 107.5t111 59.5v127q0 23 16.5 38t37.5 15h18q15 0 19.5 -5.5t4.5 -19.5v-155q70 -13 110.5 -59t40.5 -108v-369q0 -21 -23 -21h-62q-16 0 -33.5 9.5t-17.5 30.5v345q0 21 -16 37.5t-47 16.5t-46 -16.5t-15 -37.5v-899q0 -21 15 -37.5t47 -16.5 q34 0 47.5 18t13.5 36v334q0 11 5 18.5t12.5 12.5t16.5 7t17 2h62q25 0 24 -20v-359q0 -63 -40.5 -108t-110.5 -58v-128q0 -22 -15 -36.5t-38 -14.5h-18q-17 0 -21 8t-4 17v154q-70 12 -110.5 57.5t-40.5 108.5z" />
<glyph unicode="&#xa3;" horiz-adv-x="603" d="M53 19v45q0 23 11 38q10 20 23 53t25 86.5t20.5 132.5t8.5 192v102h-33q-22 0 -36 16t-14 41v21q0 19 20 19h63v517q0 33 12 64t37 55t62 38.5t85 14.5q52 0 90.5 -16t63 -40.5t36.5 -55t12 -59.5v-293q0 -21 -24 -21h-63q-7 0 -16 2t-16.5 6.5t-13 12.5t-5.5 19v270 q0 20 -13.5 36t-44.5 17q-37 0 -51 -18.5t-14 -35.5v-513h126q9 0 15.5 -5.5t6.5 -13.5v-21q0 -26 -14.5 -41.5t-37.5 -15.5h-96v-99q0 -96 -8.5 -170.5t-21 -129t-27 -91t-25.5 -56.5h302q22 0 36 -16t14 -42v-45q0 -19 -20 -19h-454q-20 0 -21 19z" />
<glyph unicode="&#xa4;" horiz-adv-x="514" d="M55 25l52 203q-23 32 -24 73v814q0 42 27 76l-55 216q-3 14 2.5 20.5t17.5 6.5h25q17 0 28 -5.5t18 -14t10.5 -18t5.5 -17.5l31 -126q23 13 67 13q37 0 61 -12l31 125q2 7 6 17t10.5 18.5t17.5 14t28 5.5h25q12 0 17.5 -6.5t2.5 -20.5l-54 -210q29 -37 29 -82v-814 q0 -41 -27 -76l52 -200q6 -25 -22 -25h-27q-21 0 -38 14.5t-22 36.5l-28 112q-26 -12 -65 -12q-41 0 -66 12l-27 -112q-5 -22 -21.5 -36.5t-37.5 -14.5h-28q-28 0 -22 25zM202 305q0 -21 13 -35.5t44 -14.5t44 16t13 34v806q0 19 -13.5 35t-44.5 16t-43.5 -15t-12.5 -37 v-805z" />
<glyph unicode="&#xa5;" horiz-adv-x="520" d="M54 1405q-2 14 3.5 21.5t21.5 7.5h53q21 0 41.5 -14t22.5 -38l64 -681l64 681q2 23 22.5 37.5t41.5 14.5h54q30 0 24 -29l-121 -833h80q20 0 20 -19v-21q0 -26 -14 -41.5t-36 -15.5h-65v-6v-66h95q20 0 20 -18v-21q0 -26 -14 -42t-36 -16h-65v-275q0 -31 -31 -31h-77 q-30 0 -30 31v275h-65q-21 0 -35.5 16t-14.5 42v21q0 18 21 18h94v65l-1 7h-64q-21 0 -35.5 16t-14.5 41v21q0 19 21 19h78z" />
<glyph unicode="&#xa6;" horiz-adv-x="245" d="M53 -59v690q0 23 16.5 38t38.5 15h59q15 0 19.5 -5t4.5 -19v-741q0 -17 -5 -23t-21 -6h-58q-21 0 -37.5 15t-16.5 36zM54 782v741q0 14 4.5 19t19.5 5h60q21 0 37.5 -14.5t16.5 -38.5v-690q0 -21 -16 -36t-37 -15h-59q-16 0 -21 6t-5 23z" />
<glyph unicode="&#xa7;" horiz-adv-x="504" d="M53 820q0 50 25 89.5t72 61.5q-19 26 -36.5 55.5t-31 67t-21.5 83.5t-8 106q0 36 14 67.5t39.5 54.5t62 36t82.5 13h1q46 0 82.5 -13.5t62.5 -36.5t40 -54t14 -67v-146q0 -21 -24 -21h-62q-7 0 -16.5 2t-17 7.5t-12.5 13t-5 18.5v122q0 21 -15 37.5t-46 16.5 q-32 0 -47 -17t-15 -37q0 -58 11 -100.5t29.5 -76t42 -61.5t48 -56.5t48 -61t41.5 -76t29 -100.5t11 -134q0 -48 -23 -85.5t-65 -59.5q18 -26 34 -56t28 -68t19 -85.5t7 -108.5q0 -36 -14 -67.5t-39.5 -54.5t-62 -35.5t-82.5 -12.5q-47 0 -84 12.5t-62.5 35.5t-39 54.5 t-13.5 67.5v150q0 21 24 21h62q16 0 33.5 -9.5t17.5 -30.5v-126q0 -21 15.5 -37.5t46.5 -16.5q32 0 46.5 16t14.5 38q0 81 -19.5 135.5t-48 96.5t-63 79t-63 84t-48 110.5t-19.5 159.5zM191 816q0 -46 7 -82t18.5 -65.5t28 -53.5t34.5 -46q18 6 26.5 20t8.5 29q0 45 -6.5 81 t-18 66.5t-25.5 55.5t-31 47q-21 -5 -31.5 -20.5t-10.5 -31.5z" />
<glyph unicode="&#xa8;" horiz-adv-x="354" d="M32 1347q0 31 15 50.5t46 19.5q32 0 48 -19.5t16 -50.5t-16 -50t-48 -19q-31 0 -46 19t-15 50zM201 1347q0 31 15 50.5t46 19.5q32 0 47.5 -19.5t15.5 -50.5t-15.5 -50t-47.5 -19q-31 0 -46 19t-15 50z" />
<glyph unicode="&#xa9;" horiz-adv-x="942" d="M68 166v876q0 87 28.5 157.5t81 120t128 75.5t168.5 26t167 -27t125.5 -76t80 -118.5t28.5 -157.5v-876q0 -91 -29.5 -160.5t-82.5 -117.5t-126 -73t-163 -25q-92 0 -166.5 25t-127.5 73t-82.5 118t-29.5 160zM153 181q0 -146 78.5 -227t242.5 -81q161 0 239 80.5 t78 227.5v853q0 143 -85.5 222t-241.5 79q-70 0 -127.5 -19.5t-98.5 -58t-63 -95t-22 -128.5v-853zM272 163v881q0 36 14 67.5t39.5 54.5t62.5 36.5t82 13.5q46 0 83.5 -13t63.5 -36.5t40 -54.5t14 -68v-356q0 -20 -24 -20h-61q-16 0 -34.5 9t-18.5 31v333q0 21 -15.5 37.5 t-46.5 16.5t-46 -16.5t-15 -37.5v-874q0 -20 14.5 -36.5t48.5 -16.5h11q25 4 37 19.5t12 33.5v323q0 11 5.5 18.5t13 12.5t16.5 7t17 2h62q23 0 24 -20v-347q0 -36 -14 -67t-40.5 -54t-64 -35.5t-83.5 -12.5q-45 0 -81.5 12.5t-62 35.5t-39.5 54t-14 67z" />
<glyph unicode="&#xaa;" horiz-adv-x="453" d="M54 585v20q0 15 22 15h302q20 0 20 -15v-20q0 -26 -14 -35.5t-36 -9.5h-243q-21 0 -36 9.5t-15 35.5zM55 685l90 732q1 26 29 25h105q26 0 29 -25l90 -732q2 -12 -1.5 -17t-17.5 -5h-44q-19 0 -35.5 12.5t-17.5 32.5l-11 111h-90l-9 -111q-2 -20 -18 -32.5t-35 -12.5h-44 q-14 0 -18 5t-2 17zM189 899h74l-35 382l-3 -3z" />
<glyph unicode="&#xab;" horiz-adv-x="542" d="M65 592l123 223q6 12 21.5 22.5t33.5 10.5h52q7 0 12.5 -3t2.5 -9l-141 -244l141 -244q2 -4 -2.5 -8t-12.5 -4h-52q-18 0 -33.5 11t-21.5 23zM255 592l123 223q6 12 21.5 22.5t33.5 10.5h52q7 0 12 -3t3 -9l-142 -244l142 -244q2 -4 -2.5 -8t-12.5 -4h-52q-18 0 -33.5 11 t-21.5 23z" />
<glyph unicode="&#xac;" horiz-adv-x="586" d="M53 656v36q0 17 8.5 28.5t23 18t33.5 8.5t40 2h349q16 0 21 -5.5t5 -23.5v-187q0 -12 -4 -20t-21 -8h-35q-18 0 -29 11t-17.5 29t-8.5 40.5t-2 44.5h-334q-12 0 -20.5 5t-8.5 21z" />
<glyph unicode="&#xad;" horiz-adv-x="674" d="M49 533v45q0 23 14.5 39t36.5 16h502q14 0 19 -4.5t5 -19.5v-39q0 -27 -14.5 -44.5t-38.5 -17.5h-498q-10 0 -18 4t-8 21z" />
<glyph unicode="&#xae;" horiz-adv-x="925" d="M68 166v876q0 87 28 157.5t80 120t127.5 75.5t170.5 26q93 0 167 -27t125.5 -76t80 -118.5t28.5 -157.5v-876q0 -91 -29.5 -160.5t-82.5 -117.5t-126 -73t-163 -25q-92 0 -166.5 25t-127.5 73t-82.5 118t-29.5 160zM153 181q0 -146 78.5 -227t242.5 -81q161 0 239 80.5 t78 227.5v853q0 143 -85.5 222t-241.5 79q-147 0 -229 -77.5t-82 -223.5v-853zM273 51v1073q0 15 7.5 30.5t29.5 28t61 20.5t103 8q51 0 88 -15t61 -39.5t36 -55.5t12 -63v-335q0 -43 -14.5 -85t-51.5 -65q66 -32 66 -111v-391q0 -15 -5 -20t-20 -5h-58q-21 0 -38 6t-17 29 v383q0 21 -15 37.5t-47 16.5h-60v-437q0 -22 -16 -28.5t-38 -6.5h-59q-15 0 -20 5t-5 20zM411 617h66q17 0 28 8.5t17.5 21t8.5 28t2 29.5v334q0 21 -15 37.5t-47 16.5q-5 0 -15.5 -1t-20.5 -3l-24 -4v-467z" />
<glyph unicode="&#xaf;" horiz-adv-x="444" d="M73 1330v20q0 19 20 20h246q9 0 14.5 -5.5t5.5 -14.5v-20q0 -26 -13.5 -41.5t-36.5 -15.5h-186q-22 0 -36 16t-14 41z" />
<glyph unicode="&#xb0;" horiz-adv-x="315" d="M29 1303q0 67 34.5 104.5t92.5 37.5q61 0 95.5 -37.5t34.5 -104.5t-34.5 -104.5t-95.5 -37.5q-58 0 -92.5 37.5t-34.5 104.5zM111 1305q0 -31 13.5 -45t31.5 -14q19 0 32.5 14t13.5 45q-1 31 -14 44t-32 13q-18 0 -30.5 -13t-14.5 -44z" />
<glyph unicode="&#xb1;" horiz-adv-x="498" d="M45 747v35q0 17 9 28.5t24 18t34 8.5t39 2h38v106q0 13 3 26t26 13h34q17 0 28 -9t17.5 -24t9 -34.5t2.5 -39.5v-38h108q18 0 27 -3.5t9 -23.5v-30q0 -34 -32 -48.5t-74 -14.5h-38v-121q0 -13 -4 -18.5t-20 -5.5h-32q-18 0 -30 8.5t-20 23.5t-11 35t-3 41v37h-107 q-14 0 -25.5 3.5t-11.5 24.5zM53 426v37q0 22 14.5 39.5t46.5 17.5h306q14 0 19.5 -4.5t5.5 -19.5v-33q0 -21 -14.5 -42t-47.5 -21h-304q-10 0 -18 4.5t-8 21.5z" />
<glyph unicode="&#xb2;" horiz-adv-x="448" d="M46 711q0 14 17.5 48.5t43 79.5t56.5 98t56.5 102.5t43.5 91.5t18 68v102q0 19 -13.5 34.5t-44.5 15.5t-44.5 -14.5t-13.5 -36.5v-122q0 -19 -13 -32t-33 -13h-49q-13 0 -17 4t-4 16v152q0 29 10 56t31.5 47.5t54.5 33.5t80 13q46 0 78.5 -13t53.5 -33.5t30.5 -48 t9.5 -55.5v-112q0 -35 -20.5 -87.5t-49 -110.5t-61.5 -115t-59 -99h144q26 0 40.5 -14.5t14.5 -45.5v-17q0 -23 -21 -23h-308q-16 0 -23.5 9.5t-7.5 20.5z" />
<glyph unicode="&#xb3;" horiz-adv-x="448" d="M51 806v87q0 13 4 17t16 4h50q18 0 32 -12t14 -34v-58q0 -19 13.5 -34t44.5 -15t44 15t13 34v151q0 19 -13.5 33.5t-44.5 14.5h-25q-19 0 -31.5 13t-12.5 31v29q0 13 4 16t16 3h50q31 0 44 15.5t13 33.5v151q0 20 -13.5 35t-44.5 15t-44 -14t-13 -36v-76q0 -18 -13.5 -31 t-32.5 -13h-50q-13 0 -16.5 4t-3.5 15v105q0 29 10 56t31 47.5t54 33.5t80 13q45 0 77.5 -13t53.5 -33.5t30.5 -48t9.5 -55.5v-154q0 -32 -13.5 -57t-47.5 -40q33 -15 47 -40t14 -59v-149q0 -27 -10 -53.5t-31 -47t-54.5 -34t-79.5 -13.5q-48 0 -80.5 13.5t-53 34.5t-29 48 t-8.5 52z" />
<glyph unicode="&#xb4;" horiz-adv-x="269" d="M51 1301l44 236q2 11 11 18t23 7h36q32 0 42 -15t0 -41l-60 -177q-10 -25 -21.5 -39t-35.5 -14h-19q-12 0 -17 7t-3 18z" />
<glyph unicode="&#xb6;" horiz-adv-x="706" d="M51 755v413q0 47 7.5 94.5t29 85.5t60 62t99.5 24h142q16 0 27.5 0.5t19 -2t10.5 -7.5t3 -17v-1493q0 -14 -5.5 -20t-20.5 -6h-58q-21 0 -37.5 15.5t-16.5 37.5v596h-59q-57 0 -95 17t-62 46t-34 68.5t-10 85.5zM514 -85v1493q0 15 5 20.5t20 5.5h58q21 0 38.5 -15 t17.5 -38v-1439q0 -22 -17 -37.5t-39 -15.5h-58q-15 0 -20 6t-5 20z" />
<glyph unicode="&#xb7;" horiz-adv-x="233" d="M32 650q0 33 20.5 52t63.5 19q44 0 65 -19t21 -52t-21 -52.5t-65 -19.5q-43 0 -63.5 19t-20.5 53z" />
<glyph unicode="&#xb8;" horiz-adv-x="343" d="M98 -223q0 14 11.5 19.5t22.5 5.5h14t17.5 1.5t15 6t6.5 14.5q0 14 -8 29t-18.5 35t-19 47t-8.5 63q0 11 6.5 13t16.5 2h49q5 0 10 -2t5 -9q0 -29 10 -47.5t21 -36.5t20.5 -40t9.5 -55q0 -30 -10.5 -49.5t-28.5 -31t-43 -15.5t-54 -4q-44 0 -44 15z" />
<glyph unicode="&#xb9;" horiz-adv-x="393" d="M20 1382.5q2 6.5 14 9.5l106 32q9 3 20 6.5t22 3.5h19q31 0 30 -31v-626h38q30 0 43.5 -12t13.5 -45v-17q0 -23 -20 -24h-263q-12 0 -17 5t-5 19v17q0 32 15 44.5t43 12.5h37v536q-9 -2 -15 -3.5l-14 -3.5q-18 -6 -34.5 1.5t-25.5 38.5l-6 18q-3 12 -1 18.5z" />
<glyph unicode="&#xba;" horiz-adv-x="454" d="M51 803v500q0 29 10 57t31.5 48.5t54.5 33.5t80 13q46 0 79 -13t54.5 -34t31 -48.5t9.5 -56.5v-500q0 -27 -10 -53.5t-31.5 -47.5t-55 -34.5t-80.5 -13.5q-48 0 -81 13.5t-53.5 34.5t-29.5 48t-9 53zM73 564v21q0 10 5.5 12t15.5 2h263q9 0 15 -2.5t6 -11.5v-21 q0 -26 -14 -35.5t-37 -9.5h-203q-22 0 -36.5 10t-14.5 35zM169 807q0 -21 13.5 -35.5t44.5 -14.5t44 16t13 34v493q0 19 -13.5 34.5t-44.5 15.5t-44 -14.5t-13 -36.5v-492z" />
<glyph unicode="&#xbb;" horiz-adv-x="542" d="M65 348l142 244l-142 244q-2 4 2.5 8t12.5 4h52q18 0 33.5 -11t21.5 -23l123 -222l-123 -223q-6 -12 -21.5 -22.5t-33.5 -10.5h-52q-7 0 -12 3t-3 9zM255 348l141 244l-141 244q-2 4 2.5 8t12.5 4h52q18 0 33.5 -11t21.5 -23l123 -222l-123 -223q-6 -12 -21.5 -22.5 t-33.5 -10.5h-52q-7 0 -12.5 3t-2.5 9z" />
<glyph unicode="&#xbc;" horiz-adv-x="917" d="M52 1382.5q2 6.5 14 9.5l106 32q9 3 20 6.5t22 3.5h19q31 0 30 -31v-626h38q30 0 43.5 -12t13.5 -45v-17q0 -23 -20 -24h-263q-12 0 -17 5t-5 19v17q0 32 15 44.5t43 12.5h37v536q-9 -2 -15 -3.5l-14 -3.5q-18 -6 -34.5 1.5t-25.5 38.5l-6 18q-3 12 -1 18.5zM248 25 l297 1354q2 7 5.5 17t10.5 18t17.5 14t27.5 6h44q12 0 17.5 -7t1.5 -20l-294 -1356q-5 -22 -21.5 -36.5t-38.5 -14.5h-45q-16 0 -20.5 6t-1.5 19zM493 166l111 530q2 10 4.5 21.5t9 23t16.5 19t26 7.5h47q18 0 17 -23l-100 -498h121v171q0 33 15 51.5t47 18.5h34q13 0 17 -4 t4 -16v-442q0 -15 -4.5 -20t-18.5 -5h-47q-15 0 -24 6.5t-13.5 17t-7 23t-2.5 24.5v75h-232q-25 0 -20 20z" />
<glyph unicode="&#xbd;" horiz-adv-x="957" d="M52 1382.5q2 6.5 14 9.5l106 32q9 3 20 6.5t22 3.5h19q31 0 30 -31v-626h38q30 0 43.5 -12t13.5 -45v-17q0 -23 -20 -24h-263q-12 0 -17 5t-5 19v17q0 32 15 44.5t43 12.5h37v536q-9 -2 -15 -3.5l-14 -3.5q-18 -6 -34.5 1.5t-25.5 38.5l-6 18q-3 12 -1 18.5zM248 25 l297 1354q2 7 5.5 17t10.5 18t17.5 14t27.5 6h44q12 0 17.5 -7t1.5 -20l-294 -1356q-5 -22 -21.5 -36.5t-38.5 -14.5h-45q-16 0 -20.5 6t-1.5 19zM548 32q0 14 17.5 48.5t43 79.5t56.5 98t56.5 102.5t43.5 91.5t18 68v102q0 19 -13.5 34.5t-44.5 15.5t-44.5 -14.5 t-13.5 -36.5v-122q0 -19 -13 -32t-33 -13h-49q-13 0 -17 4t-4 16v152q0 29 10 56t31.5 47.5t54.5 33.5t80 13q46 0 78.5 -13t53.5 -33.5t30.5 -48t9.5 -55.5v-112q0 -35 -20.5 -87.5t-49 -110.5t-61.5 -115t-59 -99h144q26 0 40.5 -14.5t14.5 -45.5v-17q0 -23 -21 -23h-308 q-16 0 -23.5 9.5t-7.5 20.5z" />
<glyph unicode="&#xbe;" horiz-adv-x="1187" d="M51 806v87q0 13 4 17t16 4h50q18 0 32 -12t14 -34v-58q0 -19 13.5 -34t44.5 -15t44 15t13 34v151q0 19 -13.5 33.5t-44.5 14.5h-25q-19 0 -31.5 13t-12.5 31v29q0 13 4 16t16 3h50q31 0 44 15.5t13 33.5v151q0 20 -13.5 35t-44.5 15t-44 -14t-13 -36v-76q0 -18 -13.5 -31 t-32.5 -13h-50q-13 0 -16.5 4t-3.5 15v105q0 29 10 56t31 47.5t54 33.5t80 13q45 0 77.5 -13t53.5 -33.5t30.5 -48t9.5 -55.5v-154q0 -32 -13.5 -57t-47.5 -40q33 -15 47 -40t14 -59v-149q0 -27 -10 -53.5t-31 -47t-54.5 -34t-79.5 -13.5q-48 0 -80.5 13.5t-53 34.5t-29 48 t-8.5 52zM279 25l297 1354q2 7 5.5 17t10.5 18t17.5 14t27.5 6h44q12 0 17.5 -7t1.5 -20l-294 -1356q-5 -22 -21.5 -36.5t-38.5 -14.5h-45q-16 0 -20.5 6t-1.5 19zM524 166l111 530q2 10 4.5 21.5t9 23t16.5 19t26 7.5h47q18 0 17 -23l-100 -498h121v171q0 33 15 51.5 t47 18.5h34q13 0 17 -4t4 -16v-442q0 -15 -4.5 -20t-18.5 -5h-47q-15 0 -24 6.5t-13.5 17t-7 23t-2.5 24.5v75h-232q-25 0 -20 20z" />
<glyph unicode="&#xbf;" horiz-adv-x="504" d="M56 37q3 96 13.5 165.5t25.5 125t32 102t32.5 96t26 107.5t12.5 137q1 31 4.5 66.5t12 64.5t22.5 49t35 20h34q14 0 19.5 -7t5.5 -19v-54q1 -123 -10 -212.5t-26 -161.5t-33.5 -133.5t-34.5 -127t-26.5 -142t-10.5 -180.5q0 -20 15 -37t47 -17t47 16.5t15 37.5v272 q0 21 17.5 31t33.5 10h62q25 0 24 -22v-208q0 -46 -8.5 -92t-31 -83.5t-61 -60.5t-99.5 -23q-73 0 -119.5 32t-62.5 84q-9 41 -12 82t-1 82zM185 1155q0 33 20.5 52.5t64.5 19.5q43 0 63.5 -19t20.5 -53q0 -33 -20.5 -52t-63.5 -19q-44 0 -64.5 19t-20.5 52z" />
<glyph unicode="&#xc0;" horiz-adv-x="460" d="M17 25l117 1379q2 19 13 24.5t29 5.5h108q19 0 28.5 -5.5t11.5 -24.5l118 -1379q1 -14 -3 -19.5t-19 -5.5h-65q-21 0 -36.5 14t-16.5 37l-13 194h-119l-13 -194q-1 -23 -16 -37t-36 -14h-66q-16 0 -19.5 5.5t-2.5 19.5zM92.5 1768q9.5 15 42.5 15h38q13 0 22 -7t11 -18 l44 -236q2 -12 -3.5 -18.5t-17.5 -6.5h-18q-25 0 -36.5 14.5t-20.5 38.5l-61 177q-10 26 -0.5 41zM175 359h109l-55 873z" />
<glyph unicode="&#xc1;" horiz-adv-x="460" d="M17 25l117 1379q2 19 13 24.5t29 5.5h108q19 0 28.5 -5.5t11.5 -24.5l118 -1379q1 -14 -3 -19.5t-19 -5.5h-65q-21 0 -36.5 14t-16.5 37l-13 194h-119l-13 -194q-1 -23 -16 -37t-36 -14h-66q-16 0 -19.5 5.5t-2.5 19.5zM175 359h109l-55 873zM184 1522l44 236q2 11 11 18 t23 7h36q32 0 42 -15t0 -41l-60 -177q-10 -25 -21.5 -39t-35.5 -14h-19q-12 0 -17 7t-3 18z" />
<glyph unicode="&#xc2;" horiz-adv-x="460" d="M17 25l117 1379q2 19 13 24.5t29 5.5h108q19 0 28.5 -5.5t11.5 -24.5l118 -1379q1 -14 -3 -19.5t-19 -5.5h-65q-21 0 -36.5 14t-16.5 37l-13 194h-119l-13 -194q-1 -23 -16 -37t-36 -14h-66q-16 0 -19.5 5.5t-2.5 19.5zM85 1510l73 260q4 14 17 14h87q5 0 10.5 -4.5 t6.5 -9.5l74 -260q1 -6 -4 -10t-10 -4h-51q-17 0 -27 10t-13 25l-29 188l-30 -188q-2 -15 -12 -25t-28 -10h-50q-5 0 -10.5 3.5t-3.5 10.5zM175 359h109l-55 873z" />
<glyph unicode="&#xc3;" horiz-adv-x="460" d="M17 25l117 1379q2 19 13 24.5t29 5.5h108q19 0 28.5 -5.5t11.5 -24.5l118 -1379q1 -14 -3 -19.5t-19 -5.5h-65q-21 0 -36.5 14t-16.5 37l-13 194h-119l-13 -194q-1 -23 -16 -37t-36 -14h-66q-16 0 -19.5 5.5t-2.5 19.5zM61 1566v21q0 22 24 23q13 0 19 -3.5t12.5 -6.5 t15 -6t24.5 -3q17 0 30.5 5t26.5 11.5t28 12t36 5.5q20 0 39.5 -4t34 -13t24 -24t9.5 -36v-20q0 -12 -7.5 -17.5t-18.5 -5.5q-12 0 -18.5 3.5t-12.5 7t-15.5 7t-26.5 3.5t-30.5 -5.5t-26.5 -12.5t-27.5 -12.5t-33.5 -5.5q-21 0 -40 4.5t-34 13.5t-23.5 23.5t-8.5 34.5z M175 359h109l-55 873z" />
<glyph unicode="&#xc4;" horiz-adv-x="460" d="M17 25l117 1379q2 19 13 24.5t29 5.5h108q19 0 28.5 -5.5t11.5 -24.5l118 -1379q1 -14 -3 -19.5t-19 -5.5h-65q-21 0 -36.5 14t-16.5 37l-13 194h-119l-13 -194q-1 -23 -16 -37t-36 -14h-66q-16 0 -19.5 5.5t-2.5 19.5zM74 1568q0 31 15 50.5t46 19.5q32 0 48 -19.5 t16 -50.5t-16 -50t-48 -19q-31 0 -46 19t-15 50zM175 359h109l-55 873zM243 1568q0 31 15 50.5t46 19.5q32 0 47.5 -19.5t15.5 -50.5t-15.5 -50t-47.5 -19q-31 0 -46 19t-15 50z" />
<glyph unicode="&#xc5;" horiz-adv-x="460" d="M17 25l117 1379q2 19 13 24.5t29 5.5h108q19 0 28.5 -5.5t11.5 -24.5l118 -1379q1 -14 -3 -19.5t-19 -5.5h-65q-21 0 -36.5 14t-16.5 37l-13 194h-119l-13 -194q-1 -23 -16 -37t-36 -14h-66q-16 0 -19.5 5.5t-2.5 19.5zM86 1609q0 55 34.5 84.5t97.5 29.5q64 0 99 -29.5 t35 -84.5t-35 -86t-99 -31q-63 0 -97.5 30.5t-34.5 86.5zM173 1609q0 -20 10 -31.5t35 -11.5q46 0 46 43q0 20 -11.5 31.5t-34.5 11.5q-25 0 -35 -11.5t-10 -31.5zM175 359h109l-55 873z" />
<glyph unicode="&#xc6;" horiz-adv-x="652" d="M18 25l239 1379q1 13 6.5 18.5t14.5 8.5t20.5 3h24.5h280q25 0 24 -28v-20q0 -34 -16.5 -52.5t-47.5 -18.5h-118v-546h136q26 0 26 -27v-21q0 -34 -16.5 -52t-47.5 -18h-98v-533h96q35 0 60.5 -14t25.5 -56v-20q0 -28 -24 -28h-264q-20 0 -26 5.5t-6 20.5v219h-118 l-26 -187q-2 -23 -16.5 -40.5t-37.5 -17.5h-64q-18 0 -23 5t-4 20zM209 359h98v802z" />
<glyph unicode="&#xc7;" horiz-adv-x="504" d="M57 150v1134q0 36 14 67t40 54t63.5 36.5t83.5 13.5t82 -13.5t61.5 -37t39.5 -54.5t14 -66v-454q0 -21 -23 -21h-62q-16 0 -33.5 9.5t-17.5 30.5v430q0 21 -16 37.5t-47 16.5t-46 -16.5t-15 -37.5v-1124q0 -21 15 -37.5t47 -16.5q34 0 47.5 18t13.5 36v428q0 11 5 19 t12.5 13t16.5 7t17 2h62q25 0 24 -20v-454q0 -36 -14 -67.5t-40 -54.5t-63 -35.5t-83 -12.5t-82.5 12.5t-62 35.5t-39.5 54.5t-14 67.5zM169 -223q0 14 11.5 19.5t22.5 5.5h14t17.5 1.5t15 6t6.5 14.5q0 14 -8 29t-18.5 35t-19 47t-8.5 63q0 11 6.5 13t16.5 2h49q5 0 10 -2 t5 -9q0 -29 10 -47.5t21 -36.5t20.5 -40t9.5 -55q0 -30 -10.5 -49.5t-28.5 -31t-43 -15.5t-54 -4q-44 0 -44 15z" />
<glyph unicode="&#xc8;" horiz-adv-x="410" d="M53 26v1382q0 15 5 20.5t20 5.5h270q25 0 24 -28v-20q0 -34 -16.5 -52.5t-46.5 -18.5h-118v-546h136q25 0 25 -27v-21q0 -34 -16.5 -52t-46.5 -18h-98v-533h118q30 0 46.5 -17.5t16.5 -52.5v-20q0 -28 -24 -28h-264q-20 0 -25.5 5.5t-5.5 20.5zM86.5 1768q9.5 15 42.5 15 h38q13 0 22 -7t11 -18l44 -236q2 -12 -3.5 -18.5t-17.5 -6.5h-18q-25 0 -36.5 14.5t-20.5 38.5l-61 177q-10 26 -0.5 41z" />
<glyph unicode="&#xc9;" horiz-adv-x="410" d="M53 26v1382q0 15 5 20.5t20 5.5h270q25 0 24 -28v-20q0 -34 -16.5 -52.5t-46.5 -18.5h-118v-546h136q25 0 25 -27v-21q0 -34 -16.5 -52t-46.5 -18h-98v-533h118q30 0 46.5 -17.5t16.5 -52.5v-20q0 -28 -24 -28h-264q-20 0 -25.5 5.5t-5.5 20.5zM161 1522l44 236 q2 11 11 18t23 7h36q32 0 42 -15t0 -41l-60 -177q-10 -25 -21.5 -39t-35.5 -14h-19q-12 0 -17 7t-3 18z" />
<glyph unicode="&#xca;" horiz-adv-x="410" d="M53 26v1382q0 15 5 20.5t20 5.5h270q25 0 24 -28v-20q0 -34 -16.5 -52.5t-46.5 -18.5h-118v-546h136q25 0 25 -27v-21q0 -34 -16.5 -52t-46.5 -18h-98v-533h118q30 0 46.5 -17.5t16.5 -52.5v-20q0 -28 -24 -28h-264q-20 0 -25.5 5.5t-5.5 20.5zM71 1510l73 260 q4 14 17 14h87q5 0 10.5 -4.5t6.5 -9.5l74 -260q1 -6 -4 -10t-10 -4h-51q-17 0 -27 10t-13 25l-29 188l-30 -188q-2 -15 -12 -25t-28 -10h-50q-5 0 -10.5 3.5t-3.5 10.5z" />
<glyph unicode="&#xcb;" horiz-adv-x="410" d="M53 26v1382q0 15 5 20.5t20 5.5h270q25 0 24 -28v-20q0 -34 -16.5 -52.5t-46.5 -18.5h-118v-546h136q25 0 25 -27v-21q0 -34 -16.5 -52t-46.5 -18h-98v-533h118q30 0 46.5 -17.5t16.5 -52.5v-20q0 -28 -24 -28h-264q-20 0 -25.5 5.5t-5.5 20.5zM59 1568q0 31 15 50.5 t46 19.5q32 0 48 -19.5t16 -50.5t-16 -50t-48 -19q-31 0 -46 19t-15 50zM228 1568q0 31 15 50.5t46 19.5q32 0 47.5 -19.5t15.5 -50.5t-15.5 -50t-47.5 -19q-31 0 -46 19t-15 50z" />
<glyph unicode="&#xcc;" horiz-adv-x="244" d="M1.5 1768q9.5 15 42.5 15h38q13 0 22 -7t11 -18l44 -236q2 -12 -3.5 -18.5t-17.5 -6.5h-18q-25 0 -36.5 14.5t-20.5 38.5l-61 177q-10 26 -0.5 41zM53 31v1349q0 25 16.5 39.5t38.5 14.5h58q16 0 20.5 -5.5t4.5 -19.5v-1378q0 -31 -31 -31h-77q-30 0 -30 31z" />
<glyph unicode="&#xcd;" horiz-adv-x="244" d="M53 31v1349q0 25 16.5 39.5t38.5 14.5h58q16 0 20.5 -5.5t4.5 -19.5v-1378q0 -31 -31 -31h-77q-30 0 -30 31zM93 1522l44 236q2 11 11 18t23 7h36q32 0 42 -15t0 -41l-60 -177q-10 -25 -21.5 -39t-35.5 -14h-19q-12 0 -17 7t-3 18z" />
<glyph unicode="&#xce;" horiz-adv-x="244" d="M-12 1510l73 260q4 14 17 14h87q5 0 10.5 -4.5t6.5 -9.5l74 -260q1 -6 -4 -10t-10 -4h-51q-17 0 -27 10t-13 25l-29 188l-30 -188q-2 -15 -12 -25t-28 -10h-50q-5 0 -10.5 3.5t-3.5 10.5zM53 31v1349q0 25 16.5 39.5t38.5 14.5h58q16 0 20.5 -5.5t4.5 -19.5v-1378 q0 -31 -31 -31h-77q-30 0 -30 31z" />
<glyph unicode="&#xcf;" horiz-adv-x="244" d="M-25 1568q0 31 15 50.5t46 19.5q32 0 48 -19.5t16 -50.5t-16 -50t-48 -19q-31 0 -46 19t-15 50zM53 31v1349q0 25 16.5 39.5t38.5 14.5h58q16 0 20.5 -5.5t4.5 -19.5v-1378q0 -31 -31 -31h-77q-30 0 -30 31zM144 1568q0 31 15 50.5t46 19.5q32 0 47.5 -19.5t15.5 -50.5 t-15.5 -50t-47.5 -19q-31 0 -46 19t-15 50z" />
<glyph unicode="&#xd0;" horiz-adv-x="504" d="M-25 693v34q0 19 21 20h57v661q0 15 5 20.5t20 5.5h176q51 0 88 -14.5t61.5 -38t36 -55t11.5 -64.5v-1089q0 -83 -54.5 -128t-146.5 -45h-167q-18 0 -24 5t-6 21v610h-27q-22 0 -36.5 16t-14.5 41zM191 118h66q29 0 43 17.5t14 37.5v1088q0 21 -15 37.5t-47 16.5h-61 v-568h68q20 0 20 -20v-59q0 -12 -7 -22t-19 -10h-62v-518z" />
<glyph unicode="&#xd1;" horiz-adv-x="496" d="M51 26v1383q0 14 4.5 19.5t20.5 5.5h59q20 0 34 -12.5t19 -33.5l138 -840l-19 832q-1 25 15.5 39.5t38.5 14.5h59q16 0 20.5 -5.5t4.5 -19.5v-1383q0 -14 -5.5 -20t-20.5 -6h-56q-21 0 -36.5 13t-19.5 34l-137 839l19 -832q1 -25 -15.5 -39.5t-40.5 -14.5h-56 q-15 0 -20.5 6t-5.5 20zM89 1566v21q0 22 24 23q13 0 19 -3.5t12.5 -6.5t15 -6t24.5 -3q17 0 30.5 5t26.5 11.5t28 12t36 5.5q20 0 39.5 -4t34 -13t24 -24t9.5 -36v-20q0 -12 -7.5 -17.5t-18.5 -5.5q-12 0 -18.5 3.5t-12.5 7t-15.5 7t-26.5 3.5t-30.5 -5.5t-26.5 -12.5 t-27.5 -12.5t-33.5 -5.5q-21 0 -40 4.5t-34 13.5t-23.5 23.5t-8.5 34.5z" />
<glyph unicode="&#xd2;" d="M51 153v1130q0 33 13 64t38 54.5t62.5 38t86.5 14.5t86.5 -14.5t62.5 -38t37.5 -54.5t12.5 -64v-1130q0 -31 -11.5 -61.5t-36.5 -55t-62.5 -40t-88.5 -15.5t-88.5 15t-62.5 39.5t-37 55.5t-12 62zM123.5 1768q9.5 15 42.5 15h38q13 0 22 -7t11 -18l44 -236 q2 -12 -3.5 -18.5t-17.5 -6.5h-18q-25 0 -36.5 14.5t-20.5 38.5l-61 177q-10 26 -0.5 41zM189 156q0 -21 15 -38t48 -17q32 0 46.5 16.5t14.5 38.5v1123q0 21 -15 37.5t-47 16.5q-33 0 -47.5 -16.5t-14.5 -37.5v-1123z" />
<glyph unicode="&#xd3;" d="M51 153v1130q0 33 13 64t38 54.5t62.5 38t86.5 14.5t86.5 -14.5t62.5 -38t37.5 -54.5t12.5 -64v-1130q0 -31 -11.5 -61.5t-36.5 -55t-62.5 -40t-88.5 -15.5t-88.5 15t-62.5 39.5t-37 55.5t-12 62zM189 156q0 -21 15 -38t48 -17q32 0 46.5 16.5t14.5 38.5v1123 q0 21 -15 37.5t-47 16.5q-33 0 -47.5 -16.5t-14.5 -37.5v-1123zM216 1522l44 236q2 11 11 18t23 7h36q32 0 42 -15t0 -41l-60 -177q-10 -25 -21.5 -39t-35.5 -14h-19q-12 0 -17 7t-3 18z" />
<glyph unicode="&#xd4;" d="M51 153v1130q0 33 13 64t38 54.5t62.5 38t86.5 14.5t86.5 -14.5t62.5 -38t37.5 -54.5t12.5 -64v-1130q0 -31 -11.5 -61.5t-36.5 -55t-62.5 -40t-88.5 -15.5t-88.5 15t-62.5 39.5t-37 55.5t-12 62zM115 1510l73 260q4 14 17 14h87q5 0 10.5 -4.5t6.5 -9.5l74 -260 q1 -6 -4 -10t-10 -4h-51q-17 0 -27 10t-13 25l-29 188l-30 -188q-2 -15 -12 -25t-28 -10h-50q-5 0 -10.5 3.5t-3.5 10.5zM189 156q0 -21 15 -38t48 -17q32 0 46.5 16.5t14.5 38.5v1123q0 21 -15 37.5t-47 16.5q-33 0 -47.5 -16.5t-14.5 -37.5v-1123z" />
<glyph unicode="&#xd5;" d="M51 153v1130q0 33 13 64t38 54.5t62.5 38t86.5 14.5t86.5 -14.5t62.5 -38t37.5 -54.5t12.5 -64v-1130q0 -31 -11.5 -61.5t-36.5 -55t-62.5 -40t-88.5 -15.5t-88.5 15t-62.5 39.5t-37 55.5t-12 62zM91 1576v21q0 22 24 23q13 0 19 -3.5t12.5 -6.5t15 -6t24.5 -3 q17 0 30.5 5t26.5 11.5t28 12t36 5.5q20 0 39.5 -4t34 -13t24 -24t9.5 -36v-20q0 -12 -7.5 -17.5t-18.5 -5.5q-12 0 -18.5 3.5t-12.5 7t-15.5 7t-26.5 3.5t-30.5 -5.5t-26.5 -12.5t-27.5 -12.5t-33.5 -5.5q-21 0 -40 4.5t-34 13.5t-23.5 23.5t-8.5 34.5zM189 156 q0 -21 15 -38t48 -17q32 0 46.5 16.5t14.5 38.5v1123q0 21 -15 37.5t-47 16.5q-33 0 -47.5 -16.5t-14.5 -37.5v-1123z" />
<glyph unicode="&#xd6;" d="M51 153v1130q0 33 13 64t38 54.5t62.5 38t86.5 14.5t86.5 -14.5t62.5 -38t37.5 -54.5t12.5 -64v-1130q0 -31 -11.5 -61.5t-36.5 -55t-62.5 -40t-88.5 -15.5t-88.5 15t-62.5 39.5t-37 55.5t-12 62zM103 1568q0 31 15 50.5t46 19.5q32 0 48 -19.5t16 -50.5t-16 -50t-48 -19 q-31 0 -46 19t-15 50zM189 156q0 -21 15 -38t48 -17q32 0 46.5 16.5t14.5 38.5v1123q0 21 -15 37.5t-47 16.5q-33 0 -47.5 -16.5t-14.5 -37.5v-1123zM272 1568q0 31 15 50.5t46 19.5q32 0 47.5 -19.5t15.5 -50.5t-15.5 -50t-47.5 -19q-31 0 -46 19t-15 50z" />
<glyph unicode="&#xd7;" horiz-adv-x="472" d="M55.5 808.5q1.5 6.5 8.5 12.5l28 25q13 13 27 14t29.5 -5.5t30.5 -19.5t29 -28l32 -34l82 80q4 4 9.5 8.5t11.5 6t12.5 0.5t12.5 -8l25 -28q12 -13 13 -27.5t-5 -29t-18.5 -29.5t-27.5 -29l-34 -32l80 -84q11 -12 15.5 -21.5t-7.5 -21.5l-25 -23q-13 -12 -28 -14t-31 4 t-32 18t-30 28l-32 33l-93 -90q-10 -9 -17 -10t-16 11l-23 25q-12 13 -14 27.5t4 30.5t17.5 32t27.5 31l33 32l-79 84q-4 4 -8 8.5t-6.5 10.5t-1 12.5z" />
<glyph unicode="&#xd8;" d="M50 -125l39 172q-19 23 -28.5 50.5t-9.5 55.5v1130q0 33 13 64t38 54.5t62.5 38t86.5 14.5q48 0 86 -15l20 90q2 7 6 16.5t11 17.5t17.5 14t27.5 6h22q12 0 17 -7t2 -20l-40 -178q30 -43 30 -95v-1130q0 -31 -11.5 -61.5t-36.5 -55t-62.5 -40t-88.5 -15.5q-43 0 -78 12 l-19 -91q-5 -22 -21.5 -36.5t-37.5 -14.5h-24q-28 0 -21 24zM189 156q0 -21 15 -38t48 -17q32 0 46.5 16.5t14.5 38.5v1123q0 21 -15 37.5t-47 16.5q-33 0 -47.5 -16.5t-14.5 -37.5v-1123z" />
<glyph unicode="&#xd9;" d="M51 150v1258q0 15 5 20.5t20 5.5h58q21 0 38 -15t17 -38v-1226q0 -18 13 -36t48 -18q33 0 47 16t14 38v1226q0 22 16 37.5t38 15.5h58q15 0 20.5 -5.5t5.5 -20.5v-1258q0 -31 -12 -61.5t-37 -54.5t-61.5 -39t-86.5 -15q-48 0 -85.5 13.5t-63 37.5t-39 54.5t-13.5 64.5z M121.5 1768q9.5 15 42.5 15h38q13 0 22 -7t11 -18l44 -236q2 -12 -3.5 -18.5t-17.5 -6.5h-18q-25 0 -36.5 14.5t-20.5 38.5l-61 177q-10 26 -0.5 41z" />
<glyph unicode="&#xda;" d="M51 150v1258q0 15 5 20.5t20 5.5h58q21 0 38 -15t17 -38v-1226q0 -18 13 -36t48 -18q33 0 47 16t14 38v1226q0 22 16 37.5t38 15.5h58q15 0 20.5 -5.5t5.5 -20.5v-1258q0 -31 -12 -61.5t-37 -54.5t-61.5 -39t-86.5 -15q-48 0 -85.5 13.5t-63 37.5t-39 54.5t-13.5 64.5z M214 1522l44 236q2 11 11 18t23 7h36q32 0 42 -15t0 -41l-60 -177q-10 -25 -21.5 -39t-35.5 -14h-19q-12 0 -17 7t-3 18z" />
<glyph unicode="&#xdb;" d="M51 150v1258q0 15 5 20.5t20 5.5h58q21 0 38 -15t17 -38v-1226q0 -18 13 -36t48 -18q33 0 47 16t14 38v1226q0 22 16 37.5t38 15.5h58q15 0 20.5 -5.5t5.5 -20.5v-1258q0 -31 -12 -61.5t-37 -54.5t-61.5 -39t-86.5 -15q-48 0 -85.5 13.5t-63 37.5t-39 54.5t-13.5 64.5z M115 1510l73 260q4 14 17 14h87q5 0 10.5 -4.5t6.5 -9.5l74 -260q1 -6 -4 -10t-10 -4h-51q-17 0 -27 10t-13 25l-29 188l-30 -188q-2 -15 -12 -25t-28 -10h-50q-5 0 -10.5 3.5t-3.5 10.5z" />
<glyph unicode="&#xdc;" d="M51 150v1258q0 15 5 20.5t20 5.5h58q21 0 38 -15t17 -38v-1226q0 -18 13 -36t48 -18q33 0 47 16t14 38v1226q0 22 16 37.5t38 15.5h58q15 0 20.5 -5.5t5.5 -20.5v-1258q0 -31 -12 -61.5t-37 -54.5t-61.5 -39t-86.5 -15q-48 0 -85.5 13.5t-63 37.5t-39 54.5t-13.5 64.5z M103 1568q0 31 15 50.5t46 19.5q32 0 48 -19.5t16 -50.5t-16 -50t-48 -19q-31 0 -46 19t-15 50zM272 1568q0 31 15 50.5t46 19.5q32 0 47.5 -19.5t15.5 -50.5t-15.5 -50t-47.5 -19q-31 0 -46 19t-15 50z" />
<glyph unicode="&#xdd;" horiz-adv-x="440" d="M15 1405q-2 14 2.5 21.5t20.5 7.5h54q21 0 41.5 -14t22.5 -38l64 -681l64 681q2 23 22 37.5t42 14.5h53q30 0 25 -29l-137 -936v-438q0 -31 -31 -31h-77q-30 0 -30 31v437zM185 1522l44 236q2 11 11 18t23 7h36q32 0 42 -15t0 -41l-60 -177q-10 -25 -21.5 -39t-35.5 -14 h-19q-12 0 -17 7t-3 18z" />
<glyph unicode="&#xde;" horiz-adv-x="478" d="M51 26v1382q0 15 5 20.5t20 5.5h58q25 0 40 -17.5t15 -46.5v-204h63q46 0 82 -13t61.5 -36t39.5 -54.5t14 -67.5v-554q0 -36 -14 -68t-40.5 -55t-64 -35.5t-83.5 -12.5h-58v-218q0 -22 -16.5 -37t-38.5 -15h-58q-15 0 -20 5.5t-5 20.5zM189 388h66q29 0 42.5 17t13.5 38 v550q0 21 -14.5 37.5t-46.5 16.5h-61v-659z" />
<glyph unicode="&#xdf;" d="M51 23v1128q0 33 12 64.5t36.5 55t62 38t90.5 14.5q51 0 88.5 -14.5t61.5 -38.5t35.5 -55t11.5 -64v-319q0 -37 -16 -65.5t-53 -43.5q37 -17 53 -45t16 -68v-461q0 -31 -11 -61t-34.5 -54t-61.5 -39t-90 -15q-11 0 -18 3.5t-7 17.5v54q0 28 7.5 37t21.5 9q32 0 43.5 17 t11.5 37v450q0 21 -9 37t-39 16h-2q-22 0 -28 14.5t-6 35.5v51q0 15 3 19t16 4h19q29 0 37.5 16.5t8.5 36.5v312q0 21 -14 37.5t-47 16.5q-32 0 -46.5 -16t-14.5 -38v-1095q0 -22 -16 -37t-39 -15h-58q-15 0 -20 5.5t-5 17.5z" />
<glyph unicode="&#xe0;" horiz-adv-x="427" d="M13 25l105 1154q2 16 9 23t23 7h125q30 0 33 -30l104 -1154q2 -14 -2.5 -19.5t-19.5 -5.5h-58q-21 0 -39.5 14t-19.5 37l-11 162h-100l-9 -162q-2 -23 -20 -37t-39 -14h-59q-15 0 -19 5.5t-3 19.5zM87.5 1553q9.5 15 42.5 15h38q13 0 22 -7t11 -18l44 -236 q2 -12 -3.5 -18.5t-17.5 -6.5h-18q-25 0 -36.5 14.5t-20.5 38.5l-61 177q-10 26 -0.5 41zM169 319h87l-43 698l-1 -5z" />
<glyph unicode="&#xe1;" horiz-adv-x="427" d="M13 25l105 1154q2 16 9 23t23 7h125q30 0 33 -30l104 -1154q2 -14 -2.5 -19.5t-19.5 -5.5h-58q-21 0 -39.5 14t-19.5 37l-11 162h-100l-9 -162q-2 -23 -20 -37t-39 -14h-59q-15 0 -19 5.5t-3 19.5zM169 319h87l-43 698l-1 -5zM174 1301l44 236q2 11 11 18t23 7h36 q32 0 42 -15t0 -41l-60 -177q-10 -25 -21.5 -39t-35.5 -14h-19q-12 0 -17 7t-3 18z" />
<glyph unicode="&#xe2;" horiz-adv-x="427" d="M13 25l105 1154q2 16 9 23t23 7h125q30 0 33 -30l104 -1154q2 -14 -2.5 -19.5t-19.5 -5.5h-58q-21 0 -39.5 14t-19.5 37l-11 162h-100l-9 -162q-2 -23 -20 -37t-39 -14h-59q-15 0 -19 5.5t-3 19.5zM79 1289l73 260q4 14 17 14h87q5 0 10.5 -4.5t6.5 -9.5l74 -260 q1 -6 -4 -10t-10 -4h-51q-17 0 -27 10t-13 25l-29 188l-30 -188q-2 -15 -12 -25t-28 -10h-50q-5 0 -10.5 3.5t-3.5 10.5zM169 319h87l-43 698l-1 -5z" />
<glyph unicode="&#xe3;" horiz-adv-x="427" d="M13 25l105 1154q2 16 9 23t23 7h125q30 0 33 -30l104 -1154q2 -14 -2.5 -19.5t-19.5 -5.5h-58q-21 0 -39.5 14t-19.5 37l-11 162h-100l-9 -162q-2 -23 -20 -37t-39 -14h-59q-15 0 -19 5.5t-3 19.5zM55 1345v21q0 22 24 23q13 0 19 -3.5t12.5 -6.5t15 -6t24.5 -3 q17 0 30.5 5t26.5 11.5t28 12t36 5.5q20 0 39.5 -4t34 -13t24 -24t9.5 -36v-20q0 -12 -7.5 -17.5t-18.5 -5.5q-12 0 -18.5 3.5t-12.5 7t-15.5 7t-26.5 3.5t-30.5 -5.5t-26.5 -12.5t-27.5 -12.5t-33.5 -5.5q-21 0 -40 4.5t-34 13.5t-23.5 23.5t-8.5 34.5zM169 319h87l-43 698 l-1 -5z" />
<glyph unicode="&#xe4;" horiz-adv-x="427" d="M13 25l105 1154q2 16 9 23t23 7h125q30 0 33 -30l104 -1154q2 -14 -2.5 -19.5t-19.5 -5.5h-58q-21 0 -39.5 14t-19.5 37l-11 162h-100l-9 -162q-2 -23 -20 -37t-39 -14h-59q-15 0 -19 5.5t-3 19.5zM67 1347q0 31 15 50.5t46 19.5q32 0 48 -19.5t16 -50.5t-16 -50t-48 -19 q-31 0 -46 19t-15 50zM169 319h87l-43 698l-1 -5zM236 1347q0 31 15 50.5t46 19.5q32 0 47.5 -19.5t15.5 -50.5t-15.5 -50t-47.5 -19q-31 0 -46 19t-15 50z" />
<glyph unicode="&#xe5;" horiz-adv-x="427" d="M13 25l105 1154q2 16 9 23t23 7h125q30 0 33 -30l104 -1154q2 -14 -2.5 -19.5t-19.5 -5.5h-58q-21 0 -39.5 14t-19.5 37l-11 162h-100l-9 -162q-2 -23 -20 -37t-39 -14h-59q-15 0 -19 5.5t-3 19.5zM80 1388q0 55 34.5 84.5t97.5 29.5q64 0 99 -29.5t35 -84.5t-35 -86 t-99 -31q-63 0 -97.5 30.5t-34.5 86.5zM167 1388q0 -20 10 -31.5t35 -11.5q46 0 46 43q0 20 -11.5 31.5t-34.5 11.5q-25 0 -35 -11.5t-10 -31.5zM169 319h87l-43 698l-1 -5z" />
<glyph unicode="&#xe6;" horiz-adv-x="602" d="M14 26l152 1153q2 21 14.5 25.5t39.5 4.5h330q26 0 26 -28v-20q0 -35 -16.5 -53t-47.5 -18h-118v-435h137q15 0 20 -9t5 -27v-11q0 -37 -20 -54t-55 -17h-87v-419h118q31 0 47.5 -17.5t16.5 -52.5v-20q0 -28 -26 -28h-268q-15 0 -20 5.5t-5 19.5v188h-86l-23 -169 q-4 -21 -19 -32.5t-48 -11.5h-47q-15 0 -18.5 5.5t-1.5 20.5zM180 327h77v690h-7z" />
<glyph unicode="&#xe7;" horiz-adv-x="504" d="M53 150v909q0 36 14 67t40 54t63.5 36.5t83.5 13.5t82 -13.5t61.5 -37t39.5 -54.5t14 -66v-369q0 -21 -23 -21h-62q-16 0 -33.5 9.5t-17.5 30.5v345q0 21 -16 37.5t-47 16.5t-46 -16.5t-15 -37.5v-899q0 -21 15 -37.5t47 -16.5q34 0 47.5 18t13.5 36v334q0 11 5 18.5 t12.5 12.5t16.5 7t17 2h62q25 0 24 -20v-359q0 -36 -14 -67.5t-40 -54.5t-63 -35.5t-83 -12.5t-82.5 12.5t-62 35.5t-39.5 54.5t-14 67.5zM168 -223q0 14 11.5 19.5t22.5 5.5h14t17.5 1.5t15 6t6.5 14.5q0 14 -8 29t-18.5 35t-19 47t-8.5 63q0 11 6.5 13t16.5 2h49 q5 0 10 -2t5 -9q0 -29 10 -47.5t21 -36.5t20.5 -40t9.5 -55q0 -30 -10.5 -49.5t-28.5 -31t-43 -15.5t-54 -4q-44 0 -44 15z" />
<glyph unicode="&#xe8;" horiz-adv-x="390" d="M51 26v1157q0 20 9 23t40 3h246q25 0 24 -28v-20q0 -35 -16.5 -53t-46.5 -18h-118v-435h136q25 0 25 -28v-21q0 -42 -25 -55.5t-59 -13.5h-77v-419h118q63 0 63 -70v-20q0 -28 -24 -28h-265q-19 0 -24.5 5.5t-5.5 20.5zM81.5 1547q9.5 15 42.5 15h38q13 0 22 -7t11 -18 l44 -236q2 -12 -3.5 -18.5t-17.5 -6.5h-18q-25 0 -36.5 14.5t-20.5 38.5l-61 177q-10 26 -0.5 41z" />
<glyph unicode="&#xe9;" horiz-adv-x="390" d="M51 26v1157q0 20 9 23t40 3h246q25 0 24 -28v-20q0 -35 -16.5 -53t-46.5 -18h-118v-435h136q25 0 25 -28v-21q0 -42 -25 -55.5t-59 -13.5h-77v-419h118q63 0 63 -70v-20q0 -28 -24 -28h-265q-19 0 -24.5 5.5t-5.5 20.5zM165 1301l44 236q2 11 11 18t23 7h36q32 0 42 -15 t0 -41l-60 -177q-10 -25 -21.5 -39t-35.5 -14h-19q-12 0 -17 7t-3 18z" />
<glyph unicode="&#xea;" horiz-adv-x="390" d="M51 26v1157q0 20 9 23t40 3h246q25 0 24 -28v-20q0 -35 -16.5 -53t-46.5 -18h-118v-435h136q25 0 25 -28v-21q0 -42 -25 -55.5t-59 -13.5h-77v-419h118q63 0 63 -70v-20q0 -28 -24 -28h-265q-19 0 -24.5 5.5t-5.5 20.5zM66 1289l73 260q4 14 17 14h87q5 0 10.5 -4.5 t6.5 -9.5l74 -260q1 -6 -4 -10t-10 -4h-51q-17 0 -27 10t-13 25l-29 188l-30 -188q-2 -15 -12 -25t-28 -10h-50q-5 0 -10.5 3.5t-3.5 10.5z" />
<glyph unicode="&#xeb;" horiz-adv-x="390" d="M51 26v1157q0 20 9 23t40 3h246q25 0 24 -28v-20q0 -35 -16.5 -53t-46.5 -18h-118v-435h136q25 0 25 -28v-21q0 -42 -25 -55.5t-59 -13.5h-77v-419h118q63 0 63 -70v-20q0 -28 -24 -28h-265q-19 0 -24.5 5.5t-5.5 20.5zM53 1347q0 31 15 50.5t46 19.5q32 0 48 -19.5 t16 -50.5t-16 -50t-48 -19q-31 0 -46 19t-15 50zM222 1347q0 31 15 50.5t46 19.5q32 0 47.5 -19.5t15.5 -50.5t-15.5 -50t-47.5 -19q-31 0 -46 19t-15 50z" />
<glyph unicode="&#xec;" horiz-adv-x="240" d="M-1.5 1547q9.5 15 42.5 15h38q13 0 22 -7t11 -18l44 -236q2 -12 -3.5 -18.5t-17.5 -6.5h-18q-25 0 -36.5 14.5t-20.5 38.5l-61 177q-10 26 -0.5 41zM51 31v1124q0 23 16.5 38.5t38.5 15.5h58q16 0 20.5 -5t4.5 -20v-1153q0 -31 -31 -31h-77q-30 0 -30 31z" />
<glyph unicode="&#xed;" horiz-adv-x="240" d="M51 31v1124q0 23 16.5 38.5t38.5 15.5h58q16 0 20.5 -5t4.5 -20v-1153q0 -31 -31 -31h-77q-30 0 -30 31zM87 1301l44 236q2 11 11 18t23 7h36q32 0 42 -15t0 -41l-60 -177q-10 -25 -21.5 -39t-35.5 -14h-19q-12 0 -17 7t-3 18z" />
<glyph unicode="&#xee;" horiz-adv-x="240" d="M-14 1289l73 260q4 14 17 14h87q5 0 10.5 -4.5t6.5 -9.5l74 -260q1 -6 -4 -10t-10 -4h-51q-17 0 -27 10t-13 25l-29 188l-30 -188q-2 -15 -12 -25t-28 -10h-50q-5 0 -10.5 3.5t-3.5 10.5zM51 31v1124q0 23 16.5 38.5t38.5 15.5h58q16 0 20.5 -5t4.5 -20v-1153 q0 -31 -31 -31h-77q-30 0 -30 31z" />
<glyph unicode="&#xef;" horiz-adv-x="240" d="M-27 1347q0 31 15 50.5t46 19.5q32 0 48 -19.5t16 -50.5t-16 -50t-48 -19q-31 0 -46 19t-15 50zM51 31v1124q0 23 16.5 38.5t38.5 15.5h58q16 0 20.5 -5t4.5 -20v-1153q0 -31 -31 -31h-77q-30 0 -30 31zM142 1347q0 31 15 50.5t46 19.5q32 0 47.5 -19.5t15.5 -50.5 t-15.5 -50t-47.5 -19q-31 0 -46 19t-15 50z" />
<glyph unicode="&#xf0;" horiz-adv-x="499" d="M-25 608v34q0 19 21 19h55v522q0 15 5 20.5t20 5.5h176q52 0 90 -16t61.5 -41.5t34.5 -55.5t11 -60v-862q0 -41 -14.5 -73t-40 -54t-61.5 -34.5t-81 -12.5h-176q-15 0 -20 5.5t-5 20.5v524h-25q-22 0 -36.5 16t-14.5 42zM189 118h66q29 0 42.5 17.5t13.5 37.5v863 q0 21 -14.5 37.5t-46.5 16.5h-61v-429h70q20 0 20 -19v-61q0 -12 -7 -21.5t-19 -9.5h-64v-432z" />
<glyph unicode="&#xf1;" horiz-adv-x="496" d="M51 26v1158q0 14 4.5 19.5t20.5 5.5h59q21 0 37 -23t24 -64l136 -690l-25 723q-2 23 15 38.5t39 15.5h59q16 0 20.5 -5.5t4.5 -19.5v-1158q0 -14 -5.5 -20t-20.5 -6h-56q-15 0 -24.5 7t-17 18t-12 26t-7.5 30l-138 699l25 -726q2 -25 -15 -39.5t-41 -14.5h-56 q-15 0 -20.5 6t-5.5 20zM89 1345v21q0 22 24 23q13 0 19 -3.5t12.5 -6.5t15 -6t24.5 -3q17 0 30.5 5t26.5 11.5t28 12t36 5.5q20 0 39.5 -4t34 -13t24 -24t9.5 -36v-20q0 -12 -7.5 -17.5t-18.5 -5.5q-12 0 -18.5 3.5t-12.5 7t-15.5 7t-26.5 3.5t-30.5 -5.5t-26.5 -12.5 t-27.5 -12.5t-33.5 -5.5q-21 0 -40 4.5t-34 13.5t-23.5 23.5t-8.5 34.5z" />
<glyph unicode="&#xf2;" horiz-adv-x="504" d="M53 153v905q0 33 13 64t38 55t62 38.5t86 14.5q50 0 87.5 -14.5t62.5 -38.5t37 -55t12 -64v-905q0 -31 -11.5 -61.5t-36 -55t-62 -40t-88.5 -15.5t-88.5 15t-62.5 39.5t-37 55.5t-12 62zM129.5 1546q9.5 15 42.5 15h38q13 0 22 -7t11 -18l44 -236q2 -12 -3.5 -18.5 t-17.5 -6.5h-18q-25 0 -36.5 14.5t-20.5 38.5l-61 177q-10 26 -0.5 41zM191 156q0 -21 15 -38t48 -17q32 0 46 16.5t14 38.5v898q0 21 -14.5 37.5t-47.5 16.5q-32 0 -46.5 -16.5t-14.5 -37.5v-898z" />
<glyph unicode="&#xf3;" horiz-adv-x="504" d="M53 153v905q0 33 13 64t38 55t62 38.5t86 14.5q50 0 87.5 -14.5t62.5 -38.5t37 -55t12 -64v-905q0 -31 -11.5 -61.5t-36 -55t-62 -40t-88.5 -15.5t-88.5 15t-62.5 39.5t-37 55.5t-12 62zM191 156q0 -21 15 -38t48 -17q32 0 46 16.5t14 38.5v898q0 21 -14.5 37.5 t-47.5 16.5q-32 0 -46.5 -16.5t-14.5 -37.5v-898zM212 1301l44 236q2 11 11 18t23 7h36q32 0 42 -15t0 -41l-60 -177q-10 -25 -21.5 -39t-35.5 -14h-19q-12 0 -17 7t-3 18z" />
<glyph unicode="&#xf4;" horiz-adv-x="504" d="M53 153v905q0 33 13 64t38 55t62 38.5t86 14.5q50 0 87.5 -14.5t62.5 -38.5t37 -55t12 -64v-905q0 -31 -11.5 -61.5t-36 -55t-62 -40t-88.5 -15.5t-88.5 15t-62.5 39.5t-37 55.5t-12 62zM118 1289l73 260q4 14 17 14h87q5 0 10.5 -4.5t6.5 -9.5l74 -260q1 -6 -4 -10 t-10 -4h-51q-17 0 -27 10t-13 25l-29 188l-30 -188q-2 -15 -12 -25t-28 -10h-50q-5 0 -10.5 3.5t-3.5 10.5zM191 156q0 -21 15 -38t48 -17q32 0 46 16.5t14 38.5v898q0 21 -14.5 37.5t-47.5 16.5q-32 0 -46.5 -16.5t-14.5 -37.5v-898z" />
<glyph unicode="&#xf5;" horiz-adv-x="504" d="M53 153v905q0 33 13 64t38 55t62 38.5t86 14.5q50 0 87.5 -14.5t62.5 -38.5t37 -55t12 -64v-905q0 -31 -11.5 -61.5t-36 -55t-62 -40t-88.5 -15.5t-88.5 15t-62.5 39.5t-37 55.5t-12 62zM92 1354v21q0 22 24 23q13 0 19 -3.5t12.5 -6.5t15 -6t24.5 -3q17 0 30.5 5 t26.5 11.5t28 12t36 5.5q20 0 39.5 -4t34 -13t24 -24t9.5 -36v-20q0 -12 -7.5 -17.5t-18.5 -5.5q-12 0 -18.5 3.5t-12.5 7t-15.5 7t-26.5 3.5t-30.5 -5.5t-26.5 -12.5t-27.5 -12.5t-33.5 -5.5q-21 0 -40 4.5t-34 13.5t-23.5 23.5t-8.5 34.5zM191 156q0 -21 15 -38t48 -17 q32 0 46 16.5t14 38.5v898q0 21 -14.5 37.5t-47.5 16.5q-32 0 -46.5 -16.5t-14.5 -37.5v-898z" />
<glyph unicode="&#xf6;" horiz-adv-x="504" d="M53 153v905q0 33 13 64t38 55t62 38.5t86 14.5q50 0 87.5 -14.5t62.5 -38.5t37 -55t12 -64v-905q0 -31 -11.5 -61.5t-36 -55t-62 -40t-88.5 -15.5t-88.5 15t-62.5 39.5t-37 55.5t-12 62zM106 1347q0 31 15 50.5t46 19.5q32 0 48 -19.5t16 -50.5t-16 -50t-48 -19 q-31 0 -46 19t-15 50zM191 156q0 -21 15 -38t48 -17q32 0 46 16.5t14 38.5v898q0 21 -14.5 37.5t-47.5 16.5q-32 0 -46.5 -16.5t-14.5 -37.5v-898zM275 1347q0 31 15 50.5t46 19.5q32 0 47.5 -19.5t15.5 -50.5t-15.5 -50t-47.5 -19q-31 0 -46 19t-15 50z" />
<glyph unicode="&#xf7;" horiz-adv-x="522" d="M53 655v37q0 22 15.5 39t48.5 17h324q15 0 20.5 -4.5t5.5 -18.5v-33q0 -21 -15 -41.5t-50 -20.5h-322q-10 0 -18.5 4t-8.5 21zM175 492q0 33 20.5 52t63.5 19q44 0 65 -19t21 -52t-21 -52.5t-65 -19.5q-43 0 -63.5 19t-20.5 53zM178 886q0 33 20.5 52t63.5 19 q44 0 65 -19t21 -52t-21 -52.5t-65 -19.5q-43 0 -63.5 19t-20.5 53z" />
<glyph unicode="&#xf8;" horiz-adv-x="504" d="M50 -125l39 172q-19 23 -28.5 50.5t-9.5 55.5v906q0 33 13 64t38 54.5t62.5 38t86.5 14.5q48 0 86 -15l20 90q2 7 6 16.5t11 17.5t17.5 14t27.5 6h22q12 0 17 -7t2 -20l-40 -178q30 -43 30 -95v-906q0 -31 -11.5 -61.5t-36.5 -55t-62.5 -40t-88.5 -15.5q-43 0 -78 12 l-19 -91q-5 -22 -21.5 -36.5t-37.5 -14.5h-24q-28 0 -21 24zM189 156q0 -21 15 -38t48 -17q32 0 46.5 16.5t14.5 38.5v899q0 21 -15 37.5t-47 16.5q-33 0 -47.5 -16.5t-14.5 -37.5v-899z" />
<glyph unicode="&#xf9;" horiz-adv-x="499" d="M51 150v1034q0 15 5 20.5t20 5.5h58q21 0 38 -15t17 -38v-1002q0 -18 13 -36t48 -18q33 0 47 16t14 38v1002q0 22 16 37.5t38 15.5h58q15 0 20.5 -5.5t5.5 -20.5v-1034q0 -31 -12 -61.5t-37 -54.5t-61.5 -39t-86.5 -15q-48 0 -85.5 13.5t-63 37.5t-39 54.5t-13.5 64.5z M122.5 1547q9.5 15 42.5 15h38q13 0 22 -7t11 -18l44 -236q2 -12 -3.5 -18.5t-17.5 -6.5h-18q-25 0 -36.5 14.5t-20.5 38.5l-61 177q-10 26 -0.5 41z" />
<glyph unicode="&#xfa;" horiz-adv-x="499" d="M51 150v1034q0 15 5 20.5t20 5.5h58q21 0 38 -15t17 -38v-1002q0 -18 13 -36t48 -18q33 0 47 16t14 38v1002q0 22 16 37.5t38 15.5h58q15 0 20.5 -5.5t5.5 -20.5v-1034q0 -31 -12 -61.5t-37 -54.5t-61.5 -39t-86.5 -15q-48 0 -85.5 13.5t-63 37.5t-39 54.5t-13.5 64.5z M208 1301l44 236q2 11 11 18t23 7h36q32 0 42 -15t0 -41l-60 -177q-10 -25 -21.5 -39t-35.5 -14h-19q-12 0 -17 7t-3 18z" />
<glyph unicode="&#xfb;" horiz-adv-x="499" d="M51 150v1034q0 15 5 20.5t20 5.5h58q21 0 38 -15t17 -38v-1002q0 -18 13 -36t48 -18q33 0 47 16t14 38v1002q0 22 16 37.5t38 15.5h58q15 0 20.5 -5.5t5.5 -20.5v-1034q0 -31 -12 -61.5t-37 -54.5t-61.5 -39t-86.5 -15q-48 0 -85.5 13.5t-63 37.5t-39 54.5t-13.5 64.5z M115 1289l73 260q4 14 17 14h87q5 0 10.5 -4.5t6.5 -9.5l74 -260q1 -6 -4 -10t-10 -4h-51q-17 0 -27 10t-13 25l-29 188l-30 -188q-2 -15 -12 -25t-28 -10h-50q-5 0 -10.5 3.5t-3.5 10.5z" />
<glyph unicode="&#xfc;" horiz-adv-x="499" d="M51 150v1034q0 15 5 20.5t20 5.5h58q21 0 38 -15t17 -38v-1002q0 -18 13 -36t48 -18q33 0 47 16t14 38v1002q0 22 16 37.5t38 15.5h58q15 0 20.5 -5.5t5.5 -20.5v-1034q0 -31 -12 -61.5t-37 -54.5t-61.5 -39t-86.5 -15q-48 0 -85.5 13.5t-63 37.5t-39 54.5t-13.5 64.5z M103 1347q0 31 15 50.5t46 19.5q32 0 48 -19.5t16 -50.5t-16 -50t-48 -19q-31 0 -46 19t-15 50zM272 1347q0 31 15 50.5t46 19.5q32 0 47.5 -19.5t15.5 -50.5t-15.5 -50t-47.5 -19q-31 0 -46 19t-15 50z" />
<glyph unicode="&#xfd;" horiz-adv-x="418" d="M15 1184q-2 12 2.5 18.5t20.5 6.5h54q21 0 41.5 -12t22.5 -31l54 -547l55 547q1 19 21 31t41 12h54q16 0 21 -6.5t3 -18.5l-127 -785v-373q0 -26 -31 -26h-75q-31 0 -31 26v373zM176 1301l44 236q2 11 11 18t23 7h36q32 0 42 -15t0 -41l-60 -177q-10 -25 -21.5 -39 t-35.5 -14h-19q-12 0 -17 7t-3 18z" />
<glyph unicode="&#xfe;" horiz-adv-x="473" d="M51 26v1157q0 15 5 20.5t20 5.5h58q25 0 40 -15.5t15 -40.5v-154h63q46 0 82 -13t61.5 -36t39.5 -54.5t14 -67.5v-449q0 -36 -14 -68t-40.5 -54.5t-64 -36t-83.5 -13.5h-58v-155q0 -22 -16.5 -37t-38.5 -15h-58q-15 0 -20 5.5t-5 20.5zM189 326h66q29 0 42.5 16.5 t13.5 37.5v447q0 21 -14.5 37.5t-46.5 16.5h-61v-555z" />
<glyph unicode="&#xff;" horiz-adv-x="418" d="M15 1184q-2 12 2.5 18.5t20.5 6.5h54q21 0 41.5 -12t22.5 -31l54 -547l55 547q1 19 21 31t41 12h54q16 0 21 -6.5t3 -18.5l-127 -785v-373q0 -26 -31 -26h-75q-31 0 -31 26v373zM63 1347q0 31 15 50.5t46 19.5q32 0 48 -19.5t16 -50.5t-16 -50t-48 -19q-31 0 -46 19 t-15 50zM232 1347q0 31 15 50.5t46 19.5q32 0 47.5 -19.5t15.5 -50.5t-15.5 -50t-47.5 -19q-31 0 -46 19t-15 50z" />
<glyph unicode="&#x152;" horiz-adv-x="669" d="M58 153v1130q0 35 13 66t38 54t62 37t85 14q60 0 102 -21q1 0 1 0.5t3 0.5h246q25 0 25 -28v-20q0 -70 -63 -71h-115v-546h133q16 0 20.5 -9t4.5 -26v-11q0 -73 -64 -72h-94v-533h115q63 0 63 -70v-20q0 -28 -25 -28h-219h-19t-16 1q-35 -15 -76.5 -17.5t-82.5 9.5 q-38 6 -64 22.5t-42 39t-23.5 48t-7.5 50.5zM195 156q0 -21 15 -38t47 -17q33 0 47 16.5t14 38.5v1123q0 21 -15 37.5t-47 16.5t-46.5 -16.5t-14.5 -37.5v-1123z" />
<glyph unicode="&#x153;" horiz-adv-x="652" d="M53 153v906q0 35 13 66t38.5 54t62.5 37t85 14q60 0 102 -21h1l2 1h251q25 0 25 -28v-20q0 -70 -63 -71h-120v-13v-12t0.5 -30.5t0.5 -66.5v-121v-194h137q16 0 20.5 -9t4.5 -26v-11q0 -73 -64 -73h-98l-1 -417h120q63 0 63 -70v-20q0 -28 -25 -28h-223h-20t-15 1 q-35 -15 -77 -17.5t-83 9.5q-37 6 -63.5 22.5t-42.5 39t-23.5 48t-7.5 50.5zM190 156q0 -21 15.5 -38t47.5 -17t46.5 16.5t14.5 38.5v899q0 21 -15 37.5t-47 16.5q-33 0 -47.5 -16.5t-14.5 -37.5v-899z" />
<glyph unicode="&#x178;" horiz-adv-x="440" d="M15 1405q-2 14 2.5 21.5t20.5 7.5h54q21 0 41.5 -14t22.5 -38l64 -681l64 681q2 23 22 37.5t42 14.5h53q30 0 25 -29l-137 -936v-438q0 -31 -31 -31h-77q-30 0 -30 31v437zM74 1568q0 31 15 50.5t46 19.5q32 0 48 -19.5t16 -50.5t-16 -50t-48 -19q-31 0 -46 19t-15 50z M243 1568q0 31 15 50.5t46 19.5q32 0 47.5 -19.5t15.5 -50.5t-15.5 -50t-47.5 -19q-31 0 -46 19t-15 50z" />
<glyph unicode="&#x2c6;" horiz-adv-x="366" d="M4 1289l73 260q4 14 17 14h87q5 0 10.5 -4.5t6.5 -9.5l74 -260q1 -6 -4 -10t-10 -4h-51q-17 0 -27 10t-13 25l-29 188l-30 -188q-2 -15 -12 -25t-28 -10h-50q-5 0 -10.5 3.5t-3.5 10.5z" />
<glyph unicode="&#x2dc;" horiz-adv-x="444" d="M54 1345v21q0 22 24 23q13 0 19 -3.5t12.5 -6.5t15 -6t24.5 -3q17 0 30.5 5t26.5 11.5t28 12t36 5.5q20 0 39.5 -4t34 -13t24 -24t9.5 -36v-20q0 -12 -7.5 -17.5t-18.5 -5.5q-12 0 -18.5 3.5t-12.5 7t-15.5 7t-26.5 3.5t-30.5 -5.5t-26.5 -12.5t-27.5 -12.5t-33.5 -5.5 q-21 0 -40 4.5t-34 13.5t-23.5 23.5t-8.5 34.5z" />
<glyph unicode="&#x2000;" horiz-adv-x="892" />
<glyph unicode="&#x2001;" horiz-adv-x="1784" />
<glyph unicode="&#x2002;" horiz-adv-x="892" />
<glyph unicode="&#x2003;" horiz-adv-x="1784" />
<glyph unicode="&#x2004;" horiz-adv-x="594" />
<glyph unicode="&#x2005;" horiz-adv-x="446" />
<glyph unicode="&#x2006;" horiz-adv-x="297" />
<glyph unicode="&#x2007;" horiz-adv-x="297" />
<glyph unicode="&#x2008;" horiz-adv-x="223" />
<glyph unicode="&#x2009;" horiz-adv-x="356" />
<glyph unicode="&#x200a;" horiz-adv-x="99" />
<glyph unicode="&#x2010;" horiz-adv-x="428" d="M49 533v45q0 23 14.5 39t36.5 16h256q14 0 19.5 -4.5t5.5 -19.5v-39q0 -27 -14.5 -44.5t-39.5 -17.5h-252q-10 0 -18 4t-8 21z" />
<glyph unicode="&#x2011;" horiz-adv-x="428" d="M49 533v45q0 23 14.5 39t36.5 16h256q14 0 19.5 -4.5t5.5 -19.5v-39q0 -27 -14.5 -44.5t-39.5 -17.5h-252q-10 0 -18 4t-8 21z" />
<glyph unicode="&#x2012;" horiz-adv-x="428" d="M49 533v45q0 23 14.5 39t36.5 16h256q14 0 19.5 -4.5t5.5 -19.5v-39q0 -27 -14.5 -44.5t-39.5 -17.5h-252q-10 0 -18 4t-8 21z" />
<glyph unicode="&#x2013;" horiz-adv-x="369" d="M49 535v41q0 23 14.5 38.5t36.5 15.5h198q13 0 18 -4t5 -20v-34q0 -27 -14.5 -44.5t-37.5 -17.5h-194q-10 0 -18 4t-8 21z" />
<glyph unicode="&#x2014;" horiz-adv-x="674" d="M49 533v45q0 23 14.5 39t36.5 16h502q14 0 19 -4.5t5 -19.5v-39q0 -27 -14.5 -44.5t-38.5 -17.5h-498q-10 0 -18 4t-8 21z" />
<glyph unicode="&#x2018;" horiz-adv-x="232" d="M57 1181l21 208q5 26 14.5 37t34.5 11h32q20 0 20 -22v-265q0 -25 -24 -25h-54q-33 0 -41.5 14.5t-2.5 41.5z" />
<glyph unicode="&#x2019;" horiz-adv-x="232" d="M54 1146v265q0 25 24 25h54q33 0 41.5 -14.5t2.5 -41.5l-21 -208q-5 -26 -14.5 -37t-34.5 -11h-32q-20 0 -20 22z" />
<glyph unicode="&#x201a;" horiz-adv-x="217" d="M54 52v254q0 22 16 36.5t41 14.5h34q19 0 20 -21v-314q0 -20 -20 -20h-34q-26 0 -41.5 14t-15.5 36z" />
<glyph unicode="&#x201c;" horiz-adv-x="396" d="M57 1181l21 208q5 26 14.5 37t34.5 11h32q20 0 20 -22v-265q0 -25 -24 -25h-54q-33 0 -41.5 14.5t-2.5 41.5zM221 1181l21 208q5 26 14.5 37t34.5 11h32q20 0 20 -22v-265q0 -25 -24 -25h-54q-33 0 -41.5 14.5t-2.5 41.5z" />
<glyph unicode="&#x201d;" horiz-adv-x="396" d="M54 1146v265q0 25 24 25h54q33 0 41.5 -14.5t2.5 -41.5l-21 -208q-5 -26 -14.5 -37t-34.5 -11h-32q-20 0 -20 22zM218 1146v265q0 25 24 25h54q33 0 41.5 -14.5t2.5 -41.5l-21 -208q-5 -26 -14.5 -37t-34.5 -11h-32q-20 0 -20 22z" />
<glyph unicode="&#x201e;" horiz-adv-x="381" d="M54 44v254q0 22 16 36.5t41 14.5h34q19 0 20 -21v-314q0 -20 -20 -20h-34q-26 0 -41.5 14t-15.5 36zM218 44v254q0 22 16 36.5t41 14.5h34q19 0 20 -21v-314q0 -20 -20 -20h-34q-26 0 -41.5 14t-15.5 36z" />
<glyph unicode="&#x2022;" horiz-adv-x="401" d="M53 1102q0 61 37.5 95.5t115.5 34.5q81 0 119.5 -34.5t38.5 -95.5q0 -60 -38.5 -95.5t-119.5 -35.5q-78 0 -115.5 34.5t-37.5 96.5z" />
<glyph unicode="&#x2026;" horiz-adv-x="700" d="M32 57q0 33 20.5 52t63.5 19q44 0 65 -19t21 -52t-21 -52.5t-65 -19.5q-43 0 -63.5 19t-20.5 53zM266 57q0 33 20.5 52t63.5 19q44 0 64.5 -19t20.5 -52t-20.5 -52.5t-64.5 -19.5q-43 0 -63.5 19t-20.5 53zM499 57q0 33 20.5 52t63.5 19q44 0 65 -19t21 -52t-21 -52.5 t-65 -19.5q-43 0 -63.5 19t-20.5 53z" />
<glyph unicode="&#x202f;" horiz-adv-x="356" />
<glyph unicode="&#x2039;" horiz-adv-x="353" d="M53 592l123 223q5 12 21 22.5t34 10.5h52q7 0 12 -3t3 -9l-141 -244l141 -244q2 -4 -3 -8t-12 -4h-52q-18 0 -34 11t-21 23z" />
<glyph unicode="&#x203a;" horiz-adv-x="353" d="M59 348l141 244l-141 244q-2 4 3 8t12 4h52q18 0 34 -11t21 -23l123 -222l-123 -223q-5 -12 -21 -22.5t-34 -10.5h-52q-7 0 -12 3t-3 9z" />
<glyph unicode="&#x205f;" horiz-adv-x="446" />
<glyph unicode="&#x20ac;" horiz-adv-x="532" d="M12 642v21q0 18 20 19h49v83h-19q-22 0 -36 16t-14 41v22q0 19 20 19h49v421q0 36 14 67t40 54t63.5 36.5t83.5 13.5q45 0 81.5 -13.5t62 -37t39.5 -54.5t14 -66v-296q0 -21 -24 -22h-61q-16 0 -34 10t-18 31v272q0 21 -16 37.5t-47 16.5t-45.5 -16.5t-14.5 -37.5v-416 h139q20 0 21 -19v-22q0 -26 -14 -41.5t-36 -15.5h-110v-83h97q20 0 20 -19v-21q0 -26 -14 -41.5t-36 -15.5h-67v-430q0 -21 15 -37.5t47 -16.5q34 0 47 18t13 36v272q0 22 18 31t34 9h61q25 0 25 -20v-297q0 -36 -14 -67.5t-40 -54.5t-63.5 -35.5t-83.5 -12.5t-82 12.5 t-61.5 35.5t-39.5 54.5t-14 67.5v435h-19q-22 0 -36 16t-14 41z" />
<glyph unicode="&#x2122;" horiz-adv-x="900" d="M21 1396v16q0 22 18 23h291q19 0 19 -23v-16q0 -55 -50 -55h-58v-822q0 -25 -24 -24h-60q-25 0 -25 24v822h-61q-50 0 -50 55zM382 515v900q0 12 3.5 16t15.5 4h97q18 0 32.5 -11.5t15.5 -29.5l67 -728l69 728q1 15 9.5 23t21 12.5t27.5 5t30 0.5h59q12 0 15 -4t3 -16 v-900q0 -20 -19 -20h-43q-19 0 -32.5 11.5t-13.5 32.5l12 634l-5 25l-77 -679q-2 -13 -8 -18.5t-20 -5.5h-58q-13 0 -18.5 6t-7.5 18l-79 679l-3 -25l15 -634q1 -20 -12.5 -32t-32.5 -12h-43q-20 0 -20 20z" />
<glyph unicode="&#x25fc;" horiz-adv-x="1210" d="M0 0v1211h1211v-1211h-1211z" />
<glyph unicode="&#xfb01;" horiz-adv-x="620" d="M51 26v1157q0 15 6 20.5t24 5.5h265q25 0 24 -26v-22q0 -35 -16.5 -53t-46.5 -18h-118v-435h136q25 0 25 -28v-21q0 -34 -16.5 -51.5t-46.5 -17.5h-98v-484q0 -20 -15 -36.5t-40 -16.5h-58q-15 0 -20 5.5t-5 20.5zM432 31v1124q0 23 16.5 38.5t38.5 15.5h58q16 0 20.5 -5 t4.5 -20v-1153q0 -31 -31 -31h-77q-30 0 -30 31z" />
<glyph unicode="&#xfb02;" horiz-adv-x="755" d="M51 26v1157q0 15 6 20.5t24 5.5h265q25 0 24 -26v-22q0 -35 -16.5 -53t-46.5 -18h-118v-435h136q25 0 25 -28v-21q0 -34 -16.5 -51.5t-46.5 -17.5h-98v-484q0 -20 -15 -36.5t-40 -16.5h-58q-15 0 -20 5.5t-5 20.5zM432 27v1156q0 15 5 20.5t20 5.5h58q25 0 40 -15.5 t15 -40.5v-1035h115q62 0 62 -70v-20q0 -28 -24 -28h-266q-15 0 -20 6t-5 21z" />
<glyph unicode="&#xfb03;" horiz-adv-x="1002" d="M51 26v1157q0 15 6 20.5t24 5.5h265q25 0 24 -26v-22q0 -35 -16.5 -53t-46.5 -18h-118v-435h136q25 0 25 -28v-21q0 -34 -16.5 -51.5t-46.5 -17.5h-98v-484q0 -20 -15 -36.5t-40 -16.5h-58q-15 0 -20 5.5t-5 20.5zM432 26v1157q0 15 6 20.5t24 5.5h265q25 0 24 -26v-22 q0 -35 -16.5 -53t-46.5 -18h-118v-435h136q25 0 25 -28v-21q0 -34 -16.5 -51.5t-46.5 -17.5h-98v-484q0 -20 -15 -36.5t-40 -16.5h-58q-15 0 -20 5.5t-5 20.5zM814 31v1124q0 23 16.5 38.5t38.5 15.5h58q16 0 20.5 -5t4.5 -20v-1153q0 -31 -31 -31h-77q-30 0 -30 31z" />
<glyph unicode="&#xfb04;" horiz-adv-x="1136" d="M51 26v1157q0 15 6 20.5t24 5.5h265q25 0 24 -26v-22q0 -35 -16.5 -53t-46.5 -18h-118v-435h136q25 0 25 -28v-21q0 -34 -16.5 -51.5t-46.5 -17.5h-98v-484q0 -20 -15 -36.5t-40 -16.5h-58q-15 0 -20 5.5t-5 20.5zM432 26v1157q0 15 6 20.5t24 5.5h265q25 0 24 -26v-22 q0 -35 -16.5 -53t-46.5 -18h-118v-435h136q25 0 25 -28v-21q0 -34 -16.5 -51.5t-46.5 -17.5h-98v-484q0 -20 -15 -36.5t-40 -16.5h-58q-15 0 -20 5.5t-5 20.5zM814 27v1156q0 15 5 20.5t20 5.5h58q25 0 40 -15.5t15 -40.5v-1035h115q62 0 62 -70v-20q0 -28 -24 -28h-266 q-15 0 -20 6t-5 21z" />
</font>
</defs>
</svg>
