<?xml version="1.0" encoding="UTF-8"?>
<svg xmlns="http://www.w3.org/2000/svg" xmlns:xlink="http://www.w3.org/1999/xlink" version="1.2" >
<font id="SF Arborcrest Medium">
<font-face  font-family="SF Arborcrest Medium" units-per-em="2048" ascent="1366" descent="-339" font-style="normal" font-weight="400" font-stretch="normal" cap-height="1366" x-height="1024" underline-position="-111" underline-thickness="17" />
<missing-glyph  horiz-adv-x="1024" d="" />
<glyph glyph-name="space" unicode="&#x20;" horiz-adv-x="746" d="" />
<glyph glyph-name="exclam" unicode="&#x21;" horiz-adv-x="307" d="M66 0 L236 0 L236 170 L66 170 L66 0 Z M219 342 L236 1366 L66 1366 L82 342 L219 342 Z " />
<glyph glyph-name="quotedbl" unicode="&#x22;" horiz-adv-x="570" d="M207 1024 L242 1366 L72 1366 L104 1024 L207 1024 Z M463 1024 L498 1366 L328 1366 L361 1024 L463 1024 Z " />
<glyph glyph-name="numbersign" unicode="&#x23;" horiz-adv-x="1001" d="M416 1008 L604 1008 L586 819 L400 819 L416 1008 Z M742 649 L952 649 L952 819 L758 819 L774 1008 L952 1008 L952 1177 L788 1177 L805 1366 L635 1366 L618 1177 L430 1177 L446 1366 L276 1366 L260 1177 L49 1177 L49 1008 L246 1008 L228 819 L49 819 L49 649 L213 649 L197 460 L369 460 L383 649 L572 649 L555 460 L727 460 L742 649 Z " />
<glyph glyph-name="dollar" unicode="&#x24;" horiz-adv-x="1165" d="M958 385 C958 258 861 188 668 174 L668 594 C861 581 958 511 958 385 L958 385 Z M498 1192 L498 772 C304 785 207 854 207 981 C207 1108 304 1178 498 1192 L498 1192 Z M1128 385 C1128 505 1080 599 983 668 C904 721 799 753 668 764 L668 1192 C830 1182 924 1131 950 1040 L1116 1084 C1070 1249 921 1341 668 1362 L668 1536 L498 1536 L498 1362 C368 1352 263 1319 182 1264 C85 1195 37 1101 37 981 C37 861 85 767 182 698 C262 642 367 609 498 600 L498 174 C337 184 242 235 215 326 L51 282 C97 117 246 25 498 4 L498 -167 L668 -167 L668 4 C797 14 902 47 983 102 C1080 168 1128 262 1128 385 L1128 385 Z " />
<glyph glyph-name="percent" unicode="&#x25;" horiz-adv-x="1335" d="M1110 381 L1110 336 C1110 282 1105 240 1094 211 C1076 172 1042 153 991 153 C941 153 908 172 891 211 C877 237 870 278 870 334 L870 377 C870 436 876 479 889 504 C908 543 942 563 991 563 C1042 563 1076 544 1094 506 C1105 477 1110 435 1110 381 L1110 381 Z M460 1030 L460 985 C460 929 455 887 444 860 C427 822 393 803 342 803 C291 803 258 821 242 858 C230 884 224 925 224 981 L224 1026 C224 1083 229 1126 240 1153 C258 1193 292 1213 342 1213 C391 1213 425 1193 444 1153 C455 1126 460 1085 460 1030 L460 1030 Z M1264 358 C1264 597 1173 717 991 717 C808 717 717 597 717 358 C717 119 808 0 991 0 C1173 0 1264 119 1264 358 L1264 358 Z M291 0 L1264 1366 L1043 1366 L70 0 L291 0 Z M614 1008 C614 1247 523 1366 342 1366 C161 1366 70 1247 70 1008 C70 769 161 649 342 649 C523 649 614 769 614 1008 L614 1008 Z " />
<glyph glyph-name="ampersand" unicode="&#x26;" horiz-adv-x="1227" d="M918 598 L918 385 C918 291 880 229 805 199 C757 180 680 170 574 170 C464 170 387 180 344 201 C271 231 234 292 234 385 C234 471 266 530 330 561 C375 586 445 598 541 598 L918 598 Z M1088 598 L1173 598 L1173 768 L541 768 C359 768 268 839 268 981 C268 1078 311 1142 396 1173 C446 1188 530 1196 647 1196 C801 1196 899 1163 940 1098 L1110 1142 C1051 1291 901 1366 661 1366 L576 1366 C257 1366 98 1238 98 981 C98 830 157 732 274 688 C134 649 64 548 64 385 C64 128 223 0 541 0 L610 0 C929 0 1088 128 1088 385 L1088 598 Z " />
<glyph glyph-name="quotesingle" unicode="&#x27;" horiz-adv-x="291" d="M193 1024 L228 1366 L58 1366 L90 1024 L193 1024 Z " />
<glyph glyph-name="parenleft" unicode="&#x28;" horiz-adv-x="434" d="M215 -167 L385 -167 C321 -10 276 121 252 246 C227 367 215 511 215 682 C215 855 227 1001 252 1120 C276 1241 320 1380 385 1536 L215 1536 C150 1380 106 1241 82 1120 C57 1001 45 855 45 682 C45 511 57 367 82 246 C106 121 151 -10 215 -167 L215 -167 Z " />
<glyph glyph-name="parenright" unicode="&#x29;" horiz-adv-x="434" d="M387 682 C387 855 375 1001 350 1120 C327 1244 285 1379 217 1536 L47 1536 C111 1380 155 1241 180 1120 C205 1001 217 855 217 682 C217 511 205 367 180 246 C156 121 111 -10 47 -167 L217 -167 C285 -10 329 121 350 246 C375 367 387 511 387 682 L387 682 Z " />
<glyph glyph-name="asterisk" unicode="&#x2a;" horiz-adv-x="762" d="M633 780 L719 928 L551 1024 L719 1122 L633 1268 L465 1173 L465 1366 L295 1366 L295 1173 L127 1268 L43 1122 L209 1024 L43 928 L127 780 L295 877 L295 682 L465 682 L465 877 L633 780 Z " />
<glyph glyph-name="plus" unicode="&#x2b;" horiz-adv-x="723" d="M446 512 L703 512 L703 682 L446 682 L446 938 L276 938 L276 682 L21 682 L21 512 L276 512 L276 256 L446 256 L446 512 Z " />
<glyph glyph-name="comma" unicode="&#x2c;" horiz-adv-x="291" d="M193 -167 L228 170 L58 170 L90 -167 L193 -167 Z " />
<glyph glyph-name="hyphen" unicode="&#x2d;" horiz-adv-x="848" d="M82 512 L764 512 L764 682 L82 682 L82 512 Z " />
<glyph glyph-name="period" unicode="&#x2e;" horiz-adv-x="342" d="M82 0 L252 0 L252 170 L82 170 L82 0 Z " />
<glyph glyph-name="slash" unicode="&#x2f;" horiz-adv-x="633" d="M178 -161 L620 1484 L454 1530 L12 -115 L178 -161 Z " />
<glyph glyph-name="zero" unicode="0" horiz-adv-x="1215" d="M983 682 C983 341 857 170 606 170 C357 170 232 341 232 682 C232 1023 357 1194 606 1194 C857 1194 983 1023 983 682 L983 682 Z M1153 682 C1153 883 1113 1042 1034 1159 C940 1297 797 1366 606 1366 C414 1366 272 1297 180 1159 C101 1042 62 883 62 682 C62 482 101 324 180 207 C272 69 414 0 606 0 C797 0 940 69 1034 207 C1113 324 1153 482 1153 682 L1153 682 Z " />
<glyph glyph-name="one" unicode="1" horiz-adv-x="342" d="M82 0 L252 0 L252 1366 L82 1366 L82 0 Z " />
<glyph glyph-name="two" unicode="2" horiz-adv-x="1149" d="M84 0 L1090 0 L1090 170 L254 170 L254 213 C254 299 286 373 350 434 C413 497 489 528 578 528 C747 528 869 555 946 610 C1042 676 1090 789 1090 948 C1090 1227 919 1366 578 1366 C459 1366 356 1346 268 1306 C160 1260 92 1186 64 1084 L230 1040 C259 1143 375 1194 578 1194 C683 1194 762 1180 815 1153 C885 1114 920 1045 920 948 C920 839 888 768 823 733 C782 712 701 701 578 701 C440 701 323 654 228 559 C132 468 84 352 84 213 L84 0 Z " />
<glyph glyph-name="three" unicode="3" horiz-adv-x="1202" d="M1136 385 C1136 546 1066 647 926 688 C1045 733 1104 830 1104 981 C1104 1238 944 1366 624 1366 L541 1366 C302 1366 151 1291 90 1142 L260 1098 C291 1145 347 1175 426 1188 C454 1192 520 1194 624 1194 C716 1194 787 1182 838 1159 C901 1129 932 1070 932 981 C932 874 881 808 778 782 C744 773 651 768 498 768 L498 598 L659 598 C752 598 822 586 870 563 C934 530 966 470 966 385 C966 298 934 238 870 205 C821 182 751 170 659 170 L506 170 C357 170 263 203 226 268 L56 226 C115 75 265 0 506 0 L659 0 C977 0 1136 128 1136 385 L1136 385 Z " />
<glyph glyph-name="four" unicode="4" horiz-adv-x="1169" d="M780 1194 L780 426 L224 426 L780 1194 Z M950 256 L1122 256 L1122 426 L950 426 L950 1366 L694 1366 L12 426 L12 256 L780 256 L780 0 L950 0 L950 256 Z " />
<glyph glyph-name="five" unicode="5" horiz-adv-x="1147" d="M1096 469 C1096 606 1044 720 940 811 C843 896 725 938 584 938 C465 938 363 915 278 870 L336 1194 L958 1194 L958 1366 L193 1366 L56 598 L226 570 C247 632 290 682 354 719 C411 752 476 768 549 768 L584 768 C675 768 754 742 819 690 C890 633 926 559 926 469 C926 377 891 304 821 250 C754 197 675 170 584 170 C454 170 355 204 286 272 L108 224 C157 150 221 95 301 58 C376 19 458 0 549 0 L584 0 C725 0 844 43 942 129 C1045 216 1096 329 1096 469 L1096 469 Z " />
<glyph glyph-name="six" unicode="6" horiz-adv-x="1173" d="M946 469 C946 377 911 304 842 250 C777 197 697 170 604 170 C507 170 428 195 367 246 C298 302 264 376 264 469 C264 560 299 634 369 690 C433 742 511 768 604 768 C697 768 777 742 842 690 C911 634 946 560 946 469 L946 469 Z M1116 469 C1116 608 1065 722 962 811 C863 896 744 938 604 938 C460 938 337 891 236 798 C257 1062 379 1194 604 1194 C752 1194 857 1137 918 1024 L1082 1069 C995 1267 835 1366 604 1366 C412 1366 270 1297 178 1159 C99 1042 60 883 60 682 C60 482 99 324 178 207 C270 69 412 0 604 0 C747 0 866 43 962 129 C1065 216 1116 329 1116 469 L1116 469 Z " />
<glyph glyph-name="seven" unicode="7" horiz-adv-x="1088" d="M361 0 L1069 1194 L1069 1366 L45 1366 L45 1194 L856 1194 L147 0 L361 0 Z " />
<glyph glyph-name="eight" unicode="8" horiz-adv-x="1239" d="M1001 385 C1001 298 970 238 908 205 C856 182 785 170 694 170 L541 170 C449 170 379 182 330 205 C266 238 234 298 234 385 C234 470 266 530 330 563 C378 586 448 598 541 598 L694 598 C786 598 857 586 908 563 C970 530 1001 470 1001 385 L1001 385 Z M968 981 C968 896 936 836 873 803 C825 780 754 768 661 768 L576 768 C482 768 412 780 365 803 C300 836 268 895 268 981 C268 1068 300 1128 365 1161 C408 1183 478 1194 576 1194 L661 1194 C758 1194 829 1183 873 1161 C936 1128 968 1068 968 981 L968 981 Z M1173 385 C1173 546 1102 647 960 688 C1079 733 1138 830 1138 981 C1138 1238 979 1366 661 1366 L576 1366 C257 1366 98 1238 98 981 C98 831 157 733 274 688 C134 647 64 546 64 385 C64 128 223 0 541 0 L694 0 C1013 0 1173 128 1173 385 L1173 385 Z " />
<glyph glyph-name="nine" unicode="9" horiz-adv-x="1173" d="M908 897 C908 806 874 732 805 676 C738 624 659 598 568 598 C473 598 394 624 330 676 C261 731 226 805 226 897 C226 986 261 1059 330 1116 C394 1168 473 1194 568 1194 C663 1194 742 1169 805 1120 C874 1064 908 990 908 897 L908 897 Z M1112 682 C1112 883 1072 1042 993 1159 C901 1297 759 1366 568 1366 C423 1366 304 1323 209 1237 C107 1149 56 1036 56 897 C56 756 107 642 209 555 C307 469 427 426 568 426 C714 426 837 473 938 568 C915 303 791 170 568 170 C417 170 313 227 254 342 L90 297 C177 99 336 0 568 0 C759 0 901 69 993 207 C1072 324 1112 482 1112 682 L1112 682 Z " />
<glyph glyph-name="colon" unicode="&#x3a;" horiz-adv-x="268" d="M82 0 L252 0 L252 170 L82 170 L82 0 Z M82 768 L252 768 L252 938 L82 938 L82 768 Z " />
<glyph glyph-name="semicolon" unicode="&#x3b;" horiz-adv-x="307" d="M201 -167 L236 170 L66 170 L98 -167 L201 -167 Z M66 768 L236 768 L236 938 L66 938 L66 768 Z " />
<glyph glyph-name="less" unicode="&#x3c;" horiz-adv-x="432" d="M197 342 L367 342 L197 682 L367 1024 L197 1024 L27 682 L197 342 Z " />
<glyph glyph-name="equal" unicode="&#x3d;" horiz-adv-x="807" d="M82 342 L764 342 L764 512 L82 512 L82 342 Z M82 682 L764 682 L764 854 L82 854 L82 682 Z " />
<glyph glyph-name="greater" unicode="&#x3e;" horiz-adv-x="430" d="M234 342 L404 682 L234 1024 L64 1024 L234 682 L64 342 L234 342 Z " />
<glyph glyph-name="question" unicode="&#x3f;" horiz-adv-x="1088" d="M149 0 L319 0 L319 170 L149 170 L149 0 Z M1071 948 C1071 1227 900 1366 559 1366 C438 1366 335 1346 248 1306 C139 1259 71 1185 43 1084 L209 1040 C239 1143 356 1194 559 1194 C665 1194 743 1180 794 1151 C864 1112 899 1044 899 948 C899 839 867 768 803 733 C759 712 678 701 559 701 C418 701 316 676 254 626 C184 571 149 476 149 342 L319 342 C318 425 338 479 379 504 C409 520 469 528 559 528 C726 528 849 555 928 610 C1023 676 1071 789 1071 948 L1071 948 Z " />
<glyph glyph-name="at" unicode="&#x40;" horiz-adv-x="1442" d="M887 729 C887 554 825 467 701 467 C602 467 553 523 553 635 C553 811 616 899 742 899 C839 899 887 842 887 729 L887 729 Z M1387 682 C1387 869 1322 1029 1192 1163 C1061 1298 904 1366 721 1366 C533 1366 375 1298 248 1163 C120 1031 56 871 56 682 C56 495 120 335 248 201 C377 67 534 0 721 0 L1080 0 L1080 145 L721 145 C576 145 453 198 352 305 C253 410 203 536 203 682 C203 829 253 956 352 1061 C453 1168 576 1221 721 1221 C865 1221 987 1168 1088 1061 C1187 956 1237 829 1237 682 C1237 615 1225 548 1202 479 C1169 392 1124 348 1069 348 C1048 348 1032 361 1020 387 C1007 408 1001 429 1001 450 L1053 1032 L918 1032 L912 979 C873 1014 819 1032 750 1032 C641 1032 556 992 496 912 C443 839 416 745 416 630 C416 537 439 466 485 416 C532 361 601 334 692 334 C761 334 819 352 864 387 C873 337 897 296 938 263 C978 231 1023 215 1073 215 C1174 215 1256 270 1317 379 C1364 466 1387 567 1387 682 L1387 682 Z " />
<glyph glyph-name="A" unicode="A" horiz-adv-x="1278" d="M639 1163 L877 512 L402 512 L639 1163 Z M1063 0 L1243 0 L748 1366 L531 1366 L35 0 L215 0 L338 342 L938 342 L1063 0 Z " />
<glyph glyph-name="B" unicode="B" horiz-adv-x="1343" d="M1106 385 C1106 298 1074 238 1010 205 C962 182 891 170 798 170 L252 170 L252 598 L798 598 C891 598 962 586 1010 563 C1074 530 1106 470 1106 385 L1106 385 Z M1071 981 C1071 895 1039 836 975 803 C927 780 857 768 764 768 L252 768 L252 1194 L764 1194 C861 1194 932 1183 975 1161 C1039 1128 1071 1068 1071 981 L1071 981 Z M1276 385 C1276 546 1206 647 1065 688 C1182 733 1241 831 1241 981 C1241 1238 1082 1366 764 1366 L82 1366 L82 0 L798 0 C1117 0 1276 128 1276 385 L1276 385 Z " />
<glyph glyph-name="C" unicode="C" horiz-adv-x="1245" d="M1032 956 L1196 999 C1101 1244 920 1366 653 1366 C462 1366 313 1298 205 1163 C107 1041 58 881 58 682 C58 485 107 325 205 201 C314 67 463 0 653 0 C920 0 1101 122 1196 365 L1032 410 C964 250 838 170 653 170 C509 170 400 221 326 323 C261 414 228 533 228 682 C228 831 261 951 326 1040 C401 1143 510 1194 653 1194 C837 1194 963 1115 1032 956 L1032 956 Z " />
<glyph glyph-name="D" unicode="D" horiz-adv-x="1335" d="M1106 682 C1106 532 1072 412 1005 323 C929 221 820 170 678 170 L252 170 L252 1194 L678 1194 C819 1194 928 1143 1005 1040 C1072 953 1106 833 1106 682 L1106 682 Z M1276 682 C1276 881 1227 1042 1128 1163 C1019 1298 869 1366 678 1366 L82 1366 L82 0 L678 0 C869 0 1019 67 1128 201 C1227 324 1276 485 1276 682 L1276 682 Z " />
<glyph glyph-name="E" unicode="E" horiz-adv-x="1069" d="M82 0 L1020 0 L1020 170 L252 170 L252 598 L934 598 L934 768 L252 768 L252 1194 L1020 1194 L1020 1366 L82 1366 L82 0 Z " />
<glyph glyph-name="F" unicode="F" horiz-adv-x="1024" d="M252 1194 L1020 1194 L1020 1366 L82 1366 L82 0 L252 0 L252 598 L934 598 L934 768 L252 768 L252 1194 Z " />
<glyph glyph-name="G" unicode="G" horiz-adv-x="1319" d="M1084 0 L1254 0 L1254 768 L655 768 L655 598 L1080 598 C1067 469 1027 368 958 293 C882 211 781 170 655 170 C511 170 402 221 328 323 C263 414 230 533 230 682 C230 831 263 951 328 1040 C403 1143 512 1194 655 1194 C840 1194 966 1114 1034 954 L1198 999 C1106 1239 920 1366 655 1366 C464 1366 315 1298 207 1163 C109 1041 60 881 60 682 C60 485 109 325 207 201 C316 67 465 0 655 0 C846 0 989 70 1084 211 L1084 0 Z " />
<glyph glyph-name="H" unicode="H" horiz-adv-x="1274" d="M1020 0 L1190 0 L1190 1366 L1020 1366 L1020 768 L252 768 L252 1366 L82 1366 L82 0 L252 0 L252 598 L1020 598 L1020 0 Z " />
<glyph glyph-name="I" unicode="I" horiz-adv-x="342" d="M82 0 L252 0 L252 1366 L82 1366 L82 0 Z " />
<glyph glyph-name="J" unicode="J" horiz-adv-x="760" d="M692 682 L692 1366 L522 1366 L522 682 C522 341 408 170 180 170 C116 170 59 186 10 217 L10 27 C59 9 115 0 180 0 C361 0 496 72 584 217 C656 337 692 492 692 682 L692 682 Z " />
<glyph glyph-name="K" unicode="K" horiz-adv-x="1243" d="M948 0 L1188 0 L506 682 L1188 1366 L948 1366 L250 668 L250 1366 L80 1366 L80 0 L250 0 L250 426 L385 561 L948 0 Z " />
<glyph glyph-name="L" unicode="L" horiz-adv-x="1020" d="M80 0 L1018 0 L1018 170 L250 170 L250 1366 L80 1366 L80 0 Z " />
<glyph glyph-name="M" unicode="M" horiz-adv-x="1585" d="M1335 0 L1505 0 L1505 1366 L1335 1366 L792 201 L250 1366 L80 1366 L80 0 L250 0 L250 962 L698 0 L887 0 L1335 962 L1335 0 Z " />
<glyph glyph-name="N" unicode="N" horiz-adv-x="1270" d="M1018 0 L1188 0 L1188 1366 L1018 1366 L1018 299 L250 1366 L80 1366 L80 0 L250 0 L250 1067 L1018 0 Z " />
<glyph glyph-name="O" unicode="O" horiz-adv-x="1310" d="M1082 682 C1082 532 1048 412 981 323 C905 221 796 170 653 170 C509 170 400 221 326 323 C261 410 228 530 228 682 C228 831 261 952 326 1043 C403 1144 512 1194 653 1194 C795 1194 904 1143 981 1040 C1048 953 1082 833 1082 682 L1082 682 Z M1252 682 C1252 880 1203 1040 1104 1163 C995 1298 844 1366 653 1366 C462 1366 313 1298 205 1163 C107 1041 58 881 58 682 C58 485 107 325 205 201 C314 67 463 0 653 0 C844 0 995 67 1104 201 C1203 326 1252 486 1252 682 L1252 682 Z " />
<glyph glyph-name="P" unicode="P" horiz-adv-x="1286" d="M1104 981 C1104 895 1071 836 1005 803 C957 780 887 768 796 768 L250 768 L250 1194 L796 1194 C892 1194 962 1183 1005 1161 C1071 1128 1104 1068 1104 981 L1104 981 Z M1274 981 C1274 1238 1115 1366 796 1366 L80 1366 L80 0 L250 0 L250 598 L796 598 C1115 598 1274 726 1274 981 L1274 981 Z " />
<glyph glyph-name="Q" unicode="Q" horiz-adv-x="1298" d="M1063 682 C1063 532 1029 412 962 323 C886 221 777 170 635 170 C491 170 382 221 307 323 C242 414 209 533 209 682 C209 831 242 951 307 1040 C382 1143 491 1194 635 1194 C776 1194 885 1143 962 1040 C1029 953 1063 833 1063 682 L1063 682 Z M635 0 L1233 -214 L1233 -34 L934 74 C1037 131 1114 217 1165 334 C1210 438 1233 554 1233 682 C1233 881 1184 1041 1086 1163 C977 1298 826 1366 635 1366 C444 1366 294 1298 186 1163 C88 1041 39 881 39 682 C39 485 88 325 186 201 C295 67 444 0 635 0 L635 0 Z " />
<glyph glyph-name="R" unicode="R" horiz-adv-x="1339" d="M1104 981 C1104 895 1072 836 1008 803 C960 780 889 768 796 768 L250 768 L250 1194 L796 1194 C893 1194 964 1183 1008 1161 C1072 1128 1104 1068 1104 981 L1104 981 Z M1071 0 L1274 0 L883 600 C1144 623 1274 750 1274 981 C1274 1238 1115 1366 796 1366 L80 1366 L80 0 L250 0 L250 598 L682 598 L1071 0 Z " />
<glyph glyph-name="S" unicode="S" horiz-adv-x="1204" d="M1147 385 C1147 522 1087 623 966 688 C869 741 747 768 602 768 C351 768 226 839 226 981 C226 1123 351 1194 602 1194 C815 1194 937 1143 968 1040 L1134 1084 C1105 1185 1033 1260 920 1308 C835 1347 729 1366 602 1366 C455 1366 333 1339 236 1286 C116 1220 56 1118 56 981 C56 844 116 743 236 678 C333 625 455 598 602 598 C852 598 977 527 977 385 C977 242 852 170 602 170 C385 170 263 222 234 326 L70 282 C96 181 167 106 282 58 C369 19 476 0 602 0 C747 0 869 27 966 80 C1087 147 1147 248 1147 385 L1147 385 Z " />
<glyph glyph-name="T" unicode="T" horiz-adv-x="1075" d="M622 1194 L1049 1194 L1049 1366 L25 1366 L25 1194 L450 1194 L450 0 L622 0 L622 1194 Z " />
<glyph glyph-name="U" unicode="U" horiz-adv-x="1331" d="M1262 682 L1262 1366 L1092 1366 L1092 682 C1092 532 1058 412 991 323 C915 221 806 170 663 170 C519 170 410 221 336 323 C271 414 238 533 238 682 L238 1366 L68 1366 L68 682 C68 485 117 325 215 201 C324 67 473 0 663 0 C854 0 1005 67 1114 201 C1213 324 1262 485 1262 682 L1262 682 Z " />
<glyph glyph-name="V" unicode="V" horiz-adv-x="1274" d="M746 0 L1241 1366 L1061 1366 L637 203 L213 1366 L33 1366 L528 0 L746 0 Z " />
<glyph glyph-name="W" unicode="W" horiz-adv-x="1845" d="M1428 0 L1792 1366 L1616 1366 L1312 236 L1012 1366 L833 1366 L531 236 L230 1366 L54 1366 L418 0 L645 0 L922 1034 L1198 0 L1428 0 Z " />
<glyph glyph-name="X" unicode="X" horiz-adv-x="1335" d="M1059 0 L1270 0 L772 682 L1270 1366 L1057 1366 L668 827 L276 1366 L66 1366 L563 682 L66 0 L276 0 L668 539 L1059 0 Z " />
<glyph glyph-name="Y" unicode="Y" horiz-adv-x="1256" d="M713 655 L1229 1366 L1016 1366 L626 827 L236 1366 L25 1366 L543 655 L543 0 L713 0 L713 655 Z " />
<glyph glyph-name="Z" unicode="Z" horiz-adv-x="1237" d="M64 0 L1173 0 L1173 170 L293 170 L1173 1194 L1173 1366 L64 1366 L64 1194 L942 1194 L64 170 L64 0 Z " />
<glyph glyph-name="bracketleft" unicode="&#x5b;" horiz-adv-x="547" d="M82 -167 L508 -167 L508 0 L252 0 L252 1366 L508 1366 L508 1536 L82 1536 L82 -167 Z " />
<glyph glyph-name="backslash" unicode="&#x5c;" horiz-adv-x="633" d="M454 -161 L620 -115 L178 1530 L12 1484 L454 -161 Z " />
<glyph glyph-name="bracketright" unicode="&#x5d;" horiz-adv-x="547" d="M37 -167 L463 -167 L463 1536 L37 1536 L37 1366 L293 1366 L293 0 L37 0 L37 -167 Z " />
<glyph glyph-name="asciicircum" unicode="&#x5e;" horiz-adv-x="803" d="M555 1142 L760 1142 L504 1366 L299 1366 L43 1142 L248 1142 L402 1264 L555 1142 Z " />
<glyph glyph-name="underscore" unicode="&#x5f;" horiz-adv-x="1020" d="M82 -167 L936 -167 L936 0 L82 0 L82 -167 Z " />
<glyph glyph-name="grave" unicode="&#x60;" horiz-adv-x="487" d="M334 1450 L452 1450 L248 1706 L10 1706 L334 1450 Z " />
<glyph glyph-name="a" unicode="a" horiz-adv-x="997" d="M760 512 C760 273 669 153 487 153 C306 153 215 273 215 512 C215 751 306 870 487 870 C669 870 760 751 760 512 L760 512 Z M760 0 L914 0 L914 1024 L760 1024 L760 899 C703 982 612 1024 487 1024 C340 1024 231 974 158 873 C94 785 62 665 62 512 C62 359 94 239 158 151 C231 50 340 0 487 0 C550 0 601 8 641 23 C686 40 725 73 760 123 L760 0 Z " />
<glyph glyph-name="b" unicode="b" horiz-adv-x="960" d="M780 512 C780 273 689 153 508 153 C327 153 236 273 236 512 C236 751 327 870 508 870 C689 870 780 751 780 512 L780 512 Z M934 512 C934 663 902 784 838 873 C763 974 653 1024 508 1024 C383 1024 292 982 236 899 L236 1366 L82 1366 L82 0 L236 0 L236 123 C269 74 309 40 354 23 C397 8 448 0 508 0 C653 0 763 50 838 151 C902 239 934 359 934 512 L934 512 Z " />
<glyph glyph-name="c" unicode="c" horiz-adv-x="910" d="M707 760 L858 800 C791 949 666 1024 485 1024 C338 1024 229 974 156 873 C92 785 60 665 60 512 C60 359 92 239 156 151 C229 50 338 0 485 0 C663 0 787 74 856 221 L707 264 C662 190 588 153 485 153 C304 153 213 273 213 512 C213 751 304 870 485 870 C588 870 662 833 707 760 L707 760 Z " />
<glyph glyph-name="d" unicode="d" horiz-adv-x="962" d="M725 512 C725 273 634 153 452 153 C271 153 180 273 180 512 C180 751 271 870 452 870 C634 870 725 751 725 512 L725 512 Z M725 0 L879 0 L879 1366 L725 1366 L725 899 C668 982 577 1024 452 1024 C307 1024 197 974 123 873 C59 785 27 665 27 512 C27 359 59 239 123 151 C197 50 307 0 452 0 C515 0 566 8 606 23 C651 40 690 73 725 123 L725 0 Z " />
<glyph glyph-name="e" unicode="e" horiz-adv-x="966" d="M758 590 L217 590 C236 777 326 870 487 870 C649 870 739 777 758 590 L758 590 Z M914 475 L914 512 C914 665 882 786 817 873 C744 974 634 1024 487 1024 C340 1024 231 974 158 873 C94 785 62 665 62 512 C62 359 94 239 158 151 C231 50 340 0 487 0 C667 0 791 75 860 226 L709 266 C666 191 592 153 487 153 C324 153 234 247 217 436 L912 436 C913 449 914 462 914 475 L914 475 Z " />
<glyph glyph-name="f" unicode="f" horiz-adv-x="568" d="M547 1213 L547 1366 C402 1366 292 1316 217 1215 C153 1126 121 1005 121 854 L121 768 L35 768 L35 614 L121 614 L121 0 L274 0 L274 614 L444 614 L444 768 L274 768 L274 854 C274 1094 365 1214 547 1213 L547 1213 Z " />
<glyph glyph-name="g" unicode="g" horiz-adv-x="985" d="M756 512 C756 273 665 153 483 153 C302 153 211 273 211 512 C211 751 302 870 483 870 C665 870 756 751 756 512 L756 512 Z M910 170 L910 1024 L756 1024 L756 899 C701 982 610 1024 483 1024 C338 1024 228 974 153 873 C90 784 58 663 58 512 C58 360 90 240 153 151 C228 50 338 0 483 0 C607 0 697 39 754 118 C737 -84 646 -185 483 -185 C380 -185 307 -148 264 -75 L112 -115 C179 -264 303 -339 483 -339 C630 -339 740 -289 813 -188 C878 -101 910 19 910 170 L910 170 Z " />
<glyph glyph-name="h" unicode="h" horiz-adv-x="966" d="M780 0 L934 0 L934 512 C934 663 902 784 838 873 C763 974 653 1024 508 1024 C381 1024 290 982 236 899 L236 1366 L82 1366 L82 0 L236 0 L236 512 C236 751 327 870 508 870 C689 870 780 751 780 512 L780 0 Z " />
<glyph glyph-name="i" unicode="i" horiz-adv-x="309" d="M74 0 L228 0 L228 1024 L74 1024 L74 0 Z M74 1177 L228 1177 L228 1331 L74 1331 L74 1177 Z " />
<glyph glyph-name="j" unicode="j" horiz-adv-x="307" d="M74 -339 L228 -339 L228 1024 L74 1024 L74 -339 Z M74 1177 L228 1177 L228 1331 L74 1331 L74 1177 Z " />
<glyph glyph-name="k" unicode="k" horiz-adv-x="944" d="M719 0 L934 0 L422 512 L934 1024 L719 1024 L236 541 L236 1366 L82 1366 L82 0 L236 0 L236 323 L313 404 L719 0 Z " />
<glyph glyph-name="l" unicode="l" horiz-adv-x="326" d="M82 0 L236 0 L236 1366 L82 1366 L82 0 Z " />
<glyph glyph-name="m" unicode="m" horiz-adv-x="1507" d="M1276 0 L1430 0 L1430 512 C1430 667 1407 785 1362 866 C1301 971 1198 1024 1055 1024 C902 1024 803 965 756 846 C708 965 608 1024 456 1024 C353 1024 280 992 236 928 L236 1024 L82 1024 L82 0 L236 0 L236 512 C236 624 245 705 264 754 C297 831 361 870 456 870 C553 870 618 831 649 754 C668 703 678 623 678 512 L678 0 L831 0 L831 512 C831 627 841 708 862 754 C895 831 960 870 1055 870 C1152 870 1216 831 1248 754 C1267 707 1276 626 1276 512 L1276 0 Z " />
<glyph glyph-name="n" unicode="n" horiz-adv-x="1005" d="M780 0 L934 0 L934 512 C934 663 902 784 838 873 C763 974 653 1024 508 1024 C381 1024 290 982 236 899 L236 1024 L82 1024 L82 0 L236 0 L236 512 C236 751 327 870 508 870 C689 870 780 751 780 512 L780 0 Z " />
<glyph glyph-name="o" unicode="o" horiz-adv-x="975" d="M760 512 C760 273 669 153 487 153 C306 153 215 273 215 512 C215 751 306 870 487 870 C669 870 760 751 760 512 L760 512 Z M914 512 C914 665 882 786 817 873 C744 974 634 1024 487 1024 C340 1024 231 974 158 873 C94 785 62 665 62 512 C62 359 94 239 158 151 C231 50 340 0 487 0 C634 0 744 50 817 151 C882 238 914 359 914 512 L914 512 Z " />
<glyph glyph-name="p" unicode="p" horiz-adv-x="958" d="M780 512 C780 273 689 153 508 153 C327 153 236 273 236 512 C236 751 327 870 508 870 C689 870 780 751 780 512 L780 512 Z M934 512 C934 663 902 784 838 873 C763 974 653 1024 508 1024 C448 1024 397 1016 354 1001 C309 984 269 950 236 901 L236 1024 L82 1024 L82 -339 L236 -339 L236 125 C292 42 383 0 508 0 C653 0 763 50 838 151 C902 239 934 359 934 512 L934 512 Z " />
<glyph glyph-name="q" unicode="q" horiz-adv-x="960" d="M723 512 C723 273 632 153 450 153 C269 153 178 273 178 512 C178 751 269 870 450 870 C632 870 723 751 723 512 L723 512 Z M723 -339 L877 -339 L877 1024 L723 1024 L723 901 C688 951 649 984 604 1001 C564 1016 513 1024 450 1024 C305 1024 195 974 121 873 C57 785 25 665 25 512 C25 359 57 239 121 151 C195 50 305 0 450 0 C575 0 666 42 723 125 L723 -339 Z " />
<glyph glyph-name="r" unicode="r" horiz-adv-x="522" d="M508 870 L508 1024 C381 1024 290 982 236 899 L236 1024 L82 1024 L82 0 L236 0 L236 512 C236 751 327 870 508 870 L508 870 Z " />
<glyph glyph-name="s" unicode="s" horiz-adv-x="972" d="M914 299 C914 424 859 508 750 549 C681 576 574 590 428 590 C361 590 312 597 282 610 C236 631 213 669 213 725 C213 786 238 828 288 850 C323 863 375 870 444 870 C537 870 593 869 606 866 C672 861 717 840 740 803 L893 844 C846 964 710 1024 485 1024 C202 1024 60 924 60 725 C60 602 114 518 221 475 C285 449 393 436 545 436 C610 436 658 429 688 416 C736 395 760 356 760 299 C760 238 734 197 682 174 C651 160 599 153 526 153 C437 153 384 155 367 158 C299 163 254 184 232 221 L78 180 C124 60 260 0 485 0 C771 0 914 100 914 299 L914 299 Z " />
<glyph glyph-name="t" unicode="t" horiz-adv-x="570" d="M547 0 L547 153 C365 152 274 271 274 512 L274 870 L444 870 L444 1024 L274 1024 L274 1366 L121 1366 L121 1024 L35 1024 L35 870 L121 870 L121 512 C121 359 153 239 217 151 C292 50 402 0 547 0 L547 0 Z " />
<glyph glyph-name="u" unicode="u" horiz-adv-x="1008" d="M770 0 L924 0 L924 1024 L770 1024 L770 512 C770 273 679 153 498 153 C317 153 226 273 226 512 L226 1024 L72 1024 L72 512 C72 359 104 239 168 151 C241 50 351 0 498 0 C624 0 715 42 770 125 L770 0 Z " />
<glyph glyph-name="v" unicode="v" horiz-adv-x="1012" d="M604 0 L975 1024 L811 1024 L504 180 L197 1024 L35 1024 L406 0 L604 0 Z " />
<glyph glyph-name="w" unicode="w" horiz-adv-x="1468" d="M1138 0 L1413 1024 L1256 1024 L1034 201 L813 1024 L655 1024 L434 201 L213 1024 L56 1024 L328 0 L539 0 L736 729 L930 0 L1138 0 Z " />
<glyph glyph-name="x" unicode="x" horiz-adv-x="1067" d="M809 0 L999 0 L626 512 L999 1024 L809 1024 L533 641 L256 1024 L66 1024 L438 512 L66 0 L256 0 L533 383 L809 0 Z " />
<glyph glyph-name="y" unicode="y" horiz-adv-x="1001" d="M481 -339 L977 1024 L813 1024 L506 180 L199 1024 L37 1024 L424 -42 L317 -339 L481 -339 Z " />
<glyph glyph-name="z" unicode="z" horiz-adv-x="1010" d="M78 0 L932 0 L932 153 L291 153 L932 870 L932 1024 L78 1024 L78 870 L717 870 L78 153 L78 0 Z " />
<glyph glyph-name="braceleft" unicode="&#x7b;" horiz-adv-x="668" d="M612 -167 L612 -13 C481 -14 398 46 363 168 C348 222 340 337 340 512 C340 558 323 598 289 631 C256 665 216 682 170 682 C216 682 256 699 289 733 C323 767 340 807 340 854 C340 1028 348 1143 363 1198 C398 1324 481 1385 612 1382 L612 1536 C328 1536 186 1377 186 1059 L186 887 C186 806 99 752 16 752 L16 614 C99 614 186 561 186 477 L186 307 C186 -9 328 -167 612 -167 L612 -167 Z " />
<glyph glyph-name="bar" unicode="&#x7c;" horiz-adv-x="342" d="M82 -167 L252 -167 L252 1536 L82 1536 L82 -167 Z " />
<glyph glyph-name="braceright" unicode="&#x7d;" horiz-adv-x="670" d="M651 614 L651 752 C611 752 574 763 539 786 C500 812 481 846 481 887 L481 1059 C481 1377 339 1536 56 1536 L56 1382 C187 1385 270 1324 305 1198 C320 1143 328 1028 328 854 C328 809 345 768 378 733 C411 699 451 682 498 682 C451 682 411 665 378 631 C345 598 328 558 328 512 C328 337 320 222 305 168 C270 46 187 -14 56 -13 L56 -167 C339 -168 481 -10 481 307 L481 477 C481 520 500 554 539 580 C574 603 611 614 651 614 L651 614 Z " />
<glyph glyph-name="asciitilde" unicode="&#x7e;" horiz-adv-x="750" d="M682 1290 L682 1366 C638 1285 570 1245 477 1245 C445 1245 411 1265 375 1304 C339 1345 306 1366 276 1366 C161 1366 68 1266 68 1151 L68 1075 C110 1154 178 1194 272 1194 C302 1194 336 1174 373 1134 C409 1095 442 1075 471 1075 C529 1075 578 1096 618 1138 C661 1181 682 1231 682 1290 L682 1290 Z " />
<glyph glyph-name="&amp;#x82;" unicode="&#x82;" horiz-adv-x="291" d="M193 -167 L228 170 L58 170 L90 -167 L193 -167 Z " />
<glyph glyph-name="&amp;#x201a;" unicode="&#x201a;" horiz-adv-x="291" d="M193 -167 L228 170 L58 170 L90 -167 L193 -167 Z " />
<glyph glyph-name="&amp;#x84;" unicode="&#x84;" horiz-adv-x="570" d="M207 -167 L242 170 L72 170 L104 -167 L207 -167 Z M463 -167 L498 170 L328 170 L361 -167 L463 -167 Z " />
<glyph glyph-name="&amp;#x201e;" unicode="&#x201e;" horiz-adv-x="570" d="M207 -167 L242 170 L72 170 L104 -167 L207 -167 Z M463 -167 L498 170 L328 170 L361 -167 L463 -167 Z " />
<glyph glyph-name="&amp;#x85;" unicode="&#x85;" horiz-adv-x="1018" d="M82 0 L252 0 L252 170 L82 170 L82 0 Z M422 0 L594 0 L594 170 L422 170 L422 0 Z M764 0 L934 0 L934 170 L764 170 L764 0 Z " />
<glyph glyph-name="&amp;#x2026;" unicode="&#x2026;" horiz-adv-x="1018" d="M82 0 L252 0 L252 170 L82 170 L82 0 Z M422 0 L594 0 L594 170 L422 170 L422 0 Z M764 0 L934 0 L934 170 L764 170 L764 0 Z " />
<glyph glyph-name="&amp;#x88;" unicode="&#x88;" horiz-adv-x="803" d="M555 1450 L760 1450 L504 1673 L299 1673 L43 1450 L248 1450 L402 1571 L555 1450 Z " />
<glyph glyph-name="&amp;#x2c6;" unicode="&#x2c6;" horiz-adv-x="803" d="M555 1450 L760 1450 L504 1673 L299 1673 L43 1450 L248 1450 L402 1571 L555 1450 Z " />
<glyph glyph-name="&amp;#x89;" unicode="&#x89;" horiz-adv-x="1942" d="M1114 381 L1114 336 C1114 282 1109 240 1098 211 C1080 172 1046 153 995 153 C945 153 912 172 895 211 C882 239 875 280 875 334 L875 377 C875 434 881 477 893 504 C912 543 946 563 995 563 C1046 563 1080 544 1098 506 C1109 477 1114 435 1114 381 L1114 381 Z M465 1030 L465 985 C465 932 459 891 448 860 C431 822 397 803 346 803 C295 803 262 821 246 858 C234 884 228 925 228 981 L228 1026 C228 1083 233 1126 244 1153 C262 1193 296 1213 346 1213 C395 1213 429 1193 448 1153 C459 1123 465 1082 465 1030 L465 1030 Z M1745 381 L1745 336 C1745 280 1740 238 1729 211 C1711 172 1677 153 1626 153 C1575 153 1542 172 1526 211 C1513 236 1507 277 1507 334 L1507 377 C1507 431 1513 473 1524 504 C1543 543 1577 563 1626 563 C1677 563 1711 544 1729 506 C1740 479 1745 437 1745 381 L1745 381 Z M1268 358 C1268 597 1177 717 995 717 C812 717 721 597 721 358 C721 119 812 0 995 0 C1177 0 1268 119 1268 358 L1268 358 Z M295 0 L1268 1366 L1047 1366 L74 0 L295 0 Z M618 1008 C618 1247 527 1366 346 1366 C165 1366 74 1247 74 1008 C74 769 165 649 346 649 C527 649 618 769 618 1008 L618 1008 Z M1899 358 C1899 597 1808 717 1626 717 C1445 717 1354 597 1354 358 C1354 119 1445 0 1626 0 C1808 0 1899 119 1899 358 L1899 358 Z " />
<glyph glyph-name="&amp;#x2030;" unicode="&#x2030;" horiz-adv-x="1942" d="M1114 381 L1114 336 C1114 282 1109 240 1098 211 C1080 172 1046 153 995 153 C945 153 912 172 895 211 C882 239 875 280 875 334 L875 377 C875 434 881 477 893 504 C912 543 946 563 995 563 C1046 563 1080 544 1098 506 C1109 477 1114 435 1114 381 L1114 381 Z M465 1030 L465 985 C465 932 459 891 448 860 C431 822 397 803 346 803 C295 803 262 821 246 858 C234 884 228 925 228 981 L228 1026 C228 1083 233 1126 244 1153 C262 1193 296 1213 346 1213 C395 1213 429 1193 448 1153 C459 1123 465 1082 465 1030 L465 1030 Z M1745 381 L1745 336 C1745 280 1740 238 1729 211 C1711 172 1677 153 1626 153 C1575 153 1542 172 1526 211 C1513 236 1507 277 1507 334 L1507 377 C1507 431 1513 473 1524 504 C1543 543 1577 563 1626 563 C1677 563 1711 544 1729 506 C1740 479 1745 437 1745 381 L1745 381 Z M1268 358 C1268 597 1177 717 995 717 C812 717 721 597 721 358 C721 119 812 0 995 0 C1177 0 1268 119 1268 358 L1268 358 Z M295 0 L1268 1366 L1047 1366 L74 0 L295 0 Z M618 1008 C618 1247 527 1366 346 1366 C165 1366 74 1247 74 1008 C74 769 165 649 346 649 C527 649 618 769 618 1008 L618 1008 Z M1899 358 C1899 597 1808 717 1626 717 C1445 717 1354 597 1354 358 C1354 119 1445 0 1626 0 C1808 0 1899 119 1899 358 L1899 358 Z " />
<glyph glyph-name="&amp;#x8a;" unicode="&#x8a;" horiz-adv-x="1175" d="M1134 385 C1134 522 1074 623 954 688 C857 741 735 768 590 768 C339 768 213 839 213 981 C213 1123 339 1194 590 1194 C803 1194 925 1143 956 1040 L1122 1084 C1093 1185 1021 1260 908 1308 C823 1347 717 1366 590 1366 C443 1366 321 1339 224 1286 C103 1219 43 1118 43 981 C43 844 103 743 224 678 C321 625 443 598 590 598 C839 598 964 527 964 385 C964 242 839 170 590 170 C374 170 251 222 221 326 L58 282 C84 181 155 106 270 58 C357 19 464 0 590 0 C735 0 857 27 954 80 C1074 146 1134 248 1134 385 L1134 385 Z M692 1450 L948 1673 L744 1673 L590 1552 L436 1673 L232 1673 L487 1450 L692 1450 Z " />
<glyph glyph-name="&amp;#x160;" unicode="&#x160;" horiz-adv-x="1175" d="M1134 385 C1134 522 1074 623 954 688 C857 741 735 768 590 768 C339 768 213 839 213 981 C213 1123 339 1194 590 1194 C803 1194 925 1143 956 1040 L1122 1084 C1093 1185 1021 1260 908 1308 C823 1347 717 1366 590 1366 C443 1366 321 1339 224 1286 C103 1219 43 1118 43 981 C43 844 103 743 224 678 C321 625 443 598 590 598 C839 598 964 527 964 385 C964 242 839 170 590 170 C374 170 251 222 221 326 L58 282 C84 181 155 106 270 58 C357 19 464 0 590 0 C735 0 857 27 954 80 C1074 146 1134 248 1134 385 L1134 385 Z M692 1450 L948 1673 L744 1673 L590 1552 L436 1673 L232 1673 L487 1450 L692 1450 Z " />
<glyph glyph-name="&amp;#x8b;" unicode="&#x8b;" horiz-adv-x="432" d="M197 342 L367 342 L197 682 L367 1024 L197 1024 L27 682 L197 342 Z " />
<glyph glyph-name="&amp;#x2039;" unicode="&#x2039;" horiz-adv-x="432" d="M197 342 L367 342 L197 682 L367 1024 L197 1024 L27 682 L197 342 Z " />
<glyph glyph-name="&amp;#x8c;" unicode="&#x8c;" horiz-adv-x="1925" d="M1090 682 C1090 532 1056 412 989 323 C913 221 804 170 661 170 C517 170 408 221 334 323 C269 414 236 533 236 682 C236 831 269 951 334 1040 C409 1143 518 1194 661 1194 C803 1194 912 1143 989 1040 C1056 953 1090 833 1090 682 L1090 682 Z M1090 0 L1857 0 L1857 170 L1260 170 L1260 598 L1772 598 L1772 768 L1260 768 L1260 1194 L1857 1194 L1857 1366 L1090 1366 L1090 1190 C983 1307 840 1366 661 1366 C470 1366 321 1298 213 1163 C115 1041 66 881 66 682 C66 485 115 325 213 201 C322 67 471 0 661 0 C840 0 983 59 1090 176 L1090 0 Z " />
<glyph glyph-name="&amp;#x152;" unicode="&#x152;" horiz-adv-x="1925" d="M1090 682 C1090 532 1056 412 989 323 C913 221 804 170 661 170 C517 170 408 221 334 323 C269 414 236 533 236 682 C236 831 269 951 334 1040 C409 1143 518 1194 661 1194 C803 1194 912 1143 989 1040 C1056 953 1090 833 1090 682 L1090 682 Z M1090 0 L1857 0 L1857 170 L1260 170 L1260 598 L1772 598 L1772 768 L1260 768 L1260 1194 L1857 1194 L1857 1366 L1090 1366 L1090 1190 C983 1307 840 1366 661 1366 C470 1366 321 1298 213 1163 C115 1041 66 881 66 682 C66 485 115 325 213 201 C322 67 471 0 661 0 C840 0 983 59 1090 176 L1090 0 Z " />
<glyph glyph-name="&amp;#x91;" unicode="&#x91;" horiz-adv-x="297" d="M62 1024 L232 1024 L197 1366 L94 1366 L62 1024 Z " />
<glyph glyph-name="&amp;#x2018;" unicode="&#x2018;" horiz-adv-x="297" d="M62 1024 L232 1024 L197 1366 L94 1366 L62 1024 Z " />
<glyph glyph-name="&amp;#x92;" unicode="&#x92;" horiz-adv-x="291" d="M193 1024 L228 1366 L58 1366 L90 1024 L193 1024 Z " />
<glyph glyph-name="&amp;#x2019;" unicode="&#x2019;" horiz-adv-x="291" d="M193 1024 L228 1366 L58 1366 L90 1024 L193 1024 Z " />
<glyph glyph-name="&amp;#x93;" unicode="&#x93;" horiz-adv-x="574" d="M74 1024 L244 1024 L209 1366 L106 1366 L74 1024 Z M330 1024 L500 1024 L465 1366 L363 1366 L330 1024 Z " />
<glyph glyph-name="&amp;#x201c;" unicode="&#x201c;" horiz-adv-x="574" d="M74 1024 L244 1024 L209 1366 L106 1366 L74 1024 Z M330 1024 L500 1024 L465 1366 L363 1366 L330 1024 Z " />
<glyph glyph-name="&amp;#x94;" unicode="&#x94;" horiz-adv-x="570" d="M207 1024 L242 1366 L72 1366 L104 1024 L207 1024 Z M463 1024 L498 1366 L328 1366 L361 1024 L463 1024 Z " />
<glyph glyph-name="&amp;#x201d;" unicode="&#x201d;" horiz-adv-x="570" d="M207 1024 L242 1366 L72 1366 L104 1024 L207 1024 Z M463 1024 L498 1366 L328 1366 L361 1024 L463 1024 Z " />
<glyph glyph-name="&amp;#x95;" unicode="&#x95;" horiz-adv-x="807" d="M744 682 C744 944 630 1075 402 1075 C175 1075 62 944 62 682 C62 421 175 291 402 291 C630 291 744 421 744 682 L744 682 Z " />
<glyph glyph-name="&amp;#x2022;" unicode="&#x2022;" horiz-adv-x="807" d="M744 682 C744 944 630 1075 402 1075 C175 1075 62 944 62 682 C62 421 175 291 402 291 C630 291 744 421 744 682 L744 682 Z " />
<glyph glyph-name="&amp;#x96;" unicode="&#x96;" horiz-adv-x="592" d="M82 512 L508 512 L508 682 L82 682 L82 512 Z " />
<glyph glyph-name="&amp;#x2013;" unicode="&#x2013;" horiz-adv-x="592" d="M82 512 L508 512 L508 682 L82 682 L82 512 Z " />
<glyph glyph-name="&amp;#x97;" unicode="&#x97;" horiz-adv-x="1104" d="M82 512 L1020 512 L1020 682 L82 682 L82 512 Z " />
<glyph glyph-name="&amp;#x2014;" unicode="&#x2014;" horiz-adv-x="1104" d="M82 512 L1020 512 L1020 682 L82 682 L82 512 Z " />
<glyph glyph-name="&amp;#x98;" unicode="&#x98;" horiz-adv-x="750" d="M682 1683 L682 1757 C639 1678 570 1638 477 1638 C445 1638 411 1658 375 1698 C339 1737 306 1757 276 1757 C161 1757 68 1659 68 1542 L68 1468 C111 1547 179 1587 272 1587 C302 1587 336 1567 373 1527 C410 1488 443 1468 471 1468 C529 1468 578 1489 618 1532 C661 1575 682 1625 682 1683 L682 1683 Z " />
<glyph glyph-name="&amp;#x2dc;" unicode="&#x2dc;" horiz-adv-x="750" d="M682 1683 L682 1757 C639 1678 570 1638 477 1638 C445 1638 411 1658 375 1698 C339 1737 306 1757 276 1757 C161 1757 68 1659 68 1542 L68 1468 C111 1547 179 1587 272 1587 C302 1587 336 1567 373 1527 C410 1488 443 1468 471 1468 C529 1468 578 1489 618 1532 C661 1575 682 1625 682 1683 L682 1683 Z " />
<glyph glyph-name="&amp;#x99;" unicode="&#x99;" horiz-adv-x="1059" d="M910 854 L975 854 L975 1366 L910 1366 L707 928 L504 1366 L56 1366 L56 1302 L215 1302 L215 854 L278 854 L278 1302 L438 1302 L438 854 L504 854 L504 1215 L672 854 L742 854 L910 1215 L910 854 Z " />
<glyph glyph-name="&amp;#x2122;" unicode="&#x2122;" horiz-adv-x="1059" d="M910 854 L975 854 L975 1366 L910 1366 L707 928 L504 1366 L56 1366 L56 1302 L215 1302 L215 854 L278 854 L278 1302 L438 1302 L438 854 L504 854 L504 1215 L672 854 L742 854 L910 1215 L910 854 Z " />
<glyph glyph-name="&amp;#x9a;" unicode="&#x9a;" horiz-adv-x="956" d="M906 299 C906 424 851 508 742 549 C673 576 566 590 420 590 C353 590 304 597 274 610 C228 631 205 669 205 725 C205 786 230 828 280 850 C315 863 367 870 436 870 C529 870 585 869 598 866 C663 861 708 840 731 803 L885 844 C838 964 702 1024 477 1024 C193 1024 51 924 51 725 C51 601 105 518 213 475 C277 449 385 436 537 436 C602 436 650 429 680 416 C728 395 752 356 752 299 C752 238 726 197 674 174 C642 160 590 153 518 153 C425 153 373 155 358 158 C291 163 246 184 224 221 L70 180 C116 60 252 0 477 0 C763 0 906 100 906 299 L906 299 Z M580 1110 L835 1331 L630 1331 L477 1213 L323 1331 L118 1331 L375 1110 L580 1110 Z " />
<glyph glyph-name="&amp;#x161;" unicode="&#x161;" horiz-adv-x="956" d="M906 299 C906 424 851 508 742 549 C673 576 566 590 420 590 C353 590 304 597 274 610 C228 631 205 669 205 725 C205 786 230 828 280 850 C315 863 367 870 436 870 C529 870 585 869 598 866 C663 861 708 840 731 803 L885 844 C838 964 702 1024 477 1024 C193 1024 51 924 51 725 C51 601 105 518 213 475 C277 449 385 436 537 436 C602 436 650 429 680 416 C728 395 752 356 752 299 C752 238 726 197 674 174 C642 160 590 153 518 153 C425 153 373 155 358 158 C291 163 246 184 224 221 L70 180 C116 60 252 0 477 0 C763 0 906 100 906 299 L906 299 Z M580 1110 L835 1331 L630 1331 L477 1213 L323 1331 L118 1331 L375 1110 L580 1110 Z " />
<glyph glyph-name="&amp;#x9b;" unicode="&#x9b;" horiz-adv-x="430" d="M234 342 L404 682 L234 1024 L64 1024 L234 682 L64 342 L234 342 Z " />
<glyph glyph-name="&amp;#x203a;" unicode="&#x203a;" horiz-adv-x="430" d="M234 342 L404 682 L234 1024 L64 1024 L234 682 L64 342 L234 342 Z " />
<glyph glyph-name="&amp;#x9c;" unicode="&#x9c;" horiz-adv-x="1687" d="M768 512 C768 273 677 153 496 153 C315 153 224 273 224 512 C224 751 315 870 496 870 C677 870 768 751 768 512 L768 512 Z M1464 590 L926 590 C944 777 1034 870 1196 870 C1358 870 1447 777 1464 590 L1464 590 Z M1622 512 C1622 665 1590 785 1526 873 C1449 974 1339 1024 1196 1024 C1035 1024 918 963 846 842 C773 963 656 1024 496 1024 C349 1024 239 974 166 873 C102 785 70 665 70 512 C70 359 102 239 166 151 C239 50 349 0 496 0 C659 0 776 60 846 180 C916 60 1033 0 1196 0 C1375 0 1498 75 1567 226 L1418 266 C1375 191 1301 153 1196 153 C1032 153 942 247 926 436 L1618 436 C1621 463 1622 487 1622 512 L1622 512 Z " />
<glyph glyph-name="&amp;#x153;" unicode="&#x153;" horiz-adv-x="1687" d="M768 512 C768 273 677 153 496 153 C315 153 224 273 224 512 C224 751 315 870 496 870 C677 870 768 751 768 512 L768 512 Z M1464 590 L926 590 C944 777 1034 870 1196 870 C1358 870 1447 777 1464 590 L1464 590 Z M1622 512 C1622 665 1590 785 1526 873 C1449 974 1339 1024 1196 1024 C1035 1024 918 963 846 842 C773 963 656 1024 496 1024 C349 1024 239 974 166 873 C102 785 70 665 70 512 C70 359 102 239 166 151 C239 50 349 0 496 0 C659 0 776 60 846 180 C916 60 1033 0 1196 0 C1375 0 1498 75 1567 226 L1418 266 C1375 191 1301 153 1196 153 C1032 153 942 247 926 436 L1618 436 C1621 463 1622 487 1622 512 L1622 512 Z " />
<glyph glyph-name="&amp;#x9f;" unicode="&#x9f;" horiz-adv-x="1233" d="M703 655 L1219 1366 L1005 1366 L616 827 L226 1366 L14 1366 L533 655 L533 0 L703 0 L703 655 Z M361 1450 L533 1450 L533 1622 L361 1622 L361 1450 Z M703 1450 L873 1450 L873 1622 L703 1622 L703 1450 Z " />
<glyph glyph-name="&amp;#x178;" unicode="&#x178;" horiz-adv-x="1233" d="M703 655 L1219 1366 L1005 1366 L616 827 L226 1366 L14 1366 L533 655 L533 0 L703 0 L703 655 Z M361 1450 L533 1450 L533 1622 L361 1622 L361 1450 Z M703 1450 L873 1450 L873 1622 L703 1622 L703 1450 Z " />
<glyph glyph-name="nbspace" unicode="&#xa0;" horiz-adv-x="746" d="" />
<glyph glyph-name="exclamdown" unicode="&#xa1;" horiz-adv-x="307" d="M66 -339 L236 -339 L219 682 L82 682 L66 -339 Z M66 854 L236 854 L236 1024 L66 1024 L66 854 Z " />
<glyph glyph-name="cent" unicode="&#xa2;" horiz-adv-x="862" d="M389 1204 L389 504 C258 534 193 651 193 854 C193 1057 258 1173 389 1204 L389 1204 Z M686 1102 L838 1142 C777 1269 678 1342 543 1360 L543 1536 L389 1536 L389 1360 C265 1343 173 1284 114 1182 C64 1098 39 989 39 854 C39 721 63 611 112 524 C174 423 266 364 389 346 L389 170 L543 170 L543 346 C679 364 776 436 835 563 L686 606 C653 551 606 517 543 504 L543 1204 C606 1191 653 1157 686 1102 L686 1102 Z " />
<glyph glyph-name="yen" unicode="&#xa5;" horiz-adv-x="1256" d="M713 655 L1229 1366 L1016 1366 L626 827 L236 1366 L25 1366 L543 655 L543 0 L713 0 L713 655 Z " />
<glyph glyph-name="dieresis" unicode="&#xa8;" horiz-adv-x="678" d="M82 1450 L252 1450 L252 1622 L82 1622 L82 1450 Z M422 1450 L594 1450 L594 1622 L422 1622 L422 1450 Z " />
<glyph glyph-name="copyright" unicode="&#xa9;" horiz-adv-x="568" d="M400 184 L363 195 C348 159 319 141 278 141 C214 141 182 179 182 256 C182 333 214 371 278 371 C319 371 348 353 363 317 L400 328 C379 383 339 410 278 410 C194 410 143 348 143 256 C143 214 155 178 178 149 C203 118 237 102 278 102 C339 102 379 129 400 184 L400 184 Z M460 256 C460 201 445 153 414 110 C379 67 335 45 282 45 C229 45 185 67 149 110 C118 153 102 202 102 256 C102 368 175 467 282 467 C389 467 460 368 460 256 L460 256 Z M506 256 C506 327 487 387 450 436 C410 487 354 512 282 512 C209 512 153 487 112 436 C77 389 60 329 60 256 C60 183 77 123 112 76 C153 25 209 0 282 0 C354 0 410 25 450 76 C487 123 506 183 506 256 L506 256 Z " />
<glyph glyph-name="guillemotleft" unicode="&#xab;" horiz-adv-x="770" d="M219 342 L389 342 L219 682 L389 1024 L219 1024 L49 682 L219 342 Z M526 342 L696 342 L526 682 L696 1024 L526 1024 L356 682 L526 342 Z " />
<glyph glyph-name="minus" unicode="&#xad;" horiz-adv-x="848" d="M82 512 L764 512 L764 682 L82 682 L82 512 Z " />
<glyph glyph-name="registered" unicode="&#xae;" horiz-adv-x="568" d="M147 398 L147 114 C117 153 102 200 102 256 C102 311 117 359 147 398 L147 398 Z M371 102 L408 102 C373 64 331 45 282 45 C232 45 191 64 158 102 L186 102 L186 238 L284 238 L371 102 Z M460 256 C460 200 444 151 412 108 L328 238 C388 242 418 270 418 323 C418 381 382 410 309 410 L158 410 C191 448 232 467 282 467 C389 467 460 368 460 256 L460 256 Z M379 323 C379 290 356 274 309 274 L186 274 L186 371 L309 371 C356 371 379 355 379 323 L379 323 Z M506 256 C506 327 487 387 450 436 C410 487 354 512 282 512 C209 512 153 487 112 436 C77 389 60 329 60 256 C60 183 77 123 112 76 C153 25 209 0 282 0 C354 0 410 25 450 76 C487 123 506 183 506 256 L506 256 Z " />
<glyph glyph-name="overscore" unicode="&#xaf;" horiz-adv-x="848" d="M82 1194 L764 1194 L764 1366 L82 1366 L82 1194 Z " />
<glyph glyph-name="degree" unicode="&#xb0;" horiz-adv-x="375" d="M244 1237 C244 1197 224 1177 184 1177 C145 1177 125 1197 125 1237 C125 1276 145 1296 184 1296 C224 1296 244 1276 244 1237 L244 1237 Z M313 1237 C313 1272 300 1303 275 1328 C250 1353 219 1366 184 1366 C149 1366 119 1353 94 1328 C70 1303 58 1272 58 1237 C58 1202 70 1172 94 1147 C119 1122 149 1110 184 1110 C221 1110 251 1122 275 1147 C300 1172 313 1202 313 1237 L313 1237 Z " />
<glyph glyph-name="plusminus" unicode="&#xb1;" horiz-adv-x="776" d="M47 0 L729 0 L729 170 L47 170 L47 0 Z M473 598 L729 598 L729 768 L473 768 L473 1024 L303 1024 L303 768 L47 768 L47 598 L303 598 L303 342 L473 342 L473 598 Z " />
<glyph glyph-name="acute" unicode="&#xb4;" horiz-adv-x="485" d="M151 1450 L475 1706 L238 1706 L33 1450 L151 1450 Z " />
<glyph glyph-name="paragraph" unicode="&#xb6;" horiz-adv-x="1252" d="M1022 1194 L1194 1194 L1194 1366 L510 1366 C192 1366 33 1238 33 981 C33 726 192 598 510 598 L510 -167 L682 -167 L682 1194 L852 1194 L852 -167 L1022 -167 L1022 1194 Z " />
<glyph glyph-name="middot" unicode="&#xb7;" horiz-adv-x="342" d="M82 598 L252 598 L252 768 L82 768 L82 598 Z " />
<glyph glyph-name="guillemotright" unicode="&#xbb;" horiz-adv-x="768" d="M242 342 L412 682 L242 1024 L72 1024 L242 682 L72 342 L242 342 Z M549 342 L719 682 L549 1024 L379 1024 L549 682 L379 342 L549 342 Z " />
<glyph glyph-name="questiondown" unicode="&#xbf;" horiz-adv-x="1088" d="M1045 -57 L879 -13 C847 -116 730 -167 528 -167 C421 -167 342 -153 291 -124 C221 -86 186 -19 186 78 C186 186 219 258 284 293 C327 313 408 323 528 323 C667 323 768 347 831 396 C902 451 938 547 938 682 L768 682 C768 600 748 546 707 520 C678 504 618 496 528 496 C359 496 237 469 160 414 C64 348 16 236 16 78 C16 -200 187 -339 528 -339 C645 -339 749 -319 840 -279 C947 -232 1016 -158 1045 -57 L1045 -57 Z M768 854 L938 854 L938 1024 L768 1024 L768 854 Z " />
<glyph glyph-name="Agrave" unicode="&#xc0;" horiz-adv-x="1266" d="M639 1163 L877 512 L402 512 L639 1163 Z M1063 0 L1243 0 L748 1366 L531 1366 L35 0 L215 0 L338 342 L938 342 L1063 0 Z M572 1450 L690 1450 L485 1706 L246 1706 L572 1450 Z " />
<glyph glyph-name="Aacute" unicode="&#xc1;" horiz-adv-x="1264" d="M624 1163 L862 512 L387 512 L624 1163 Z M1049 0 L1229 0 L733 1366 L516 1366 L21 0 L201 0 L323 342 L924 342 L1049 0 Z M692 1450 L1018 1706 L778 1706 L574 1450 L692 1450 Z " />
<glyph glyph-name="Acircumflex" unicode="&#xc2;" horiz-adv-x="1270" d="M635 1163 L873 512 L398 512 L635 1163 Z M1059 0 L1239 0 L744 1366 L526 1366 L31 0 L211 0 L334 342 L934 342 L1059 0 Z M788 1450 L993 1450 L738 1673 L533 1673 L276 1450 L481 1450 L635 1571 L788 1450 Z " />
<glyph glyph-name="Atilde" unicode="&#xc3;" horiz-adv-x="1294" d="M647 1163 L885 512 L410 512 L647 1163 Z M1071 0 L1252 0 L756 1366 L539 1366 L43 0 L224 0 L346 342 L946 342 L1071 0 Z M954 1683 L954 1757 C911 1678 843 1638 750 1638 C720 1638 686 1658 649 1697 C612 1737 579 1757 551 1757 C434 1757 340 1659 340 1542 L340 1468 C385 1547 454 1587 545 1587 C576 1587 610 1567 645 1528 C682 1488 715 1468 746 1468 C802 1468 850 1489 891 1532 C933 1575 954 1625 954 1683 L954 1683 Z " />
<glyph glyph-name="Adieresis" unicode="&#xc4;" horiz-adv-x="1266" d="M633 1163 L870 512 L396 512 L633 1163 Z M1057 0 L1237 0 L742 1366 L524 1366 L29 0 L209 0 L332 342 L932 342 L1057 0 Z M377 1450 L547 1450 L547 1622 L377 1622 L377 1450 Z M719 1450 L889 1450 L889 1622 L719 1622 L719 1450 Z " />
<glyph glyph-name="Aring" unicode="&#xc5;" horiz-adv-x="1262" d="M630 1163 L868 512 L394 512 L630 1163 Z M690 1579 C690 1540 670 1520 630 1520 C591 1520 572 1540 572 1579 C572 1618 591 1638 630 1638 C670 1638 690 1618 690 1579 L690 1579 Z M1055 0 L1235 0 L740 1366 L522 1366 L27 0 L207 0 L330 342 L930 342 L1055 0 Z M760 1579 C760 1614 747 1644 722 1669 C697 1694 667 1706 630 1706 C595 1706 566 1694 541 1669 C516 1644 504 1614 504 1579 C504 1542 516 1512 541 1487 C566 1462 595 1450 630 1450 C667 1450 697 1462 722 1487 C747 1514 760 1545 760 1579 L760 1579 Z " />
<glyph glyph-name="AE" unicode="&#xc6;" horiz-adv-x="1622" d="M788 1163 L788 598 L508 598 L788 1163 Z M788 0 L1557 0 L1557 170 L960 170 L960 598 L1472 598 L1472 768 L960 768 L960 1194 L1557 1194 L1557 1366 L707 1366 L31 0 L209 0 L422 426 L788 426 L788 0 Z " />
<glyph glyph-name="Egrave" unicode="&#xc8;" horiz-adv-x="1022" d="M62 0 L999 0 L999 170 L232 170 L232 598 L914 598 L914 768 L232 768 L232 1194 L999 1194 L999 1366 L62 1366 L62 0 Z M624 1450 L744 1450 L539 1706 L299 1706 L624 1450 Z " />
<glyph glyph-name="Eacute" unicode="&#xc9;" horiz-adv-x="1020" d="M64 0 L1001 0 L1001 170 L234 170 L234 598 L916 598 L916 768 L234 768 L234 1194 L1001 1194 L1001 1366 L64 1366 L64 0 Z M422 1450 L746 1706 L506 1706 L301 1450 L422 1450 Z " />
<glyph glyph-name="Ecircumflex" unicode="&#xca;" horiz-adv-x="1032" d="M68 0 L1005 0 L1005 170 L238 170 L238 598 L920 598 L920 768 L238 768 L238 1194 L1005 1194 L1005 1366 L68 1366 L68 0 Z M682 1450 L887 1450 L630 1673 L426 1673 L170 1450 L375 1450 L528 1571 L682 1450 Z " />
<glyph glyph-name="Edieresis" unicode="&#xcb;" horiz-adv-x="1032" d="M70 0 L1008 0 L1008 170 L240 170 L240 598 L922 598 L922 768 L240 768 L240 1194 L1008 1194 L1008 1366 L70 1366 L70 0 Z M274 1450 L444 1450 L444 1622 L274 1622 L274 1450 Z M614 1450 L786 1450 L786 1622 L614 1622 L614 1450 Z " />
<glyph glyph-name="Igrave" unicode="&#xcc;" horiz-adv-x="516" d="M272 0 L442 0 L442 1366 L272 1366 L272 0 Z M323 1450 L442 1450 L238 1706 L0 1706 L323 1450 Z " />
<glyph glyph-name="Iacute" unicode="&#xcd;" horiz-adv-x="512" d="M70 0 L240 0 L240 1366 L70 1366 L70 0 Z M189 1450 L512 1706 L274 1706 L70 1450 L189 1450 Z " />
<glyph glyph-name="Icircumflex" unicode="&#xce;" horiz-adv-x="740" d="M284 0 L454 0 L454 1366 L284 1366 L284 0 Z M522 1450 L727 1450 L471 1673 L266 1673 L12 1450 L215 1450 L369 1571 L522 1450 Z " />
<glyph glyph-name="Idieresis" unicode="&#xcf;" horiz-adv-x="547" d="M189 0 L358 0 L358 1366 L189 1366 L189 0 Z M19 1450 L189 1450 L189 1622 L19 1622 L19 1450 Z M358 1450 L528 1450 L528 1622 L358 1622 L358 1450 Z " />
<glyph glyph-name="Ntilde" unicode="&#xd1;" horiz-adv-x="1245" d="M1005 0 L1175 0 L1175 1366 L1005 1366 L1005 299 L238 1366 L68 1366 L68 0 L238 0 L238 1067 L1005 0 Z M930 1683 L930 1757 C887 1678 818 1638 725 1638 C693 1638 659 1658 622 1698 C587 1737 554 1757 524 1757 C409 1757 315 1659 315 1542 L315 1468 C358 1547 427 1587 520 1587 C550 1587 583 1567 618 1528 C655 1488 688 1468 719 1468 C776 1468 825 1489 866 1532 C909 1575 930 1625 930 1683 L930 1683 Z " />
<glyph glyph-name="Ograve" unicode="&#xd2;" horiz-adv-x="1282" d="M1067 682 C1067 532 1033 412 966 323 C890 221 781 170 639 170 C495 170 386 221 311 323 C246 410 213 530 213 682 C213 831 246 952 311 1043 C388 1144 497 1194 639 1194 C780 1194 889 1143 966 1040 C1033 953 1067 833 1067 682 L1067 682 Z M1237 682 C1237 881 1188 1041 1090 1163 C981 1298 830 1366 639 1366 C448 1366 298 1298 191 1163 C92 1040 43 880 43 682 C43 486 92 326 191 201 C299 67 448 0 639 0 C830 0 981 67 1090 201 C1188 325 1237 485 1237 682 L1237 682 Z M742 1450 L862 1450 L657 1706 L418 1706 L742 1450 Z " />
<glyph glyph-name="Oacute" unicode="&#xd3;" horiz-adv-x="1280" d="M1067 682 C1067 532 1033 412 966 323 C890 221 781 170 639 170 C495 170 386 221 311 323 C246 410 213 530 213 682 C213 831 246 952 311 1043 C388 1144 497 1194 639 1194 C780 1194 889 1143 966 1040 C1033 953 1067 833 1067 682 L1067 682 Z M1237 682 C1237 881 1188 1041 1090 1163 C981 1298 830 1366 639 1366 C448 1366 298 1298 191 1163 C92 1040 43 880 43 682 C43 486 92 326 191 201 C299 67 448 0 639 0 C830 0 981 67 1090 201 C1188 325 1237 485 1237 682 L1237 682 Z M537 1450 L862 1706 L622 1706 L418 1450 L537 1450 Z " />
<glyph glyph-name="Ocircumflex" unicode="&#xd4;" horiz-adv-x="1288" d="M1071 682 C1071 532 1037 412 970 323 C894 221 785 170 643 170 C499 170 390 221 315 323 C250 410 217 530 217 682 C217 831 250 952 315 1043 C392 1144 501 1194 643 1194 C784 1194 893 1143 970 1040 C1037 953 1071 833 1071 682 L1071 682 Z M1241 682 C1241 881 1192 1041 1094 1163 C985 1298 834 1366 643 1366 C452 1366 302 1298 195 1163 C96 1040 47 880 47 682 C47 486 96 326 195 201 C303 67 452 0 643 0 C834 0 985 67 1094 201 C1192 325 1241 485 1241 682 L1241 682 Z M796 1450 L1001 1450 L746 1673 L541 1673 L284 1450 L489 1450 L643 1571 L796 1450 Z " />
<glyph glyph-name="Otilde" unicode="&#xd5;" horiz-adv-x="1294" d="M1073 682 C1073 532 1039 412 972 323 C896 221 787 170 645 170 C501 170 392 221 317 323 C252 410 219 530 219 682 C219 831 252 952 317 1043 C394 1144 503 1194 645 1194 C786 1194 895 1143 972 1040 C1039 953 1073 833 1073 682 L1073 682 Z M1243 682 C1243 881 1194 1041 1096 1163 C987 1298 836 1366 645 1366 C454 1366 304 1298 197 1163 C98 1040 49 880 49 682 C49 486 98 326 197 201 C306 67 455 0 645 0 C836 0 987 67 1096 201 C1194 325 1243 485 1243 682 L1243 682 Z M952 1683 L952 1757 C909 1678 841 1638 748 1638 C717 1638 684 1658 647 1698 C612 1737 579 1757 549 1757 C432 1757 338 1659 338 1542 L338 1468 C383 1547 452 1587 543 1587 C574 1587 608 1567 643 1528 C680 1488 713 1468 744 1468 C859 1468 952 1568 952 1683 L952 1683 Z " />
<glyph glyph-name="Odieresis" unicode="&#xd6;" horiz-adv-x="1290" d="M1071 682 C1071 532 1037 412 970 323 C894 221 785 170 643 170 C499 170 390 221 315 323 C250 410 217 530 217 682 C217 831 250 952 315 1043 C392 1144 501 1194 643 1194 C784 1194 893 1143 970 1040 C1037 953 1071 833 1071 682 L1071 682 Z M1241 682 C1241 881 1192 1041 1094 1163 C985 1298 834 1366 643 1366 C452 1366 302 1298 195 1163 C96 1040 47 880 47 682 C47 486 96 326 195 201 C303 67 452 0 643 0 C834 0 985 67 1094 201 C1192 325 1241 485 1241 682 L1241 682 Z M387 1450 L559 1450 L559 1622 L387 1622 L387 1450 Z M729 1450 L899 1450 L899 1622 L729 1622 L729 1450 Z " />
<glyph glyph-name="multiply" unicode="&#xd7;" horiz-adv-x="721" d="M541 295 L661 416 L481 598 L661 778 L541 899 L358 719 L178 899 L58 778 L238 598 L58 416 L178 295 L358 477 L541 295 Z " />
<glyph glyph-name="Oslash" unicode="&#xd8;" horiz-adv-x="1312" d="M1084 682 C1084 532 1050 412 983 323 C907 221 798 170 655 170 C511 170 402 221 328 323 C263 410 230 530 230 682 C230 831 263 952 328 1043 C405 1144 514 1194 655 1194 C797 1194 906 1143 983 1040 C1050 953 1084 833 1084 682 L1084 682 Z M1254 682 C1254 880 1205 1040 1106 1163 C997 1298 846 1366 655 1366 C464 1366 315 1298 207 1163 C109 1041 60 881 60 682 C60 485 109 325 207 201 C316 67 465 0 655 0 C846 0 997 67 1106 201 C1205 326 1254 486 1254 682 L1254 682 Z " />
<glyph glyph-name="Ugrave" unicode="&#xd9;" horiz-adv-x="1298" d="M1245 682 L1245 1366 L1075 1366 L1075 682 C1075 530 1042 410 975 323 C899 221 790 170 647 170 C503 170 394 221 319 323 C254 414 221 533 221 682 L221 1366 L51 1366 L51 682 C51 486 100 326 199 201 C308 67 457 0 647 0 C838 0 989 67 1098 201 C1196 325 1245 485 1245 682 L1245 682 Z M750 1450 L870 1450 L665 1706 L426 1706 L750 1450 Z " />
<glyph glyph-name="Uacute" unicode="&#xda;" horiz-adv-x="1298" d="M1248 682 L1248 1366 L1078 1366 L1078 682 C1078 532 1044 412 977 323 C901 221 792 170 649 170 C505 170 396 221 321 323 C256 414 224 533 224 682 L224 1366 L54 1366 L54 682 C54 485 103 325 201 201 C310 67 459 0 649 0 C840 0 991 67 1100 201 C1199 326 1248 486 1248 682 L1248 682 Z M547 1450 L873 1706 L633 1706 L428 1450 L547 1450 Z " />
<glyph glyph-name="Ucircumflex" unicode="&#xdb;" horiz-adv-x="1308" d="M1252 682 L1252 1366 L1082 1366 L1082 682 C1082 532 1048 412 981 323 C905 221 796 170 653 170 C509 170 400 221 326 323 C261 414 228 533 228 682 L228 1366 L58 1366 L58 682 C58 485 107 325 205 201 C314 67 463 0 653 0 C844 0 995 67 1104 201 C1203 326 1252 486 1252 682 L1252 682 Z M807 1450 L1012 1450 L756 1673 L551 1673 L295 1450 L500 1450 L653 1571 L807 1450 Z " />
<glyph glyph-name="Udieresis" unicode="&#xdc;" horiz-adv-x="1310" d="M1252 682 L1252 1366 L1082 1366 L1082 682 C1082 532 1048 412 981 323 C905 221 796 170 653 170 C509 170 400 221 326 323 C261 414 228 533 228 682 L228 1366 L58 1366 L58 682 C58 485 107 325 205 201 C314 67 463 0 653 0 C844 0 995 67 1104 201 C1203 326 1252 486 1252 682 L1252 682 Z M398 1450 L570 1450 L570 1622 L398 1622 L398 1450 Z M740 1450 L910 1450 L910 1622 L740 1622 L740 1450 Z " />
<glyph glyph-name="Yacute" unicode="&#xdd;" horiz-adv-x="1229" d="M701 655 L1217 1366 L1003 1366 L614 827 L224 1366 L12 1366 L531 655 L531 0 L701 0 L701 655 Z M512 1450 L838 1706 L598 1706 L394 1450 L512 1450 Z " />
<glyph glyph-name="agrave" unicode="&#xe0;" horiz-adv-x="956" d="M742 512 C742 273 651 153 469 153 C288 153 197 273 197 512 C197 751 288 870 469 870 C651 870 742 751 742 512 L742 512 Z M742 0 L895 0 L895 1024 L742 1024 L742 899 C684 982 593 1024 469 1024 C323 1024 213 974 139 873 C75 785 43 665 43 512 C43 359 75 239 139 151 C213 50 323 0 469 0 C532 0 583 8 622 23 C667 40 707 74 742 123 L742 0 Z M572 1110 L690 1110 L485 1366 L248 1366 L572 1110 Z " />
<glyph glyph-name="aacute" unicode="&#xe1;" horiz-adv-x="958" d="M744 512 C744 273 653 153 471 153 C290 153 199 273 199 512 C199 751 290 870 471 870 C653 870 744 751 744 512 L744 512 Z M744 0 L897 0 L897 1024 L744 1024 L744 899 C686 982 595 1024 471 1024 C325 1024 215 974 141 873 C77 785 45 665 45 512 C45 359 77 239 141 151 C215 50 325 0 471 0 C534 0 585 8 624 23 C669 40 709 74 744 123 L744 0 Z M369 1110 L692 1366 L454 1366 L250 1110 L369 1110 Z " />
<glyph glyph-name="acircumflex" unicode="&#xe2;" horiz-adv-x="979" d="M754 512 C754 273 663 153 481 153 C300 153 209 273 209 512 C209 751 300 870 481 870 C663 870 754 751 754 512 L754 512 Z M754 0 L908 0 L908 1024 L754 1024 L754 899 C697 982 606 1024 481 1024 C336 1024 226 974 151 873 C88 784 56 663 56 512 C56 360 88 240 151 151 C226 50 336 0 481 0 C544 0 595 8 635 23 C680 40 719 73 754 123 L754 0 Z M635 1110 L840 1110 L584 1331 L379 1331 L123 1110 L328 1110 L481 1229 L635 1110 Z " />
<glyph glyph-name="atilde" unicode="&#xe3;" horiz-adv-x="981" d="M754 512 C754 273 663 153 481 153 C300 153 209 273 209 512 C209 751 300 870 481 870 C663 870 754 751 754 512 L754 512 Z M754 0 L908 0 L908 1024 L754 1024 L754 899 C697 982 606 1024 481 1024 C336 1024 226 974 151 873 C88 784 56 663 56 512 C56 360 88 240 151 151 C226 50 336 0 481 0 C544 0 595 8 635 23 C680 40 719 73 754 123 L754 0 Z M788 1341 L788 1418 C745 1337 677 1296 584 1296 C553 1296 520 1316 483 1356 C446 1397 413 1418 385 1418 C326 1418 276 1396 236 1352 C195 1307 174 1257 174 1202 L174 1126 C219 1205 288 1245 379 1245 C410 1245 444 1225 479 1186 C516 1146 549 1126 580 1126 C636 1126 684 1147 725 1190 C767 1233 788 1283 788 1341 L788 1341 Z " />
<glyph glyph-name="adieresis" unicode="&#xe4;" horiz-adv-x="972" d="M750 512 C750 273 659 153 477 153 C296 153 205 273 205 512 C205 751 296 870 477 870 C659 870 750 751 750 512 L750 512 Z M750 0 L903 0 L903 1024 L750 1024 L750 899 C692 982 601 1024 477 1024 C332 1024 222 974 147 873 C83 785 51 665 51 512 C51 359 83 239 147 151 C222 50 332 0 477 0 C540 0 591 8 630 23 C675 40 715 74 750 123 L750 0 Z M221 1110 L391 1110 L391 1280 L221 1280 L221 1110 Z M563 1110 L733 1110 L733 1280 L563 1280 L563 1110 Z " />
<glyph glyph-name="aring" unicode="&#xe5;" horiz-adv-x="958" d="M744 512 C744 273 653 153 471 153 C290 153 199 273 199 512 C199 751 290 870 471 870 C653 870 744 751 744 512 L744 512 Z M531 1237 C531 1197 511 1177 471 1177 C432 1177 412 1197 412 1237 C412 1276 432 1296 471 1296 C511 1296 531 1276 531 1237 L531 1237 Z M744 0 L897 0 L897 1024 L744 1024 L744 899 C686 982 595 1024 471 1024 C325 1024 215 974 141 873 C77 785 45 665 45 512 C45 359 77 239 141 151 C215 50 325 0 471 0 C534 0 585 8 624 23 C669 40 709 74 744 123 L744 0 Z M600 1237 C600 1272 587 1303 562 1328 C537 1353 506 1366 471 1366 C436 1366 406 1353 381 1328 C356 1303 344 1273 344 1237 C344 1202 356 1172 381 1147 C406 1122 436 1110 471 1110 C507 1110 537 1122 562 1147 C587 1172 600 1202 600 1237 L600 1237 Z " />
<glyph glyph-name="ae" unicode="&#xe6;" horiz-adv-x="1687" d="M768 512 C768 273 677 153 496 153 C315 153 224 273 224 512 C224 751 315 870 496 870 C677 870 768 751 768 512 L768 512 Z M1464 590 L926 590 C944 777 1034 870 1196 870 C1358 870 1447 777 1464 590 L1464 590 Z M1622 512 C1622 665 1590 785 1526 873 C1449 974 1339 1024 1196 1024 C1071 1024 980 982 922 899 L922 1024 L768 1024 L768 899 C713 982 622 1024 496 1024 C349 1024 239 974 166 873 C102 785 70 665 70 512 C70 359 102 239 166 151 C239 50 349 0 496 0 C620 0 711 41 768 123 L768 0 L922 0 L922 123 C991 41 1082 0 1196 0 C1375 0 1498 75 1567 226 L1418 266 C1375 191 1301 153 1196 153 C1032 153 942 247 926 436 L1618 436 C1621 463 1622 487 1622 512 L1622 512 Z " />
<glyph glyph-name="egrave" unicode="&#xe8;" horiz-adv-x="936" d="M740 590 L199 590 C218 777 308 870 469 870 C631 870 721 777 740 590 L740 590 Z M895 475 L895 512 C895 665 863 786 798 873 C725 974 616 1024 469 1024 C323 1024 213 974 139 873 C75 785 43 665 43 512 C43 359 75 239 139 151 C213 50 323 0 469 0 C649 0 773 75 842 226 L690 266 C647 191 573 153 469 153 C306 153 216 247 199 436 L893 436 C894 449 895 462 895 475 L895 475 Z M572 1110 L690 1110 L485 1366 L248 1366 L572 1110 Z " />
<glyph glyph-name="eacute" unicode="&#xe9;" horiz-adv-x="936" d="M742 590 L201 590 C220 777 310 870 471 870 C633 870 723 777 742 590 L742 590 Z M897 475 L897 512 C897 665 865 786 800 873 C727 974 618 1024 471 1024 C325 1024 215 974 141 873 C77 785 45 665 45 512 C45 359 77 239 141 151 C215 50 325 0 471 0 C651 0 775 75 844 226 L692 266 C649 191 575 153 471 153 C308 153 218 247 201 436 L895 436 C896 449 897 462 897 475 L897 475 Z M369 1110 L692 1366 L454 1366 L250 1110 L369 1110 Z " />
<glyph glyph-name="ecircumflex" unicode="&#xea;" horiz-adv-x="956" d="M752 590 L211 590 C230 777 320 870 481 870 C643 870 733 777 752 590 L752 590 Z M908 475 L908 512 C908 665 876 786 811 873 C738 974 628 1024 481 1024 C336 1024 226 974 151 873 C88 784 56 663 56 512 C56 360 88 240 151 151 C226 50 336 0 481 0 C661 0 785 75 854 226 L703 266 C660 191 586 153 481 153 C318 153 228 247 211 436 L906 436 C907 449 908 462 908 475 L908 475 Z M635 1110 L840 1110 L584 1331 L379 1331 L123 1110 L328 1110 L481 1229 L635 1110 Z " />
<glyph glyph-name="edieresis" unicode="&#xeb;" horiz-adv-x="948" d="M748 590 L207 590 C226 777 316 870 477 870 C639 870 729 777 748 590 L748 590 Z M903 475 L903 512 C903 663 871 784 807 873 C732 974 622 1024 477 1024 C332 1024 222 974 147 873 C83 785 51 665 51 512 C51 359 83 239 147 151 C222 50 332 0 477 0 C657 0 781 75 850 226 L698 266 C656 191 582 153 477 153 C314 153 224 247 207 436 L901 436 C902 449 903 462 903 475 L903 475 Z M221 1110 L391 1110 L391 1280 L221 1280 L221 1110 Z M563 1110 L733 1110 L733 1280 L563 1280 L563 1110 Z " />
<glyph glyph-name="igrave" unicode="&#xec;" horiz-adv-x="342" d="M82 0 L252 0 L252 1024 L82 1024 L82 0 Z " />
<glyph glyph-name="iacute" unicode="&#xed;" horiz-adv-x="342" d="M82 0 L252 0 L252 1024 L82 1024 L82 0 Z " />
<glyph glyph-name="icircumflex" unicode="&#xee;" horiz-adv-x="342" d="M82 0 L252 0 L252 1024 L82 1024 L82 0 Z " />
<glyph glyph-name="idieresis" unicode="&#xef;" horiz-adv-x="342" d="M82 0 L252 0 L252 1024 L82 1024 L82 0 Z " />
<glyph glyph-name="ntilde" unicode="&#xf1;" horiz-adv-x="989" d="M768 0 L922 0 L922 512 C922 665 890 786 825 873 C752 974 643 1024 496 1024 C369 1024 278 982 224 899 L224 1024 L70 1024 L70 0 L224 0 L224 512 C224 751 315 870 496 870 C677 870 768 751 768 512 L768 0 Z M803 1341 L803 1418 C760 1337 691 1296 598 1296 C568 1296 535 1316 498 1356 C461 1397 428 1418 400 1418 C340 1418 290 1396 250 1352 C209 1309 189 1259 189 1202 L189 1126 C234 1205 303 1245 394 1245 C425 1245 458 1225 493 1186 C530 1146 563 1126 594 1126 C651 1126 699 1147 740 1190 C782 1233 803 1283 803 1341 L803 1341 Z " />
<glyph glyph-name="ograve" unicode="&#xf2;" horiz-adv-x="940" d="M742 512 C742 273 651 153 469 153 C288 153 197 273 197 512 C197 751 288 870 469 870 C651 870 742 751 742 512 L742 512 Z M895 512 C895 665 863 786 798 873 C725 974 616 1024 469 1024 C323 1024 213 974 139 873 C75 785 43 665 43 512 C43 359 75 239 139 151 C213 50 323 0 469 0 C616 0 725 50 798 151 C863 238 895 359 895 512 L895 512 Z M572 1110 L690 1110 L485 1366 L248 1366 L572 1110 Z " />
<glyph glyph-name="oacute" unicode="&#xf3;" horiz-adv-x="942" d="M744 512 C744 273 653 153 471 153 C290 153 199 273 199 512 C199 751 290 870 471 870 C653 870 744 751 744 512 L744 512 Z M897 512 C897 665 865 786 800 873 C727 974 618 1024 471 1024 C325 1024 215 974 141 873 C77 785 45 665 45 512 C45 359 77 239 141 151 C215 50 325 0 471 0 C618 0 727 50 800 151 C865 238 897 359 897 512 L897 512 Z M369 1110 L692 1366 L454 1366 L250 1110 L369 1110 Z " />
<glyph glyph-name="ocircumflex" unicode="&#xf4;" horiz-adv-x="962" d="M754 512 C754 273 663 153 481 153 C300 153 209 273 209 512 C209 751 300 870 481 870 C663 870 754 751 754 512 L754 512 Z M908 512 C908 665 876 786 811 873 C738 974 628 1024 481 1024 C336 1024 226 974 151 873 C88 784 56 663 56 512 C56 360 88 240 151 151 C226 50 336 0 481 0 C628 0 738 50 811 151 C876 238 908 359 908 512 L908 512 Z M635 1110 L840 1110 L584 1331 L379 1331 L123 1110 L328 1110 L481 1229 L635 1110 Z " />
<glyph glyph-name="otilde" unicode="&#xf5;" horiz-adv-x="964" d="M754 512 C754 273 663 153 481 153 C300 153 209 273 209 512 C209 751 300 870 481 870 C663 870 754 751 754 512 L754 512 Z M908 512 C908 665 876 786 811 873 C738 974 628 1024 481 1024 C336 1024 226 974 151 873 C88 784 56 663 56 512 C56 360 88 240 151 151 C226 50 336 0 481 0 C628 0 738 50 811 151 C876 238 908 359 908 512 L908 512 Z M788 1341 L788 1418 C745 1337 677 1296 584 1296 C553 1296 520 1316 483 1356 C446 1397 413 1418 385 1418 C326 1418 276 1396 236 1352 C195 1307 174 1257 174 1202 L174 1126 C219 1205 288 1245 379 1245 C410 1245 444 1225 479 1186 C516 1146 549 1126 580 1126 C636 1126 684 1147 725 1190 C767 1233 788 1283 788 1341 L788 1341 Z " />
<glyph glyph-name="odieresis" unicode="&#xf6;" horiz-adv-x="956" d="M750 512 C750 273 659 153 477 153 C296 153 205 273 205 512 C205 751 296 870 477 870 C659 870 750 751 750 512 L750 512 Z M903 512 C903 663 871 784 807 873 C734 974 624 1024 477 1024 C332 1024 222 974 147 873 C83 785 51 665 51 512 C51 359 83 239 147 151 C222 50 332 0 477 0 C624 0 734 50 807 151 C871 239 903 359 903 512 L903 512 Z M221 1110 L391 1110 L391 1280 L221 1280 L221 1110 Z M563 1110 L733 1110 L733 1280 L563 1280 L563 1110 Z " />
<glyph glyph-name="oslash" unicode="&#xf8;" horiz-adv-x="975" d="M760 512 C760 273 669 153 487 153 C306 153 215 273 215 512 C215 751 306 870 487 870 C669 870 760 751 760 512 L760 512 Z M914 512 C914 665 882 786 817 873 C744 974 634 1024 487 1024 C340 1024 231 974 158 873 C94 785 62 665 62 512 C62 359 94 239 158 151 C231 50 340 0 487 0 C634 0 744 50 817 151 C882 238 914 359 914 512 L914 512 Z " />
<glyph glyph-name="ugrave" unicode="&#xf9;" horiz-adv-x="964" d="M750 0 L903 0 L903 1024 L750 1024 L750 512 C750 273 659 153 477 153 C296 153 205 273 205 512 L205 1024 L51 1024 L51 512 C51 359 83 239 147 151 C222 50 332 0 477 0 C604 0 695 42 750 125 L750 0 Z M580 1110 L698 1110 L493 1366 L256 1366 L580 1110 Z " />
<glyph glyph-name="uacute" unicode="&#xfa;" horiz-adv-x="966" d="M752 0 L906 0 L906 1024 L752 1024 L752 512 C752 273 661 153 479 153 C298 153 207 273 207 512 L207 1024 L54 1024 L54 512 C54 360 86 240 149 151 C224 50 334 0 479 0 C606 0 697 42 752 125 L752 0 Z M377 1110 L701 1366 L463 1366 L258 1110 L377 1110 Z " />
<glyph glyph-name="ucircumflex" unicode="&#xfb;" horiz-adv-x="985" d="M760 0 L914 0 L914 1024 L760 1024 L760 512 C760 273 669 153 487 153 C306 153 215 273 215 512 L215 1024 L62 1024 L62 512 C62 359 94 239 158 151 C231 50 340 0 487 0 C614 0 705 42 760 125 L760 0 Z M641 1110 L846 1110 L590 1331 L385 1331 L129 1110 L334 1110 L487 1229 L641 1110 Z " />
<glyph glyph-name="udieresis" unicode="&#xfc;" horiz-adv-x="983" d="M760 0 L914 0 L914 1024 L760 1024 L760 512 C760 273 669 153 487 153 C306 153 215 273 215 512 L215 1024 L62 1024 L62 512 C62 359 94 239 158 151 C231 50 340 0 487 0 C614 0 705 42 760 125 L760 0 Z M232 1110 L402 1110 L402 1280 L232 1280 L232 1110 Z M574 1110 L744 1110 L744 1280 L574 1280 L574 1110 Z " />
<glyph glyph-name="yacute" unicode="&#xfd;" horiz-adv-x="981" d="M467 -339 L962 1024 L798 1024 L491 180 L184 1024 L23 1024 L410 -42 L303 -339 L467 -339 Z M389 1110 L715 1366 L475 1366 L270 1110 L389 1110 Z " />
<glyph glyph-name="ydieresis" unicode="&#xff;" horiz-adv-x="987" d="M469 -339 L964 1024 L800 1024 L493 180 L186 1024 L25 1024 L412 -42 L305 -339 L469 -339 Z M238 1110 L410 1110 L410 1280 L238 1280 L238 1110 Z M580 1110 L750 1110 L750 1280 L580 1280 L580 1110 Z " />
</font>
</svg>
