<?xml version="1.0" encoding="UTF-8"?>
<svg xmlns="http://www.w3.org/2000/svg" xmlns:xlink="http://www.w3.org/1999/xlink" version="1.2" >
<font id="SF Arborcrest Heavy">
<font-face  font-family="SF Arborcrest Heavy" units-per-em="2048" ascent="1366" descent="-339" font-style="normal" font-weight="400" font-stretch="normal" cap-height="1366" x-height="1024" underline-position="-111" underline-thickness="17" />
<missing-glyph  horiz-adv-x="1024" d="" />
<glyph glyph-name="space" unicode="&#x20;" horiz-adv-x="746" d="" />
<glyph glyph-name="exclam" unicode="&#x21;" horiz-adv-x="404" d="M82 242 L82 0 L338 0 L338 242 L82 242 Z M98 321 L321 321 L338 1366 L82 1366 L98 321 Z " />
<glyph glyph-name="quotedbl" unicode="&#x22;" horiz-adv-x="668" d="M114 1024 L297 1024 L334 1329 L371 1024 L553 1024 L594 1366 L72 1366 L114 1024 Z " />
<glyph glyph-name="numbersign" unicode="&#x23;" horiz-adv-x="1106" d="M496 866 L506 958 L608 958 L598 866 L496 866 Z M817 460 L831 633 L1047 633 L1047 866 L854 866 L864 958 L1047 958 L1047 1194 L887 1194 L901 1366 L645 1366 L630 1194 L528 1194 L543 1366 L286 1366 L272 1194 L58 1194 L58 958 L250 958 L240 866 L58 866 L58 633 L217 633 L203 460 L458 460 L473 633 L576 633 L561 460 L817 460 Z " />
<glyph glyph-name="dollar" unicode="&#x24;" horiz-adv-x="1262" d="M758 242 L758 553 C894 536 962 484 962 398 C962 311 894 259 758 242 L758 242 Z M502 1122 L502 813 C365 830 297 881 297 968 C297 1054 365 1105 502 1122 L502 1122 Z M758 -167 L758 0 C889 15 994 51 1073 108 C1170 181 1219 278 1219 398 C1219 520 1171 616 1075 686 C995 746 889 783 758 796 L758 1122 C873 1107 943 1057 968 972 L1215 1036 C1160 1229 1007 1339 758 1368 L758 1536 L502 1536 L502 1368 C374 1354 269 1317 186 1256 C89 1186 41 1090 41 968 C41 845 89 749 184 680 C265 619 371 583 502 570 L502 242 C389 256 319 307 293 394 L45 330 C102 137 255 27 502 0 L502 -167 L758 -167 Z " />
<glyph glyph-name="percent" unicode="&#x25;" horiz-adv-x="1493" d="M1147 424 L1147 332 C1147 261 1122 226 1071 226 C1019 226 993 263 993 338 L993 418 C993 493 1019 531 1071 531 C1122 531 1147 495 1147 424 L1147 424 Z M500 1034 L500 940 C500 870 474 835 422 835 C371 835 346 873 346 948 L346 1030 C346 1103 371 1140 422 1140 C474 1140 500 1105 500 1034 L500 1034 Z M1071 0 C1282 0 1387 126 1387 377 C1387 628 1282 754 1071 754 C1025 754 985 749 950 738 L1428 1366 L1100 1366 L729 877 C735 908 738 945 738 989 C738 1240 633 1366 422 1366 C211 1366 106 1240 106 989 C106 736 211 610 422 610 C465 610 505 616 541 628 L66 0 L394 0 L764 489 C759 458 756 421 756 377 C756 126 861 0 1071 0 L1071 0 Z " />
<glyph glyph-name="ampersand" unicode="&#x26;" horiz-adv-x="1315" d="M586 561 L920 561 L920 402 C920 335 893 289 840 264 C803 249 747 242 674 242 L588 242 C502 242 443 249 410 262 C351 284 321 331 321 402 C321 471 351 517 410 539 C444 554 503 561 586 561 L586 561 Z M1175 402 L1175 561 L1260 561 L1260 805 L586 805 C433 805 356 858 356 964 C356 1034 385 1080 444 1102 C482 1118 541 1126 622 1126 C719 1126 782 1124 811 1120 C882 1107 934 1075 966 1026 L1213 1090 C1132 1274 963 1366 707 1366 L620 1366 C467 1366 347 1337 260 1280 C153 1211 100 1106 100 964 C100 841 141 750 224 692 C119 636 66 539 66 402 C66 258 119 153 226 86 C313 29 433 0 586 0 L655 0 C805 0 925 29 1014 86 C1121 153 1175 259 1175 402 L1175 402 Z " />
<glyph glyph-name="quotesingle" unicode="&#x27;" horiz-adv-x="394" d="M104 1024 L286 1024 L328 1366 L62 1366 L104 1024 Z " />
<glyph glyph-name="parenleft" unicode="&#x28;" horiz-adv-x="555" d="M236 -167 L500 -167 C427 -5 378 133 352 246 C322 369 307 514 307 682 C307 848 322 994 352 1120 C380 1237 428 1375 500 1536 L236 1536 C167 1379 119 1245 92 1120 C65 991 51 845 51 682 C51 513 65 376 92 248 C119 127 167 -12 236 -167 L236 -167 Z " />
<glyph glyph-name="parenright" unicode="&#x29;" horiz-adv-x="553" d="M51 -167 L315 -167 C384 -11 431 125 458 248 C486 376 500 513 500 682 C500 846 486 992 458 1120 C431 1245 384 1379 315 1536 L51 1536 C123 1369 173 1237 201 1120 C230 993 244 847 244 682 C244 515 230 371 201 246 C173 129 123 0 51 -167 L51 -167 Z " />
<glyph glyph-name="asterisk" unicode="&#x2a;" horiz-adv-x="893" d="M574 825 L715 756 L842 950 L703 1024 L842 1098 L715 1292 L574 1223 L574 1366 L317 1366 L317 1223 L178 1292 L49 1098 L191 1024 L49 950 L178 756 L317 825 L317 682 L574 682 L574 825 Z " />
<glyph glyph-name="plus" unicode="&#x2b;" horiz-adv-x="829" d="M543 256 L543 483 L798 483 L798 713 L543 713 L543 938 L286 938 L286 713 L31 713 L31 483 L286 483 L286 256 L543 256 Z " />
<glyph glyph-name="comma" unicode="&#x2c;" horiz-adv-x="394" d="M104 -167 L286 -167 L328 170 L62 170 L104 -167 Z " />
<glyph glyph-name="hyphen" unicode="&#x2d;" horiz-adv-x="934" d="M82 682 L82 512 L850 512 L850 682 L82 682 Z " />
<glyph glyph-name="period" unicode="&#x2e;" horiz-adv-x="424" d="M82 170 L82 0 L338 0 L338 170 L82 170 Z " />
<glyph glyph-name="slash" unicode="&#x2f;" horiz-adv-x="744" d="M16 -105 L264 -169 L727 1474 L479 1538 L16 -105 Z " />
<glyph glyph-name="zero" unicode="0" horiz-adv-x="1300" d="M649 1124 C778 1124 868 1080 920 991 C962 923 983 820 983 682 C983 543 962 441 920 375 C868 286 778 242 649 242 C522 242 432 286 379 375 C338 442 317 545 317 682 C317 819 338 922 379 991 C432 1080 522 1124 649 1124 L649 1124 Z M649 0 C848 0 999 66 1102 199 C1193 316 1239 477 1239 682 C1239 888 1193 1050 1102 1167 C999 1300 848 1366 649 1366 C448 1366 298 1300 199 1167 C108 1050 62 888 62 682 C62 477 108 316 199 199 C302 66 452 0 649 0 L649 0 Z " />
<glyph glyph-name="one" unicode="1" horiz-adv-x="424" d="M82 1366 L82 0 L338 0 L338 1366 L82 1366 Z " />
<glyph glyph-name="two" unicode="2" horiz-adv-x="1258" d="M94 242 L94 0 L1186 0 L1186 242 L350 242 C350 314 379 375 438 426 C493 474 557 498 630 498 C803 498 935 526 1024 582 C1132 648 1186 765 1186 932 C1186 1221 1001 1366 630 1366 C317 1366 129 1255 64 1032 L311 968 C332 1035 375 1080 440 1102 C485 1117 548 1124 630 1124 C723 1124 791 1115 835 1096 C898 1066 930 1011 930 932 C930 838 901 781 842 760 C811 747 741 740 630 740 C487 740 363 693 256 600 C148 503 94 383 94 242 L94 242 Z " />
<glyph glyph-name="three" unicode="3" horiz-adv-x="1298" d="M559 0 L713 0 C864 0 984 29 1073 86 C1180 153 1233 258 1233 402 C1233 539 1180 636 1075 692 C1157 750 1198 841 1198 964 C1198 1106 1145 1211 1038 1280 C949 1337 829 1366 678 1366 L594 1366 C334 1366 165 1274 86 1090 L334 1026 C377 1093 459 1126 580 1126 L600 1126 C608 1126 617 1125 628 1124 L678 1124 C757 1124 817 1117 856 1102 C913 1079 942 1033 942 964 C942 892 911 845 850 823 C807 808 745 800 663 800 C647 800 616 803 584 803 C553 803 524 805 508 805 L508 561 L713 561 C794 561 854 554 891 539 C948 516 977 470 977 402 C977 331 948 284 891 262 C855 249 796 242 713 242 L545 242 C422 242 340 274 299 338 L51 280 C129 93 298 0 559 0 L559 0 Z " />
<glyph glyph-name="four" unicode="4" horiz-adv-x="1262" d="M354 481 L784 1040 L784 481 L354 481 Z M1040 0 L1040 242 L1210 242 L1210 481 L1040 481 L1040 1366 L719 1366 L16 454 L16 242 L784 242 L784 0 L1040 0 Z " />
<glyph glyph-name="five" unicode="5" horiz-adv-x="1245" d="M598 0 L633 0 C780 0 907 42 1016 127 C1131 218 1188 336 1188 481 C1188 624 1131 742 1016 835 C907 921 779 964 633 964 C535 964 452 952 383 928 L422 1124 L1051 1124 L1051 1366 L207 1366 L56 570 L301 528 C353 658 452 723 598 723 L633 723 C711 723 778 702 835 661 C900 617 932 557 932 481 C932 405 900 345 835 301 C780 262 712 242 633 242 C514 242 419 275 350 340 L88 274 C214 91 384 0 598 0 L598 0 Z " />
<glyph glyph-name="six" unicode="6" horiz-adv-x="1260" d="M647 723 C725 723 793 702 852 661 C915 619 946 559 946 481 C946 404 915 344 852 301 C795 262 726 242 647 242 C565 242 497 260 442 297 C381 340 350 402 350 481 C350 559 381 619 444 661 C503 702 571 723 647 723 L647 723 Z M647 0 C798 0 925 42 1030 127 C1145 218 1202 336 1202 481 C1202 624 1145 742 1030 835 C924 921 796 964 647 964 C534 964 431 937 336 883 C373 1044 476 1124 647 1124 C781 1124 878 1069 938 958 L1184 1020 C1077 1251 898 1366 647 1366 C450 1366 300 1300 197 1167 C106 1050 60 888 60 682 C60 477 106 316 197 199 C300 66 450 0 647 0 L647 0 Z " />
<glyph glyph-name="seven" unicode="7" horiz-adv-x="1198" d="M135 0 L448 0 L1175 1153 L1175 1366 L66 1366 L66 1124 L844 1124 L135 0 Z " />
<glyph glyph-name="eight" unicode="8" horiz-adv-x="1325" d="M586 561 L740 561 C821 561 881 554 918 539 C975 516 1003 471 1003 402 C1003 331 975 284 918 262 C881 249 822 242 740 242 L586 242 C501 242 443 249 410 262 C351 284 321 331 321 402 C321 471 351 517 410 539 C444 554 503 561 586 561 L586 561 Z M620 1124 L707 1124 C787 1124 846 1117 883 1102 C941 1080 970 1034 970 964 C970 893 941 847 883 825 C848 812 790 805 707 805 L620 805 C539 805 480 812 442 825 C385 847 356 893 356 964 C356 1033 385 1079 442 1102 C481 1117 541 1124 620 1124 L620 1124 Z M586 0 L740 0 C891 0 1011 28 1100 84 C1207 151 1260 257 1260 402 C1260 540 1208 637 1104 692 C1186 750 1227 841 1227 964 C1227 1110 1173 1216 1065 1282 C976 1338 856 1366 707 1366 L620 1366 C469 1366 349 1338 260 1282 C153 1213 100 1107 100 964 C100 841 141 750 224 692 C119 636 66 539 66 402 C66 257 119 151 226 84 C314 28 434 0 586 0 L586 0 Z " />
<glyph glyph-name="nine" unicode="9" horiz-adv-x="1262" d="M612 1124 C695 1124 764 1106 819 1069 C881 1025 912 964 912 885 C912 808 880 747 815 703 C756 662 689 641 612 641 C533 641 465 662 410 703 C345 747 313 808 313 885 C313 961 345 1021 410 1065 C465 1104 533 1124 612 1124 L612 1124 Z M612 0 C811 0 962 66 1065 199 C1155 315 1200 476 1200 682 C1200 887 1155 1049 1065 1167 C962 1300 811 1366 612 1366 C465 1366 337 1324 230 1239 C115 1146 58 1028 58 885 C58 738 115 619 230 528 C337 444 464 402 612 402 C725 402 829 429 924 483 C887 322 783 242 612 242 C477 242 380 297 321 408 L76 346 C182 115 361 0 612 0 L612 0 Z " />
<glyph glyph-name="colon" unicode="&#x3a;" horiz-adv-x="365" d="M82 234 L82 0 L338 0 L338 234 L82 234 Z M82 938 L82 703 L338 703 L338 938 L82 938 Z " />
<glyph glyph-name="semicolon" unicode="&#x3b;" horiz-adv-x="408" d="M112 -167 L295 -167 L336 226 L70 226 L112 -167 Z M76 938 L76 703 L332 703 L332 938 L76 938 Z " />
<glyph glyph-name="less" unicode="&#x3c;" horiz-adv-x="559" d="M33 682 L228 342 L491 342 L299 682 L491 1024 L228 1024 L33 682 Z " />
<glyph glyph-name="equal" unicode="&#x3d;" horiz-adv-x="916" d="M82 561 L82 342 L850 342 L850 561 L82 561 Z M82 854 L82 633 L850 633 L850 854 L82 854 Z " />
<glyph glyph-name="greater" unicode="&#x3e;" horiz-adv-x="559" d="M66 342 L332 342 L524 682 L332 1024 L66 1024 L258 682 L66 342 Z " />
<glyph glyph-name="question" unicode="&#x3f;" horiz-adv-x="1198" d="M168 242 L168 0 L424 0 L424 242 L168 242 Z M168 321 L424 321 L424 334 C424 411 438 458 467 477 C486 491 537 498 620 498 C792 498 923 526 1012 582 C1119 648 1173 765 1173 932 C1173 1221 989 1366 620 1366 C305 1366 116 1255 54 1032 L299 968 C320 1034 363 1079 428 1102 C473 1117 537 1124 620 1124 C711 1124 779 1115 823 1096 C886 1066 918 1011 918 932 C918 839 888 781 829 760 C798 747 729 740 620 740 C462 740 349 710 282 651 C205 583 167 473 168 321 L168 321 Z " />
<glyph glyph-name="at" unicode="&#x40;" horiz-adv-x="1530" d="M784 846 C854 846 889 806 889 725 C889 587 841 518 744 518 C674 518 639 558 639 639 C639 777 687 846 784 846 L784 846 Z M920 1051 L920 1030 C887 1044 844 1051 792 1051 C673 1051 579 1011 510 930 C449 853 418 754 418 635 C418 438 529 313 736 313 C791 313 840 323 883 342 C914 281 963 239 1030 217 L764 217 C635 217 523 262 428 352 C335 442 288 552 288 682 C288 811 335 921 428 1012 C521 1103 633 1149 764 1149 C869 1149 966 1116 1053 1051 L920 1051 Z M1088 467 L1134 970 C1203 887 1237 791 1237 682 C1237 619 1230 563 1217 514 C1195 443 1160 408 1112 408 C1093 408 1085 428 1088 467 L1088 467 Z M1165 0 L1165 207 C1266 221 1344 280 1401 385 C1448 474 1472 573 1472 682 C1472 872 1402 1034 1262 1167 C1123 1300 957 1366 764 1366 C571 1366 405 1300 264 1167 C125 1032 56 871 56 682 C56 491 125 329 264 197 C405 66 571 0 764 0 L1165 0 Z " />
<glyph glyph-name="A" unicode="A" horiz-adv-x="1403" d="M524 561 L701 1018 L877 561 L524 561 Z M970 321 L1096 0 L1366 0 L840 1366 L561 1366 L35 0 L305 0 L430 321 L970 321 Z " />
<glyph glyph-name="B" unicode="B" horiz-adv-x="1430" d="M338 561 L842 561 C924 561 983 554 1018 539 C1077 517 1106 471 1106 402 C1106 331 1077 284 1018 262 C984 249 925 242 842 242 L338 242 L338 561 Z M338 1124 L807 1124 C890 1124 949 1117 985 1102 C1042 1079 1071 1033 1071 964 C1071 893 1042 847 985 825 C951 812 892 805 807 805 L338 805 L338 1124 Z M82 0 L842 0 C993 0 1113 28 1202 84 C1309 151 1362 257 1362 402 C1362 539 1309 636 1204 692 C1286 750 1327 841 1327 964 C1327 1107 1274 1213 1167 1282 C1078 1338 958 1366 807 1366 L82 1366 L82 0 Z " />
<glyph glyph-name="C" unicode="C" horiz-adv-x="1343" d="M1051 893 L1296 954 C1183 1229 983 1366 696 1366 C497 1366 340 1301 226 1171 C114 1047 58 884 58 682 C58 481 114 319 226 195 C340 65 497 0 696 0 C982 0 1181 137 1294 412 L1051 473 C981 319 863 242 696 242 C570 242 473 284 404 369 C343 444 313 549 313 682 C313 817 343 922 404 997 C473 1082 570 1124 696 1124 C863 1124 981 1047 1051 893 L1051 893 Z " />
<glyph glyph-name="D" unicode="D" horiz-adv-x="1422" d="M338 1124 L721 1124 C849 1124 947 1082 1016 997 C1076 918 1106 813 1106 682 C1106 551 1076 447 1016 369 C947 284 849 242 721 242 L338 242 L338 1124 Z M82 0 L721 0 C919 0 1077 65 1194 195 C1306 319 1362 481 1362 682 C1362 884 1306 1047 1194 1171 C1077 1301 919 1366 721 1366 L82 1366 L82 0 Z " />
<glyph glyph-name="E" unicode="E" horiz-adv-x="1142" d="M82 1366 L82 0 L1106 0 L1106 242 L338 242 L338 561 L1020 561 L1020 805 L338 805 L338 1124 L1106 1124 L1106 1366 L82 1366 Z " />
<glyph glyph-name="F" unicode="F" horiz-adv-x="1122" d="M338 805 L338 1124 L1106 1124 L1106 1366 L82 1366 L82 0 L338 0 L338 561 L1020 561 L1020 805 L338 805 Z " />
<glyph glyph-name="G" unicode="G" horiz-adv-x="1407" d="M1084 129 L1084 0 L1339 0 L1339 805 L657 805 L657 561 L1075 561 C1038 348 913 242 698 242 C572 242 475 284 406 369 C345 444 315 549 315 682 C315 817 345 922 406 997 C475 1082 572 1124 698 1124 C863 1124 981 1046 1051 891 L1298 952 C1185 1228 985 1366 698 1366 C501 1366 345 1301 228 1171 C116 1047 60 884 60 682 C60 481 116 319 228 195 C345 65 501 0 698 0 C854 0 983 43 1084 129 L1084 129 Z " />
<glyph glyph-name="H" unicode="H" horiz-adv-x="1360" d="M1020 561 L1020 0 L1276 0 L1276 1366 L1020 1366 L1020 805 L338 805 L338 1366 L82 1366 L82 0 L338 0 L338 561 L1020 561 Z " />
<glyph glyph-name="I" unicode="I" horiz-adv-x="424" d="M82 1366 L82 0 L338 0 L338 1366 L82 1366 Z " />
<glyph glyph-name="J" unicode="J" horiz-adv-x="854" d="M230 0 C419 0 561 69 657 207 C742 328 784 487 784 682 L784 1366 L528 1366 L528 682 C528 389 429 242 230 242 C170 242 99 267 16 317 L16 37 C89 12 161 0 230 0 L230 0 Z " />
<glyph glyph-name="K" unicode="K" horiz-adv-x="1399" d="M432 512 L979 0 L1337 0 L612 682 L1337 1366 L979 1366 L340 764 L340 1366 L84 1366 L84 0 L340 0 L340 426 L432 512 Z " />
<glyph glyph-name="L" unicode="L" horiz-adv-x="1118" d="M84 1366 L84 0 L1108 0 L1108 242 L340 242 L340 1366 L84 1366 Z " />
<glyph glyph-name="M" unicode="M" horiz-adv-x="1679" d="M1339 764 L1339 0 L1596 0 L1596 1366 L1356 1366 L840 323 L323 1366 L84 1366 L84 0 L340 0 L340 764 L719 0 L960 0 L1339 764 Z " />
<glyph glyph-name="N" unicode="N" horiz-adv-x="1364" d="M340 920 L1043 0 L1278 0 L1278 1366 L1022 1366 L1022 446 L319 1366 L84 1366 L84 0 L340 0 L340 920 Z " />
<glyph glyph-name="O" unicode="O" horiz-adv-x="1403" d="M701 1124 C828 1124 926 1082 995 997 C1056 920 1086 815 1086 682 C1086 551 1056 446 995 369 C926 284 828 242 701 242 C570 242 473 284 408 369 C347 444 317 549 317 682 C317 817 347 922 408 997 C473 1082 570 1124 701 1124 L701 1124 Z M701 0 C898 0 1056 65 1173 195 C1285 319 1341 481 1341 682 C1341 884 1285 1047 1173 1171 C1056 1301 898 1366 701 1366 C501 1366 344 1301 230 1171 C118 1047 62 884 62 682 C62 481 118 319 230 195 C344 65 501 0 701 0 L701 0 Z " />
<glyph glyph-name="P" unicode="P" horiz-adv-x="1380" d="M340 1124 L844 1124 C924 1124 983 1117 1020 1102 C1079 1080 1108 1034 1108 964 C1108 893 1079 847 1020 825 C985 812 927 805 844 805 L340 805 L340 1124 Z M340 0 L340 561 L844 561 C995 561 1115 590 1204 647 C1311 714 1364 819 1364 964 C1364 1107 1311 1213 1204 1282 C1115 1338 995 1366 844 1366 L84 1366 L84 0 L340 0 Z " />
<glyph glyph-name="Q" unicode="Q" horiz-adv-x="1393" d="M680 1122 C809 1122 907 1079 975 993 C1035 914 1065 809 1065 678 C1065 544 1035 439 975 363 C908 276 809 232 680 232 C550 232 452 276 387 363 C327 439 297 544 297 678 C297 809 327 914 387 993 C452 1079 549 1122 680 1122 L680 1122 Z M41 678 C41 524 75 389 143 272 C219 145 327 61 467 19 C511 6 555 -2 600 -3 C635 -6 659 -7 674 -7 C775 -43 845 -67 889 -83 L1321 -231 L1321 25 L1073 108 C1238 232 1321 422 1321 678 C1321 880 1266 1044 1155 1169 C1038 1300 879 1366 680 1366 C481 1366 323 1300 207 1169 C96 1044 41 880 41 678 L41 678 Z " />
<glyph glyph-name="R" unicode="R" horiz-adv-x="1464" d="M340 1124 L844 1124 C924 1124 983 1117 1020 1102 C1079 1080 1108 1034 1108 964 C1108 893 1079 847 1020 825 C985 812 927 805 844 805 L340 805 L340 1124 Z M705 561 L1094 0 L1399 0 L1003 574 C1244 613 1364 743 1364 964 C1364 1107 1311 1213 1204 1282 C1115 1338 995 1366 844 1366 L84 1366 L84 0 L340 0 L340 561 L705 561 Z " />
<glyph glyph-name="S" unicode="S" horiz-adv-x="1298" d="M649 0 C809 0 939 27 1038 82 C1171 153 1237 259 1237 402 C1237 545 1171 651 1038 721 C935 777 805 805 649 805 C553 805 483 811 438 823 C356 845 315 892 315 964 C315 1035 356 1083 438 1106 C482 1118 552 1124 649 1124 C734 1124 800 1117 848 1102 C920 1079 966 1034 987 968 L1233 1032 C1167 1255 972 1366 649 1366 C491 1366 361 1339 258 1284 C126 1213 60 1106 60 964 C60 821 126 715 258 645 C363 589 493 561 649 561 C743 561 813 555 858 543 C940 520 981 473 981 402 C981 329 940 282 858 260 C814 248 744 242 649 242 C559 242 492 249 448 262 C378 284 332 329 311 396 L64 334 C129 111 324 0 649 0 L649 0 Z " />
<glyph glyph-name="T" unicode="T" horiz-adv-x="1182" d="M717 0 L717 1124 L1145 1124 L1145 1366 L37 1366 L37 1124 L460 1124 L460 0 L717 0 Z " />
<glyph glyph-name="U" unicode="U" horiz-adv-x="1428" d="M713 0 C911 0 1069 65 1186 195 C1298 319 1354 481 1354 682 L1354 1366 L1098 1366 L1098 682 C1098 551 1068 447 1008 369 C939 284 841 242 713 242 C586 242 489 284 420 369 C360 445 330 549 330 682 L330 1366 L74 1366 L74 682 C74 481 130 319 242 195 C356 65 513 0 713 0 L713 0 Z " />
<glyph glyph-name="V" unicode="V" horiz-adv-x="1405" d="M563 0 L842 0 L1368 1366 L1096 1366 L703 348 L307 1366 L37 1366 L563 0 Z " />
<glyph glyph-name="W" unicode="W" horiz-adv-x="1966" d="M1225 0 L1520 0 L1909 1366 L1642 1366 L1372 418 L1102 1366 L860 1366 L590 418 L321 1366 L58 1366 L444 0 L738 0 L981 858 L1225 0 Z " />
<glyph glyph-name="X" unicode="X" horiz-adv-x="1511" d="M756 477 L1124 0 L1440 0 L914 682 L1440 1366 L1122 1366 L756 887 L387 1366 L72 1366 L598 682 L72 0 L385 0 L756 477 Z " />
<glyph glyph-name="Y" unicode="Y" horiz-adv-x="1428" d="M842 0 L842 643 L1397 1366 L1080 1366 L713 887 L344 1366 L29 1366 L586 643 L586 0 L842 0 Z " />
<glyph glyph-name="Z" unicode="Z" horiz-adv-x="1325" d="M88 215 L88 0 L1282 0 L1282 242 L452 242 L1282 1151 L1282 1366 L88 1366 L88 1124 L918 1124 L88 215 Z " />
<glyph glyph-name="bracketleft" unicode="&#x5b;" horiz-adv-x="678" d="M88 1536 L88 -167 L600 -167 L600 74 L344 74 L344 1292 L600 1292 L600 1536 L88 1536 Z " />
<glyph glyph-name="backslash" unicode="&#x5c;" horiz-adv-x="746" d="M16 1474 L479 -169 L727 -105 L264 1538 L16 1474 Z " />
<glyph glyph-name="bracketright" unicode="&#x5d;" horiz-adv-x="678" d="M76 74 L76 -167 L588 -167 L588 1536 L76 1536 L76 1292 L332 1292 L332 74 L76 74 Z " />
<glyph glyph-name="asciicircum" unicode="&#x5e;" horiz-adv-x="1034" d="M516 1223 L653 1142 L989 1142 L633 1366 L398 1366 L45 1142 L377 1142 L516 1223 Z " />
<glyph glyph-name="underscore" unicode="&#x5f;" horiz-adv-x="1116" d="M88 0 L88 -167 L1026 -167 L1026 0 L88 0 Z " />
<glyph glyph-name="grave" unicode="&#x60;" horiz-adv-x="709" d="M14 1706 L444 1450 L668 1450 L394 1706 L14 1706 Z " />
<glyph glyph-name="a" unicode="a" horiz-adv-x="1092" d="M533 805 C687 805 764 707 764 512 C764 318 687 221 533 221 C380 221 303 318 303 512 C303 707 380 805 533 805 L533 805 Z M764 56 L764 0 L1001 0 L1001 1024 L764 1024 L764 968 C707 1005 630 1024 533 1024 C380 1024 262 976 180 881 C103 790 64 667 64 512 C64 357 103 234 180 143 C262 48 380 0 533 0 C630 0 707 19 764 56 L764 56 Z " />
<glyph glyph-name="b" unicode="b" horiz-adv-x="1059" d="M557 819 C711 819 788 720 788 522 C788 325 711 226 557 226 C404 226 328 325 328 522 C328 720 404 819 557 819 L557 819 Z M557 0 C710 0 829 50 912 149 C988 240 1026 364 1026 522 C1026 680 988 805 912 897 C829 996 711 1045 557 1045 C459 1045 383 1026 328 987 L328 1366 L88 1366 L88 0 L328 0 L328 58 C383 19 459 0 557 0 L557 0 Z " />
<glyph glyph-name="c" unicode="c" horiz-adv-x="1016" d="M733 694 L964 754 C873 934 729 1024 533 1024 C380 1024 262 976 180 881 C103 790 64 667 64 512 C64 357 102 234 178 143 C260 48 378 0 533 0 C728 0 871 90 962 270 L733 330 C685 257 618 221 533 221 C380 221 303 318 303 512 C303 707 380 805 533 805 C618 805 685 768 733 694 L733 694 Z " />
<glyph glyph-name="d" unicode="d" horiz-adv-x="1059" d="M500 819 C654 819 731 720 731 522 C731 325 654 226 500 226 C347 226 270 325 270 522 C270 720 347 819 500 819 L500 819 Z M731 58 L731 0 L968 0 L968 1366 L731 1366 L731 987 C676 1026 599 1045 500 1045 C346 1045 228 996 145 897 C69 805 31 680 31 522 C31 364 69 240 145 149 C227 50 345 0 500 0 C599 0 676 19 731 58 L731 58 Z " />
<glyph glyph-name="e" unicode="e" horiz-adv-x="1061" d="M533 805 C657 805 731 744 754 622 L313 622 C336 744 409 805 533 805 L533 805 Z M311 402 L995 402 C999 448 1001 485 1001 512 C1001 667 963 790 887 881 C804 976 686 1024 533 1024 C380 1024 262 976 180 881 C103 790 64 667 64 512 C64 357 103 234 180 143 C259 48 377 0 533 0 C733 0 877 91 964 272 L733 332 C685 258 618 221 533 221 C407 221 333 281 311 402 L311 402 Z " />
<glyph glyph-name="f" unicode="f" horiz-adv-x="674" d="M539 805 L367 805 L367 844 C367 942 387 1016 426 1065 C469 1116 541 1141 641 1140 L641 1366 C473 1366 345 1320 258 1229 C172 1138 129 1009 129 844 L129 805 L43 805 L43 580 L129 580 L129 0 L367 0 L367 580 L539 580 L539 805 Z " />
<glyph glyph-name="g" unicode="g" horiz-adv-x="1080" d="M531 798 C685 798 762 699 762 502 C762 304 685 205 531 205 C378 205 301 304 301 502 C301 699 378 798 531 798 L531 798 Z M531 -339 C684 -339 802 -289 885 -190 C961 -99 999 24 999 180 L999 1024 L762 1024 L762 966 C707 1005 630 1024 531 1024 C376 1024 258 975 176 877 C100 785 62 660 62 502 C62 345 100 221 176 129 C259 31 377 -18 531 -18 C616 -18 685 -5 736 21 C704 -68 636 -113 531 -113 C446 -113 379 -76 332 -3 L100 -65 C191 -248 334 -339 531 -339 L531 -339 Z " />
<glyph glyph-name="h" unicode="h" horiz-adv-x="1065" d="M788 522 L788 0 L1026 0 L1026 522 C1026 680 988 805 912 897 C829 996 711 1045 557 1045 C459 1045 383 1026 328 987 L328 1366 L88 1366 L88 0 L328 0 L328 522 C328 720 404 819 557 819 C711 819 788 720 788 522 L788 522 Z " />
<glyph glyph-name="i" unicode="i" horiz-adv-x="422" d="M88 1043 L88 0 L328 0 L328 1043 L88 1043 Z M88 1331 L88 1106 L328 1106 L328 1331 L88 1331 Z " />
<glyph glyph-name="j" unicode="j" horiz-adv-x="418" d="M86 1040 L86 -339 L326 -339 L326 1040 L86 1040 Z M86 1331 L86 1104 L326 1104 L326 1331 L86 1331 Z " />
<glyph glyph-name="k" unicode="k" horiz-adv-x="1100" d="M363 363 L750 0 L1086 0 L533 522 L1086 1045 L750 1045 L328 647 L328 1366 L88 1366 L88 0 L328 0 L328 330 L363 363 Z " />
<glyph glyph-name="l" unicode="l" horiz-adv-x="422" d="M88 1366 L88 0 L328 0 L328 1366 L88 1366 Z " />
<glyph glyph-name="m" unicode="m" horiz-adv-x="1604" d="M1282 512 L1282 0 L1522 0 L1522 512 C1522 853 1383 1024 1104 1024 C969 1024 869 984 805 903 C740 984 641 1024 506 1024 C434 1024 375 1011 328 985 L328 1024 L88 1024 L88 0 L328 0 L328 512 C328 610 335 676 348 711 C373 774 425 805 506 805 C587 805 640 774 665 711 C679 678 686 611 686 512 L686 0 L924 0 L924 512 C924 611 931 677 944 711 C970 774 1023 805 1104 805 C1187 805 1240 774 1262 711 C1275 677 1282 611 1282 512 L1282 512 Z " />
<glyph glyph-name="n" unicode="n" horiz-adv-x="1104" d="M788 512 L788 0 L1026 0 L1026 512 C1026 667 988 790 912 881 C829 976 710 1024 557 1024 C460 1024 383 1005 328 968 L328 1024 L88 1024 L88 0 L328 0 L328 512 C328 707 404 805 557 805 C711 805 788 707 788 512 L788 512 Z " />
<glyph glyph-name="o" unicode="o" horiz-adv-x="1069" d="M535 805 C689 805 766 707 766 512 C766 318 689 221 535 221 C382 221 305 318 305 512 C305 707 382 805 535 805 L535 805 Z M535 0 C688 0 806 48 889 143 C965 234 1003 357 1003 512 C1003 667 965 790 889 881 C806 976 688 1024 535 1024 C382 1024 264 976 182 881 C105 790 66 667 66 512 C66 354 104 231 180 143 C262 48 380 0 535 0 L535 0 Z " />
<glyph glyph-name="p" unicode="p" horiz-adv-x="1057" d="M557 798 C711 798 788 699 788 502 C788 304 711 205 557 205 C404 205 328 304 328 502 C328 699 404 798 557 798 L557 798 Z M557 -18 C710 -18 829 31 912 129 C988 220 1026 344 1026 502 C1026 660 988 785 912 877 C829 975 710 1024 557 1024 C460 1024 383 1005 328 968 L328 1024 L88 1024 L88 -339 L328 -339 L328 37 C383 0 459 -18 557 -18 L557 -18 Z " />
<glyph glyph-name="q" unicode="q" horiz-adv-x="1059" d="M500 798 C654 798 731 699 731 502 C731 304 654 205 500 205 C347 205 270 304 270 502 C270 699 347 798 500 798 L500 798 Z M731 37 L731 -339 L968 -339 L968 1024 L731 1024 L731 968 C674 1005 597 1024 500 1024 C345 1024 227 975 145 877 C69 785 31 660 31 502 C31 344 69 220 145 129 C228 31 346 -18 500 -18 C597 -18 674 0 731 37 L731 37 Z " />
<glyph glyph-name="r" unicode="r" horiz-adv-x="626" d="M88 0 L328 0 L328 512 C328 613 348 686 389 733 C429 781 499 805 600 805 L600 1024 C474 1024 383 1005 328 968 L328 1024 L88 1024 L88 0 Z " />
<glyph glyph-name="s" unicode="s" horiz-adv-x="1067" d="M533 0 C845 0 1001 105 1001 315 C1001 450 938 539 811 584 C737 609 617 622 450 622 C408 622 375 626 352 633 C319 645 303 670 303 709 C303 750 326 779 371 794 C396 801 436 805 491 805 L541 805 L588 805 C675 805 735 781 766 733 L997 790 C932 946 777 1024 533 1024 C220 1024 64 919 64 709 C64 574 127 485 254 440 C329 415 449 402 614 402 C656 402 690 398 715 391 C748 379 764 354 764 315 C764 271 741 243 694 230 C677 224 637 221 574 221 L553 221 C546 221 537 220 526 219 L479 219 C390 219 330 243 299 291 L70 234 C132 78 286 0 533 0 L533 0 Z " />
<glyph glyph-name="t" unicode="t" horiz-adv-x="680" d="M43 819 L129 819 L129 522 C129 186 305 0 641 0 L641 226 C541 225 469 250 426 301 C387 350 367 424 367 522 L367 819 L539 819 L539 1045 L367 1045 L367 1366 L129 1366 L129 1045 L43 1045 L43 819 Z " />
<glyph glyph-name="u" unicode="u" horiz-adv-x="1104" d="M776 58 L776 0 L1014 0 L1014 1024 L776 1024 L776 512 C776 318 699 221 545 221 C392 221 315 318 315 512 L315 1024 L76 1024 L76 512 C76 356 115 233 193 143 C274 48 392 0 545 0 C646 0 723 19 776 58 L776 58 Z " />
<glyph glyph-name="v" unicode="v" horiz-adv-x="1142" d="M440 0 L701 0 L1102 1024 L846 1024 L570 321 L293 1024 L39 1024 L440 0 Z " />
<glyph glyph-name="w" unicode="w" horiz-adv-x="1590" d="M956 0 L1231 0 L1530 1024 L1282 1024 L1094 375 L906 1024 L682 1024 L493 375 L305 1024 L60 1024 L356 0 L630 0 L794 559 L956 0 Z " />
<glyph glyph-name="x" unicode="x" horiz-adv-x="1245" d="M620 326 L877 0 L1171 0 L768 512 L1171 1024 L877 1024 L620 698 L365 1024 L72 1024 L473 512 L72 0 L365 0 L620 326 Z " />
<glyph glyph-name="y" unicode="y" horiz-adv-x="1134" d="M323 -339 L580 -339 L1106 1024 L850 1024 L574 305 L297 1024 L43 1024 L446 -20 L323 -339 Z " />
<glyph glyph-name="z" unicode="z" horiz-adv-x="1078" d="M88 197 L88 0 L1026 0 L1026 221 L440 221 L1026 827 L1026 1024 L88 1024 L88 805 L676 805 L88 197 Z " />
<glyph glyph-name="braceleft" unicode="&#x7b;" horiz-adv-x="786" d="M23 788 L23 578 C136 578 193 548 193 487 L193 323 C193 -4 364 -167 705 -167 L705 58 C590 58 514 88 475 149 C445 196 430 280 430 402 C430 494 429 546 426 557 C419 611 392 653 346 682 C403 723 432 778 432 846 L432 1005 C432 1042 433 1064 434 1071 C441 1148 461 1204 496 1241 C539 1285 609 1307 705 1306 L705 1536 C364 1537 193 1372 193 1040 L193 877 C193 818 136 788 23 788 L23 788 Z " />
<glyph glyph-name="bar" unicode="&#x7c;" horiz-adv-x="438" d="M88 1536 L88 -167 L344 -167 L344 1536 L88 1536 Z " />
<glyph glyph-name="braceright" unicode="&#x7d;" horiz-adv-x="786" d="M80 58 L80 -167 C421 -168 592 -5 592 323 L592 487 C592 548 649 578 762 578 L762 788 C649 788 592 818 592 877 L592 1040 C592 1371 421 1536 80 1536 L80 1306 C195 1307 271 1276 309 1215 C339 1168 354 1083 354 960 C354 868 355 817 358 807 C367 756 393 715 438 682 C381 641 352 587 352 520 L352 356 C351 250 333 175 299 131 C258 82 185 58 80 58 L80 58 Z " />
<glyph glyph-name="asciitilde" unicode="&#x7e;" horiz-adv-x="772" d="M483 1075 C544 1075 600 1093 651 1128 C709 1167 738 1216 738 1276 L738 1462 C691 1398 656 1358 635 1335 C590 1294 542 1274 489 1274 C472 1274 444 1289 406 1319 C365 1350 325 1366 288 1366 C229 1366 173 1348 121 1312 C65 1274 37 1225 37 1165 L37 979 C81 1040 114 1083 139 1106 C184 1147 232 1167 284 1167 C298 1167 326 1151 367 1120 C404 1090 442 1075 483 1075 L483 1075 Z " />
<glyph glyph-name="&amp;#x82;" unicode="&#x82;" horiz-adv-x="404" d="M110 -167 L293 -167 L334 170 L68 170 L110 -167 Z " />
<glyph glyph-name="&amp;#x201a;" unicode="&#x201a;" horiz-adv-x="404" d="M110 -167 L293 -167 L334 170 L68 170 L110 -167 Z " />
<glyph glyph-name="&amp;#x84;" unicode="&#x84;" horiz-adv-x="678" d="M121 -167 L303 -167 L340 135 L377 -167 L559 -167 L600 170 L78 170 L121 -167 Z " />
<glyph glyph-name="&amp;#x201e;" unicode="&#x201e;" horiz-adv-x="678" d="M121 -167 L303 -167 L340 135 L377 -167 L559 -167 L600 170 L78 170 L121 -167 Z " />
<glyph glyph-name="&amp;#x85;" unicode="&#x85;" horiz-adv-x="1116" d="M88 170 L88 0 L344 0 L344 170 L88 170 Z M430 170 L430 0 L686 0 L686 170 L430 170 Z M770 170 L770 0 L1026 0 L1026 170 L770 170 Z " />
<glyph glyph-name="&amp;#x2026;" unicode="&#x2026;" horiz-adv-x="1116" d="M88 170 L88 0 L344 0 L344 170 L88 170 Z M430 170 L430 0 L686 0 L686 170 L430 170 Z M770 170 L770 0 L1026 0 L1026 170 L770 170 Z " />
<glyph glyph-name="&amp;#x88;" unicode="&#x88;" horiz-adv-x="1034" d="M516 1530 L653 1450 L989 1450 L633 1673 L398 1673 L45 1450 L377 1450 L516 1530 Z " />
<glyph glyph-name="&amp;#x2c6;" unicode="&#x2c6;" horiz-adv-x="1034" d="M516 1530 L653 1450 L989 1450 L633 1673 L398 1673 L45 1450 L377 1450 L516 1530 Z " />
<glyph glyph-name="&amp;#x89;" unicode="&#x89;" horiz-adv-x="2079" d="M1157 424 L1157 332 C1157 261 1132 226 1082 226 C1029 226 1003 263 1003 338 L1003 418 C1003 493 1029 531 1082 531 C1132 531 1157 495 1157 424 L1157 424 Z M510 1034 L510 940 C510 870 484 835 432 835 C381 835 356 873 356 948 L356 1030 C356 1103 381 1140 432 1140 C484 1140 510 1105 510 1034 L510 1034 Z M1790 424 L1790 332 C1790 261 1764 226 1712 226 C1661 226 1636 263 1636 338 L1636 418 C1636 493 1661 531 1712 531 C1764 531 1790 495 1790 424 L1790 424 Z M1082 0 C1292 0 1397 126 1397 377 C1397 126 1502 0 1712 0 C1922 0 2027 126 2027 377 C2027 628 1922 754 1712 754 C1502 754 1397 628 1397 377 C1397 628 1292 754 1082 754 C1035 754 995 749 960 738 L1438 1366 L1110 1366 L740 877 C745 908 748 945 748 989 C748 1240 643 1366 432 1366 C221 1366 116 1240 116 989 C116 736 221 610 432 610 C476 610 516 616 551 628 L76 0 L404 0 L774 489 C769 458 766 420 766 377 C766 126 871 0 1082 0 L1082 0 Z " />
<glyph glyph-name="&amp;#x2030;" unicode="&#x2030;" horiz-adv-x="2079" d="M1157 424 L1157 332 C1157 261 1132 226 1082 226 C1029 226 1003 263 1003 338 L1003 418 C1003 493 1029 531 1082 531 C1132 531 1157 495 1157 424 L1157 424 Z M510 1034 L510 940 C510 870 484 835 432 835 C381 835 356 873 356 948 L356 1030 C356 1103 381 1140 432 1140 C484 1140 510 1105 510 1034 L510 1034 Z M1790 424 L1790 332 C1790 261 1764 226 1712 226 C1661 226 1636 263 1636 338 L1636 418 C1636 493 1661 531 1712 531 C1764 531 1790 495 1790 424 L1790 424 Z M1082 0 C1292 0 1397 126 1397 377 C1397 126 1502 0 1712 0 C1922 0 2027 126 2027 377 C2027 628 1922 754 1712 754 C1502 754 1397 628 1397 377 C1397 628 1292 754 1082 754 C1035 754 995 749 960 738 L1438 1366 L1110 1366 L740 877 C745 908 748 945 748 989 C748 1240 643 1366 432 1366 C221 1366 116 1240 116 989 C116 736 221 610 432 610 C476 610 516 616 551 628 L76 0 L404 0 L774 489 C769 458 766 420 766 377 C766 126 871 0 1082 0 L1082 0 Z " />
<glyph glyph-name="&amp;#x8a;" unicode="&#x8a;" horiz-adv-x="1290" d="M645 0 C800 0 931 28 1036 84 C1167 155 1233 263 1233 406 C1233 548 1167 656 1036 729 C932 785 802 813 645 813 C550 813 479 820 434 833 C352 855 311 902 311 975 C311 1047 352 1094 434 1116 C479 1129 550 1136 645 1136 C732 1136 798 1129 844 1114 C916 1092 962 1047 983 979 L1229 1043 C1193 1164 1116 1253 999 1308 C900 1356 782 1380 645 1380 L762 1380 L1116 1673 L782 1673 L645 1571 L506 1673 L172 1673 L526 1380 L645 1380 C488 1380 357 1352 252 1296 C121 1223 56 1116 56 975 C56 830 121 722 252 651 C356 597 487 570 645 570 C741 570 811 563 854 549 C936 524 977 476 977 406 C977 336 936 289 854 264 C810 251 740 244 645 244 C559 244 492 251 444 266 C374 288 328 333 307 400 L60 338 C93 220 169 131 288 72 C386 24 505 0 645 0 L645 0 Z " />
<glyph glyph-name="&amp;#x160;" unicode="&#x160;" horiz-adv-x="1290" d="M645 0 C800 0 931 28 1036 84 C1167 155 1233 263 1233 406 C1233 548 1167 656 1036 729 C932 785 802 813 645 813 C550 813 479 820 434 833 C352 855 311 902 311 975 C311 1047 352 1094 434 1116 C479 1129 550 1136 645 1136 C732 1136 798 1129 844 1114 C916 1092 962 1047 983 979 L1229 1043 C1193 1164 1116 1253 999 1308 C900 1356 782 1380 645 1380 L762 1380 L1116 1673 L782 1673 L645 1571 L506 1673 L172 1673 L526 1380 L645 1380 C488 1380 357 1352 252 1296 C121 1223 56 1116 56 975 C56 830 121 722 252 651 C356 597 487 570 645 570 C741 570 811 563 854 549 C936 524 977 476 977 406 C977 336 936 289 854 264 C810 251 740 244 645 244 C559 244 492 251 444 266 C374 288 328 333 307 400 L60 338 C93 220 169 131 288 72 C386 24 505 0 645 0 L645 0 Z " />
<glyph glyph-name="&amp;#x8b;" unicode="&#x8b;" horiz-adv-x="568" d="M35 682 L230 342 L493 342 L301 682 L493 1024 L230 1024 L35 682 Z " />
<glyph glyph-name="&amp;#x2039;" unicode="&#x2039;" horiz-adv-x="568" d="M35 682 L230 342 L493 342 L301 682 L493 1024 L230 1024 L35 682 Z " />
<glyph glyph-name="&amp;#x8c;" unicode="&#x8c;" horiz-adv-x="2015" d="M711 1124 C838 1124 936 1082 1005 997 C1066 920 1096 815 1096 682 C1096 551 1066 446 1005 369 C936 284 838 242 711 242 C584 242 487 284 418 369 C358 445 328 549 328 682 C328 815 358 920 418 997 C487 1082 584 1124 711 1124 L711 1124 Z M1096 114 L1096 0 L1950 0 L1950 242 L1352 242 L1352 561 L1864 561 L1864 805 L1352 805 L1352 1124 L1950 1124 L1950 1366 L1096 1366 L1096 1252 C988 1328 860 1366 711 1366 C511 1366 354 1301 240 1171 C128 1047 72 884 72 682 C72 481 128 319 240 195 C354 65 511 0 711 0 C860 0 988 38 1096 114 L1096 114 Z " />
<glyph glyph-name="&amp;#x152;" unicode="&#x152;" horiz-adv-x="2015" d="M711 1124 C838 1124 936 1082 1005 997 C1066 920 1096 815 1096 682 C1096 551 1066 446 1005 369 C936 284 838 242 711 242 C584 242 487 284 418 369 C358 445 328 549 328 682 C328 815 358 920 418 997 C487 1082 584 1124 711 1124 L711 1124 Z M1096 114 L1096 0 L1950 0 L1950 242 L1352 242 L1352 561 L1864 561 L1864 805 L1352 805 L1352 1124 L1950 1124 L1950 1366 L1096 1366 L1096 1252 C988 1328 860 1366 711 1366 C511 1366 354 1301 240 1171 C128 1047 72 884 72 682 C72 481 128 319 240 195 C354 65 511 0 711 0 C860 0 988 38 1096 114 L1096 114 Z " />
<glyph glyph-name="&amp;#x91;" unicode="&#x91;" horiz-adv-x="408" d="M112 1366 L70 1024 L336 1024 L295 1366 L112 1366 Z " />
<glyph glyph-name="&amp;#x2018;" unicode="&#x2018;" horiz-adv-x="408" d="M112 1366 L70 1024 L336 1024 L295 1366 L112 1366 Z " />
<glyph glyph-name="&amp;#x92;" unicode="&#x92;" horiz-adv-x="404" d="M110 1024 L293 1024 L334 1366 L68 1366 L110 1024 Z " />
<glyph glyph-name="&amp;#x2019;" unicode="&#x2019;" horiz-adv-x="404" d="M110 1024 L293 1024 L334 1366 L68 1366 L110 1024 Z " />
<glyph glyph-name="&amp;#x93;" unicode="&#x93;" horiz-adv-x="680" d="M121 1366 L78 1024 L600 1024 L559 1366 L377 1366 L340 1061 L303 1366 L121 1366 Z " />
<glyph glyph-name="&amp;#x201c;" unicode="&#x201c;" horiz-adv-x="680" d="M121 1366 L78 1024 L600 1024 L559 1366 L377 1366 L340 1061 L303 1366 L121 1366 Z " />
<glyph glyph-name="&amp;#x94;" unicode="&#x94;" horiz-adv-x="678" d="M121 1024 L303 1024 L340 1329 L377 1024 L559 1024 L600 1366 L78 1366 L121 1024 Z " />
<glyph glyph-name="&amp;#x201d;" unicode="&#x201d;" horiz-adv-x="678" d="M121 1024 L303 1024 L340 1329 L377 1024 L559 1024 L600 1366 L78 1366 L121 1024 Z " />
<glyph glyph-name="&amp;#x95;" unicode="&#x95;" horiz-adv-x="901" d="M448 291 C705 291 833 421 833 682 C833 944 705 1075 448 1075 C193 1075 66 944 66 682 C66 421 193 291 448 291 L448 291 Z " />
<glyph glyph-name="&amp;#x2022;" unicode="&#x2022;" horiz-adv-x="901" d="M448 291 C705 291 833 421 833 682 C833 944 705 1075 448 1075 C193 1075 66 944 66 682 C66 421 193 291 448 291 L448 291 Z " />
<glyph glyph-name="&amp;#x96;" unicode="&#x96;" horiz-adv-x="690" d="M88 682 L88 512 L600 512 L600 682 L88 682 Z " />
<glyph glyph-name="&amp;#x2013;" unicode="&#x2013;" horiz-adv-x="690" d="M88 682 L88 512 L600 512 L600 682 L88 682 Z " />
<glyph glyph-name="&amp;#x97;" unicode="&#x97;" horiz-adv-x="1202" d="M88 682 L88 512 L1112 512 L1112 682 L88 682 Z " />
<glyph glyph-name="&amp;#x2014;" unicode="&#x2014;" horiz-adv-x="1202" d="M88 682 L88 512 L1112 512 L1112 682 L88 682 Z " />
<glyph glyph-name="&amp;#x98;" unicode="&#x98;" horiz-adv-x="772" d="M483 1468 C544 1468 600 1486 651 1522 C709 1560 738 1608 738 1667 L738 1855 C693 1794 659 1751 635 1727 C590 1686 541 1665 489 1665 C472 1665 444 1680 406 1710 C365 1741 325 1757 288 1757 C227 1757 172 1740 121 1706 C65 1666 37 1617 37 1559 L37 1372 C80 1434 114 1476 139 1499 C184 1540 233 1561 284 1561 C299 1561 327 1545 367 1513 C405 1483 444 1468 483 1468 L483 1468 Z " />
<glyph glyph-name="&amp;#x2dc;" unicode="&#x2dc;" horiz-adv-x="772" d="M483 1468 C544 1468 600 1486 651 1522 C709 1560 738 1608 738 1667 L738 1855 C693 1794 659 1751 635 1727 C590 1686 541 1665 489 1665 C472 1665 444 1680 406 1710 C365 1741 325 1757 288 1757 C227 1757 172 1740 121 1706 C65 1666 37 1617 37 1559 L37 1372 C80 1434 114 1476 139 1499 C184 1540 233 1561 284 1561 C299 1561 327 1545 367 1513 C405 1483 444 1468 483 1468 L483 1468 Z " />
<glyph glyph-name="&amp;#x99;" unicode="&#x99;" horiz-adv-x="1069" d="M914 854 L979 854 L979 1366 L914 1366 L711 928 L508 1366 L60 1366 L60 1302 L219 1302 L219 854 L282 854 L282 1302 L442 1302 L442 854 L508 854 L508 1215 L676 854 L746 854 L914 1215 L914 854 Z " />
<glyph glyph-name="&amp;#x2122;" unicode="&#x2122;" horiz-adv-x="1069" d="M914 854 L979 854 L979 1366 L914 1366 L711 928 L508 1366 L60 1366 L60 1302 L219 1302 L219 854 L282 854 L282 1302 L442 1302 L442 854 L508 854 L508 1215 L676 854 L746 854 L914 1215 L914 854 Z " />
<glyph glyph-name="&amp;#x9a;" unicode="&#x9a;" horiz-adv-x="1071" d="M535 0 C847 0 1003 107 1003 321 C1003 456 940 547 815 592 C735 619 614 633 452 633 C354 633 305 663 305 723 C305 767 327 796 371 809 C391 814 432 817 493 817 C512 817 572 821 590 821 C678 821 737 797 768 748 L999 805 C934 964 780 1043 535 1043 L653 1043 L1008 1331 L674 1331 L535 1229 L398 1331 L64 1331 L418 1043 L535 1043 C222 1043 66 936 66 723 C66 586 129 495 256 450 C334 423 454 410 616 410 C716 410 766 380 766 321 C766 275 743 246 698 234 C679 229 638 226 576 226 C566 226 550 225 528 223 C507 222 492 221 481 221 C391 221 331 246 301 295 L72 238 C137 79 291 0 535 0 L535 0 Z " />
<glyph glyph-name="&amp;#x161;" unicode="&#x161;" horiz-adv-x="1071" d="M535 0 C847 0 1003 107 1003 321 C1003 456 940 547 815 592 C735 619 614 633 452 633 C354 633 305 663 305 723 C305 767 327 796 371 809 C391 814 432 817 493 817 C512 817 572 821 590 821 C678 821 737 797 768 748 L999 805 C934 964 780 1043 535 1043 L653 1043 L1008 1331 L674 1331 L535 1229 L398 1331 L64 1331 L418 1043 L535 1043 C222 1043 66 936 66 723 C66 586 129 495 256 450 C334 423 454 410 616 410 C716 410 766 380 766 321 C766 275 743 246 698 234 C679 229 638 226 576 226 C566 226 550 225 528 223 C507 222 492 221 481 221 C391 221 331 246 301 295 L72 238 C137 79 291 0 535 0 L535 0 Z " />
<glyph glyph-name="&amp;#x9b;" unicode="&#x9b;" horiz-adv-x="566" d="M70 342 L336 342 L528 682 L336 1024 L70 1024 L262 682 L70 342 Z " />
<glyph glyph-name="&amp;#x203a;" unicode="&#x203a;" horiz-adv-x="566" d="M70 342 L336 342 L528 682 L336 1024 L70 1024 L262 682 L70 342 Z " />
<glyph glyph-name="&amp;#x9c;" unicode="&#x9c;" horiz-adv-x="1784" d="M543 805 C697 805 774 707 774 512 C774 318 697 221 543 221 C390 221 313 318 313 512 C313 707 390 805 543 805 L543 805 Z M1243 805 C1368 805 1442 744 1464 622 L1020 622 C1043 744 1117 805 1243 805 L1243 805 Z M1020 402 L1706 402 C1710 448 1712 485 1712 512 C1712 667 1673 790 1596 881 C1513 976 1395 1024 1243 1024 C1094 1024 978 978 893 885 C811 978 694 1024 543 1024 C390 1024 272 976 191 881 C113 791 74 668 74 512 C74 357 112 234 189 143 C270 48 388 0 543 0 C694 0 811 46 893 139 C976 46 1092 0 1243 0 C1444 0 1588 91 1675 272 L1444 332 C1396 258 1329 221 1243 221 C1116 221 1042 281 1020 402 L1020 402 Z " />
<glyph glyph-name="&amp;#x153;" unicode="&#x153;" horiz-adv-x="1784" d="M543 805 C697 805 774 707 774 512 C774 318 697 221 543 221 C390 221 313 318 313 512 C313 707 390 805 543 805 L543 805 Z M1243 805 C1368 805 1442 744 1464 622 L1020 622 C1043 744 1117 805 1243 805 L1243 805 Z M1020 402 L1706 402 C1710 448 1712 485 1712 512 C1712 667 1673 790 1596 881 C1513 976 1395 1024 1243 1024 C1094 1024 978 978 893 885 C811 978 694 1024 543 1024 C390 1024 272 976 191 881 C113 791 74 668 74 512 C74 357 112 234 189 143 C270 48 388 0 543 0 C694 0 811 46 893 139 C976 46 1092 0 1243 0 C1444 0 1588 91 1675 272 L1444 332 C1396 258 1329 221 1243 221 C1116 221 1042 281 1020 402 L1020 402 Z " />
<glyph glyph-name="&amp;#x9f;" unicode="&#x9f;" horiz-adv-x="1409" d="M833 0 L833 651 L1389 1378 L1071 1378 L705 897 L336 1378 L21 1378 L578 651 L578 0 L833 0 Z M406 1622 L406 1378 L661 1378 L661 1622 L406 1622 Z M748 1622 L748 1378 L1003 1378 L1003 1622 L748 1622 Z " />
<glyph glyph-name="&amp;#x178;" unicode="&#x178;" horiz-adv-x="1409" d="M833 0 L833 651 L1389 1378 L1071 1378 L705 897 L336 1378 L21 1378 L578 651 L578 0 L833 0 Z M406 1622 L406 1378 L661 1378 L661 1622 L406 1622 Z M748 1622 L748 1378 L1003 1378 L1003 1622 L748 1622 Z " />
<glyph glyph-name="nbspace" unicode="&#xa0;" horiz-adv-x="746" d="" />
<glyph glyph-name="exclamdown" unicode="&#xa1;" horiz-adv-x="434" d="M104 703 L88 -339 L344 -339 L328 703 L104 703 Z M88 1024 L88 784 L344 784 L344 1024 L88 1024 Z " />
<glyph glyph-name="cent" unicode="&#xa2;" horiz-adv-x="977" d="M396 1124 L396 582 C321 620 284 711 284 854 C284 995 321 1085 396 1124 L396 1124 Z M715 1040 L946 1100 C874 1247 770 1335 633 1364 L633 1536 L396 1536 L396 1364 C274 1339 184 1277 125 1177 C72 1092 45 984 45 854 C45 725 71 616 123 528 C182 429 273 367 396 344 L396 170 L633 170 L633 344 C768 370 872 457 944 606 L715 668 C688 624 661 595 633 582 L633 1124 C660 1110 688 1082 715 1040 L715 1040 Z " />
<glyph glyph-name="yen" unicode="&#xa5;" horiz-adv-x="1428" d="M842 0 L842 643 L1397 1366 L1080 1366 L713 887 L344 1366 L29 1366 L586 643 L586 0 L842 0 Z " />
<glyph glyph-name="dieresis" unicode="&#xa8;" horiz-adv-x="776" d="M88 1622 L88 1450 L344 1450 L344 1622 L88 1622 Z M430 1622 L430 1450 L686 1450 L686 1622 L430 1622 Z " />
<glyph glyph-name="copyright" unicode="&#xa9;" horiz-adv-x="576" d="M404 184 L367 195 C352 159 323 141 282 141 C218 141 186 179 186 256 C186 333 218 371 282 371 C323 371 352 353 367 317 L404 328 C383 383 343 410 282 410 C198 410 147 348 147 256 C147 214 159 178 182 149 C207 118 241 102 282 102 C343 102 383 129 404 184 L404 184 Z M465 256 C465 202 449 153 418 110 C383 67 339 45 286 45 C235 45 191 67 156 110 C123 151 106 200 106 256 C106 368 179 467 286 467 C394 467 465 368 465 256 L465 256 Z M510 256 C510 329 490 390 451 439 C413 488 358 512 286 512 C213 512 157 487 116 436 C81 389 64 329 64 256 C64 183 81 123 116 76 C157 25 213 0 286 0 C358 0 414 25 454 76 C491 123 510 183 510 256 L510 256 Z " />
<glyph glyph-name="guillemotleft" unicode="&#xab;" horiz-adv-x="897" d="M54 682 L248 342 L512 342 L319 682 L512 1024 L248 1024 L54 682 Z M361 682 L555 342 L819 342 L626 682 L819 1024 L555 1024 L361 682 Z " />
<glyph glyph-name="minus" unicode="&#xad;" horiz-adv-x="946" d="M88 682 L88 512 L856 512 L856 682 L88 682 Z " />
<glyph glyph-name="registered" unicode="&#xae;" horiz-adv-x="576" d="M151 398 L151 114 C121 153 106 200 106 256 C106 311 121 359 151 398 L151 398 Z M375 102 L412 102 C379 64 337 45 286 45 C236 45 195 64 162 102 L191 102 L191 238 L288 238 L375 102 Z M465 256 C465 200 449 151 416 108 L332 238 C392 242 422 270 422 323 C422 381 386 410 313 410 L162 410 C195 448 236 467 286 467 C394 467 465 368 465 256 L465 256 Z M383 323 C383 290 360 274 313 274 L191 274 L191 371 L313 371 C360 371 383 355 383 323 L383 323 Z M510 256 C510 329 490 390 451 439 C413 488 358 512 286 512 C213 512 157 487 116 436 C81 389 64 329 64 256 C64 183 81 123 116 76 C157 25 213 0 286 0 C358 0 414 25 454 76 C491 123 510 183 510 256 L510 256 Z " />
<glyph glyph-name="overscore" unicode="&#xaf;" horiz-adv-x="946" d="M88 1366 L88 1194 L856 1194 L856 1366 L88 1366 Z " />
<glyph glyph-name="degree" unicode="&#xb0;" horiz-adv-x="467" d="M232 1252 C244 1252 250 1247 250 1237 C250 1229 244 1225 232 1225 C221 1225 215 1229 215 1237 C215 1247 221 1252 232 1252 L232 1252 Z M232 1110 C271 1110 309 1121 344 1142 C384 1165 404 1196 404 1237 C404 1276 384 1308 344 1333 C310 1355 273 1366 232 1366 C191 1366 153 1355 118 1333 C81 1308 62 1276 62 1237 C62 1196 81 1164 118 1142 C153 1121 191 1110 232 1110 L232 1110 Z " />
<glyph glyph-name="plusminus" unicode="&#xb1;" horiz-adv-x="885" d="M58 236 L58 0 L825 0 L825 236 L58 236 Z M570 315 L570 551 L825 551 L825 788 L570 788 L570 1024 L313 1024 L313 788 L58 788 L58 551 L313 551 L313 315 L570 315 Z " />
<glyph glyph-name="acute" unicode="&#xb4;" horiz-adv-x="709" d="M39 1450 L262 1450 L692 1706 L311 1706 L39 1450 Z " />
<glyph glyph-name="paragraph" unicode="&#xb6;" horiz-adv-x="1260" d="M1026 1194 L1198 1194 L1198 1366 L514 1366 C196 1366 37 1238 37 981 C37 726 196 598 514 598 L514 -167 L686 -167 L686 1194 L856 1194 L856 -167 L1026 -167 L1026 1194 Z " />
<glyph glyph-name="middot" unicode="&#xb7;" horiz-adv-x="438" d="M88 768 L88 598 L344 598 L344 768 L88 768 Z " />
<glyph glyph-name="guillemotright" unicode="&#xbb;" horiz-adv-x="899" d="M78 342 L344 342 L537 682 L344 1024 L78 1024 L270 682 L78 342 Z M385 342 L651 342 L844 682 L651 1024 L385 1024 L578 682 L385 342 Z " />
<glyph glyph-name="questiondown" unicode="&#xbf;" horiz-adv-x="1206" d="M582 -339 C895 -339 1084 -228 1149 -5 L903 56 C883 -9 839 -53 772 -75 C728 -90 665 -97 582 -97 C491 -97 423 -88 379 -69 C314 -38 282 15 282 92 C282 185 312 243 371 264 C402 277 472 284 582 284 C737 284 849 314 920 375 C997 440 1035 550 1034 703 L778 703 L778 690 C778 613 764 565 736 547 C714 533 663 526 582 526 C408 526 277 498 189 442 C81 376 27 259 27 92 C27 -195 212 -339 582 -339 L582 -339 Z M778 1024 L778 784 L1034 784 L1034 1024 L778 1024 Z " />
<glyph glyph-name="Agrave" unicode="&#xc0;" horiz-adv-x="1407" d="M539 570 L715 1030 L891 570 L539 570 Z M985 323 L1110 0 L1380 0 L854 1382 L582 1706 L199 1706 L630 1382 L576 1382 L49 0 L319 0 L444 323 L985 323 Z " />
<glyph glyph-name="Aacute" unicode="&#xc1;" horiz-adv-x="1409" d="M516 570 L692 1030 L868 570 L516 570 Z M962 323 L1088 0 L1358 0 L831 1382 L776 1382 L1208 1706 L825 1706 L553 1382 L27 0 L297 0 L422 323 L962 323 Z " />
<glyph glyph-name="Acircumflex" unicode="&#xc2;" horiz-adv-x="1426" d="M537 570 L713 1028 L889 570 L537 570 Z M983 323 L1108 0 L1378 0 L852 1380 L574 1380 L713 1482 L852 1380 L1186 1380 L831 1673 L596 1673 L240 1380 L574 1380 L47 0 L317 0 L442 323 L983 323 Z " />
<glyph glyph-name="Atilde" unicode="&#xc3;" horiz-adv-x="1415" d="M522 570 L698 1030 L875 570 L522 570 Z M968 326 L1094 0 L1364 0 L838 1385 L559 1385 L33 0 L303 0 L428 326 L968 326 Z M796 1399 C862 1399 921 1423 972 1470 C1023 1519 1049 1577 1049 1644 L1049 1878 C978 1749 917 1675 866 1654 C847 1647 825 1644 800 1644 C785 1644 758 1663 719 1700 C680 1738 641 1757 602 1757 C535 1757 476 1733 424 1685 C373 1639 348 1581 348 1511 L348 1282 C421 1407 482 1480 531 1501 C551 1509 573 1513 596 1513 C613 1513 641 1494 678 1456 C717 1418 756 1399 796 1399 L796 1399 Z " />
<glyph glyph-name="Adieresis" unicode="&#xc4;" horiz-adv-x="1422" d="M535 568 L711 1026 L887 568 L535 568 Z M981 323 L1106 0 L1376 0 L850 1378 L1010 1378 L1010 1622 L754 1622 L754 1378 L668 1378 L668 1622 L412 1622 L412 1378 L572 1378 L45 0 L315 0 L440 323 L981 323 Z " />
<glyph glyph-name="Aring" unicode="&#xc5;" horiz-adv-x="1401" d="M524 570 L701 1030 L877 570 L524 570 Z M701 1561 C712 1561 717 1555 717 1544 C717 1533 712 1528 701 1528 C690 1528 684 1533 684 1544 C684 1555 690 1561 701 1561 L701 1561 Z M970 323 L1096 0 L1366 0 L840 1382 L701 1382 C747 1382 787 1398 820 1429 C853 1460 870 1499 870 1544 C870 1589 853 1628 820 1659 C787 1690 747 1706 701 1706 C654 1706 613 1690 580 1659 C547 1628 531 1590 531 1544 C531 1499 548 1460 581 1429 C614 1398 654 1382 701 1382 L561 1382 L35 0 L305 0 L430 323 L970 323 Z " />
<glyph glyph-name="AE" unicode="&#xc6;" horiz-adv-x="1735" d="M649 641 L821 964 L821 641 L649 641 Z M821 402 L821 0 L1673 0 L1673 242 L1078 242 L1078 561 L1590 561 L1590 805 L1078 805 L1078 1124 L1673 1124 L1673 1366 L756 1366 L35 0 L309 0 L522 402 L821 402 Z " />
<glyph glyph-name="Egrave" unicode="&#xc8;" horiz-adv-x="1145" d="M72 1382 L72 0 L1096 0 L1096 244 L328 244 L328 570 L1010 570 L1010 813 L328 813 L328 1138 L1096 1138 L1096 1382 L885 1382 L612 1706 L230 1706 L661 1382 L72 1382 Z " />
<glyph glyph-name="Eacute" unicode="&#xc9;" horiz-adv-x="1145" d="M72 1382 L72 0 L1096 0 L1096 244 L328 244 L328 570 L1010 570 L1010 813 L328 813 L328 1138 L1096 1138 L1096 1382 L487 1382 L920 1706 L537 1706 L264 1382 L72 1382 Z " />
<glyph glyph-name="Ecircumflex" unicode="&#xca;" horiz-adv-x="1165" d="M80 1380 L80 0 L1104 0 L1104 244 L336 244 L336 570 L1018 570 L1018 813 L336 813 L336 1136 L1104 1136 L1104 1380 L1057 1380 L701 1673 L465 1673 L110 1380 L80 1380 Z M721 1380 L444 1380 L584 1482 L721 1380 Z " />
<glyph glyph-name="Edieresis" unicode="&#xcb;" horiz-adv-x="1167" d="M80 1378 L80 0 L1104 0 L1104 242 L336 242 L336 568 L1018 568 L1018 811 L336 811 L336 1134 L1104 1134 L1104 1378 L883 1378 L883 1622 L626 1622 L626 1378 L541 1378 L541 1622 L284 1622 L284 1378 L80 1378 Z " />
<glyph glyph-name="Igrave" unicode="&#xcc;" horiz-adv-x="723" d="M358 1382 L358 0 L614 0 L614 1382 L659 1382 L387 1706 L6 1706 L436 1382 L358 1382 Z " />
<glyph glyph-name="Iacute" unicode="&#xcd;" horiz-adv-x="721" d="M106 1382 L106 0 L363 0 L363 1382 L284 1382 L715 1706 L334 1706 L62 1382 L106 1382 Z " />
<glyph glyph-name="Icircumflex" unicode="&#xce;" horiz-adv-x="991" d="M367 1380 L367 0 L622 0 L622 1380 L367 1380 Z M493 1482 L633 1380 L966 1380 L612 1673 L377 1673 L23 1380 L356 1380 L493 1482 Z " />
<glyph glyph-name="Idieresis" unicode="&#xcf;" horiz-adv-x="692" d="M217 1378 L217 0 L473 0 L473 1378 L643 1378 L643 1622 L387 1622 L387 1378 L303 1378 L303 1622 L47 1622 L47 1378 L217 1378 Z " />
<glyph glyph-name="Ntilde" unicode="&#xd1;" horiz-adv-x="1333" d="M321 932 L1024 0 L1260 0 L1260 1385 L1003 1385 L1003 452 L342 1329 C379 1389 408 1431 428 1452 C469 1493 513 1513 561 1513 C578 1513 605 1494 643 1455 C682 1418 721 1399 760 1399 C825 1399 883 1423 936 1470 C987 1519 1012 1577 1012 1644 L1012 1878 C942 1749 881 1675 829 1654 C810 1647 789 1644 766 1644 C749 1644 721 1663 682 1700 C643 1738 604 1757 566 1757 C499 1757 439 1733 387 1685 C338 1638 313 1580 313 1511 L313 1368 L301 1385 L66 1385 L66 0 L321 0 L321 932 Z " />
<glyph glyph-name="Ograve" unicode="&#xd2;" horiz-adv-x="1382" d="M690 1138 C817 1138 916 1095 985 1010 C1045 929 1075 823 1075 692 C1075 559 1045 453 985 375 C918 288 819 244 690 244 C561 244 463 288 398 375 C337 452 307 558 307 692 C307 825 337 931 398 1010 C463 1095 561 1138 690 1138 L690 1138 Z M690 0 C890 0 1048 66 1165 199 C1276 324 1331 489 1331 692 C1331 893 1276 1057 1165 1184 C1049 1316 891 1382 690 1382 C491 1382 333 1316 217 1184 C106 1057 51 893 51 692 C51 488 106 324 217 199 C334 66 491 0 690 0 L690 0 Z M346 1706 L778 1382 L1001 1382 L729 1706 L346 1706 Z " />
<glyph glyph-name="Oacute" unicode="&#xd3;" horiz-adv-x="1380" d="M688 1138 C815 1138 914 1095 983 1010 C1043 929 1073 823 1073 692 C1073 559 1043 453 983 375 C916 288 817 244 688 244 C557 244 460 288 396 375 C335 452 305 558 305 692 C305 825 335 931 396 1010 C460 1095 557 1138 688 1138 L688 1138 Z M688 0 C888 0 1046 66 1163 199 C1274 324 1329 489 1329 692 C1329 893 1274 1057 1163 1184 C1047 1316 889 1382 688 1382 C489 1382 331 1316 215 1184 C104 1057 49 893 49 692 C49 488 104 324 215 199 C332 66 489 0 688 0 L688 0 Z M379 1382 L602 1382 L1034 1706 L651 1706 L379 1382 Z " />
<glyph glyph-name="Ocircumflex" unicode="&#xd4;" horiz-adv-x="1393" d="M694 1136 C821 1136 920 1093 989 1008 C1050 929 1080 823 1080 690 C1080 555 1050 450 989 375 C922 288 823 244 694 244 C565 244 467 288 402 375 C341 450 311 555 311 690 C311 823 341 929 402 1008 C467 1093 565 1136 694 1136 L694 1136 Z M694 0 C894 0 1052 66 1169 199 C1280 324 1335 487 1335 690 C1335 892 1280 1057 1169 1184 C1052 1315 894 1380 694 1380 C495 1380 338 1315 221 1184 C111 1058 56 893 56 690 C56 485 111 321 221 197 C337 66 495 0 694 0 L694 0 Z M694 1482 L833 1380 L1167 1380 L813 1673 L578 1673 L224 1380 L557 1380 L694 1482 Z " />
<glyph glyph-name="Otilde" unicode="&#xd5;" horiz-adv-x="1385" d="M688 1140 C818 1140 916 1097 983 1010 C1043 929 1073 823 1073 692 C1073 559 1043 453 983 375 C916 288 817 244 688 244 C558 244 460 288 394 375 C335 450 305 556 305 692 C305 827 335 933 394 1010 C461 1097 559 1140 688 1140 L688 1140 Z M688 0 C888 0 1046 66 1163 199 C1274 324 1329 489 1329 692 C1329 893 1274 1057 1163 1184 C1046 1318 887 1385 688 1385 C558 1385 445 1355 348 1296 C415 1411 471 1479 516 1501 C534 1509 557 1513 586 1513 C603 1513 631 1494 669 1455 C708 1418 747 1399 786 1399 C852 1399 911 1423 962 1470 C1013 1519 1038 1577 1038 1644 L1038 1878 C967 1750 906 1675 856 1654 C837 1647 815 1644 790 1644 C775 1644 748 1663 709 1700 C670 1738 631 1757 592 1757 C524 1757 465 1733 414 1685 C365 1638 340 1580 340 1511 L340 1292 C244 1233 169 1146 116 1030 C71 930 49 817 49 692 C49 488 104 324 215 199 C330 66 487 0 688 0 L688 0 Z " />
<glyph glyph-name="Odieresis" unicode="&#xd6;" horiz-adv-x="1393" d="M694 1134 C823 1134 921 1091 989 1005 C1050 928 1080 823 1080 690 C1080 556 1050 450 989 373 C922 286 823 242 694 242 C565 242 467 286 402 373 C341 450 311 556 311 690 C311 823 341 928 402 1005 C467 1091 564 1134 694 1134 L694 1134 Z M694 0 C894 0 1052 66 1169 199 C1280 324 1335 487 1335 690 C1335 891 1280 1055 1169 1182 C1052 1313 894 1378 694 1378 C495 1378 338 1313 221 1182 C111 1056 56 892 56 690 C56 485 111 321 221 197 C337 66 495 0 694 0 L694 0 Z M398 1622 L398 1378 L653 1378 L653 1622 L398 1622 Z M738 1622 L738 1378 L993 1378 L993 1622 L738 1622 Z " />
<glyph glyph-name="multiply" unicode="&#xd7;" horiz-adv-x="835" d="M416 438 L598 280 L778 438 L598 598 L778 756 L598 916 L416 756 L236 916 L56 756 L236 598 L56 438 L236 280 L416 438 Z " />
<glyph glyph-name="Oslash" unicode="&#xd8;" horiz-adv-x="1407" d="M703 1124 C830 1124 928 1082 997 997 C1058 920 1088 815 1088 682 C1088 551 1058 446 997 369 C928 284 830 242 703 242 C572 242 475 284 410 369 C349 444 319 549 319 682 C319 817 349 922 410 997 C475 1082 572 1124 703 1124 L703 1124 Z M703 0 C900 0 1058 65 1175 195 C1287 319 1343 481 1343 682 C1343 884 1287 1047 1175 1171 C1058 1301 900 1366 703 1366 C503 1366 346 1301 232 1171 C120 1047 64 884 64 682 C64 481 120 319 232 195 C346 65 503 0 703 0 L703 0 Z " />
<glyph glyph-name="Ugrave" unicode="&#xd9;" horiz-adv-x="1401" d="M698 0 C898 0 1056 66 1173 199 C1284 324 1339 489 1339 692 L1339 1382 L1084 1382 L1084 692 C1084 558 1054 452 993 375 C926 288 827 244 698 244 C569 244 471 288 406 375 C345 452 315 558 315 692 L315 1382 L60 1382 L60 692 C60 488 115 324 226 199 C343 66 500 0 698 0 L698 0 Z M354 1706 L786 1382 L1010 1382 L738 1706 L354 1706 Z " />
<glyph glyph-name="Uacute" unicode="&#xda;" horiz-adv-x="1401" d="M698 0 C898 0 1056 66 1173 199 C1284 324 1339 489 1339 692 L1339 1382 L1084 1382 L1084 692 C1084 558 1054 452 993 375 C926 288 827 244 698 244 C569 244 471 288 406 375 C345 452 315 558 315 692 L315 1382 L60 1382 L60 692 C60 488 115 324 226 199 C343 66 500 0 698 0 L698 0 Z M389 1382 L612 1382 L1045 1706 L661 1706 L389 1382 Z " />
<glyph glyph-name="Ucircumflex" unicode="&#xdb;" horiz-adv-x="1413" d="M705 0 C905 0 1063 66 1180 199 C1290 323 1345 487 1345 690 L1345 1380 L1177 1380 L823 1673 L588 1673 L234 1380 L66 1380 L66 690 C66 487 121 324 232 199 C349 66 506 0 705 0 L705 0 Z M321 690 L321 1380 L568 1380 L705 1482 L844 1380 L1090 1380 L1090 690 C1090 555 1060 450 999 375 C932 288 834 244 705 244 C575 244 477 288 412 375 C351 450 321 555 321 690 L321 690 Z " />
<glyph glyph-name="Udieresis" unicode="&#xdc;" horiz-adv-x="1415" d="M707 0 C907 0 1065 66 1182 199 C1292 323 1347 487 1347 690 L1347 1378 L1092 1378 L1092 690 C1092 556 1062 450 1001 373 C934 286 836 242 707 242 C577 242 479 286 414 373 C353 450 323 556 323 690 L323 1378 L68 1378 L68 690 C68 487 123 324 234 199 C351 66 508 0 707 0 L707 0 Z M410 1622 L410 1378 L665 1378 L665 1622 L410 1622 Z M750 1622 L750 1378 L1005 1378 L1005 1622 L750 1622 Z " />
<glyph glyph-name="Yacute" unicode="&#xdd;" horiz-adv-x="1401" d="M829 0 L829 651 L1385 1382 L1067 1382 L701 897 L332 1382 L16 1382 L574 651 L574 0 L829 0 Z M391 1382 L614 1382 L1047 1706 L663 1706 L391 1382 Z " />
<glyph glyph-name="agrave" unicode="&#xe0;" horiz-adv-x="1061" d="M522 819 C677 819 754 720 754 522 C754 325 677 226 522 226 C369 226 293 325 293 522 C293 720 369 819 522 819 L522 819 Z M754 58 L754 0 L991 0 L991 1045 L833 1045 L559 1366 L178 1366 L610 1045 L754 1045 L754 987 C699 1026 622 1045 522 1045 C369 1045 251 996 168 897 C92 805 54 680 54 522 C54 364 92 240 168 149 C250 50 368 0 522 0 C622 0 699 19 754 58 L754 58 Z " />
<glyph glyph-name="aacute" unicode="&#xe1;" horiz-adv-x="1063" d="M520 819 C675 819 752 720 752 522 C752 325 675 226 520 226 C367 226 291 325 291 522 C291 720 367 819 520 819 L520 819 Z M752 58 L752 0 L989 0 L989 1045 L752 1045 L752 987 C697 1026 620 1045 520 1045 C365 1045 247 996 166 897 C89 804 51 679 51 522 C51 365 89 240 166 149 C247 50 365 0 520 0 C620 0 697 19 752 58 L752 58 Z M209 1045 L434 1045 L864 1366 L483 1366 L209 1045 Z " />
<glyph glyph-name="acircumflex" unicode="&#xe2;" horiz-adv-x="1082" d="M533 817 C687 817 764 718 764 520 C764 324 687 226 533 226 C380 226 303 324 303 520 C303 718 380 817 533 817 L533 817 Z M764 58 L764 0 L1001 0 L1001 1043 L651 1331 L416 1331 L60 1043 L396 1043 L533 1142 L672 1043 L764 1043 L764 985 C709 1024 632 1043 533 1043 C379 1043 261 994 178 895 C102 803 64 678 64 520 C64 363 102 239 178 147 C260 49 378 0 533 0 C632 0 709 19 764 58 L764 58 Z " />
<glyph glyph-name="atilde" unicode="&#xe3;" horiz-adv-x="1071" d="M522 821 C677 821 754 722 754 524 C754 325 677 226 522 226 C369 226 293 325 293 524 C293 722 369 821 522 821 L522 821 Z M754 58 L754 0 L991 0 L991 1047 L754 1047 L754 989 C699 1028 622 1047 522 1047 C368 1047 250 997 168 897 C92 806 54 681 54 524 C54 366 92 241 168 149 C250 50 368 0 522 0 C622 0 699 19 754 58 L754 58 Z M620 1061 C686 1061 745 1085 796 1132 C847 1179 873 1237 873 1306 L873 1534 C801 1409 740 1336 690 1315 C670 1308 648 1304 624 1304 C609 1304 582 1323 543 1360 C504 1399 465 1418 426 1418 C359 1418 299 1394 248 1345 C197 1299 172 1242 172 1173 L172 948 C245 1070 306 1142 354 1163 C375 1171 397 1175 420 1175 C437 1175 465 1156 502 1118 C540 1080 579 1061 620 1061 L620 1061 Z " />
<glyph glyph-name="adieresis" unicode="&#xe4;" horiz-adv-x="1078" d="M528 815 C683 815 760 717 760 520 C760 323 683 224 528 224 C375 224 299 323 299 520 C299 717 375 815 528 815 L528 815 Z M760 58 L760 0 L997 0 L997 1040 L827 1040 L827 1280 L572 1280 L572 1040 L760 1040 L760 983 C705 1021 627 1040 528 1040 C374 1040 256 991 174 893 C98 801 60 677 60 520 C60 363 98 239 174 147 C256 49 374 0 528 0 C628 0 705 19 760 58 L760 58 Z M230 1280 L230 1040 L485 1040 L485 1280 L230 1280 Z " />
<glyph glyph-name="aring" unicode="&#xe5;" horiz-adv-x="1055" d="M518 819 C673 819 750 720 750 522 C750 325 673 226 518 226 C365 226 288 325 288 522 C288 720 365 819 518 819 L518 819 Z M518 1221 C529 1221 535 1215 535 1204 C535 1193 529 1188 518 1188 C507 1188 502 1193 502 1204 C502 1215 507 1221 518 1221 L518 1221 Z M750 58 L750 0 L987 0 L987 1045 L750 1045 L750 987 C695 1026 618 1045 518 1045 C564 1045 603 1060 636 1091 C671 1121 688 1159 688 1204 C688 1251 671 1289 636 1319 C601 1350 562 1366 518 1366 C474 1366 434 1350 399 1319 C365 1288 348 1249 348 1204 C348 1159 365 1121 399 1091 C432 1060 472 1045 518 1045 C363 1045 245 996 164 897 C87 804 49 679 49 522 C49 365 87 240 164 149 C245 50 363 0 518 0 C618 0 695 19 750 58 L750 58 Z " />
<glyph glyph-name="ae" unicode="&#xe6;" horiz-adv-x="1784" d="M543 805 C697 805 774 707 774 512 C774 318 697 221 543 221 C390 221 313 318 313 512 C313 707 390 805 543 805 L543 805 Z M1243 805 C1368 805 1442 744 1464 622 L1020 622 C1043 744 1117 805 1243 805 L1243 805 Z M1020 402 L1706 402 C1710 448 1712 485 1712 512 C1712 667 1673 790 1596 881 C1513 976 1395 1024 1243 1024 C1149 1024 1072 1004 1012 964 L1012 1024 L774 1024 L774 968 C717 1005 640 1024 543 1024 C390 1024 272 976 191 881 C113 791 74 668 74 512 C74 356 113 233 191 143 C272 48 390 0 543 0 C640 0 717 19 774 56 L774 0 L1012 0 L1012 66 C1080 22 1157 0 1243 0 C1444 0 1588 91 1675 272 L1444 332 C1396 258 1329 221 1243 221 C1116 221 1042 281 1020 402 L1020 402 Z " />
<glyph glyph-name="egrave" unicode="&#xe8;" horiz-adv-x="1040" d="M522 819 C647 819 721 758 744 635 L303 635 C325 758 398 819 522 819 L522 819 Z M301 410 L985 410 C989 458 991 495 991 522 C991 680 953 805 877 897 C794 996 676 1045 522 1045 C369 1045 251 996 168 897 C92 805 54 680 54 522 C54 364 92 240 168 149 C246 50 364 0 522 0 C723 0 867 93 954 278 L723 338 C676 263 609 226 522 226 C397 226 323 287 301 410 L301 410 Z M178 1366 L610 1045 L833 1045 L559 1366 L178 1366 Z " />
<glyph glyph-name="eacute" unicode="&#xe9;" horiz-adv-x="1040" d="M520 819 C645 819 719 758 742 635 L301 635 C323 758 396 819 520 819 L520 819 Z M299 410 L983 410 C987 458 989 495 989 522 C989 680 951 805 875 897 C792 996 674 1045 520 1045 C365 1045 247 996 166 897 C89 804 51 679 51 522 C51 365 89 240 166 149 C244 50 362 0 520 0 C721 0 865 93 952 278 L721 338 C674 263 607 226 520 226 C395 226 321 287 299 410 L299 410 Z M209 1045 L434 1045 L864 1366 L483 1366 L209 1045 Z " />
<glyph glyph-name="ecircumflex" unicode="&#xea;" horiz-adv-x="1063" d="M533 817 C658 817 731 756 754 633 L313 633 C335 756 408 817 533 817 L533 817 Z M311 410 L995 410 C999 458 1001 495 1001 520 C1001 678 963 803 887 895 C804 994 686 1043 533 1043 C379 1043 261 994 178 895 C102 803 64 678 64 520 C64 362 102 238 178 147 C260 49 378 0 533 0 C733 0 877 93 964 278 L733 336 C688 263 621 226 533 226 C407 226 333 287 311 410 L311 410 Z M533 1142 L672 1043 L1005 1043 L651 1331 L416 1331 L60 1043 L396 1043 L533 1142 Z " />
<glyph glyph-name="edieresis" unicode="&#xeb;" horiz-adv-x="1057" d="M531 815 C655 815 729 753 752 630 L311 630 C333 753 406 815 531 815 L531 815 Z M309 408 L993 408 C997 456 999 493 999 520 C999 677 961 801 885 893 C803 991 685 1040 531 1040 C376 1040 258 991 176 893 C100 801 62 677 62 520 C62 362 100 238 176 147 C258 49 376 0 531 0 C731 0 875 93 962 278 L731 336 C684 261 618 224 531 224 C405 224 331 285 309 408 L309 408 Z M232 1280 L232 1040 L487 1040 L487 1280 L232 1280 Z M574 1280 L574 1040 L829 1040 L829 1280 L574 1280 Z " />
<glyph glyph-name="igrave" unicode="&#xec;" horiz-adv-x="438" d="M88 1024 L88 0 L344 0 L344 1024 L88 1024 Z " />
<glyph glyph-name="iacute" unicode="&#xed;" horiz-adv-x="438" d="M88 1024 L88 0 L344 0 L344 1024 L88 1024 Z " />
<glyph glyph-name="icircumflex" unicode="&#xee;" horiz-adv-x="438" d="M88 1024 L88 0 L344 0 L344 1024 L88 1024 Z " />
<glyph glyph-name="idieresis" unicode="&#xef;" horiz-adv-x="438" d="M88 1024 L88 0 L344 0 L344 1024 L88 1024 Z " />
<glyph glyph-name="ntilde" unicode="&#xf1;" horiz-adv-x="1078" d="M766 524 L766 0 L1003 0 L1003 524 C1003 681 965 806 889 897 C807 997 689 1047 535 1047 C436 1047 360 1028 305 989 L305 1047 L248 1047 C306 1132 367 1175 432 1175 C449 1175 477 1156 514 1118 C553 1080 592 1061 633 1061 C697 1061 756 1085 809 1132 C860 1179 885 1237 885 1306 L885 1534 C816 1416 758 1344 711 1319 C692 1309 667 1304 637 1304 C622 1304 594 1323 555 1360 C517 1399 478 1418 438 1418 C370 1418 311 1394 260 1345 C209 1298 184 1241 184 1173 L184 1047 L66 1047 L66 0 L305 0 L305 524 C305 722 382 821 535 821 C689 821 766 722 766 524 L766 524 Z " />
<glyph glyph-name="ograve" unicode="&#xf2;" horiz-adv-x="1045" d="M522 819 C677 819 754 720 754 522 C754 325 677 226 522 226 C369 226 293 325 293 522 C293 720 369 819 522 819 L522 819 Z M522 0 C675 0 794 50 877 149 C953 240 991 364 991 522 C991 680 953 805 877 897 C794 996 676 1045 522 1045 C369 1045 251 996 168 897 C92 805 54 680 54 522 C54 362 91 238 166 149 C247 50 366 0 522 0 L522 0 Z M178 1366 L610 1045 L833 1045 L559 1366 L178 1366 Z " />
<glyph glyph-name="oacute" unicode="&#xf3;" horiz-adv-x="1045" d="M520 819 C675 819 752 720 752 522 C752 325 675 226 520 226 C367 226 291 325 291 522 C291 720 367 819 520 819 L520 819 Z M520 0 C673 0 792 50 875 149 C951 240 989 364 989 522 C989 680 951 805 875 897 C792 996 674 1045 520 1045 C365 1045 247 996 166 897 C89 804 51 679 51 522 C51 362 89 238 164 149 C245 50 364 0 520 0 L520 0 Z M209 1045 L434 1045 L864 1366 L483 1366 L209 1045 Z " />
<glyph glyph-name="ocircumflex" unicode="&#xf4;" horiz-adv-x="1067" d="M533 817 C687 817 764 718 764 520 C764 324 687 226 533 226 C380 226 303 324 303 520 C303 718 380 817 533 817 L533 817 Z M533 0 C687 0 805 49 887 147 C963 238 1001 362 1001 520 C1001 678 963 803 887 895 C804 994 686 1043 533 1043 C379 1043 261 994 178 895 C102 803 64 678 64 520 C64 362 102 238 178 147 C257 49 375 0 533 0 L533 0 Z M533 1142 L672 1043 L1005 1043 L651 1331 L416 1331 L60 1043 L396 1043 L533 1142 Z " />
<glyph glyph-name="otilde" unicode="&#xf5;" horiz-adv-x="1055" d="M522 821 C677 821 754 722 754 524 C754 325 677 226 522 226 C369 226 293 325 293 524 C293 722 369 821 522 821 L522 821 Z M522 0 C675 0 794 50 877 149 C953 241 991 366 991 524 C991 681 953 806 877 897 C795 997 677 1047 522 1047 C368 1047 250 997 168 897 C92 805 54 681 54 524 C54 365 91 240 166 149 C247 50 366 0 522 0 L522 0 Z M620 1061 C686 1061 745 1085 796 1132 C847 1179 873 1237 873 1306 L873 1534 C801 1409 740 1336 690 1315 C670 1308 648 1304 624 1304 C609 1304 582 1323 543 1360 C504 1399 465 1418 426 1418 C359 1418 299 1394 248 1345 C197 1299 172 1242 172 1173 L172 948 C245 1070 306 1142 354 1163 C375 1171 397 1175 420 1175 C437 1175 465 1156 502 1118 C540 1080 579 1061 620 1061 L620 1061 Z " />
<glyph glyph-name="odieresis" unicode="&#xf6;" horiz-adv-x="1061" d="M531 815 C685 815 762 717 762 520 C762 323 685 224 531 224 C378 224 301 323 301 520 C301 717 378 815 531 815 L531 815 Z M531 0 C685 0 803 49 885 147 C961 239 999 363 999 520 C999 677 961 801 885 893 C803 991 685 1040 531 1040 C376 1040 258 991 176 893 C100 801 62 677 62 520 C62 362 100 238 176 147 C258 49 376 0 531 0 L531 0 Z M232 1280 L232 1040 L487 1040 L487 1280 L232 1280 Z M574 1280 L574 1040 L829 1040 L829 1280 L574 1280 Z " />
<glyph glyph-name="oslash" unicode="&#xf8;" horiz-adv-x="1069" d="M535 805 C689 805 766 707 766 512 C766 318 689 221 535 221 C382 221 305 318 305 512 C305 707 382 805 535 805 L535 805 Z M535 0 C688 0 806 48 889 143 C965 234 1003 357 1003 512 C1003 667 965 790 889 881 C806 976 688 1024 535 1024 C382 1024 264 976 182 881 C105 790 66 667 66 512 C66 354 104 231 180 143 C262 48 380 0 535 0 L535 0 Z " />
<glyph glyph-name="ugrave" unicode="&#xf9;" horiz-adv-x="1069" d="M762 58 L762 0 L999 0 L999 1045 L842 1045 L568 1366 L186 1366 L618 1045 L762 1045 L762 522 C762 325 685 226 531 226 C378 226 301 325 301 522 L301 1045 L62 1045 L62 522 C62 364 100 240 176 149 C258 50 376 0 531 0 C630 0 707 19 762 58 L762 58 Z " />
<glyph glyph-name="uacute" unicode="&#xfa;" horiz-adv-x="1071" d="M760 58 L760 0 L997 0 L997 1045 L760 1045 L760 522 C760 325 683 226 528 226 C375 226 299 325 299 522 L299 1045 L442 1045 L873 1366 L491 1366 L217 1045 L60 1045 L60 522 C60 364 98 240 174 149 C256 50 374 0 528 0 C628 0 705 19 760 58 L760 58 Z " />
<glyph glyph-name="ucircumflex" unicode="&#xfb;" horiz-adv-x="1090" d="M772 58 L772 0 L1010 0 L1010 1043 L659 1331 L424 1331 L68 1043 L72 1043 L72 520 C72 363 110 239 186 147 C268 49 386 0 541 0 C640 0 717 19 772 58 L772 58 Z M311 520 L311 1043 L404 1043 L541 1142 L680 1043 L772 1043 L772 520 C772 324 695 226 541 226 C388 226 311 324 311 520 L311 520 Z " />
<glyph glyph-name="udieresis" unicode="&#xfc;" horiz-adv-x="1088" d="M770 58 L770 0 L1008 0 L1008 1040 L838 1040 L838 1280 L582 1280 L582 1040 L770 1040 L770 520 C770 323 693 224 539 224 C386 224 309 323 309 520 L309 1040 L496 1040 L496 1280 L240 1280 L240 1040 L70 1040 L70 520 C70 363 108 239 184 147 C266 49 384 0 539 0 C638 0 715 19 770 58 L770 58 Z " />
<glyph glyph-name="yacute" unicode="&#xfd;" horiz-adv-x="1116" d="M309 -339 L566 -339 L1092 1040 L835 1040 L559 313 L282 1040 L473 1040 L906 1366 L522 1366 L250 1040 L29 1040 L432 -15 L309 -339 Z " />
<glyph glyph-name="ydieresis" unicode="&#xff;" horiz-adv-x="1126" d="M315 -339 L572 -339 L1098 1036 L864 1036 L864 1280 L608 1280 L608 1036 L842 1036 L566 313 L288 1036 L522 1036 L522 1280 L266 1280 L266 1036 L35 1036 L438 -15 L315 -339 Z " />
</font>
</svg>
