<?xml version="1.0" standalone="no"?>
<!DOCTYPE svg PUBLIC "-//W3C//DTD SVG 1.1//EN" "http://www.w3.org/Graphics/SVG/1.1/DTD/svg11.dtd" >
<svg xmlns="http://www.w3.org/2000/svg" xmlns:xlink="http://www.w3.org/1999/xlink" version="1.1">
<metadata>
Created by FontForge 20170731 at Sat Mar 31 17:45:30 2018
 By Aleksey,,,
Copyright (c) 2018 by Studio Kmzero &#38; Zetafonts. All rights reserved.
</metadata>
<defs>
<font id="HeadingProWide-Regular" horiz-adv-x="663" >
  <font-face 
    font-family="Heading Pro Wide"
    font-weight="500"
    font-stretch="normal"
    units-per-em="2048"
    panose-1="0 0 6 0 0 0 0 0 0 0"
    ascent="1638"
    descent="-410"
    x-height="1175"
    cap-height="1512"
    bbox="-567 -602 3644 2019"
    underline-thickness="102"
    underline-position="-409"
    unicode-range="U+000D-FB06"
  />
<missing-glyph horiz-adv-x="2119" 
 />
    <glyph glyph-name="ff" unicode="ff" horiz-adv-x="1943" 
d="M1964 1552q-159 49 -329 49q-216 0 -304 -116q-72 -95 -80 -310h-692q2 130 37 181q21 30 56.5 44.5t93.5 14.5q65 0 126 -7q38 -4 94 -17l29 161q-159 49 -329 49q-216 0 -304 -116q-72 -95 -80 -310h-248v-186h246v-989h278v989h691v-989h278v989h405v186h-404
q2 130 36 181q40 59 150 59q65 0 126 -7q40 -5 95 -17z" />
    <glyph glyph-name="fi" unicode="fi" horiz-adv-x="1609" 
d="M25 989h246v-989h278v989h607v-989h278v1175h-884q2 130 36 181q40 59 150 59q65 0 126 -7q38 -4 94 -17l30 161q-159 49 -330 49q-217 0 -303 -116q-72 -95 -80 -310h-248v-186z" />
    <glyph glyph-name="fl" unicode="fl" horiz-adv-x="1616" 
d="M31 989h246v-989h278v989h607v-989h279v1568h-279v-393h-606q2 130 37 181q14 20 33.5 33t48.5 19.5t68 6.5q65 0 126 -7q38 -4 94 -17l29 161q-159 49 -329 49q-216 0 -304 -116q-72 -95 -80 -310h-248v-186z" />
    <glyph glyph-name="ffi" unicode="ffi" horiz-adv-x="2602" 
d="M2411 0v1175h-883q2 130 36 181q40 59 150 59q65 0 126 -7q40 -5 95 -17l29 161q-159 49 -329 49q-216 0 -304 -116q-72 -95 -80 -310h-692q2 130 37 181q21 30 56.5 44.5t93.5 14.5q65 0 126 -7q38 -4 94 -17l29 161q-159 49 -329 49q-216 0 -304 -116q-72 -95 -80 -310
h-248v-186h246v-989h278v989h691v-989h278v989h605v-989h279z" />
    <glyph glyph-name="ffl" unicode="ffl" horiz-adv-x="2607" 
d="M2419 0v1568h-279v-393h-600q2 130 36 181q40 59 150 59q65 0 126 -7q40 -5 95 -17l29 161q-159 49 -329 49q-216 0 -304 -116q-72 -95 -80 -310h-704q2 130 37 181q21 30 56.5 44.5t93.5 14.5q65 0 126 -7q38 -4 94 -17l29 161q-159 49 -329 49q-216 0 -304 -116
q-72 -95 -80 -310h-248v-186h246v-989h278v989h703v-989h278v989h601v-989h279z" />
    <glyph glyph-name="f_t" unicode="ft" horiz-adv-x="1798" 
d="M1724 199l13 -165q-55 -25 -127 -43q-88 -22 -189 -22q-191 0 -295 71q-91 60 -123 182q-24 90 -24 248v519h-200h-224v-989h-278v989h-246v186h248q8 215 80 310q88 116 304 116q170 0 329 -49l-29 -161q-56 13 -94 17q-61 7 -126 7q-58 0 -93.5 -14.5t-56.5 -44.5
q-35 -51 -37 -181h404h19v284h278v-284h464v-186h-464v-539q0 -129 36 -195q50 -93 179 -93q94 0 157 13q30 5 52 12z" />
    <glyph glyph-name="f_f_j" unicode="ffj" horiz-adv-x="2583" 
d="M1964 1552q-159 49 -329 49q-216 0 -304 -116q-72 -95 -80 -310h-692q2 130 37 181q21 30 56.5 44.5t93.5 14.5q65 0 126 -7q38 -4 94 -17l29 161q-159 49 -329 49q-216 0 -304 -116q-72 -95 -80 -310h-248v-186h246v-989h278v989h691v-989h278v989h585v-863
q0 -99 -6 -158.5t-25 -100.5q-14 -30 -37.5 -50t-60 -30t-86.5 -10q-130 0 -238 33l-28 -165q52 -21 126 -37q103 -22 208 -22q252 0 350 151q29 45 46.5 106.5t23.5 124.5t6 145v1062h-863q2 130 36 181q40 59 150 59q65 0 126 -7q40 -5 95 -17z" />
    <glyph glyph-name="f_j" unicode="fj" horiz-adv-x="1618" 
d="M31 989h246v-989h278v989h607v-863q0 -99 -6 -158.5t-25 -100.5q-21 -46 -65 -68t-119 -22q-130 0 -238 33l-28 -165q52 -21 126 -37q103 -22 208 -22q252 0 350 151q43 66 59.5 158.5t16.5 217.5v1062h-885q2 130 36 181q40 59 150 59q65 0 126 -7q40 -5 95 -17l29 161
q-159 49 -329 49q-216 0 -304 -116q-72 -95 -80 -310h-248v-186z" />
    <glyph glyph-name=".notdef" horiz-adv-x="2119" 
 />
    <glyph glyph-name=".null" horiz-adv-x="0" 
 />
    <glyph glyph-name="uni000D" unicode="&#xd;" horiz-adv-x="0" 
 />
    <glyph glyph-name="NULL" horiz-adv-x="0" 
 />
    <glyph glyph-name="NULL" horiz-adv-x="0" 
 />
    <glyph glyph-name="space" unicode=" " horiz-adv-x="858" 
 />
    <glyph glyph-name="exclam" unicode="!" horiz-adv-x="768" 
d="M497 392l34 1121h-297l37 -1121h226zM208 89q0 -116 171 -116q92 0 133.5 28.5t41.5 87.5q0 61 -41 89.5t-134 28.5q-59 0 -96.5 -13t-56 -39t-18.5 -66z" />
    <glyph glyph-name="quotedbl" unicode="&#x22;" horiz-adv-x="888" 
d="M353 1098l18 414h-240l16 -414h206zM755 1098l17 414h-240l16 -414h207z" />
    <glyph glyph-name="numbersign" unicode="#" horiz-adv-x="1779" 
d="M1613 579h-288l91 373h287l23 170h-268l97 396h-222l-97 -396h-460l97 396h-225l-96 -396h-335l-23 -170h316l-91 -373h-316l-23 -171h298l-99 -408h222l100 408h461l-99 -408h221l99 408h306zM734 952h461l-91 -373h-461z" />
    <glyph glyph-name="dollar" unicode="$" horiz-adv-x="1708" 
d="M1478 699q129 -100 129 -279q0 -219 -192 -335q-149 -90 -399 -109v-163h-241v159q-302 17 -485 144q-97 67 -147 157.5t-50 196.5h272q0 -72 43 -135q50 -75 152 -116q123 -50 305 -50q231 0 346 67q108 63 108 174q0 97 -83 151q-74 47 -238 74l-397 67
q-234 40 -347.5 138.5t-113.5 271.5q0 85 38 162t117 135q164 119 480 132v168h241v-176q239 -24 382 -125q173 -123 192 -345h-256q-20 132 -117 199q-118 81 -370 81q-225 0 -333 -77q-85 -61 -85 -153t70 -143q67 -49 224 -73l382 -62q254 -44 373 -136z" />
    <glyph glyph-name="percent" unicode="%" horiz-adv-x="2651" 
d="M107 980q0 -117 38 -206q46 -109 144 -169q113 -71 292 -71q183 0 296 70q96 60 141 172q36 91 36 216v91q0 128 -34 217q-43 110 -140 171q-112 69 -299 69q-186 0 -298 -69q-97 -61 -141 -172q-35 -88 -35 -216v-103zM1938 1521h-254l-1005 -1521h256zM581 700
q-143 0 -207 103q-46 72 -46 187v108q0 72 14 120q19 70 70 109q63 48 169 48q154 0 214 -99q38 -64 38 -180v-123q0 -118 -45 -183q-61 -90 -207 -90zM1585 416q0 -117 38 -206q46 -109 144 -169q113 -71 292 -71q183 0 296 70q96 60 141 172q36 91 36 216v91
q0 128 -34 217q-43 110 -140 171q-112 69 -299 69q-186 0 -298 -69q-97 -61 -141 -172q-35 -88 -35 -216v-103zM2059 136q-143 0 -207 103q-46 72 -46 187v108q0 72 14 120q19 70 70 109q63 48 169 48q154 0 214 -99q38 -64 38 -180v-123q0 -118 -45 -183q-61 -90 -207 -90z
" />
    <glyph glyph-name="ampersand" unicode="&#x26;" horiz-adv-x="1681" 
d="M1228 1512h-441q-339 0 -490 -95q-77 -48 -113.5 -124.5t-36.5 -185.5q0 -161 92 -247q83 -79 248 -96q-179 -10 -272 -97q-87 -81 -87 -220q0 -126 31 -213.5t103 -144.5q76 -60 204 -89.5t324 -29.5q326 0 496 129q157 120 157 343v222h162v194h-162v144h-278v-144
l-414 1q-137 0 -219 45q-97 53 -97 159v26q0 118 80 167q78 48 257 48h456v208zM790 179q-211 0 -291 54q-44 30 -63.5 79.5t-19.5 125.5v29q0 103 94 154q76 42 210 42h445v-207q0 -135 -88 -204q-93 -73 -287 -73z" />
    <glyph glyph-name="quotesingle" unicode="'" horiz-adv-x="582" 
d="M394 1098l17 414h-240l16 -414h207z" />
    <glyph glyph-name="parenleft" unicode="(" horiz-adv-x="1017" 
d="M847 -100v188h-54q-167 0 -240 109q-64 95 -64 283v555q0 183 60 280q73 117 244 117h54v187h-72q-226 0 -361 -86q-114 -72 -164 -211q-39 -108 -39 -264v-597q0 -162 40 -269q50 -136 166 -208q132 -84 358 -84h72z" />
    <glyph glyph-name="parenright" unicode=")" horiz-adv-x="991" 
d="M231 -100q227 0 360 84q115 72 165 208q40 107 40 269v597q0 159 -38 264q-50 138 -164 211q-136 86 -362 86h-72v-187h53q170 0 245 -117q60 -95 60 -280v-555q0 -190 -64 -283q-74 -109 -241 -109h-53v-188h71z" />
    <glyph glyph-name="asterisk" unicode="*" horiz-adv-x="1031" 
d="M751 776l121 119l-220 207l287 75l-47 163l-301 -114l15 292h-170l14 -291l-300 113l-47 -163l290 -76l-220 -206l121 -119l228 263z" />
    <glyph glyph-name="plus" unicode="+" horiz-adv-x="1111" 
d="M448 191h210v336h369v182h-369v335h-210v-335h-369v-182h369v-336z" />
    <glyph glyph-name="comma" unicode="," horiz-adv-x="774" 
d="M212 97q0 -116 171 -116q-8 -45 -29 -79q-23 -36 -72 -82l131 -53q61 49 101 118q48 86 48 188q0 68 -41 103q-47 39 -140 39q-85 0 -127 -29t-42 -89z" />
    <glyph glyph-name="hyphen" unicode="-" horiz-adv-x="1102" 
d="M1023 500v181h-941v-181h941z" />
    <glyph glyph-name="period" unicode="." horiz-adv-x="792" 
d="M218 93q0 -59 40.5 -87t130.5 -28q63 0 102 13t56.5 38t17.5 64q0 62 -41 90.5t-135 28.5q-90 0 -130.5 -29t-40.5 -90z" />
    <glyph glyph-name="slash" unicode="/" horiz-adv-x="1313" 
d="M1271 1590h-257l-970 -1670h258z" />
    <glyph glyph-name="zero" unicode="0" horiz-adv-x="1791" 
d="M86 650q0 -175 83 -323q91 -164 263 -254q193 -103 465 -103q273 0 464 102q171 90 263 253q83 148 83 326v209q0 176 -82 324q-91 162 -262 255q-193 103 -466 103q-398 0 -616 -206q-97 -92 -146 -214.5t-49 -261.5v-210zM897 1334q241 0 383 -128q68 -61 104 -146.5
t36 -187.5v-234q0 -104 -38.5 -189.5t-108.5 -146.5q-144 -124 -376 -124q-245 0 -388 137q-66 63 -100 145t-34 175v233q0 212 140 338q142 128 382 128z" />
    <glyph glyph-name="one" unicode="1" horiz-adv-x="1026" 
d="M793 0v1514h-254q-99 -66 -229 -117q-155 -61 -314 -84v-209q147 18 294 65q129 40 219 91v-1260h284z" />
    <glyph glyph-name="two" unicode="2" horiz-adv-x="1605" 
d="M1506 0v207h-1028q39 107 205 220q114 78 349 196q228 111 335 211q138 128 138 288q0 199 -178 309q-180 111 -504 111q-357 0 -525 -142q-143 -120 -143 -332v-21h271v18q0 112 77 181q98 88 311 88q191 0 300 -63q104 -63 104 -170q0 -101 -117 -200
q-91 -76 -290 -180q-11 -6 -68.5 -36.5t-75 -40t-64.5 -35.5t-72 -41t-60.5 -37.5t-64.5 -43.5q-201 -144 -265 -306v-181h1365z" />
    <glyph glyph-name="three" unicode="3" horiz-adv-x="1614" 
d="M1479 445q0 147 -87 228q-90 84 -284 109q168 21 256 92q99 80 99 239v9q0 420 -671 420q-344 0 -509 -122q-148 -110 -148 -321v-34h263v24q0 114 99 178q103 67 295 67q178 0 268 -45q115 -58 115 -188q0 -116 -101 -170q-94 -50 -286 -50h-178v-207h180q186 0 287 -40
q116 -47 116 -160v-47q0 -73 -25.5 -120.5t-77.5 -76.5q-91 -51 -302 -51q-197 0 -302 62q-104 60 -104 164v37h-261v-35q0 -208 165 -319q172 -118 502 -118q380 0 540 114q53 38 87 90.5t49 117t15 146.5v7z" />
    <glyph glyph-name="four" unicode="4" horiz-adv-x="1638" 
d="M668 1512l-589 -1118v-145h933v-249h282v249h267v207h-267v412h-282v-412h-606l565 1056h-303z" />
    <glyph glyph-name="five" unicode="5" horiz-adv-x="1675" 
d="M1565 516q0 248 -161 367q-154 113 -454 113q-156 0 -284 -26q-118 -24 -183 -64l30 399h945v207h-1220l-54 -865h264l2 32q45 60 172 88q103 23 251 23q231 0 329 -95q73 -70 73 -193v-17q0 -168 -120 -243q-103 -64 -303 -64q-203 0 -310 72q-100 66 -100 182v13h-263
v-37q0 -191 162 -308q180 -130 523 -130q367 0 538 138q163 132 163 401v7z" />
    <glyph glyph-name="six" unicode="6" horiz-adv-x="1648" 
d="M838 -30q264 0 430 72q148 64 215 185q58 104 58 250v34q0 135 -45 226q-57 116 -186 178q-152 71 -404 71q-189 0 -316 -55q-119 -53 -179 -144l-1 101q-5 194 85 309q107 137 347 137q166 0 263 -47q75 -36 106 -102q20 -44 20 -100v-3h262v17q0 104 -39 186
q-56 115 -186 178q-161 79 -434 79q-287 0 -460 -111q-147 -94 -207 -263q-48 -131 -48 -311v-344q5 -154 65 -263q70 -129 220 -200q170 -80 434 -80zM852 777q219 0 322 -89q79 -70 79 -184v-20q0 -80 -30 -139q-41 -77 -123 -117q-102 -50 -262 -50q-227 0 -336 92
q-84 68 -86 173v55q5 117 103 192q114 87 333 87z" />
    <glyph glyph-name="seven" unicode="7" horiz-adv-x="1515" 
d="M1465 1343v169h-1400v-389h245v181h835l-811 -1304h299z" />
    <glyph glyph-name="eight" unicode="8" horiz-adv-x="1655" 
d="M186 1125q0 -115 51 -191q65 -96 205 -144q-161 -51 -232 -151q-62 -87 -62 -210v-26q0 -104 59 -192q74 -109 213 -169q169 -72 421 -72q253 0 422 72q140 60 213 168q59 88 59 194v29q0 117 -63 203q-74 102 -238 154q147 50 211 145q52 79 52 190v3q0 101 -41 179
q-57 105 -187 164q-160 71 -428 71q-269 0 -427 -69q-132 -57 -187 -162q-41 -76 -41 -183v-3zM842 896q-201 0 -296 74q-72 56 -72 141q0 87 70 146q93 77 297 77q202 0 296 -80q69 -59 71 -143q0 -85 -70 -141q-93 -74 -296 -74zM841 687q155 0 253 -44q80 -36 121 -98
q31 -49 31 -103v-17q0 -48 -29 -95q-39 -65 -120 -103q-101 -49 -256 -49q-154 0 -257 50q-79 38 -118 104q-29 47 -29 92v16q0 94 78 159q106 88 326 88z" />
    <glyph glyph-name="nine" unicode="9" horiz-adv-x="1648" 
d="M808 1544q-264 0 -430 -72q-147 -63 -215 -184q-59 -105 -59 -250v-34q0 -136 45 -226q59 -119 187 -178q152 -72 404 -72q190 0 316 56q118 51 178 142l2 -100q2 -199 -85 -310q-107 -136 -347 -136q-165 0 -262 47q-77 37 -107 103q-20 42 -20 99v3h-261v-18
q0 -105 39 -185q56 -115 186 -178q162 -80 433 -80q289 0 461 112q145 93 207 263q47 132 47 311v344h-1q-5 156 -64 263q-73 132 -219 201q-168 79 -435 79zM794 737q-219 0 -322 89q-79 68 -79 184v19q0 127 78 204q102 102 337 102q163 0 264 -44q84 -37 125 -103
q31 -53 33 -118v-54q-5 -117 -102 -191q-115 -88 -334 -88z" />
    <glyph glyph-name="colon" unicode=":" horiz-adv-x="604" 
d="M127 1072q0 -59 40.5 -87t130.5 -28q94 0 135 28t41 87q0 62 -41 90.5t-135 28.5q-90 0 -130.5 -29t-40.5 -90zM127 93q0 -59 40.5 -87t130.5 -28q94 0 135 28t41 87q0 62 -41 90.5t-135 28.5q-90 0 -130.5 -29t-40.5 -90z" />
    <glyph glyph-name="semicolon" unicode=";" horiz-adv-x="609" 
d="M128 1071q0 -39 17.5 -64t55.5 -38t98 -13q94 0 135 28t41 87q0 62 -41 90.5t-135 28.5q-90 0 -130.5 -29t-40.5 -90zM122 97q0 -116 171 -116q-8 -45 -29 -79q-23 -36 -72 -82l131 -53q61 49 101 118q48 86 48 188q0 68 -41 103q-47 39 -140 39q-57 0 -94 -12.5t-56 -39
t-19 -66.5z" />
    <glyph glyph-name="less" unicode="&#x3c;" horiz-adv-x="1205" 
d="M994 156v217l-598 252l598 253v217l-882 -384v-171z" />
    <glyph glyph-name="equal" unicode="=" horiz-adv-x="1347" 
d="M1167 728v182h-990v-182h990zM1167 309v182h-990v-182h990z" />
    <glyph glyph-name="greater" unicode="&#x3e;" horiz-adv-x="1205" 
d="M1072 540v171l-882 384v-217l598 -253l-598 -252v-217z" />
    <glyph glyph-name="question" unicode="?" horiz-adv-x="1375" 
d="M1286 1149q0 202 -152.5 295.5t-470.5 93.5t-469 -120q-130 -103 -130 -289v-42h257v31q0 96 77 150q87 61 265 61q182 0 261 -52q73 -51 73 -159q0 -77 -77 -152q-42 -41 -170 -132q-118 -84 -170 -146q-77 -94 -76 -196l1 -93h257l1 70q1 78 83 160q14 14 30 28
t37 30.5t34 26.5t41 31t38 28q122 92 179 163q81 101 81 213zM458 89q0 -116 171 -116q93 0 134 28.5t41 87.5q0 61 -40.5 89.5t-134.5 28.5q-59 0 -96.5 -13t-56 -39t-18.5 -66z" />
    <glyph glyph-name="at" unicode="@" horiz-adv-x="2140" 
d="M1960 159v817q0 152 -73 270q-84 134 -263 209q-207 84 -524 84q-490 0 -737 -202q-248 -201 -248 -592v-215q0 -377 242 -572q253 -205 759 -205h831v193h-752q-384 0 -586 132q-224 145 -224 453v216q0 280 167 431q183 167 550 167q313 0 462 -98q126 -83 126 -233
v-34q-45 77 -151 121q-119 49 -311 49q-234 0 -380 -87q-117 -70 -170 -197q-39 -93 -41 -213q0 -117 21 -195q38 -141 153 -223q148 -106 418 -106q198 0 309 47q103 44 152 130v-147h270zM1295 328q-223 0 -314 101q-67 73 -69 207q0 152 84 230q95 87 302 87
q226 0 319 -78q74 -64 74 -192v-70q0 -140 -77 -205q-94 -80 -319 -80z" />
    <glyph glyph-name="A" unicode="A" horiz-adv-x="1839" 
d="M299 0l180 393h881l180 -393h295l-729 1512h-373l-729 -1512h295zM896 1306h47l326 -714h-699z" />
    <glyph glyph-name="B" unicode="B" horiz-adv-x="1877" 
d="M1770 449q0 145 -108 239t-294 111q166 18 250.5 99.5t84.5 214.5v52q0 167 -139 259q-133 88 -376 88h-963v-1512h935q302 0 452 94q158 99 158 313v42zM1414 1091q0 -100 -74 -152q-82 -58 -239 -58h-591v443h627q154 0 225 -64q52 -48 52 -128v-41zM1481 442
q1 -146 -112 -200q-82 -39 -260 -39h-599v489h598q175 0 269 -52q102 -57 104 -168v-30z" />
    <glyph glyph-name="C" unicode="C" horiz-adv-x="1927" 
d="M1553 567q-39 -173 -172 -275q-151 -114 -389 -114q-281 0 -442 136q-162 136 -162 370v138q0 240 160 375q162 137 444 137q235 0 383 -107q140 -101 177 -281l283 1q-43 268 -244 424q-221 171 -596 171q-447 0 -682 -211q-107 -96 -160.5 -227.5t-53.5 -284.5v-126
q0 -153 53 -284.5t160 -227.5q234 -211 682 -211q383 0 608 182q99 80 157 186.5t77 227.5z" />
    <glyph glyph-name="D" unicode="D" horiz-adv-x="1996" 
d="M225 0h848q283 0 477 97q174 86 266 247q82 146 82 334v154q0 142 -50 265.5t-149 214.5q-220 200 -626 200h-848v-1512zM510 1305h543q259 0 411 -136q71 -64 108 -152.5t37 -193.5v-127q0 -238 -162 -368q-149 -121 -394 -121h-543v1098z" />
    <glyph glyph-name="E" unicode="E" horiz-adv-x="1716" 
d="M1599 0v207h-1092v457h985v207h-985v434h1086v207h-1368v-1512h1374z" />
    <glyph glyph-name="F" unicode="F" horiz-adv-x="1624" 
d="M1589 1305v207h-1364v-1512h285v624h966v207h-966v474h1079z" />
    <glyph glyph-name="G" unicode="G" horiz-adv-x="1936" 
d="M942 606h633l-2 -43q-25 -172 -158 -274q-155 -119 -423 -119q-286 0 -449 141q-159 138 -159 373v139q0 245 162 382t447 137q228 0 374 -96q149 -100 186 -282l278 1q-54 270 -260 420q-220 157 -576 157q-449 0 -683 -211q-107 -96 -160 -227t-53 -284v-127
q0 -205 91 -362q98 -169 290 -260q208 -101 514 -101q263 0 453 95q170 84 274 233q91 133 109 296q3 28 3 70l3 122h-894v-180z" />
    <glyph glyph-name="H" unicode="H" horiz-adv-x="2048" 
d="M510 0v654h1028v-654h286v1512h-286v-645h-1028v645h-285v-1512h285z" />
    <glyph glyph-name="I" unicode="I" horiz-adv-x="734" 
d="M510 0v1512h-285v-1512h285z" />
    <glyph glyph-name="J" unicode="J" horiz-adv-x="1379" 
d="M429 1304h510l-1 -757q0 -183 -110.5 -276t-319.5 -93q-94 0 -220 28q-112 23 -175 49l-83 -180q75 -39 211 -69q151 -36 290 -36q340 0 520 152q172 147 172 418v972h-794v-208z" />
    <glyph glyph-name="K" unicode="K" horiz-adv-x="1826" 
d="M509 0v663h387l568 -663h330l-655 773l567 739h-322l-497 -631h-378v631h-285v-1512h285z" />
    <glyph glyph-name="L" unicode="L" horiz-adv-x="1568" 
d="M1490 0v207h-983v1305h-285v-1512h1268z" />
    <glyph glyph-name="M" unicode="M" horiz-adv-x="2435" 
d="M1075 235h286l575 1048h25l-7 -85l-12 -1198h269v1512h-396l-566 -968l-25 -75h-13l-24 73l-566 970h-396v-1512h269l-12 1198l-7 85h23z" />
    <glyph glyph-name="N" unicode="N" horiz-adv-x="2048" 
d="M1824 0v1512h-273l5 -1124l7 -71h-12l-1030 1195h-296v-1512h273l-5 1098l-8 82h12l1025 -1180h302z" />
    <glyph glyph-name="O" unicode="O" horiz-adv-x="1989" 
d="M99 693q0 -153 53 -284t160 -227q233 -212 682 -212t683 213q107 96 160 226.5t53 283.5v125q0 153 -53 284t-159 228q-235 212 -683 212q-449 0 -683 -211q-107 -97 -160 -228.5t-53 -284.5v-125zM994 178q-283 0 -444 136q-162 136 -162 371v137q0 240 161 376t445 136
t446 -136q161 -136 161 -376v-136q0 -236 -161 -372q-162 -136 -446 -136z" />
    <glyph glyph-name="P" unicode="P" horiz-adv-x="1797" 
d="M1728 1065q0 213 -158 330q-160 117 -455 117h-890v-1512h284v511h600q307 0 463 124t156 359v71zM1439 999q0 -140 -82 -208q-88 -73 -290 -73h-558v587h578q190 0 276 -69q76 -62 76 -188v-49z" />
    <glyph glyph-name="Q" unicode="Q" horiz-adv-x="1989" 
d="M99 693q0 -292 180 -479q94 -99 236.5 -159.5t335.5 -77.5v-273h287v273q377 33 573 239q179 186 179 477v125q0 153 -53 284t-159 228q-235 212 -683 212q-449 0 -683 -211q-107 -97 -160 -228.5t-53 -284.5v-125zM994 178q-283 0 -444 136q-162 136 -162 371v137
q0 240 161 376t445 136t446 -136q161 -136 161 -376v-136q0 -236 -161 -372q-162 -136 -446 -136z" />
    <glyph glyph-name="R" unicode="R" horiz-adv-x="1877" 
d="M1728 1060q0 219 -145.5 335.5t-421.5 116.5h-936v-1512h284v584h499q125 -6 202 -50t105 -135l72 -225q32 -117 79 -174h304q-58 69 -98 203l-67 210q-30 96 -72 146q-47 54 -132 89q150 44 233 129q94 96 94 247v36zM1439 1043q0 -125 -94.5 -188.5t-280.5 -63.5h-555
v523h640q158 0 230 -74q60 -63 60 -176v-21z" />
    <glyph glyph-name="S" unicode="S" horiz-adv-x="1660" 
d="M1580 420q0 179 -129 279q-119 92 -373 136l-382 62q-157 24 -224 73q-70 51 -70 143t85 153q108 77 333 77q252 0 370 -81q97 -67 117 -199h256q-19 222 -192 345q-191 134 -553 134q-367 0 -550 -133q-79 -58 -117 -135t-38 -162q0 -116 51.5 -198.5t152.5 -133.5
t257 -78l397 -67q164 -27 238 -74q83 -54 83 -151q0 -111 -108 -174q-115 -67 -346 -67q-182 0 -305 50q-102 41 -152 116q-43 63 -43 135h-272q0 -106 50 -196.5t147 -157.5q211 -146 573 -146q361 0 552 115q192 116 192 335z" />
    <glyph glyph-name="T" unicode="T" horiz-adv-x="1587" 
d="M1592 1305v207h-1596v-207h655v-1305h285v1305h656z" />
    <glyph glyph-name="U" unicode="U" horiz-adv-x="1942" 
d="M1499 1512v-878q0 -201 -115 -319q-134 -137 -412 -137q-270 0 -407 134q-122 119 -122 318v882h-285v-881q0 -175 71 -314q82 -160 251 -247q193 -100 490 -100q298 0 491 102q168 88 251 248q71 136 71 311v881h-284z" />
    <glyph glyph-name="V" unicode="V" horiz-adv-x="1818" 
d="M1528 1512l-599 -1315h-43l-598 1315h-296l726 -1512h381l727 1512h-298z" />
    <glyph glyph-name="W" unicode="W" horiz-adv-x="2583" 
d="M521 0h358v1l4 -1l393 1186l9 52h13l10 -51l391 -1187h362l506 1512h-295l-372 -1180l-20 -131h-20l-23 130l-388 1181h-315l-389 -1180l-23 -131h-21l-19 129l-372 1182h-295z" />
    <glyph glyph-name="X" unicode="X" horiz-adv-x="1767" 
d="M53 1512l642 -737l-694 -775h332l549 622l552 -622h332l-693 776l640 736h-332l-496 -586l-500 586h-332z" />
    <glyph glyph-name="Y" unicode="Y" horiz-adv-x="1701" 
d="M1739 1512h-328l-560 -759l-563 759h-328l748 -974v-538h285v538z" />
    <glyph glyph-name="Z" unicode="Z" horiz-adv-x="1658" 
d="M1594 0v207h-1183l1143 1120v185h-1429v-207h1082l-1143 -1110v-195h1530z" />
    <glyph glyph-name="bracketleft" unicode="[" horiz-adv-x="954" 
d="M821 -100v187h-357v1345h357v187h-635v-1719h635z" />
    <glyph glyph-name="backslash" unicode="\" horiz-adv-x="1313" 
d="M1013 -80h258l-971 1670h-256z" />
    <glyph glyph-name="bracketright" unicode="]" horiz-adv-x="970" 
d="M757 -100v1719h-634v-187h356v-1345h-356v-187h634z" />
    <glyph glyph-name="asciicircum" unicode="^" horiz-adv-x="1935" 
d="M1166 1512h-398l-571 -749h276l475 575h37l477 -575h276z" />
    <glyph glyph-name="underscore" unicode="_" horiz-adv-x="1509" 
d="M1467 -202v170h-1415v-170h1415z" />
    <glyph glyph-name="grave" unicode="`" horiz-adv-x="918" 
d="M181 1550l323 -267h216l-270 267h-269z" />
    <glyph glyph-name="a" unicode="a" horiz-adv-x="1660" 
d="M1486 0v653q0 151 -46 259q-60 136 -192 208q-159 85 -417 85q-252 0 -407 -70q-127 -57 -193 -159q-46 -73 -62 -175h266q21 97 91 149q95 70 294 70q219 0 311 -95q76 -79 76 -234v-58q-103 38 -203 61q-165 37 -305 37q-221 0 -355 -56q-119 -50 -171 -140
q-45 -75 -45 -172q0 -94 40 -169q54 -101 168 -156q139 -68 364 -68q173 0 317 76q69 36 118 84t72 104v-234h279zM775 156q-212 0 -304 80q-64 55 -64 138q0 47 21 85q26 50 95 82q80 37 222 37q116 0 272 -37q120 -30 190 -62v-48q-7 -33 -32.5 -78t-70.5 -86
q-126 -111 -329 -111z" />
    <glyph glyph-name="b" unicode="b" horiz-adv-x="1693" 
d="M470 0v193q136 -224 498 -224q152 0 273.5 46t205.5 129q81 81 124 188.5t43 228.5v53q0 123 -42.5 230.5t-124.5 188.5q-84 82 -205 127t-274 45q-358 0 -498 -225v588h-278v-1568h278zM904 1013q212 0 328 -123q51 -54 76.5 -125.5t25.5 -149.5v-56q0 -170 -106 -279
q-117 -119 -324 -119q-224 0 -335 119q-99 105 -99 286v57q5 171 98 271q111 119 336 119z" />
    <glyph glyph-name="c" unicode="c" horiz-adv-x="1580" 
d="M1495 751q-38 206 -190 321q-177 133 -492 133q-360 0 -551 -167q-88 -77 -132 -184t-44 -233v-66q0 -126 43.5 -233t131.5 -184q192 -169 552 -169q321 0 499 137q153 118 186 320h-257q-33 -127 -129 -192q-110 -73 -302 -73q-218 0 -337 121q-54 53 -81 122.5
t-27 145.5v76q0 161 104 266q121 121 341 121q195 0 303 -73q96 -65 128 -189h254z" />
    <glyph glyph-name="d" unicode="d" horiz-adv-x="1697" 
d="M1508 0v1568h-279v-586q-68 105 -181 162q-127 61 -311 61q-305 0 -483 -168q-82 -78 -125 -185.5t-43 -233.5v-61q0 -125 43 -232t125 -186q176 -170 482 -170q186 0 312 62q112 55 181 162v-193h279zM1229 566q0 -176 -97 -283q-111 -122 -332 -122q-213 0 -331 121
q-103 106 -103 279v52q0 168 103 277q116 123 331 123q222 0 334 -123q95 -108 95 -288v-36z" />
    <glyph glyph-name="e" unicode="e" horiz-adv-x="1564" 
d="M1485 519q3 51 3 54q11 290 -157 458q-176 174 -516 174q-363 0 -553 -166q-176 -153 -176 -417v-40q0 -285 171 -442q187 -171 563 -171q201 0 350 62q127 53 206 153q67 83 93 194l-261 1q-20 -88 -113 -152q-108 -74 -280 -74q-222 0 -343 114q-53 50 -79.5 115.5
t-27.5 136.5h1120zM365 695q5 77 45 150q45 82 137 132q104 57 259 57q207 0 312 -97q96 -89 104 -252v-6h-857v16z" />
    <glyph glyph-name="f" unicode="f" horiz-adv-x="995" 
d="M995 1552q-159 49 -329 49q-216 0 -304 -116q-72 -95 -80 -310h-248v-186h246v-989h278v989h405v186h-404q2 130 37 181q21 30 56.5 44.5t93.5 14.5q65 0 126 -7q38 -4 94 -17z" />
    <glyph glyph-name="g" unicode="g" horiz-adv-x="1698" 
d="M1506 1175h-279v-202q-69 111 -185 169q-128 63 -307 63q-319 0 -494 -182q-52 -54 -87.5 -121t-52.5 -138t-17 -145v-38q0 -115 43.5 -218.5t125.5 -181.5q85 -82 206.5 -127t273.5 -45q184 0 314 66q115 57 180 164v-124q0 -148 -100 -235q-112 -97 -334 -97
q-112 0 -253 13q-144 12 -218 28l-25 -178q85 -17 223 -32q153 -17 304 -17q359 0 532 162q150 140 150 386v1030zM363 614q0 37 6 72.5t18 70.5t31.5 68t44.5 61q115 127 331 127q222 0 335 -120q98 -105 98 -278v-11q0 -192 -109 -296q-113 -107 -324 -107
q-204 0 -322 115q-109 106 -109 271v27z" />
    <glyph glyph-name="h" unicode="h" horiz-adv-x="1788" 
d="M470 0v551q0 105 57 211q59 112 163 178q116 74 263 74q164 0 255 -69q78 -60 107 -166q21 -76 21 -205v-574h278v579q0 162 -28 271q-43 159 -159 247q-142 108 -400 108q-189 0 -338 -82q-148 -82 -219 -228v673h-278v-1568h278z" />
    <glyph glyph-name="i" unicode="i" 
d="M155 1460q0 -56 43 -89t132 -33q60 0 100 16t57.5 42.5t17.5 63.5v2q0 53 -41 87q-45 37 -134 37q-87 0 -133 -36q-42 -32 -42 -88v-2zM471 0v1175h-279v-1175h279z" />
    <glyph glyph-name="j" unicode="j" horiz-adv-x="665" 
d="M167 1460q0 -55 42 -87q45 -35 133 -35q89 0 134 35q41 32 41 87v2q0 53 -41 87q-45 37 -134 37q-87 0 -133 -36q-42 -32 -42 -88v-2zM205 1175v-1049q0 -99 -6 -158.5t-25 -100.5q-22 -46 -66 -68t-118 -22q-128 0 -239 33l-28 -165q52 -21 126 -37q103 -22 209 -22
q174 0 272 70q87 61 124 187q29 98 29 270v1062h-278z" />
    <glyph glyph-name="k" unicode="k" horiz-adv-x="1594" 
d="M192 1568v-1568h278v507h325l440 -507h332l-552 597l483 578h-321l-372 -471h-335v864h-278z" />
    <glyph glyph-name="l" unicode="l" 
d="M470 0v1568h-278v-1568h278z" />
    <glyph glyph-name="m" unicode="m" horiz-adv-x="2688" 
d="M470 0v566q2 106 48 206q50 109 139 171q102 71 241 71q143 0 219 -65q62 -54 84 -162q13 -69 13 -204v-583h279v562q2 103 44 202q47 112 136 175q105 75 252 75q177 0 251 -113q60 -91 60 -276v-625h278v608q0 170 -29 278q-40 147 -145 226q-123 93 -346 93
q-183 0 -328 -89q-137 -86 -198 -231q-36 144 -138 223q-125 97 -349 97q-175 0 -310 -73q-134 -73 -201 -202v245h-278v-1175h278z" />
    <glyph glyph-name="n" unicode="n" horiz-adv-x="1788" 
d="M470 0v551q0 109 58 214q63 112 165 176q117 73 262 73q213 0 305 -123q76 -101 76 -300v-591h278v595q0 172 -34 281q-49 152 -165 232q-142 97 -390 97q-187 0 -337 -83q-146 -81 -218 -227v280h-278v-1175h278z" />
    <glyph glyph-name="o" unicode="o" horiz-adv-x="1632" 
d="M86 559q0 -265 172 -419q190 -171 558 -171q369 0 559 171q171 154 171 419v57q0 266 -171 420q-188 169 -559 169q-368 0 -558 -169q-172 -153 -172 -420v-57zM365 620q0 168 102 271q120 122 349 122q228 0 348 -123q102 -105 102 -271v-62q0 -170 -104 -275
q-119 -121 -346 -121t-347 122q-52 53 -78 124t-26 149v64z" />
    <glyph glyph-name="p" unicode="p" horiz-adv-x="1700" 
d="M470 -366v563q64 -107 178 -164q126 -64 310 -64q306 0 487 173q83 80 126 186.5t43 227.5v52q0 118 -41 225.5t-121 189.5q-179 182 -493 182q-180 0 -306 -63q-115 -58 -183 -171v204h-278v-1541h278zM1334 555q0 -53 -11.5 -101.5t-36 -93.5t-59.5 -80
q-119 -119 -330 -119q-205 0 -315 104q-112 104 -112 306v40q2 172 94 278q109 124 334 124q212 0 331 -122q52 -54 78.5 -126t26.5 -150v-60z" />
    <glyph glyph-name="q" unicode="q" horiz-adv-x="1700" 
d="M1506 -366v1541h-279v-203q-67 110 -183 170q-128 63 -306 63q-160 0 -284 -48t-208 -134q-80 -82 -121.5 -189.5t-41.5 -225.5v-52q0 -121 43.5 -227.5t126.5 -186.5q56 -54 128 -92.5t163.5 -59.5t195.5 -21q182 0 310 64q112 57 177 163v-562h279zM363 615
q0 78 26.5 150t79.5 126q117 122 330 122q227 0 334 -124q89 -104 94 -278v-40q0 -202 -112 -306q-110 -104 -315 -104q-212 0 -329 119q-108 107 -108 275v60z" />
    <glyph glyph-name="r" unicode="r" horiz-adv-x="1186" 
d="M470 0v550q0 107 50 206q56 111 156 172q116 72 276 72q77 0 117 -4q37 -5 74 -12l4 208q-43 8 -65 10q-37 3 -95 3q-211 0 -351 -100q-116 -85 -166 -228v298h-278v-1175h278z" />
    <glyph glyph-name="s" unicode="s" horiz-adv-x="1438" 
d="M1359 348q0 67 -20.5 118t-57.5 85t-93 59q-74 32 -179 50t-278 36q-180 17 -252 54q-67 33 -67 107q0 82 83 124t241 42q194 0 281 -66q57 -43 72 -120h244q-15 158 -149 254q-161 114 -461 114q-310 0 -459 -101q-131 -89 -131 -250q0 -82 31.5 -141.5t98.5 -100.5
q128 -79 437 -109q12 -1 62.5 -6t66.5 -6.5t50 -6t55.5 -9.5t40.5 -11q52 -17 78.5 -48t26.5 -82q0 -82 -84 -132q-97 -59 -282 -55q-182 1 -279 69q-83 55 -101 157h-243q27 -173 161 -276q162 -127 467 -128q316 -1 486 110q77 50 115.5 119.5t38.5 149.5z" />
    <glyph glyph-name="t" unicode="t" horiz-adv-x="1098" 
d="M249 1459v-284h-200v-186h200v-519q0 -158 24 -248q32 -122 123 -182q104 -71 295 -71q101 0 189 22q72 18 127 43l-13 165l-43 -12q-22 -7 -52 -12q-63 -13 -157 -13q-129 0 -179 93q-36 66 -36 195v539h464v186h-464v284h-278z" />
    <glyph glyph-name="u" unicode="u" horiz-adv-x="1788" 
d="M1321 1175v-551q0 -111 -57 -213q-61 -111 -165 -177q-117 -73 -262 -73q-214 0 -305 123q-76 101 -76 300v591h-279v-595q0 -167 35 -281q46 -150 166 -232q141 -97 388 -97q188 0 337 82q148 82 218 226v-278h279v1175h-279z" />
    <glyph glyph-name="v" unicode="v" horiz-adv-x="1529" 
d="M1203 1175l-419 -988h-39l-419 988h-299l558 -1175h360l557 1175h-299z" />
    <glyph glyph-name="w" unicode="w" horiz-adv-x="2325" 
d="M1994 1175l-289 -992h-40l-326 992h-353l-326 -992h-40l-288 992h-290l394 -1175h392l323 967h22l324 -967h392l394 1175h-289z" />
    <glyph glyph-name="x" unicode="x" horiz-adv-x="1455" 
d="M1117 0h327l-543 609l487 566h-305l-347 -422l-346 422h-305l487 -566l-543 -609h327l380 455z" />
    <glyph glyph-name="y" unicode="y" horiz-adv-x="1525" 
d="M1200 1175l-442 -986l-435 986h-298l578 -1175h73l-31 -75q-68 -152 -228 -237l98 -141q92 28 182 105q108 93 168 222l635 1301h-300z" />
    <glyph glyph-name="z" unicode="z" horiz-adv-x="1441" 
d="M1340 0v191h-915l903 813l2 171h-1169v-192h843l-903 -811v-172h1239z" />
    <glyph glyph-name="braceleft" unicode="{" horiz-adv-x="1086" 
d="M59 854v-193q93 -9 147.5 -22.5t85 -38.5t43 -62.5t12.5 -97.5q0 -37 -16 -109q-16 -74 -16 -117q0 -171 139 -248q130 -72 412 -72h107v188h-107q-175 0 -234 48q-25 21 -33.5 49t-8.5 70q0 26 15 129t15 132q0 108 -65 166q-75 65 -237 81q158 12 233 79q70 62 68 168
q0 43 -14 129q-15 81 -15 124q0 45 7.5 74t32.5 51q58 50 237 50h106v187h-107q-281 0 -412 -71q-139 -76 -139 -248q0 -43 16 -117t16 -109q-1 -40 -5.5 -68.5t-16.5 -52.5t-33 -41q-31 -26 -86.5 -39.5t-146.5 -18.5z" />
    <glyph glyph-name="bar" unicode="|" horiz-adv-x="796" 
d="M533 -82v1685h-263v-1685h263z" />
    <glyph glyph-name="braceright" unicode="}" horiz-adv-x="1088" 
d="M1026 854q-91 5 -146 18.5t-86 39.5q-30 25 -42.5 63.5t-13.5 98.5q0 35 16 109q15 69 15 117q0 173 -138 248q-131 71 -412 71h-106v-187h106q179 0 237 -50q24 -22 31.5 -51t7.5 -74q0 -38 -14 -124q-15 -81 -15 -129q-2 -107 67 -168q75 -68 234 -79
q-163 -16 -236 -81q-67 -58 -65 -166q0 -29 15 -132q14 -110 14 -129q0 -41 -8.5 -69.5t-33.5 -49.5q-59 -48 -234 -48h-106v-188h106q281 0 411 72q139 77 139 248q0 48 -15 117q-16 72 -16 109q0 59 12.5 97t43.5 63t85.5 38.5t146.5 22.5v193z" />
    <glyph glyph-name="asciitilde" unicode="~" horiz-adv-x="1006" 
d="M817 670q-39 -36 -69.5 -53.5t-64.5 -17.5q-23 0 -49.5 6t-43.5 12.5t-49 19.5l-3 1.5t-3 1t-4 1.5q-107 41 -177 41q-78 0 -144 -53q-47 -38 -105 -126l104 -37q71 71 148 71q10 0 20 -1t17.5 -2t20 -4.5t17.5 -5t19 -7t17 -6.5t20 -7.5t18 -7.5q33 -13 53.5 -20
t54.5 -14t67 -7q82 0 144 54q44 37 96 126z" />
    <glyph glyph-name="uni00A0" unicode="&#xa0;" horiz-adv-x="416" 
 />
    <glyph glyph-name="exclamdown" unicode="&#xa1;" horiz-adv-x="770" 
d="M208 1093q0 -40 18.5 -66t56 -39t96.5 -13q93 0 134 28.5t41 89.5q0 59 -41.5 87t-133.5 28q-87 0 -129 -28.5t-42 -86.5zM271 790l-37 -1121h297l-34 1121h-226z" />
    <glyph glyph-name="cent" unicode="&#xa2;" horiz-adv-x="1574" 
d="M1238 426h257q-33 -202 -186 -320q-134 -103 -353 -129v-164h-240v159q-291 20 -458 166q-88 77 -131.5 184t-43.5 233v66q0 126 44 233t132 184q164 144 457 164v175h240v-180q211 -24 346 -125q152 -115 190 -321h-254q-32 124 -128 189q-108 73 -303 73
q-220 0 -341 -121q-104 -105 -104 -266v-76q0 -76 27 -145.5t81 -122.5q119 -121 337 -121q192 0 302 73q96 65 129 192z" />
    <glyph glyph-name="sterling" unicode="&#xa3;" horiz-adv-x="1484" 
d="M437 1121q0 98 84 153q92 60 280 60q168 0 255 -74q72 -63 74 -162l243 1q-5 203 -127 311q-146 130 -460 130q-310 0 -475 -100q-161 -98 -161 -283q0 -69 13 -122q23 -100 78 -199q15 -25 48 -85h-191v-143h254q10 -33 10 -70q0 -112 -52 -193q-55 -85 -177 -154v-193
q74 8 111 11q110 12 199 12q102 0 312 -25q202 -26 308 -26q102 0 195 26q76 22 147 58l-73 175q-77 -32 -145.5 -47t-153.5 -15q-77 0 -145 13q-73 14 -139 24q-168 27 -287 -9q88 65 132.5 160.5t44.5 209.5q0 22 -3 43h443v143h-493q-18 37 -49 89q-25 43 -48 90
q-52 108 -52 191z" />
    <glyph glyph-name="currency" unicode="&#xa4;" horiz-adv-x="981" 
d="M58 380l114 -110l105 113q96 -49 223 -49q116 0 214 45l103 -109l115 110l-91 97q66 78 66 188q0 108 -69 193l94 100l-115 111l-107 -115q-99 44 -210 44q-119 0 -218 -48l-110 119l-114 -111l100 -108q-63 -80 -63 -186q0 -103 59 -181zM280 664q0 71 62 117
q63 47 158 47q93 0 159 -48q63 -46 63 -116q0 -69 -62 -115q-65 -47 -160 -47t-158 47q-62 43 -62 115z" />
    <glyph glyph-name="yen" unicode="&#xa5;" horiz-adv-x="1695" 
d="M1736 1512l-676 -883h348v-123h-418v-138h418v-123h-418v-245h-285v245h-422v123h422v138h-422v123h352l-678 883h328l563 -759l560 759h328z" />
    <glyph glyph-name="brokenbar" unicode="&#xa6;" horiz-adv-x="804" 
d="M535 826v777h-263v-777h263zM272 707v-789h263v789h-263z" />
    <glyph glyph-name="section" unicode="&#xa7;" horiz-adv-x="1438" 
d="M132 785q0 -77 33 -136q65 -118 276 -175q40 -11 84 -20t94.5 -15.5t80 -10t83 -9t61.5 -6.5q67 -7 119 -23t78 -46t26 -79q0 -81 -83 -132q-94 -57 -276 -56q-175 1 -277 73q-84 57 -104 153l-222 -7q27 -165 156 -262q155 -119 449 -120q304 -1 468 104
q75 48 112.5 114t37.5 142q0 134 -89 204q93 87 93 212q0 96 -43.5 160t-127.5 105q-52 25 -124.5 43.5t-144 30t-172.5 22.5q-176 17 -252 56q-71 36 -71 108q0 80 84.5 124t242.5 44q190 0 287 -79q63 -51 79 -132l218 10q-23 155 -144 248q-152 117 -449 117t-446 -97
q-133 -86 -133 -238q0 -131 92 -204q-96 -90 -96 -223zM718 604q-187 19 -261 64q-69 42 -69 121q0 77 68 124q85 -19 238 -37q104 -11 167 -21t109 -28q106 -41 106 -144q0 -73 -65 -118q-89 17 -293 39z" />
    <glyph glyph-name="dieresis" unicode="&#xa8;" horiz-adv-x="1116" 
d="M90 1415q0 -52 36 -77t112 -25q86 0 124 26q33 22 33 76q0 56 -33 79q-38 26 -124 26q-52 0 -84.5 -11.5t-48 -34.5t-15.5 -59zM592 1415q0 -52 35.5 -77t112.5 -25q86 0 123 26q33 22 33 76q0 56 -33 79q-37 26 -123 26q-52 0 -84.5 -11.5t-48 -34.5t-15.5 -59z" />
    <glyph glyph-name="copyright" unicode="&#xa9;" horiz-adv-x="2327" 
d="M2230 764q0 125 -33 233t-96 195t-156 154q-284 204 -793 204q-508 0 -789 -204q-139 -100 -211 -247.5t-72 -335.5v-40q0 -381 280 -588q278 -205 790 -205q514 0 797 205q283 206 283 586v43zM1151 1389q416 0 636 -161q220 -162 220 -462v-47q0 -306 -217 -466
q-220 -162 -640 -162q-422 0 -635 164q-212 161 -212 466v45q0 301 213 461q215 162 635 162zM1656 854q-29 150 -137 234q-129 98 -362 98q-262 0 -404 -122q-127 -111 -127 -293v-47q0 -182 127 -293q141 -123 404 -123q235 0 365 96q110 81 137 228l-194 8
q-24 -92 -93 -136q-77 -51 -217 -51q-158 0 -242 82q-76 73 -76 188v49q0 116 75 187q85 82 243 82q139 0 218 -52q71 -47 92 -134z" />
    <glyph glyph-name="ordfeminine" unicode="&#xaa;" horiz-adv-x="1193" 
d="M1057 778v743h-231v-97q-47 55 -113 84q-77 32 -177 32q-227 0 -332 -107q-93 -94 -93 -263v-48q0 -172 99 -262q107 -101 334 -101q188 0 282 114v-95h231zM585 924q-78 0 -133.5 23t-84 66.5t-28.5 104.5v53q0 103 63 154t183 51q126 0 188 -59q50 -50 50 -130v-98
q0 -76 -62.5 -120.5t-175.5 -44.5zM153 520h909v163h-909v-163z" />
    <glyph glyph-name="guillemotleft" unicode="&#xab;" horiz-adv-x="1438" 
d="M752 188l-399 402l399 404h-266l-391 -404l391 -402h266zM1309 188l-399 402l399 404h-266l-391 -404l391 -402h266z" />
    <glyph glyph-name="logicalnot" unicode="&#xac;" horiz-adv-x="1621" 
d="M1187 378h230v416h-1304v-182h1074v-234z" />
    <glyph glyph-name="uni00AD" unicode="&#xad;" horiz-adv-x="1192" 
d="M1116 -112v181h-941v-181h941z" />
    <glyph glyph-name="registered" unicode="&#xae;" horiz-adv-x="2310" 
d="M2230 764q0 125 -33 233t-96 195t-156 154q-284 204 -793 204q-508 0 -789 -204q-139 -100 -211 -247.5t-72 -335.5v-40q0 -381 280 -588q278 -205 790 -205q514 0 797 205q283 206 283 586v43zM1151 1389q416 0 636 -161q220 -162 220 -462v-47q0 -306 -217 -466
q-220 -162 -640 -162q-422 0 -635 164q-212 161 -212 466v45q0 301 213 461q215 162 635 162zM1622 926q0 130 -93 197.5t-272 67.5h-524v-880h176v336h275q73 -5 115 -26q51 -27 67 -80l36 -127q17 -60 51 -103h188q-37 47 -61 122l-34 116q-16 55 -42 85.5t-76 50.5
q88 26 138 77q56 58 56 142v22zM1443 914q0 -139 -213 -139h-321v289h341q104 0 151 -38q42 -34 42 -100v-12z" />
    <glyph glyph-name="macron" unicode="&#xaf;" horiz-adv-x="1246" 
d="M1016 1355v155h-790v-155h790z" />
    <glyph glyph-name="degree" unicode="&#xb0;" horiz-adv-x="752" 
d="M115 1458q0 -95 65.5 -138.5t197.5 -43.5t198 44t66 138t-66.5 138.5t-197.5 44.5q-132 0 -197.5 -44t-65.5 -139zM264 1458q0 28 13 44.5t37.5 23t63.5 6.5q59 0 87 -16.5t28 -57.5t-28 -57t-87 -16t-86.5 16t-27.5 57z" />
    <glyph glyph-name="plusminus" unicode="&#xb1;" horiz-adv-x="1349" 
d="M551 287h210v339h371v182h-371v338h-210v-338h-373v-182h373v-339zM1180 -10v181h-1024v-181h1024z" />
    <glyph glyph-name="uni00B2" unicode="&#xb2;" horiz-adv-x="1133" 
d="M1030 854v170h-647q7 32 39 60q52 47 181 110q64 30 116 57q142 71 211 134q95 85 95 182q0 132 -113 203.5t-338 71.5q-247 0 -363 -79q-106 -72 -106 -215v-44h231v39q0 55 42 86q55 40 193 40q118 0 173 -31.5t55 -92.5q0 -32 -30 -62q-53 -55 -192 -119
q-44 -19 -129 -59q-168 -76 -242 -128q-110 -77 -110 -154v-169h934z" />
    <glyph glyph-name="uni00B3" unicode="&#xb3;" horiz-adv-x="1125" 
d="M1019 1118q0 118 -68 176q-58 49 -175 60q108 8 166 56q63 50 63 142q0 149 -107 218q-110 70 -348 70q-260 0 -360 -83q-45 -37 -63 -91.5t-18 -129.5v-15l219 1v31q0 65 45 94q48 30 176 30q126 0 180 -33q48 -30 48 -96v-15q0 -57 -72 -86q-63 -25 -172 -25h-89v-143
h141q94 0 143 -22q63 -28 63 -99v-49q0 -59 -65 -85q-62 -25 -177 -25q-142 0 -198 45q-35 27 -35 81v26h-218v-20q0 -160 110 -230q108 -69 344 -69q216 0 334 62q133 70 133 224z" />
    <glyph glyph-name="acute" unicode="&#xb4;" horiz-adv-x="1166" 
d="M576 1550l-251 -267h218l309 267h-276z" />
    <glyph glyph-name="uni00B5" unicode="&#xb5;" horiz-adv-x="1782" 
d="M189 1175v-1540h278v619q85 -134 230 -208q146 -76 325 -76q248 0 390 97q116 80 165 233q34 109 34 280v595h-278v-590q0 -200 -76 -301q-91 -122 -305 -122q-145 0 -262 73q-103 64 -165 177q-58 104 -58 213v550h-278z" />
    <glyph glyph-name="paragraph" unicode="&#xb6;" horiz-adv-x="1843" 
d="M1056 -369v1886h-263q-409 0 -577 -120q-55 -39 -89.5 -93.5t-49.5 -119t-15 -146.5q0 -119 39.5 -203.5t124.5 -140.5q173 -114 567 -118v-945h263zM1589 -369v1886h-265v-1886h265z" />
    <glyph glyph-name="periodcentered" unicode="&#xb7;" horiz-adv-x="760" 
d="M201 585q0 -59 40.5 -87t130.5 -28q63 0 102 13t56.5 38t17.5 64q0 62 -41 90.5t-135 28.5q-90 0 -130.5 -29t-40.5 -90z" />
    <glyph glyph-name="cedilla" unicode="&#xb8;" horiz-adv-x="1015" 
d="M253 -335q69 -31 117 -44q68 -19 150 -19q135 0 209.5 46t74.5 137q0 70 -70 117q-71 46 -169 46h-9q-4 -1 -12 -1h-15l1 90h-148l-1 -196q39 6 81 6q44 0 76 -7q78 -15 78 -56q0 -28 -28 -46t-94 -18q-52 0 -96.5 11t-108.5 35z" />
    <glyph glyph-name="uni00B9" unicode="&#xb9;" horiz-adv-x="823" 
d="M48 1518q181 24 325 95v-759h223v967h-190q-60 -40 -155 -81q-102 -44 -203 -66v-156z" />
    <glyph glyph-name="ordmasculine" unicode="&#xba;" horiz-adv-x="1182" 
d="M146 1170q0 -111 34 -194q41 -100 134 -155q106 -64 278 -64q176 0 282 64q91 55 130 158q32 84 32 203v22q0 123 -31 204q-40 104 -129 158q-105 62 -284 62q-180 0 -284 -63q-93 -56 -131 -157q-31 -81 -31 -203v-35zM592 913q-141 0 -198 92q-39 61 -39 174v42
q0 69 14 112q19 64 66 98q57 42 157 42q144 0 199 -88q37 -59 37 -167v-57q0 -112 -42 -170q-56 -78 -194 -78zM122 507h932v165h-932v-165z" />
    <glyph glyph-name="guillemotright" unicode="&#xbb;" horiz-adv-x="1438" 
d="M361 188l390 402l-390 404h-266l398 -404l-398 -402h266zM917 188l392 402l-392 404h-265l399 -404l-399 -402h265z" />
    <glyph glyph-name="onehalf" unicode="&#xbd;" horiz-adv-x="2834" 
d="M106 1452q181 24 325 95v-759h223v967h-190q-60 -41 -155 -81q-102 -44 -203 -66v-156zM1839 1515l-180 110l-1135 -1557l187 -110zM2543 4v170h-647q7 32 39 60q52 47 181 110q64 30 116 57q142 71 211 134q95 85 95 182q0 65 -28 115.5t-83 86.5t-141 54.5t-199 18.5
q-247 0 -363 -79q-106 -72 -106 -215v-44h231v39q0 55 42 86q55 40 193 40q118 0 173 -31.5t55 -92.5q0 -32 -30 -62q-53 -55 -192 -119q-44 -19 -129 -59q-168 -76 -242 -128q-110 -77 -110 -154v-169h934z" />
    <glyph glyph-name="questiondown" unicode="&#xbf;" horiz-adv-x="1375" 
d="M890 1091q0 58 -41.5 86.5t-128.5 28.5q-92 0 -133.5 -28t-41.5 -87q0 -61 41 -89.5t134 -28.5q87 0 128.5 29t41.5 89zM63 31q0 -201 153 -295t470 -94t469 121q130 103 130 289v41h-257v-31q0 -96 -76 -149q-88 -62 -266 -62q-183 0 -260 53q-74 49 -74 159
q0 76 78 152q42 40 170 131q118 84 170 146q76 91 75 196v94h-259v-71q-1 -79 -83 -159q-12 -12 -26.5 -25t-27 -23t-31 -24.5t-30 -23.5t-33.5 -25t-32 -24q-122 -92 -178 -162q-82 -102 -82 -214z" />
    <glyph glyph-name="Agrave" unicode="&#xc0;" horiz-adv-x="1839" 
d="M487 1919l323 -267h216l-270 267h-269zM299 0l180 393h881l180 -393h295l-729 1512h-373l-729 -1512h295zM896 1306h47l326 -714h-699z" />
    <glyph glyph-name="Aacute" unicode="&#xc1;" horiz-adv-x="1839" 
d="M1063 1919l-251 -267h218l309 267h-276zM299 0l180 393h881l180 -393h295l-729 1512h-373l-729 -1512h295zM896 1306h47l326 -714h-699z" />
    <glyph glyph-name="Acircumflex" unicode="&#xc2;" horiz-adv-x="1839" 
d="M753 1652l164 149l164 -149h235l-268 239h-263l-267 -239h235zM299 0l180 393h881l180 -393h295l-729 1512h-373l-729 -1512h295zM896 1306h47l326 -714h-699z" />
    <glyph glyph-name="Atilde" unicode="&#xc3;" horiz-adv-x="1839" 
d="M1224 1881q-21 -25 -38.5 -41t-43.5 -28t-54 -12q-24 0 -51.5 9t-44 18t-50.5 28q-46 25 -86 39.5t-86 14.5q-84 0 -149 -58q-54 -48 -97 -131l99 -43q35 41 69 61.5t81 20.5q9 0 17 -1t17 -3t15 -3.5t16.5 -6t15 -6.5t16 -8t14.5 -8t16.5 -9.5t15.5 -8.5
q45 -26 84 -40.5t87 -14.5q85 0 147 57q49 45 89 130zM299 0l180 393h881l180 -393h295l-729 1512h-373l-729 -1512h295zM896 1306h47l326 -714h-699z" />
    <glyph glyph-name="Adieresis" unicode="&#xc4;" horiz-adv-x="1839" 
d="M513 1757q0 -52 36 -77t112 -25q86 0 124 26q33 22 33 76q0 56 -33 79q-38 26 -124 26q-77 0 -112.5 -25.5t-35.5 -79.5zM1015 1757q0 -52 35.5 -77t112.5 -25q86 0 123 26q33 22 33 76q0 56 -33 79q-37 26 -123 26q-52 0 -84.5 -11.5t-48 -34.5t-15.5 -59zM299 0
l180 393h881l180 -393h295l-729 1512h-373l-729 -1512h295zM896 1306h47l326 -714h-699z" />
    <glyph glyph-name="Aring" unicode="&#xc5;" horiz-adv-x="1839" 
d="M656 1836q0 -95 65.5 -138.5t197.5 -43.5t198 44t66 138t-66.5 138.5t-197.5 44.5q-132 0 -197.5 -44t-65.5 -139zM805 1836q0 41 27.5 57.5t86.5 16.5t87 -16.5t28 -57.5q0 -28 -13.5 -44t-37.5 -22.5t-64 -6.5q-59 0 -86.5 16t-27.5 57zM299 0l180 393h881l180 -393
h295l-729 1512h-373l-729 -1512h295zM896 1306h47l326 -714h-699z" />
    <glyph glyph-name="AE" unicode="&#xc6;" horiz-adv-x="2620" 
d="M310 0l243 393h623v-393h1374v207h-1092v457h986v207h-986v434h1085v207h-1567l-973 -1512h307zM1117 1306h59v-714h-500z" />
    <glyph glyph-name="Ccedilla" unicode="&#xc7;" horiz-adv-x="1927" 
d="M1553 567l283 -1q-19 -121 -77 -227.5t-157 -186.5q-205 -165 -543 -181l-1 -57h15q8 0 12 1h9q98 0 169 -46q70 -47 70 -117q0 -91 -74.5 -137t-209.5 -46q-82 0 -150 19q-48 14 -117 44l36 101q64 -24 108.5 -35t96.5 -11q65 0 94 18q28 18 28 46q0 41 -78 56
q-32 7 -76 7q-42 0 -81 -6l1 164q-388 19 -599 209q-107 96 -160 227.5t-53 284.5v126q0 153 53.5 284.5t160.5 227.5q235 211 682 211q375 0 596 -171q201 -156 244 -424l-283 -1q-37 180 -177 281q-148 107 -383 107q-282 0 -444 -137q-160 -135 -160 -375v-138
q0 -234 162 -370q161 -136 442 -136q238 0 389 114q133 102 172 275z" />
    <glyph glyph-name="Egrave" unicode="&#xc8;" horiz-adv-x="1716" 
d="M511 1917l323 -267h216l-270 267h-269zM1599 0v207h-1092v457h985v207h-985v434h1086v207h-1368v-1512h1374z" />
    <glyph glyph-name="Eacute" unicode="&#xc9;" horiz-adv-x="1716" 
d="M1087 1917l-251 -267h218l309 267h-276zM1599 0v207h-1092v457h985v207h-985v434h1086v207h-1368v-1512h1374z" />
    <glyph glyph-name="Ecircumflex" unicode="&#xca;" horiz-adv-x="1716" 
d="M777 1649l164 149l164 -149h235l-268 239h-263l-267 -239h235zM1599 0v207h-1092v457h985v207h-985v434h1086v207h-1368v-1512h1374z" />
    <glyph glyph-name="Edieresis" unicode="&#xcb;" horiz-adv-x="1716" 
d="M537 1755q0 -52 36 -77t112 -25q86 0 124 26q33 22 33 76q0 56 -33 79q-38 26 -124 26q-77 0 -112.5 -25.5t-35.5 -79.5zM1039 1755q0 -52 35.5 -77t112.5 -25q86 0 123 26q33 22 33 76q0 56 -33 79q-37 26 -123 26q-78 0 -113 -25.5t-35 -79.5zM1599 0v207h-1092v457
h985v207h-985v434h1086v207h-1368v-1512h1374z" />
    <glyph glyph-name="Igrave" unicode="&#xcc;" horiz-adv-x="734" 
d="M-65 1916l323 -267h216l-270 267h-269zM510 0v1512h-285v-1512h285z" />
    <glyph glyph-name="Iacute" unicode="&#xcd;" horiz-adv-x="734" 
d="M511 1916l-251 -267h218l309 267h-276zM510 0v1512h-285v-1512h285z" />
    <glyph glyph-name="Icircumflex" unicode="&#xce;" horiz-adv-x="734" 
d="M201 1648l164 149l164 -149h235l-268 239h-263l-267 -239h235zM510 0v1512h-285v-1512h285z" />
    <glyph glyph-name="Idieresis" unicode="&#xcf;" horiz-adv-x="734" 
d="M-39 1754q0 -52 36 -77t112 -25q86 0 124 26q33 22 33 76q0 56 -33 79q-38 26 -124 26q-77 0 -112.5 -25.5t-35.5 -79.5zM463 1754q0 -52 35.5 -77t112.5 -25q86 0 123 26q33 22 33 76q0 56 -33 79q-37 26 -123 26q-78 0 -113 -25.5t-35 -79.5zM510 0v1512h-285v-1512
h285z" />
    <glyph glyph-name="Eth" unicode="&#xd0;" horiz-adv-x="1990" 
d="M222 0h848q283 0 477 97q174 86 266 247q82 146 82 334v154q0 142 -50 265.5t-149 214.5q-220 200 -626 200h-848v-655h-195v-182h195v-675zM764 675v182h-257v448h543q259 0 411 -136q71 -64 108 -152.5t37 -193.5v-127q0 -238 -162 -368q-149 -121 -394 -121h-543v468
h257z" />
    <glyph glyph-name="Ntilde" unicode="&#xd1;" horiz-adv-x="2048" 
d="M1293 1880q-33 -39 -64 -60t-72 -21q-24 0 -51.5 9t-44 18t-50.5 28q-46 25 -86 39.5t-86 14.5q-84 0 -149 -58q-55 -48 -97 -131l99 -43q23 27 42.5 43t47.5 27.5t60 11.5q9 0 17 -1t17 -3t15 -3.5t16.5 -6t15 -6.5t16 -8t14.5 -8t16.5 -9.5t15.5 -8.5
q29 -17 50.5 -27.5t54.5 -19t66 -8.5q85 0 147 57q49 45 89 130zM1824 0v1512h-273l5 -1124l7 -71h-12l-1030 1195h-296v-1512h273l-5 1098l-8 82h12l1025 -1180h302z" />
    <glyph glyph-name="Ograve" unicode="&#xd2;" horiz-adv-x="1989" 
d="M559 1915l323 -267h216l-270 267h-269zM99 693q0 -153 53 -284t160 -227q233 -212 682 -212t683 213q107 96 160 226.5t53 283.5v125q0 153 -53 284t-159 228q-235 212 -683 212q-449 0 -683 -211q-107 -97 -160 -228.5t-53 -284.5v-125zM994 178q-283 0 -444 136
q-162 136 -162 371v137q0 240 161 376t445 136t446 -136q161 -136 161 -376v-136q0 -236 -161 -372q-162 -136 -446 -136z" />
    <glyph glyph-name="Oacute" unicode="&#xd3;" horiz-adv-x="1989" 
d="M1135 1915l-251 -267h218l309 267h-276zM99 693q0 -153 53 -284t160 -227q233 -212 682 -212t683 213q107 96 160 226.5t53 283.5v125q0 153 -53 284t-159 228q-235 212 -683 212q-449 0 -683 -211q-107 -97 -160 -228.5t-53 -284.5v-125zM994 178q-283 0 -444 136
q-162 136 -162 371v137q0 240 161 376t445 136t446 -136q161 -136 161 -376v-136q0 -236 -161 -372q-162 -136 -446 -136z" />
    <glyph glyph-name="Ocircumflex" unicode="&#xd4;" horiz-adv-x="1989" 
d="M825 1647l164 149l164 -149h235l-268 239h-263l-267 -239h235zM99 693q0 -153 53 -284t160 -227q233 -212 682 -212t683 213q107 96 160 226.5t53 283.5v125q0 153 -53 284t-159 228q-235 212 -683 212q-449 0 -683 -211q-107 -97 -160 -228.5t-53 -284.5v-125zM994 178
q-283 0 -444 136q-162 136 -162 371v137q0 240 161 376t445 136t446 -136q161 -136 161 -376v-136q0 -236 -161 -372q-162 -136 -446 -136z" />
    <glyph glyph-name="Otilde" unicode="&#xd5;" horiz-adv-x="1989" 
d="M1314 1877q-33 -39 -64 -60t-72 -21q-24 0 -51.5 9t-44 18t-50.5 28q-22 12 -39 20t-39.5 16.5t-46 13t-47.5 4.5q-84 0 -149 -58q-54 -48 -97 -131l99 -43q35 41 69 61.5t81 20.5q9 0 17 -0.5t17 -3t15 -4t16.5 -6t15 -6.5t16 -8.5t14.5 -8t16.5 -9t15.5 -8.5
q45 -26 84 -40.5t87 -14.5q85 0 147 57q49 45 89 130zM99 693q0 -153 53 -284t160 -227q233 -212 682 -212t683 213q107 96 160 226.5t53 283.5v125q0 153 -53 284t-159 228q-235 212 -683 212q-449 0 -683 -211q-107 -97 -160 -228.5t-53 -284.5v-125zM994 178
q-283 0 -444 136q-162 136 -162 371v137q0 240 161 376t445 136t446 -136q161 -136 161 -376v-136q0 -236 -161 -372q-162 -136 -446 -136z" />
    <glyph glyph-name="Odieresis" unicode="&#xd6;" horiz-adv-x="1989" 
d="M585 1753q0 -52 36 -77t112 -25q86 0 124 26q33 22 33 76q0 56 -33 79q-38 26 -124 26q-77 0 -112.5 -25.5t-35.5 -79.5zM1087 1753q0 -52 35.5 -77t112.5 -25q86 0 123 26q33 22 33 76q0 56 -33 79q-37 26 -123 26q-39 0 -67 -6t-46 -19.5t-26.5 -33t-8.5 -46.5zM99 693
q0 -153 53 -284t160 -227q233 -212 682 -212t683 213q107 96 160 227t53 283v125q0 153 -53 284t-159 228q-235 212 -683 212q-449 0 -683 -211q-107 -97 -160 -228.5t-53 -284.5v-125zM994 178q-283 0 -444 136q-162 136 -162 371v137q0 240 161 376t445 136t446 -136
q161 -136 161 -376v-136q0 -236 -161 -372q-162 -136 -446 -136z" />
    <glyph glyph-name="multiply" unicode="&#xd7;" horiz-adv-x="1027" 
d="M134 363l147 -148l231 231l231 -233l137 136l-231 232l238 238l-149 148l-238 -237l-232 228l-136 -135l233 -229z" />
    <glyph glyph-name="Oslash" unicode="&#xd8;" horiz-adv-x="1989" 
d="M99 693q0 -204 90 -360q95 -166 282 -259l-89 -154h257l47 81q143 -31 308 -31q449 0 683 213q107 96 160 226.5t53 283.5v125q0 207 -92 363q-101 170 -291 260l87 149h-258l-45 -77q-136 29 -296 29q-449 0 -683 -211q-107 -97 -160 -228.5t-53 -284.5v-125zM994 178
q-283 0 -444 136q-162 136 -162 371v137q0 240 161 376t445 136t446 -136q161 -136 161 -376v-136q0 -236 -161 -372q-162 -136 -446 -136z" />
    <glyph glyph-name="Ugrave" unicode="&#xd9;" horiz-adv-x="1942" 
d="M534 1919l323 -267h216l-270 267h-269zM1499 1512v-878q0 -201 -115 -319q-134 -137 -412 -137q-270 0 -407 134q-122 119 -122 318v882h-285v-881q0 -175 71 -314q82 -160 251 -247q193 -100 490 -100q298 0 491 102q168 88 251 248q71 136 71 311v881h-284z" />
    <glyph glyph-name="Uacute" unicode="&#xda;" horiz-adv-x="1942" 
d="M1110 1919l-251 -267h218l309 267h-276zM1499 1512v-878q0 -201 -115 -319q-134 -137 -412 -137q-270 0 -407 134q-122 119 -122 318v882h-285v-881q0 -175 71 -314q82 -160 251 -247q193 -100 490 -100q298 0 491 102q168 88 251 248q71 136 71 311v881h-284z" />
    <glyph glyph-name="Ucircumflex" unicode="&#xdb;" horiz-adv-x="1942" 
d="M800 1652l164 149l164 -149h235l-268 239h-263l-267 -239h235zM1499 1512v-878q0 -201 -115 -319q-134 -137 -412 -137q-270 0 -407 134q-122 119 -122 318v882h-285v-881q0 -175 71 -314q82 -160 251 -247q193 -100 490 -100q298 0 491 102q168 88 251 248
q71 136 71 311v881h-284z" />
    <glyph glyph-name="Udieresis" unicode="&#xdc;" horiz-adv-x="1942" 
d="M560 1757q0 -52 36 -77t112 -25q86 0 124 26q33 22 33 76q0 56 -33 79q-38 26 -124 26q-77 0 -112.5 -25.5t-35.5 -79.5zM1062 1757q0 -52 35.5 -77t112.5 -25q86 0 123 26q33 22 33 76q0 56 -33 79q-37 26 -123 26q-52 0 -84.5 -11.5t-48 -34.5t-15.5 -59zM1499 1512
v-878q0 -201 -115 -319q-134 -137 -412 -137q-270 0 -407 134q-122 119 -122 318v882h-285v-881q0 -175 71 -314q82 -160 251 -247q193 -100 490 -100q298 0 491 102q168 88 251 248q71 136 71 311v881h-284z" />
    <glyph glyph-name="Yacute" unicode="&#xdd;" horiz-adv-x="1701" 
d="M994 1915l-251 -267h218l309 267h-276zM1739 1512h-328l-560 -759l-563 759h-328l748 -974v-538h285v538z" />
    <glyph glyph-name="Thorn" unicode="&#xde;" horiz-adv-x="1535" 
d="M500 0v276h451q235 0 370 135q61 61 92 141t31 169v52q0 198 -123 323q-130 132 -359 132h-462v284h-279v-1512h279zM1187 741q0 -122 -70 -193q-78 -80 -220 -80h-397v568h403q121 0 200 -67q84 -71 84 -196v-32z" />
    <glyph glyph-name="germandbls" unicode="&#xdf;" horiz-adv-x="1718" 
d="M763 713h72q177 0 275 -44q77 -37 106 -103q17 -41 17 -111v-29q0 -128 -73 -190q-101 -85 -345 -67v-190q267 -19 431 38q145 51 211 162q56 93 56 234v29q0 124 -67 213q-76 99 -246 149q144 40 213 123q63 74 63 188v46q0 99 -52 180q-62 96 -192 151q-149 63 -380 63
q-327 0 -487 -170q-143 -152 -143 -423v-962h278v977q0 179 79 276q90 111 274 111q154 0 248 -56q98 -58 98 -164v-30q0 -120 -105 -172q-87 -43 -259 -43h-72v-186z" />
    <glyph glyph-name="agrave" unicode="&#xe0;" horiz-adv-x="1660" 
d="M424 1574l323 -267h216l-270 267h-269zM1486 0v653q0 151 -46 259q-60 136 -192 208q-159 85 -417 85q-252 0 -407 -70q-127 -57 -193 -159q-46 -73 -62 -175h266q21 97 91 149q95 70 294 70q219 0 311 -95q76 -79 76 -234v-58q-103 38 -203 61q-165 37 -305 37
q-221 0 -355 -56q-119 -50 -171 -140q-45 -75 -45 -172q0 -94 40 -169q54 -101 168 -156q139 -68 364 -68q173 0 317 76q69 36 118 84t72 104v-234h279zM775 156q-212 0 -304 80q-64 55 -64 138q0 47 21 85q26 50 95 82q80 37 222 37q116 0 272 -37q120 -30 190 -62v-48
q-7 -33 -32.5 -78t-70.5 -86q-126 -111 -329 -111z" />
    <glyph glyph-name="aacute" unicode="&#xe1;" horiz-adv-x="1660" 
d="M968 1574l-251 -267h218l309 267h-276zM1486 0v653q0 151 -46 259q-60 136 -192 208q-159 85 -417 85q-252 0 -407 -70q-127 -57 -193 -159q-46 -73 -62 -175h266q21 97 91 149q95 70 294 70q219 0 311 -95q76 -79 76 -234v-58q-103 38 -203 61q-165 37 -305 37
q-221 0 -355 -56q-119 -50 -171 -140q-45 -75 -45 -172q0 -94 40 -169q54 -101 168 -156q139 -68 364 -68q173 0 317 76q69 36 118 84t72 104v-234h279zM775 156q-212 0 -304 80q-64 55 -64 138q0 47 21 85q26 50 95 82q80 37 222 37q116 0 272 -37q120 -30 190 -62v-48
q-7 -33 -32.5 -78t-70.5 -86q-126 -111 -329 -111z" />
    <glyph glyph-name="acircumflex" unicode="&#xe2;" horiz-adv-x="1660" 
d="M658 1307l164 149l164 -149h235l-268 239h-263l-267 -239h235zM1486 0v653q0 151 -46 259q-60 136 -192 208q-159 85 -417 85q-252 0 -407 -70q-127 -57 -193 -159q-46 -73 -62 -175h266q21 97 91 149q95 70 294 70q219 0 311 -95q76 -79 76 -234v-58q-103 38 -203 61
q-165 37 -305 37q-221 0 -355 -56q-119 -50 -171 -140q-45 -75 -45 -172q0 -94 40 -169q54 -101 168 -156q139 -68 364 -68q173 0 317 76q69 36 118 84t72 104v-234h279zM775 156q-212 0 -304 80q-64 55 -64 138q0 47 21 85q26 50 95 82q80 37 222 37q116 0 272 -37
q120 -30 190 -62v-48q-7 -33 -32.5 -78t-70.5 -86q-126 -111 -329 -111z" />
    <glyph glyph-name="atilde" unicode="&#xe3;" horiz-adv-x="1660" 
d="M1149 1536q-33 -39 -64 -60t-72 -21q-24 0 -51.5 9t-44 18t-50.5 28q-46 25 -86 39.5t-86 14.5q-84 0 -149 -58q-54 -48 -97 -131l99 -43q35 41 69 61.5t81 20.5q9 0 17 -1t17 -3t15 -3.5t16.5 -6t15 -6.5t16 -8t14.5 -8t16.5 -9.5t15.5 -8.5q29 -17 50.5 -27.5t54.5 -19
t66 -8.5q85 0 147 57q49 45 89 130zM1486 0v653q0 151 -46 259q-60 136 -192 208q-159 85 -417 85q-252 0 -407 -70q-127 -57 -193 -159q-46 -73 -62 -175h266q21 97 91 149q95 70 294 70q219 0 311 -95q76 -79 76 -234v-58q-103 38 -203 61q-165 37 -305 37
q-221 0 -355 -56q-119 -50 -171 -140q-45 -75 -45 -172q0 -94 40 -169q54 -101 168 -156q139 -68 364 -68q173 0 317 76q69 36 118 84t72 104v-234h279zM775 156q-212 0 -304 80q-64 55 -64 138q0 47 21 85q26 50 95 82q80 37 222 37q116 0 272 -37q120 -30 190 -62v-48
q-7 -33 -32.5 -78t-70.5 -86q-126 -111 -329 -111z" />
    <glyph glyph-name="adieresis" unicode="&#xe4;" horiz-adv-x="1660" 
d="M434 1412q0 -52 36 -77t112 -25q86 0 124 26q33 22 33 76q0 56 -33 79q-38 26 -124 26q-77 0 -112.5 -25.5t-35.5 -79.5zM936 1412q0 -34 15.5 -56.5t48 -34t84.5 -11.5q86 0 123 26q33 22 33 76q0 56 -33 79q-37 26 -123 26q-78 0 -113 -25.5t-35 -79.5zM1486 0v653
q0 151 -46 259q-60 136 -192 208q-159 85 -417 85q-252 0 -407 -70q-127 -57 -193 -159q-46 -73 -62 -175h266q21 97 91 149q95 70 294 70q219 0 311 -95q76 -79 76 -234v-58q-103 38 -203 61q-165 37 -305 37q-221 0 -355 -56q-119 -50 -171 -140q-45 -75 -45 -172
q0 -94 40 -169q54 -101 168 -156q139 -68 364 -68q173 0 317 76q69 36 118 84t72 104v-234h279zM775 156q-212 0 -304 80q-64 55 -64 138q0 47 21 85q26 50 95 82q80 37 222 37q116 0 272 -37q120 -30 190 -62v-48q-7 -33 -32.5 -78t-70.5 -86q-126 -111 -329 -111z" />
    <glyph glyph-name="aring" unicode="&#xe5;" horiz-adv-x="1660" 
d="M576 1491q0 -95 65.5 -138.5t197.5 -43.5q88 0 145.5 18.5t88 59.5t30.5 104t-30.5 104t-88.5 60t-145 19q-132 0 -197.5 -44t-65.5 -139zM725 1491q0 28 13 44.5t37.5 23t63.5 6.5q59 0 87 -16.5t28 -57.5t-28 -57t-87 -16t-86.5 16t-27.5 57zM1486 0v653q0 151 -46 259
q-60 136 -192 208q-159 85 -417 85q-252 0 -407 -70q-127 -57 -193 -159q-46 -73 -62 -175h266q20 97 91 149q95 70 294 70q219 0 311 -95q76 -79 76 -234v-58q-103 38 -203 61q-165 37 -305 37q-221 0 -355 -56q-119 -50 -171 -140q-45 -75 -45 -172q0 -94 40 -169
q54 -101 168 -156q139 -68 364 -68q173 0 317 76q69 36 118 84t72 104v-234h279zM775 156q-212 0 -304 80q-64 55 -64 138q0 47 21 85q26 50 95 82q80 37 222 37q116 0 272 -37q120 -30 190 -62v-48q-7 -33 -32.5 -78t-70.5 -86q-126 -111 -329 -111z" />
    <glyph glyph-name="ae" unicode="&#xe6;" horiz-adv-x="2713" 
d="M2608 519q3 50 3 54q12 289 -157 458q-176 174 -516 174q-378 0 -570 -181q-77 86 -199 131q-138 50 -338 50q-252 0 -407 -70q-127 -57 -193 -159q-46 -73 -62 -175h266q20 97 91 149q95 70 294 70q219 0 311 -95q76 -79 76 -234v-58q-103 38 -203 61q-165 37 -305 37
q-221 0 -355 -56q-119 -50 -171 -140q-45 -75 -45 -172q0 -94 40 -169q54 -101 168 -156q139 -68 364 -68q174 0 318 68q145 68 218 185q24 24 43 46q76 -142 237 -219q170 -81 427 -81q202 0 350 62q127 53 206 153q67 83 93 194l-261 1q-20 -88 -113 -152
q-108 -74 -280 -74q-222 0 -343 114q-104 99 -106 252h1119zM1488 695q5 78 46 150q45 83 137 132q104 57 258 57q207 0 312 -97q96 -89 104 -252v-6h-857v16zM775 156q-212 0 -304 80q-64 55 -64 138q0 47 21 85q26 50 95 82q80 37 222 37q116 0 272 -37q120 -30 190 -62
v-48q-7 -33 -32.5 -78t-70.5 -86q-126 -111 -329 -111z" />
    <glyph glyph-name="ccedilla" unicode="&#xe7;" horiz-adv-x="1580" 
d="M1241 426h257q-33 -202 -186 -320q-168 -129 -462 -137l-1 -56h15q8 0 12 1h9q98 0 169 -46q70 -47 70 -117q0 -91 -74.5 -137t-209.5 -46q-82 0 -150 19q-48 14 -117 44l36 101q25 -9 42 -15t39 -12.5t40 -10t40 -6t44 -2.5q66 0 94 18t28 46q0 41 -78 56q-32 7 -76 7
q-42 0 -81 -6l1 166q-282 25 -441 165q-88 77 -131.5 184t-43.5 233v66q0 126 44 233t132 184q191 167 551 167q315 0 492 -133q152 -115 190 -321h-254q-32 124 -128 189q-108 73 -303 73q-220 0 -341 -121q-104 -105 -104 -266v-76q0 -76 27 -145.5t81 -122.5
q119 -121 337 -121q192 0 302 73q96 65 129 192z" />
    <glyph glyph-name="egrave" unicode="&#xe8;" horiz-adv-x="1564" 
d="M383 1574l323 -267h216l-270 267h-269zM1485 519q3 51 3 54q11 290 -157 458q-176 174 -516 174q-363 0 -553 -166q-176 -153 -176 -417v-40q0 -285 171 -442q187 -171 563 -171q201 0 350 62q127 53 206 153q67 83 93 194l-261 1q-20 -88 -113 -152q-108 -74 -280 -74
q-222 0 -343 114q-53 50 -79.5 115.5t-27.5 136.5h1120zM365 695q5 77 45 150q45 82 137 132q104 57 259 57q207 0 312 -97q96 -89 104 -252v-6h-857v16z" />
    <glyph glyph-name="eacute" unicode="&#xe9;" horiz-adv-x="1564" 
d="M959 1574l-251 -267h218l309 267h-276zM1485 519q3 51 3 54q11 290 -157 458q-176 174 -516 174q-363 0 -553 -166q-176 -153 -176 -417v-40q0 -285 171 -442q187 -171 563 -171q201 0 350 62q127 53 206 153q67 83 93 194l-261 1q-20 -88 -113 -152q-108 -74 -280 -74
q-222 0 -343 114q-53 50 -79.5 115.5t-27.5 136.5h1120zM365 695q5 77 45 150q45 82 137 132q104 57 259 57q207 0 312 -97q96 -89 104 -252v-6h-857v16z" />
    <glyph glyph-name="ecircumflex" unicode="&#xea;" horiz-adv-x="1564" 
d="M649 1306l164 149l164 -149h235l-268 239h-263l-267 -239h235zM1485 519q3 51 3 54q11 290 -157 458q-176 174 -516 174q-363 0 -553 -166q-176 -153 -176 -417v-40q0 -285 171 -442q187 -171 563 -171q201 0 350 62q127 53 206 153q67 83 93 194l-261 1
q-20 -88 -113 -152q-108 -74 -280 -74q-222 0 -343 114q-52 50 -79 115.5t-28 136.5h1120zM365 695q5 77 45 150q45 82 137 132q104 57 259 57q207 0 312 -97q96 -89 104 -252v-6h-857v16z" />
    <glyph glyph-name="edieresis" unicode="&#xeb;" horiz-adv-x="1564" 
d="M409 1412q0 -52 36 -77t112 -25q86 0 124 26q33 22 33 76q0 56 -33 79q-38 26 -124 26q-77 0 -112.5 -25.5t-35.5 -79.5zM911 1412q0 -52 35.5 -77t112.5 -25q86 0 123 26q33 22 33 76q0 56 -33 79q-37 26 -123 26q-78 0 -113 -25.5t-35 -79.5zM1485 519q3 51 3 54
q11 290 -157 458q-176 174 -516 174q-363 0 -553 -166q-176 -153 -176 -417v-40q0 -285 171 -442q187 -171 563 -171q201 0 350 62q127 53 206 153q67 83 93 194l-261 1q-20 -88 -113 -152q-108 -74 -280 -74q-222 0 -343 114q-53 50 -79.5 115.5t-27.5 136.5h1120zM365 695
q5 77 45 150q45 82 137 132q104 57 259 57q207 0 312 -97q96 -89 104 -252v-6h-857v16z" />
    <glyph glyph-name="igrave" unicode="&#xec;" 
d="M-102 1574l323 -267h216l-270 267h-269zM471 0v1175h-279v-1175h279z" />
    <glyph glyph-name="iacute" unicode="&#xed;" 
d="M474 1574l-251 -267h218l309 267h-276zM471 0v1175h-279v-1175h279z" />
    <glyph glyph-name="icircumflex" unicode="&#xee;" 
d="M164 1306l164 149l164 -149h235l-268 239h-263l-267 -239h235zM471 0v1175h-279v-1175h279z" />
    <glyph glyph-name="idieresis" unicode="&#xef;" 
d="M-76 1412q0 -52 36 -77t112 -25q86 0 124 26q33 22 33 76q0 56 -33 79q-38 26 -124 26q-77 0 -112.5 -25.5t-35.5 -79.5zM426 1412q0 -52 35.5 -77t112.5 -25q86 0 123 26q33 22 33 76q0 56 -33 79q-37 26 -123 26q-52 0 -84.5 -11.5t-48 -34.5t-15.5 -59zM471 0v1175
h-279v-1175h279z" />
    <glyph glyph-name="eth" unicode="&#xf0;" horiz-adv-x="1622" 
d="M809 1265l122 -59l98 139q90 -52 148 -124q69 -87 99 -206q-210 143 -470 143q-359 0 -550 -171q-85 -76 -127.5 -176.5t-42.5 -214.5v-56q0 -118 42.5 -221t128.5 -179q189 -171 554 -171q364 0 555 170q57 51 95.5 116t56.5 135.5t18 148.5v57l-1 161q0 285 -125 485
q-98 156 -275 255l91 129l-119 60l-94 -133q-48 17 -95 30q-83 22 -149 31l-42 5l-51 -167q10 -3 33 -6q24 -5 52 -9q76 -15 144 -37zM366 596q0 150 102 252q119 119 343 119q223 0 346 -121q51 -51 76.5 -117t25.5 -133v-60q0 -159 -105 -260q-122 -115 -343 -115
q-222 0 -342 118q-103 100 -103 256v61z" />
    <glyph glyph-name="ntilde" unicode="&#xf1;" horiz-adv-x="1788" 
d="M1164 1535q-33 -39 -64 -60t-72 -21q-24 0 -51.5 9t-44 18t-50.5 28q-46 25 -86 39.5t-86 14.5q-84 0 -149 -58q-55 -48 -97 -131l99 -43q35 41 69 61.5t81 20.5q8 0 16.5 -1t17.5 -3t15 -3.5t16.5 -6t15 -6.5t16 -8t14.5 -8t16.5 -9.5t15.5 -8.5q45 -26 84 -40.5
t87 -14.5q85 0 147 57q49 45 89 130zM470 0v551q0 109 58 214q63 112 165 176q117 73 262 73q213 0 305 -123q76 -101 76 -300v-591h278v595q0 172 -34 281q-49 152 -165 232q-142 97 -390 97q-187 0 -337 -83q-146 -81 -218 -227v280h-278v-1175h278z" />
    <glyph glyph-name="ograve" unicode="&#xf2;" horiz-adv-x="1632" 
d="M384 1574l323 -267h216l-270 267h-269zM86 559q0 -265 172 -419q190 -171 558 -171q369 0 559 171q171 154 171 419v57q0 266 -171 420q-188 169 -559 169q-368 0 -558 -169q-172 -153 -172 -420v-57zM365 620q0 168 102 271q120 122 349 122q228 0 348 -123
q102 -105 102 -271v-62q0 -170 -104 -275q-119 -121 -346 -121t-347 122q-52 53 -78 124t-26 149v64z" />
    <glyph glyph-name="oacute" unicode="&#xf3;" horiz-adv-x="1632" 
d="M960 1574l-251 -267h218l309 267h-276zM86 559q0 -265 172 -419q190 -171 558 -171q369 0 559 171q171 154 171 419v57q0 266 -171 420q-188 169 -559 169q-368 0 -558 -169q-172 -153 -172 -420v-57zM365 620q0 168 102 271q120 122 349 122q228 0 348 -123
q102 -105 102 -271v-62q0 -170 -104 -275q-119 -121 -346 -121t-347 122q-52 53 -78 124t-26 149v64z" />
    <glyph glyph-name="ocircumflex" unicode="&#xf4;" horiz-adv-x="1632" 
d="M650 1307l164 149l164 -149h235l-268 239h-263l-267 -239h235zM86 559q0 -265 172 -419q190 -171 558 -171q369 0 559 171q171 154 171 419v57q0 266 -171 420q-188 169 -559 169q-368 0 -558 -169q-172 -153 -172 -420v-57zM365 620q0 168 102 271q120 122 349 122
q228 0 348 -123q102 -105 102 -271v-62q0 -170 -104 -275q-119 -121 -346 -121t-347 122q-52 53 -78 124t-26 149v64z" />
    <glyph glyph-name="otilde" unicode="&#xf5;" horiz-adv-x="1632" 
d="M1121 1536q-33 -39 -64 -60t-72 -21q-24 0 -51.5 9t-44 18t-50.5 28q-30 16 -52 26.5t-55 19t-65 8.5q-84 0 -149 -58q-54 -48 -97 -131l99 -43q35 41 69 61.5t81 20.5q22 0 47 -7.5t40.5 -15.5t43.5 -24q8 -5 12 -7q45 -26 84 -40.5t87 -14.5q85 0 147 57q49 45 89 130z
M86 559q0 -265 172 -419q190 -171 558 -171q369 0 559 171q171 154 171 419v57q0 266 -171 420q-188 169 -559 169q-368 0 -558 -169q-172 -153 -172 -420v-57zM365 620q0 168 102 271q120 122 349 122q228 0 348 -123q102 -105 102 -271v-62q0 -170 -104 -275
q-119 -121 -346 -121t-347 122q-52 53 -78 124t-26 149v64z" />
    <glyph glyph-name="odieresis" unicode="&#xf6;" horiz-adv-x="1632" 
d="M410 1412q0 -34 15.5 -56.5t48.5 -34t84 -11.5q86 0 124 26q33 22 33 76q0 56 -33 79q-38 26 -124 26q-52 0 -84.5 -11.5t-48 -34.5t-15.5 -59zM912 1412q0 -52 35.5 -77t112.5 -25q86 0 123 26q33 22 33 76q0 56 -33 79q-37 26 -123 26q-39 0 -67 -6.5t-46 -19.5
t-26.5 -32.5t-8.5 -46.5zM86 559q0 -265 172 -419q190 -171 558 -171q369 0 559 171q171 154 171 419v57q0 266 -171 420q-188 169 -559 169q-368 0 -558 -169q-172 -153 -172 -420v-57zM365 620q0 168 102 271q120 122 349 122q228 0 348 -123q102 -105 102 -271v-62
q0 -170 -104 -275q-119 -121 -346 -121t-347 122q-52 53 -78 124t-26 149v64z" />
    <glyph glyph-name="divide" unicode="&#xf7;" horiz-adv-x="1344" 
d="M502 954q0 -58 41 -86.5t128 -28.5q98 0 139 29q39 26 39 86q0 62 -39 90q-41 28 -139 28q-88 0 -128.5 -28.5t-40.5 -89.5zM1173 514v177h-999v-177h999zM502 209q0 -29 10 -50.5t30.5 -36t52.5 -21.5t76 -7q98 0 139 29q39 26 39 86q0 61 -39 89q-41 29 -139 29
q-87 0 -128 -29t-41 -89z" />
    <glyph glyph-name="oslash" unicode="&#xf8;" horiz-adv-x="1632" 
d="M86 559q0 -290 202 -446l-144 -185l284 -1l68 84q142 -42 320 -42q369 0 559 171q171 154 171 419v57q0 291 -206 447l143 188l-282 2l-72 -88q-132 40 -313 40q-368 0 -558 -169q-172 -153 -172 -420v-57zM365 620q0 168 102 271q120 122 349 122q228 0 348 -123
q102 -105 102 -271v-62q0 -170 -104 -275q-119 -121 -346 -121t-347 122q-52 53 -78 124t-26 149v64z" />
    <glyph glyph-name="ugrave" unicode="&#xf9;" horiz-adv-x="1788" 
d="M438 1575l323 -267h216l-270 267h-269zM1321 1175v-551q0 -111 -57 -213q-61 -111 -165 -177q-117 -73 -262 -73q-214 0 -305 123q-76 101 -76 300v591h-279v-595q0 -167 35 -281q46 -150 166 -232q141 -97 388 -97q188 0 337 82q148 82 218 226v-278h279v1175h-279z" />
    <glyph glyph-name="uacute" unicode="&#xfa;" horiz-adv-x="1788" 
d="M1014 1575l-251 -267h218l309 267h-276zM1321 1175v-551q0 -111 -57 -213q-61 -111 -165 -177q-117 -73 -262 -73q-214 0 -305 123q-76 101 -76 300v591h-279v-595q0 -167 35 -281q46 -150 166 -232q141 -97 388 -97q188 0 337 82q148 82 218 226v-278h279v1175h-279z
" />
    <glyph glyph-name="ucircumflex" unicode="&#xfb;" horiz-adv-x="1788" 
d="M705 1308l164 149l164 -149h235l-268 239h-263l-267 -239h235zM1321 1175v-551q0 -111 -57 -213q-61 -111 -165 -177q-117 -73 -262 -73q-214 0 -305 123q-76 101 -76 300v591h-279v-595q0 -167 35 -281q46 -150 166 -232q141 -97 388 -97q188 0 337 82q148 82 218 226
v-278h279v1175h-279z" />
    <glyph glyph-name="udieresis" unicode="&#xfc;" horiz-adv-x="1788" 
d="M464 1413q0 -26 8.5 -45t26.5 -31.5t46 -19t67 -6.5q86 0 124 26q33 22 33 76q0 56 -33 79q-38 26 -124 26q-77 0 -112.5 -25.5t-35.5 -79.5zM966 1413q0 -52 35.5 -77t112.5 -25q86 0 123 26q33 22 33 76q0 56 -33 79q-37 26 -123 26q-78 0 -113 -25.5t-35 -79.5z
M1321 1175v-551q0 -111 -57 -213q-61 -111 -165 -177q-117 -73 -262 -73q-214 0 -305 123q-76 101 -76 300v591h-279v-595q0 -167 35 -281q46 -150 166 -232q141 -97 388 -97q188 0 337 82q148 82 218 226v-278h279v1175h-279z" />
    <glyph glyph-name="yacute" unicode="&#xfd;" horiz-adv-x="1525" 
d="M894 1574l-251 -267h218l309 267h-276zM1200 1175l-442 -986l-435 986h-298l578 -1175h73l-31 -75q-68 -152 -228 -237l98 -141q92 28 182 105q108 93 168 222l635 1301h-300z" />
    <glyph glyph-name="thorn" unicode="&#xfe;" horiz-adv-x="1702" 
d="M467 -363v543q152 -210 479 -210q317 0 498 170q82 78 124.5 184t42.5 228v53q0 122 -43 228.5t-125 184.5q-181 170 -497 170q-162 0 -287 -57q-118 -54 -192 -155v579h-278v-1918h278zM468 610q0 161 99 266q113 120 326 120q216 0 336 -118q103 -104 103 -268v-61
q0 -167 -106 -272q-118 -116 -333 -116t-327 119q-98 104 -98 269v61z" />
    <glyph glyph-name="ydieresis" unicode="&#xff;" horiz-adv-x="1525" 
d="M344 1412q0 -52 36 -77t112 -25q86 0 124 26q33 22 33 76q0 56 -33 79q-38 26 -124 26q-77 0 -112.5 -25.5t-35.5 -79.5zM846 1412q0 -52 35.5 -77t112.5 -25q86 0 123 26q33 22 33 76q0 56 -33 79q-37 26 -123 26q-39 0 -67 -6.5t-46 -19.5t-26.5 -32.5t-8.5 -46.5z
M1200 1175l-442 -986l-435 986h-298l578 -1175h73l-31 -75q-68 -152 -228 -237l98 -141q92 28 182 105q108 93 168 222l635 1301h-300z" />
    <glyph glyph-name="Amacron" unicode="&#x100;" horiz-adv-x="1839" 
d="M1331 1656v155h-790v-155h790zM299 0l180 393h881l180 -393h295l-729 1512h-373l-729 -1512h295zM896 1306h47l326 -714h-699z" />
    <glyph glyph-name="amacron" unicode="&#x101;" horiz-adv-x="1660" 
d="M1255 1311v155h-790v-155h790zM1486 0v653q0 151 -46 259q-60 136 -192 208q-159 85 -417 85q-252 0 -407 -70q-127 -57 -193 -159q-46 -73 -62 -175h266q21 97 91 149q95 70 294 70q219 0 311 -95q76 -79 76 -234v-58q-103 38 -203 61q-165 37 -305 37q-221 0 -355 -56
q-119 -50 -171 -140q-45 -75 -45 -172q0 -94 40 -169q54 -101 168 -156q139 -68 364 -68q173 0 317 76q69 35 118 83.5t72 104.5v-234h279zM775 156q-212 0 -304 80q-64 55 -64 138q0 47 21 85q26 50 95 82q80 37 222 37q116 0 272 -37q120 -30 190 -62v-48
q-7 -34 -32.5 -78.5t-70.5 -85.5q-126 -111 -329 -111z" />
    <glyph glyph-name="Abreve" unicode="&#x102;" horiz-adv-x="1839" 
d="M1121 1948q-15 -80 -49 -115q-50 -52 -157 -52t-158 53q-37 38 -52 114h-165q13 -129 84 -200q95 -95 291 -95q193 0 287 94q71 72 85 201h-166zM299 0l180 393h881l180 -393h295l-729 1512h-373l-729 -1512h295zM896 1306h47l326 -714h-699z" />
    <glyph glyph-name="abreve" unicode="&#x103;" horiz-adv-x="1660" 
d="M1046 1603q-15 -80 -49 -115q-50 -52 -157 -52t-158 53q-37 38 -52 114h-165q13 -129 84 -200q95 -95 291 -95q193 0 287 94q71 72 85 201h-166zM1486 0v653q0 151 -46 259q-60 136 -192 208q-159 85 -417 85q-252 0 -407 -70q-127 -57 -193 -159q-46 -73 -62 -175h266
q21 97 91 149q95 70 294 70q219 0 311 -95q76 -79 76 -234v-58q-103 38 -203 61q-165 37 -305 37q-221 0 -355 -56q-119 -50 -171 -140q-45 -75 -45 -172q0 -94 40 -169q54 -101 168 -156q139 -68 364 -68q173 0 317 76q69 36 118 84t72 104v-234h279zM775 156
q-212 0 -304 80q-64 55 -64 138q0 47 21 85q26 50 95 82q80 37 222 37q116 0 272 -37q120 -30 190 -62v-48q-7 -33 -32.5 -78t-70.5 -86q-126 -111 -329 -111z" />
    <glyph glyph-name="Aogonek" unicode="&#x104;" horiz-adv-x="1839" 
d="M1835 -259l1 -122q-95 -43 -228 -43q-118 0 -189 46q-72 47 -72 129q0 107 112 183q48 33 128 66h-47l-180 393h-881l-180 -393h-295l729 1512h373l729 -1512h-5l4 -1q-140 -54 -193 -88q-82 -52 -82 -117q0 -34 26 -54q31 -24 92 -24q50 0 92 7q27 5 66 18zM570 592h699
l-326 714h-47z" />
    <glyph glyph-name="aogonek" unicode="&#x105;" horiz-adv-x="1660" 
d="M1487 -258l1 -122q-95 -43 -228 -43q-118 0 -189 46q-72 47 -72 129q0 107 112 183q55 37 126 65h-30v234q-23 -56 -72 -104t-118 -84q-144 -76 -317 -76q-225 0 -364 68q-114 55 -168 156q-40 75 -40 169q0 97 45 172q52 90 171 140q134 56 355 56q140 0 305 -37
q100 -23 203 -61v58q0 155 -76 234q-92 95 -311 95q-199 0 -294 -70q-70 -52 -91 -149h-266q16 102 62 175q66 102 193 159q155 70 407 70q258 0 417 -85q132 -72 192 -208q46 -108 46 -259v-653q-140 -54 -193 -88q-82 -52 -82 -117q0 -34 26 -54q31 -24 92 -24q50 0 92 7
q27 5 66 18zM1207 431v48q-70 32 -190 62q-155 37 -272 37q-142 0 -222 -37q-69 -32 -95 -82q-21 -38 -21 -85q0 -83 64 -138q93 -80 304 -80q203 0 329 111q45 41 71 86t32 78z" />
    <glyph glyph-name="Cacute" unicode="&#x106;" horiz-adv-x="1927" 
d="M1137 1918l-251 -267h218l309 267h-276zM1553 567q-39 -173 -172 -275q-151 -114 -389 -114q-281 0 -442 136q-162 136 -162 370v138q0 240 160 375q162 137 444 137q235 0 383 -107q140 -101 177 -281l283 1q-43 268 -244 424q-221 171 -596 171q-447 0 -682 -211
q-107 -96 -160.5 -227.5t-53.5 -284.5v-126q0 -153 53 -284.5t160 -227.5q234 -211 682 -211q383 0 608 182q99 80 157 186.5t77 227.5z" />
    <glyph glyph-name="cacute" unicode="&#x107;" horiz-adv-x="1580" 
d="M958 1574l-251 -267h218l309 267h-276zM1495 751q-38 206 -190 321q-177 133 -492 133q-360 0 -551 -167q-88 -77 -132 -184t-44 -233v-66q0 -126 43.5 -233t131.5 -184q192 -169 552 -169q321 0 499 137q153 118 186 320h-257q-33 -127 -129 -192q-110 -73 -302 -73
q-218 0 -337 121q-54 53 -81 122.5t-27 145.5v76q0 161 104 266q121 121 341 121q195 0 303 -73q96 -65 128 -189h254z" />
    <glyph glyph-name="Ccircumflex" unicode="&#x108;" horiz-adv-x="1927" 
d="M827 1650l164 149l164 -149h235l-268 239h-263l-267 -239h235zM1553 567q-39 -173 -172 -275q-151 -114 -389 -114q-281 0 -442 136q-162 136 -162 370v138q0 240 160 375q162 137 444 137q235 0 383 -107q140 -101 177 -281l283 1q-43 268 -244 424q-221 171 -596 171
q-447 0 -682 -211q-107 -96 -160.5 -227.5t-53.5 -284.5v-126q0 -153 53 -284.5t160 -227.5q234 -211 682 -211q383 0 608 182q99 80 157 186.5t77 227.5z" />
    <glyph glyph-name="ccircumflex" unicode="&#x109;" horiz-adv-x="1580" 
d="M648 1306l164 149l164 -149h235l-268 239h-263l-267 -239h235zM1495 751q-38 206 -190 321q-177 133 -492 133q-360 0 -551 -167q-88 -77 -132 -184t-44 -233v-66q0 -126 43.5 -233t131.5 -184q192 -169 552 -169q321 0 499 137q153 118 186 320h-257q-33 -127 -129 -192
q-110 -73 -302 -73q-218 0 -337 121q-54 53 -81 122.5t-27 145.5v76q0 161 104 266q121 121 341 121q195 0 303 -73q96 -65 128 -189h254z" />
    <glyph glyph-name="Cdotaccent" unicode="&#x10a;" horiz-adv-x="1927" 
d="M821 1772q0 -58 40.5 -86.5t127.5 -28.5q100 0 142 29q39 26 39 86q0 61 -39 89q-42 29 -142 29q-87 0 -127.5 -29t-40.5 -89zM1553 567q-39 -173 -172 -275q-151 -114 -389 -114q-281 0 -442 136q-162 136 -162 370v138q0 240 160 375q162 137 444 137q235 0 383 -107
q140 -101 177 -281l283 1q-43 268 -244 424q-221 171 -596 171q-447 0 -682 -211q-107 -96 -160.5 -227.5t-53.5 -284.5v-126q0 -153 53 -284.5t160 -227.5q234 -211 682 -211q383 0 608 182q99 80 157 186.5t77 227.5z" />
    <glyph glyph-name="cdotaccent" unicode="&#x10b;" horiz-adv-x="1580" 
d="M643 1428q0 -58 40.5 -86.5t127.5 -28.5q100 0 142 29q39 26 39 86q0 61 -39 89q-42 29 -142 29q-87 0 -127.5 -29t-40.5 -89zM1495 751q-38 206 -190 321q-177 133 -492 133q-360 0 -551 -167q-88 -77 -132 -184t-44 -233v-66q0 -126 43.5 -233t131.5 -184
q191 -169 552 -169q321 0 499 137q153 118 186 320h-257q-33 -127 -129 -192q-110 -73 -302 -73q-218 0 -337 121q-54 53 -81 122.5t-27 145.5v76q0 161 104 266q121 121 341 121q195 0 303 -73q96 -65 128 -189h254z" />
    <glyph glyph-name="Ccaron" unicode="&#x10c;" horiz-adv-x="1927" 
d="M594 1891l267 -239h263l268 239h-235l-164 -149l-165 149h-234zM1553 567q-39 -173 -172 -275q-151 -114 -389 -114q-281 0 -442 136q-162 136 -162 370v138q0 240 160 375q162 137 444 137q235 0 383 -107q140 -101 177 -281l283 1q-43 268 -244 424q-221 171 -596 171
q-447 0 -682 -211q-107 -96 -160.5 -227.5t-53.5 -284.5v-126q0 -153 53 -284.5t160 -227.5q234 -211 682 -211q383 0 608 182q99 80 157 186.5t77 227.5z" />
    <glyph glyph-name="ccaron" unicode="&#x10d;" horiz-adv-x="1580" 
d="M416 1547l267 -239h263l268 239h-235l-164 -149l-165 149h-234zM1495 751q-38 206 -190 321q-177 133 -492 133q-360 0 -551 -167q-88 -77 -132 -184t-44 -233v-66q0 -126 43.5 -233t131.5 -184q192 -169 552 -169q321 0 499 137q153 118 186 320h-257
q-33 -127 -129 -192q-110 -73 -302 -73q-218 0 -337 121q-54 53 -81 122.5t-27 145.5v76q0 161 104 266q121 121 341 121q195 0 303 -73q96 -65 128 -189h254z" />
    <glyph glyph-name="Dcaron" unicode="&#x10e;" horiz-adv-x="1996" 
d="M468 1891l267 -239h263l268 239h-235l-164 -149l-165 149h-234zM225 0h848q283 0 477 97q174 86 266 247q82 146 82 334v154q0 142 -50 265.5t-149 214.5q-220 200 -626 200h-848v-1512zM510 1305h543q259 0 411 -136q71 -64 108 -152.5t37 -193.5v-127q0 -238 -162 -368
q-149 -121 -394 -121h-543v1098z" />
    <glyph glyph-name="dcaron" unicode="&#x10f;" horiz-adv-x="1954" 
d="M1838 1079q34 64 56.5 125.5t30.5 102t8 68.5v194h-324v-205h45q66 0 63 -80q-3 -69 -55 -182zM1508 0v1568h-279v-586q-68 105 -181 162q-127 61 -311 61q-305 0 -483 -168q-82 -79 -125 -186t-43 -233v-61q0 -125 43 -232t125 -186q176 -170 482 -170q186 0 312 62
q112 55 181 162v-193h279zM1229 566q0 -176 -97 -283q-111 -122 -332 -122q-213 0 -331 121q-103 106 -103 279v52q0 168 103 277q116 123 331 123q222 0 334 -123q95 -108 95 -288v-36z" />
    <glyph glyph-name="Dcroat" unicode="&#x110;" horiz-adv-x="1996" 
d="M1699 1312q99 -91 149 -214.5t50 -265.5v-154q0 -188 -82 -334q-92 -161 -266 -247q-194 -97 -477 -97h-848v672h-203v155h203v685h848q407 0 626 -200zM1609 696v127q0 105 -37 193.5t-108 152.5q-152 136 -411 136h-543v-478h302v-155h-302v-465h543q245 0 394 121
q162 130 162 368z" />
    <glyph glyph-name="dcroat" unicode="&#x111;" horiz-adv-x="1697" 
d="M1636 1444v-138h-128v-1306h-279v193q-69 -107 -181 -162q-126 -62 -312 -62q-306 0 -482 170q-82 79 -125 186t-43 232v61q0 126 43 233t125 186q178 168 483 168q184 0 311 -61q113 -57 181 -162v324h-321v138h321v124h279v-124h128zM1229 566v36q0 180 -95 288
q-112 123 -334 123q-215 0 -331 -123q-103 -109 -103 -277v-52q0 -173 103 -279q118 -121 331 -121q221 0 332 122q97 107 97 283z" />
    <glyph glyph-name="Emacron" unicode="&#x112;" horiz-adv-x="1716" 
d="M1354 1654v155h-790v-155h790zM1599 0v207h-1092v457h985v207h-985v434h1086v207h-1368v-1512h1374z" />
    <glyph glyph-name="emacron" unicode="&#x113;" horiz-adv-x="1564" 
d="M1226 1310v155h-790v-155h790zM1485 519q3 51 3 54q11 290 -157 458q-176 174 -516 174q-363 0 -553 -166q-176 -153 -176 -417v-40q0 -285 171 -442q187 -171 563 -171q201 0 350 62q127 53 206 153q67 83 93 194l-261 1q-20 -88 -113 -152q-108 -74 -280 -74
q-222 0 -343 114q-53 50 -79.5 115.5t-27.5 136.5h1120zM365 695q5 77 45 150q45 82 137 132q104 57 259 57q207 0 312 -97q96 -89 104 -252v-6h-857v16z" />
    <glyph glyph-name="Ebreve" unicode="&#x114;" horiz-adv-x="1716" 
d="M1145 1946q-15 -80 -49 -115q-50 -52 -157 -52t-158 53q-37 38 -52 114h-165q13 -129 84 -200q95 -95 291 -95q193 0 287 94q71 72 85 201h-166zM1599 0v207h-1092v457h985v207h-985v434h1086v207h-1368v-1512h1374z" />
    <glyph glyph-name="ebreve" unicode="&#x115;" horiz-adv-x="1564" 
d="M1017 1602q-15 -80 -49 -115q-50 -52 -157 -52t-158 53q-37 38 -52 114h-165q13 -129 84 -200q95 -95 291 -95q193 0 287 94q71 72 85 201h-166zM1485 519q3 51 3 54q11 290 -157 458q-176 174 -516 174q-363 0 -553 -166q-176 -153 -176 -417v-40q0 -285 171 -442
q187 -171 563 -171q201 0 350 62q127 53 206 153q66 83 93 194l-261 1q-20 -88 -113 -152q-108 -74 -280 -74q-222 0 -343 114q-53 50 -79.5 115.5t-27.5 136.5h1120zM365 695q5 77 45 150q45 82 137 132q104 57 259 57q207 0 312 -97q96 -89 104 -252v-6h-857v16z" />
    <glyph glyph-name="Edotaccent" unicode="&#x116;" horiz-adv-x="1716" 
d="M771 1772q0 -39 17.5 -64t55 -38t95.5 -13q100 0 142 29q39 26 39 86q0 61 -39 89q-42 29 -142 29q-87 0 -127.5 -29t-40.5 -89zM1599 0v207h-1092v457h985v207h-985v434h1086v207h-1368v-1512h1374z" />
    <glyph glyph-name="edotaccent" unicode="&#x117;" horiz-adv-x="1564" 
d="M643 1429q0 -39 17.5 -64t55 -38t95.5 -13q100 0 142 29q39 26 39 86q0 61 -39 89q-42 29 -142 29q-87 0 -127.5 -29t-40.5 -89zM1485 519q3 51 3 54q11 290 -157 458q-176 174 -516 174q-363 0 -553 -166q-176 -153 -176 -417v-40q0 -285 171 -442q187 -171 563 -171
q201 0 350 62q127 53 206 153q66 83 93 194l-261 1q-20 -88 -113 -152q-108 -74 -280 -74q-222 0 -343 114q-53 50 -79.5 115.5t-27.5 136.5h1120zM365 695q5 77 45 150q45 82 137 132q104 57 259 57q207 0 312 -97q96 -89 104 -252v-6h-857v16z" />
    <glyph glyph-name="Eogonek" unicode="&#x118;" horiz-adv-x="1716" 
d="M1599 -258l1 -122q-95 -43 -228 -43q-118 0 -189 46q-72 47 -72 129q0 107 112 183q55 37 126 65h-1124v1512h1368v-207h-1086v-434h985v-207h-985v-457h1092v-207h-1q-140 -54 -193 -88q-82 -52 -82 -117q0 -34 26 -54q31 -24 92 -24q50 0 92 7q27 5 66 18z" />
    <glyph glyph-name="eogonek" unicode="&#x119;" horiz-adv-x="1564" 
d="M1331 1031q168 -168 157 -458q0 -3 -3 -54h-1120q1 -71 28 -136.5t79 -115.5q121 -114 343 -114q172 0 280 74q93 64 113 152l261 -1q-26 -111 -93 -194q-79 -100 -206 -153q-44 -19 -90 -30q-69 -49 -69 -109q0 -34 26 -54q31 -24 92 -24q50 0 92 7q27 5 66 18l1 -122
q-95 -43 -228 -43q-118 0 -189 46q-72 47 -72 129q0 66 43 120h-22q-376 0 -563 171q-171 156 -171 442v40q0 264 176 417q190 166 553 166q340 0 516 -174zM1222 679v6q-8 163 -104 252q-105 97 -312 97q-155 0 -259 -57q-92 -50 -137 -132q-40 -73 -45 -150v-16h857z" />
    <glyph glyph-name="Ecaron" unicode="&#x11a;" horiz-adv-x="1716" 
d="M544 1891l267 -239h263l268 239h-235l-164 -149l-165 149h-234zM1599 0v207h-1092v457h985v207h-985v434h1086v207h-1368v-1512h1374z" />
    <glyph glyph-name="ecaron" unicode="&#x11b;" horiz-adv-x="1564" 
d="M416 1547l267 -239h263l268 239h-235l-164 -149l-165 149h-234zM1485 519q3 51 3 54q11 290 -157 458q-176 174 -516 174q-363 0 -553 -166q-176 -153 -176 -417v-40q0 -285 171 -442q187 -171 563 -171q201 0 350 62q127 53 206 153q67 83 93 194l-261 1
q-20 -88 -113 -152q-108 -74 -280 -74q-222 0 -343 114q-53 50 -79.5 115.5t-27.5 136.5h1120zM365 695q5 77 45 150q45 82 137 132q104 57 259 57q207 0 312 -97q96 -89 104 -252v-6h-857v16z" />
    <glyph glyph-name="Gcircumflex" unicode="&#x11c;" horiz-adv-x="1936" 
d="M833 1647l164 149l164 -149h235l-268 239h-263l-267 -239h235zM942 606h633l-2 -43q-25 -172 -158 -274q-155 -119 -423 -119q-286 0 -449 141q-159 138 -159 373v139q0 245 162 382t447 137q228 0 374 -96q149 -100 186 -282l278 1q-54 270 -260 420q-220 157 -576 157
q-449 0 -683 -211q-107 -96 -160 -227t-53 -284v-127q0 -205 91 -362q98 -169 290 -260q208 -101 514 -101q263 0 453 95q170 84 274 233q91 133 109 296q3 28 3 70l3 122h-894v-180z" />
    <glyph glyph-name="gcircumflex" unicode="&#x11d;" horiz-adv-x="1698" 
d="M703 1310l164 149l164 -149h235l-268 239h-263l-267 -239h235zM1506 1175h-279v-202q-69 111 -185 169q-128 63 -307 63q-319 0 -494 -182q-52 -54 -87.5 -121t-52.5 -138t-17 -145v-38q0 -115 43.5 -218.5t125.5 -181.5q85 -82 207 -127t273 -45q184 0 314 66
q115 57 180 164v-124q0 -148 -100 -235q-112 -97 -334 -97q-112 0 -253 13q-144 12 -218 28l-25 -178q85 -17 223 -32q153 -17 304 -17q359 0 532 162q150 140 150 386v1030zM363 614q0 49 10.5 96t33 93t56.5 83q115 127 331 127q222 0 335 -120q98 -105 98 -278v-11
q0 -192 -109 -296q-113 -107 -324 -107q-204 0 -322 115q-109 106 -109 271v27z" />
    <glyph glyph-name="Gbreve" unicode="&#x11e;" horiz-adv-x="1936" 
d="M1201 1943q-15 -80 -49 -115q-50 -52 -157 -52t-158 53q-37 38 -52 114h-165q13 -129 84 -200q95 -95 291 -95q193 0 287 94q71 72 85 201h-166zM942 606h633l-2 -43q-25 -172 -158 -274q-155 -119 -423 -119q-286 0 -449 141q-159 138 -159 373v139q0 245 162 382
t447 137q228 0 374 -96q149 -100 186 -282l278 1q-54 270 -260 420q-220 157 -576 157q-449 0 -683 -211q-107 -96 -160 -227t-53 -284v-127q0 -205 91 -362q98 -169 290 -260q208 -101 514 -101q263 0 453 95q170 84 274 233q91 133 109 296q3 28 3 70l3 122h-894v-180z
" />
    <glyph glyph-name="gbreve" unicode="&#x11f;" horiz-adv-x="1698" 
d="M1057 1606q-15 -80 -49 -115q-50 -52 -157 -52t-158 53q-37 38 -52 114h-165q13 -129 84 -200q95 -95 291 -95q193 0 287 94q71 72 85 201h-166zM1506 1175h-279v-202q-69 111 -185 169q-128 63 -307 63q-319 0 -494 -182q-52 -54 -87.5 -121t-52.5 -137.5t-17 -145.5
v-38q0 -115 43.5 -218.5t125.5 -181.5q85 -81 206.5 -126.5t273.5 -45.5q184 0 314 66q115 57 180 164v-124q0 -148 -100 -235q-112 -97 -334 -97q-112 0 -253 13q-144 12 -218 28l-25 -178q84 -17 223 -32q153 -17 304 -17q359 0 532 162q150 140 150 386v1030zM363 614
q0 49 10.5 96t33 93t56.5 83q115 127 331 127q222 0 335 -120q98 -105 98 -278v-11q0 -192 -109 -296q-113 -107 -324 -107q-204 0 -322 115q-109 106 -109 271v27z" />
    <glyph glyph-name="Gdotaccent" unicode="&#x120;" horiz-adv-x="1936" 
d="M827 1770q0 -58 40.5 -86.5t127.5 -28.5q100 0 142 29q39 26 39 86q0 61 -39 89q-42 29 -142 29q-87 0 -127.5 -29t-40.5 -89zM942 606h633l-2 -43q-25 -172 -158 -274q-155 -119 -423 -119q-286 0 -449 141q-159 138 -159 373v139q0 245 162 382t447 137q228 0 374 -96
q149 -100 186 -282l278 1q-54 270 -260 420q-220 157 -576 157q-449 0 -683 -211q-107 -96 -160 -227t-53 -284v-127q0 -205 91 -362q98 -169 290 -260q208 -101 514 -101q263 0 453 95q170 84 274 233q91 133 109 296q3 28 3 70l3 122h-894v-180z" />
    <glyph glyph-name="gdotaccent" unicode="&#x121;" horiz-adv-x="1698" 
d="M659 1432q0 -58 40.5 -86.5t127.5 -28.5q100 0 142 29q39 26 39 86q0 61 -39 89q-42 29 -142 29q-87 0 -127.5 -29t-40.5 -89zM1506 1175h-279v-202q-69 111 -185 169q-128 63 -307 63q-319 0 -494 -182q-78 -81 -117.5 -186t-39.5 -218v-38q0 -115 43.5 -218.5
t125.5 -181.5q85 -82 206.5 -127t273.5 -45q184 0 314 66q115 57 180 164v-124q0 -148 -100 -235q-112 -97 -334 -97q-112 0 -253 13q-144 12 -218 28l-25 -178q85 -17 223 -32q153 -17 304 -17q359 0 532 162q150 140 150 386v1030zM363 614q0 49 10.5 96t33 93t56.5 83
q115 127 331 127q222 0 335 -120q98 -105 98 -278v-11q0 -192 -109 -296q-113 -107 -324 -107q-204 0 -322 115q-109 106 -109 271v27z" />
    <glyph glyph-name="Gcommaaccent" unicode="&#x122;" horiz-adv-x="1936" 
d="M942 606h633l-2 -43q-25 -172 -158 -274q-155 -119 -423 -119q-286 0 -449 141q-159 138 -159 373v139q0 245 162 382t447 137q228 0 374 -96q149 -100 186 -282l278 1q-54 270 -260 420q-220 157 -576 157q-449 0 -683 -211q-107 -96 -160 -227t-53 -284v-127
q0 -205 91 -362q98 -169 290 -260q208 -101 514 -101q263 0 453 95q170 84 274 233q91 133 109 296q3 28 3 70l3 122h-894v-180zM847 -205q0 -92 155 -92q-7 -37 -27 -65q-14 -20 -65 -70l118 -43q58 46 89 95q45 69 45 157q0 55 -37 83q-40 31 -128 31q-77 0 -113.5 -22.5
t-36.5 -73.5z" />
    <glyph glyph-name="gcommaaccent" unicode="&#x123;" horiz-adv-x="1698" 
d="M965 1429q0 116 -171 116q8 45 30 80t71 81l-131 53q-62 -50 -100 -117q-49 -84 -49 -189q0 -68 41 -102q46 -40 140 -40q85 0 127 29t42 89zM1506 1175h-279v-202q-69 111 -185 169q-128 63 -307 63q-319 0 -494 -182q-78 -81 -117.5 -186t-39.5 -218v-38
q0 -115 43.5 -218.5t125.5 -181.5q85 -82 206.5 -127t273.5 -45q184 0 314 66q115 57 180 164v-124q0 -148 -100 -235q-112 -97 -334 -97q-112 0 -253 13q-144 12 -218 28l-25 -178q85 -17 223 -32q153 -17 304 -17q359 0 532 162q150 140 150 386v1030zM363 614
q0 49 10.5 96t33 93t56.5 83q115 127 331 127q222 0 335 -120q98 -105 98 -278v-11q0 -192 -109 -296q-113 -107 -324 -107q-204 0 -322 115q-109 106 -109 271v27z" />
    <glyph glyph-name="Hcircumflex" unicode="&#x124;" horiz-adv-x="2048" 
d="M860 1630l164 149l164 -149h235l-268 239h-263l-267 -239h235zM510 0v654h1028v-654h286v1512h-286v-645h-1028v645h-285v-1512h285z" />
    <glyph glyph-name="hcircumflex" unicode="&#x125;" horiz-adv-x="1788" 
d="M165 1649l164 149l164 -149h235l-268 239h-263l-267 -239h235zM470 0v551q0 105 57 211q59 112 163 178q116 74 263 74q164 0 255 -69q78 -60 107 -166q21 -76 21 -205v-574h278v579q0 162 -28 271q-43 159 -159 247q-142 108 -400 108q-189 0 -338 -82
q-148 -82 -219 -228v673h-278v-1568h278z" />
    <glyph glyph-name="Hbar" unicode="&#x126;" horiz-adv-x="2048" 
d="M510 0v654h1028v-654h286v1512h-286v-192h-1028v192h-285v-1512h285zM510 1165h1028v-298h-1028v298z" />
    <glyph glyph-name="hbar" unicode="&#x127;" horiz-adv-x="1788" 
d="M1586 850q28 -108 28 -271v-579h-278v574q0 129 -21 205q-29 106 -107 166q-91 69 -255 69q-147 0 -263 -74q-104 -66 -163 -178q-57 -106 -57 -211v-551h-278v1293h-144v156h144v119h278v-119h344v-156h-344v-398q71 146 219 228q149 82 338 82q258 0 400 -108
q116 -88 159 -247z" />
    <glyph glyph-name="Itilde" unicode="&#x128;" horiz-adv-x="734" 
d="M672 1878q-16 -19 -29 -31.5t-30 -25t-36 -18.5t-41 -6q-24 0 -51.5 9t-44 18t-50.5 28q-46 25 -86 39.5t-86 14.5q-84 0 -149 -58q-54 -48 -97 -131l99 -43q35 41 69 61.5t81 20.5q9 0 17 -1t17 -3t15 -3.5t16.5 -6t15 -6.5t16 -8t14.5 -8t16.5 -9.5t15.5 -8.5
q45 -26 84 -40.5t87 -14.5q85 0 147 57q49 45 89 130zM510 0v1512h-285v-1512h285z" />
    <glyph glyph-name="itilde" unicode="&#x129;" 
d="M635 1536q-16 -19 -29 -31.5t-30 -25t-36 -18.5t-41 -6q-24 0 -51.5 9t-44 18t-50.5 28q-30 16 -52 26.5t-55 19t-65 8.5q-84 0 -149 -58q-54 -48 -97 -131l99 -43q35 41 69 61.5t81 20.5q8 0 15.5 -1t14.5 -2t15 -3.5t13.5 -4.5t14.5 -6l13.5 -6t14.5 -7.5t13.5 -7.5
t14.5 -8t14 -8q45 -26 84 -40.5t87 -14.5q85 0 147 57q49 45 89 130zM471 0v1175h-279v-1175h279z" />
    <glyph glyph-name="Imacron" unicode="&#x12a;" horiz-adv-x="734" 
d="M779 1653v155h-790v-155h790zM510 0v1512h-285v-1512h285z" />
    <glyph glyph-name="imacron" unicode="&#x12b;" 
d="M741 1310v155h-790v-155h790zM471 0v1175h-279v-1175h279z" />
    <glyph glyph-name="Ibreve" unicode="&#x12c;" horiz-adv-x="734" 
d="M570 1945q-15 -80 -49 -115q-50 -52 -157 -52t-158 53q-37 38 -52 114h-165q13 -129 84 -200q95 -95 291 -95q193 0 287 94q71 72 85 201h-166zM510 0v1512h-285v-1512h285z" />
    <glyph glyph-name="ibreve" unicode="&#x12d;" 
d="M532 1602q-15 -80 -49 -115q-50 -52 -157 -52t-158 53q-37 38 -52 114h-165q13 -129 84 -200q95 -95 291 -95q193 0 287 94q71 72 85 201h-166zM471 0v1175h-279v-1175h279z" />
    <glyph glyph-name="Iogonek" unicode="&#x12e;" horiz-adv-x="734" 
d="M286 -86q-82 -52 -82 -117q0 -34 26 -54q31 -24 92 -24q50 0 92 7q27 5 66 18l1 -122q-95 -43 -228 -43q-118 0 -189 46q-72 47 -72 129q0 107 112 183q52 35 121 63v1512h285v-1512h-36q-132 -51 -188 -86z" />
    <glyph glyph-name="iogonek" unicode="&#x12f;" 
d="M464 1549q41 -34 41 -87v-2q0 -56 -43 -89t-132 -33t-132 33t-43 89v2q0 56 42 88q46 36 133 36q89 0 134 -37zM192 0v1175h279v-1175h-26q-140 -54 -193 -88q-82 -53 -82 -117q0 -34 26 -54q31 -24 92 -24q50 0 92 7q27 5 66 18l1 -122q-95 -43 -228 -43q-118 0 -189 46
q-72 47 -72 129q0 107 112 183q55 37 126 65h-4z" />
    <glyph glyph-name="Idotaccent" unicode="&#x130;" horiz-adv-x="734" 
d="M196 1771q0 -39 17.5 -64t55 -38t95.5 -13q100 0 142 29q39 26 39 86q0 61 -39 89q-42 29 -142 29q-87 0 -127.5 -29t-40.5 -89zM510 0v1512h-285v-1512h285z" />
    <glyph glyph-name="dotlessi" unicode="&#x131;" 
d="M471 0v1175h-279v-1175h279z" />
    <glyph glyph-name="IJ" unicode="&#x132;" horiz-adv-x="2124" 
d="M516 0v1512h-285v-1512h285zM1178 1304h510l-1 -757q0 -123 -50 -205.5t-145.5 -123t-234.5 -40.5q-94 0 -220 28q-112 23 -175 49l-83 -180q75 -39 211 -69q151 -36 290 -36q340 0 520 152q172 147 172 418v972h-794v-208z" />
    <glyph glyph-name="ij" unicode="&#x133;" horiz-adv-x="1416" 
d="M200 1460q0 -56 43 -89t132 -33q60 0 100 16t57.5 42.5t17.5 63.5v2q0 53 -41 87q-45 37 -134 37q-87 0 -133 -36q-42 -32 -42 -88v-2zM891 1460q0 -55 42 -87q44 -35 133 -35t134 35q41 32 41 87v2q0 53 -41 87q-45 37 -134 37q-87 0 -133 -36q-42 -32 -42 -88v-2z
M516 0v1175h-279v-1175h279zM929 1175v-1049q0 -99 -6 -158.5t-25 -100.5q-22 -46 -66 -68t-118 -22q-128 0 -239 33l-28 -165q52 -21 126 -37q103 -22 209 -22q174 0 272 70q87 61 124 187q29 98 29 270v1062h-278z" />
    <glyph glyph-name="Jcircumflex" unicode="&#x134;" horiz-adv-x="1379" 
d="M669 1634l164 149l164 -149h235l-268 239h-263l-267 -239h235zM429 1304h510l-1 -757q0 -183 -110.5 -276t-319.5 -93q-94 0 -220 28q-112 23 -175 49l-83 -180q75 -39 211 -69q151 -36 290 -36q340 0 520 152q172 147 172 418v972h-794v-208z" />
    <glyph glyph-name="jcircumflex" unicode="&#x135;" horiz-adv-x="665" 
d="M175 1307l164 149l164 -149h235l-268 239h-263l-267 -239h235zM205 1175v-1049q0 -99 -6 -158.5t-25 -100.5q-22 -46 -66 -68t-118 -22q-128 0 -239 33l-28 -165q52 -21 126 -37q103 -22 209 -22q174 0 272 70q87 61 124 187q29 98 29 270v1062h-278z" />
    <glyph glyph-name="Kcommaaccent" unicode="&#x136;" horiz-adv-x="1826" 
d="M509 0v663h387l568 -663h330l-655 773l567 739h-322l-497 -631h-378v631h-285v-1512h285zM726 -181q0 -92 155 -92q-7 -37 -27 -65q-14 -20 -65 -70l118 -43q58 46 89 95q45 69 45 157q0 55 -37 83q-40 31 -128 31q-77 0 -113.5 -22.5t-36.5 -73.5z" />
    <glyph glyph-name="kcommaaccent" unicode="&#x137;" horiz-adv-x="1594" 
d="M192 1568v-1568h278v507h325l440 -507h332l-552 597l483 578h-321l-372 -471h-335v864h-278zM639 -167q0 -92 155 -92q-7 -37 -27 -65q-14 -20 -65 -70l118 -43q58 46 89 95q45 69 45 157q0 55 -37 83q-40 31 -128 31q-77 0 -113.5 -22.5t-36.5 -73.5z" />
    <glyph glyph-name="kgreenlandic" unicode="&#x138;" horiz-adv-x="1594" 
d="M192 1175v-1175h278v507h325l440 -507h332l-552 597l483 578h-321l-372 -471h-335v471h-278z" />
    <glyph glyph-name="Lacute" unicode="&#x139;" horiz-adv-x="1568" 
d="M504 1918l-251 -267h218l309 267h-276zM1490 0v207h-983v1305h-285v-1512h1268z" />
    <glyph glyph-name="lacute" unicode="&#x13a;" 
d="M477 1919l-251 -267h218l309 267h-276zM470 0v1568h-278v-1568h278z" />
    <glyph glyph-name="Lcommaaccent" unicode="&#x13b;" horiz-adv-x="1568" 
d="M1490 0v207h-983v1305h-285v-1512h1268zM627 -167q0 -92 155 -92q-7 -37 -27 -65q-14 -20 -65 -70l118 -43q58 46 89 95q45 69 45 157q0 55 -37 83q-40 31 -128 31q-77 0 -113.5 -22.5t-36.5 -73.5z" />
    <glyph glyph-name="lcommaaccent" unicode="&#x13c;" 
d="M470 0v1568h-278v-1568h278zM180 -183q0 -92 155 -92q-7 -37 -27 -65q-14 -20 -65 -70l118 -43q58 46 89 95q45 69 45 157q0 55 -37 83q-40 31 -128 31q-77 0 -113.5 -22.5t-36.5 -73.5z" />
    <glyph glyph-name="Lcaron" unicode="&#x13d;" horiz-adv-x="1568" 
d="M1298 1027q49 93 72 171.5t23 124.5v194h-324v-205h45q66 0 63 -80q-3 -69 -55 -182zM1490 0v207h-983v1305h-285v-1512h1268z" />
    <glyph glyph-name="lcaron" unicode="&#x13e;" horiz-adv-x="939" 
d="M833 1079q49 93 72 171.5t23 124.5v194h-324v-205h45q66 0 63 -80q-3 -69 -55 -182zM470 0v1568h-278v-1568h278z" />
    <glyph glyph-name="Ldot" unicode="&#x13f;" horiz-adv-x="1568" 
d="M1490 0v207h-983v1305h-285v-1512h1268zM935 786q0 -39 17.5 -64t55.5 -38t98 -13q94 0 135 28t41 87q0 62 -41 90.5t-135 28.5q-90 0 -130.5 -29t-40.5 -90z" />
    <glyph glyph-name="ldot" unicode="&#x140;" horiz-adv-x="918" 
d="M470 0v1568h-278v-1568h278zM615 748q0 -59 40.5 -87t130.5 -28q94 0 135 28t41 87q0 62 -41 90.5t-135 28.5q-90 0 -130.5 -29t-40.5 -90z" />
    <glyph glyph-name="Lslash" unicode="&#x141;" horiz-adv-x="1568" 
d="M1490 0v207h-983v522l226 109v181l-226 -109v602h-285v-734l-207 -99v-181l207 98v-596h1268z" />
    <glyph glyph-name="lslash" unicode="&#x142;" 
d="M620 1019v-181l-150 -98v-740h-278v558l-153 -100v181l153 100v829h278v-647z" />
    <glyph glyph-name="Nacute" unicode="&#x143;" horiz-adv-x="2048" 
d="M1132 1918l-251 -267h218l309 267h-276zM1824 0v1512h-273l5 -1124l7 -71h-12l-1030 1195h-296v-1512h273l-5 1098l-8 82h12l1025 -1180h302z" />
    <glyph glyph-name="nacute" unicode="&#x144;" horiz-adv-x="1788" 
d="M1003 1573l-251 -267h218l309 267h-276zM470 0v551q0 109 58 214q63 112 165 176q117 73 262 73q213 0 305 -123q76 -101 76 -300v-591h278v595q0 172 -34 281q-49 152 -165 232q-142 97 -390 97q-187 0 -337 -83q-146 -81 -218 -227v280h-278v-1175h278z" />
    <glyph glyph-name="Ncommaaccent" unicode="&#x145;" horiz-adv-x="2048" 
d="M1824 0v1512h-273l5 -1124l7 -71h-12l-1030 1195h-296v-1512h273l-5 1098l-8 82h12l1025 -1180h302zM832 -167q0 -92 155 -92q-7 -37 -27 -65q-14 -20 -65 -70l118 -43q58 46 89 95q45 69 45 157q0 55 -37 83q-40 31 -128 31q-77 0 -113.5 -22.5t-36.5 -73.5z" />
    <glyph glyph-name="ncommaaccent" unicode="&#x146;" horiz-adv-x="1788" 
d="M470 0v551q0 109 58 214q63 112 165 176q117 73 262 73q213 0 305 -123q76 -101 76 -300v-591h278v595q0 172 -34 281q-49 152 -165 232q-142 97 -390 97q-187 0 -337 -83q-146 -81 -218 -227v280h-278v-1175h278zM737 -167q0 -92 155 -92q-7 -37 -27 -65
q-14 -20 -65 -70l118 -43q58 46 89 95q45 69 45 157q0 55 -37 83q-40 31 -128 31q-77 0 -113.5 -22.5t-36.5 -73.5z" />
    <glyph glyph-name="Ncaron" unicode="&#x147;" horiz-adv-x="2048" 
d="M590 1891l267 -239h263l268 239h-235l-164 -149l-165 149h-234zM1824 0v1512h-273l5 -1124l7 -71h-12l-1030 1195h-296v-1512h273l-5 1098l-8 82h12l1025 -1180h302z" />
    <glyph glyph-name="ncaron" unicode="&#x148;" horiz-adv-x="1788" 
d="M460 1547l267 -239h263l268 239h-235l-164 -149l-165 149h-234zM470 0v551q0 109 58 214q63 112 165 176q117 73 262 73q213 0 305 -123q76 -101 76 -300v-591h278v595q0 172 -34 281q-49 152 -165 232q-142 97 -390 97q-187 0 -337 -83q-146 -81 -218 -227v280h-278
v-1175h278z" />
    <glyph glyph-name="napostrophe" unicode="&#x149;" horiz-adv-x="1992" 
d="M674 0v551q0 109 58 214q63 112 165 176q117 73 262 73q213 0 305 -123q76 -101 76 -300v-591h278v595q0 172 -34 281q-49 152 -165 232q-142 97 -390 97q-187 0 -337 -83q-146 -81 -218 -227v280h-278v-1175h278zM-39 1086q0 -92 155 -92q-7 -37 -27 -65
q-14 -20 -65 -70l118 -43q58 46 89 95q45 69 45 157q0 55 -37 83q-40 31 -128 31q-77 0 -113.5 -22.5t-36.5 -73.5z" />
    <glyph glyph-name="Eng" unicode="&#x14a;" horiz-adv-x="2048" 
d="M498 0l-5 1098l-8 82h12l1025 -1180h8q-51 -264 -420 -264q-95 0 -221 28q-109 23 -174 49l-84 -180q75 -39 211 -69q153 -36 291 -36q343 0 520 145q172 142 172 414v182h-1v1243h-273l5 -1124l7 -71h-12l-1030 1195h-296v-1512h273z" />
    <glyph glyph-name="eng" unicode="&#x14b;" horiz-adv-x="1788" 
d="M470 0v551q0 109 58 214q63 112 165 176q117 73 262 73q213 0 305 -123q76 -101 76 -300v-457q0 -99 -6 -158.5t-25 -100.5q-22 -46 -66 -68t-118 -22q-55 0 -88 4q-65 6 -115 23l-36 10l-28 -169q52 -21 126 -37q103 -22 209 -22q175 0 272 63q88 56 124 174
q29 95 29 264v500q0 172 -34 281q-49 152 -165 232q-142 97 -390 97q-187 0 -337 -83q-146 -81 -218 -227v280h-278v-1175h278z" />
    <glyph glyph-name="Omacron" unicode="&#x14c;" horiz-adv-x="1989" 
d="M1403 1651v155h-790v-155h790zM99 693q0 -153 53 -284t160 -227q233 -212 682 -212t683 213q107 96 160 227t53 283v125q0 153 -53 284t-159 228q-235 212 -683 212q-449 0 -683 -211q-107 -97 -160 -228.5t-53 -284.5v-125zM994 178q-283 0 -444 136q-162 136 -162 371
v137q0 240 161 376t445 136t446 -136q161 -136 161 -376v-136q0 -236 -161 -372q-162 -136 -446 -136z" />
    <glyph glyph-name="omacron" unicode="&#x14d;" horiz-adv-x="1632" 
d="M1228 1311v155h-790v-155h790zM86 559q0 -265 172 -419q190 -171 558 -171q369 0 559 171q171 154 171 419v57q0 266 -171 420q-188 169 -559 169q-368 0 -558 -169q-172 -153 -172 -420v-57zM365 620q0 168 102 271q120 122 349 122q228 0 348 -123q102 -105 102 -271
v-62q0 -170 -104 -275q-119 -121 -346 -121t-347 122q-52 53 -78 124t-26 149v64z" />
    <glyph glyph-name="Obreve" unicode="&#x14e;" horiz-adv-x="1989" 
d="M1193 1943q-15 -80 -49 -115q-50 -52 -157 -52t-158 53q-37 38 -52 114h-165q13 -129 84 -200q95 -95 291 -95q193 0 287 94q71 72 85 201h-166zM99 693q0 -153 53 -284t160 -227q233 -212 682 -212t683 213q107 96 160 226.5t53 283.5v125q0 153 -53 284t-159 228
q-235 212 -683 212q-449 0 -683 -211q-107 -97 -160 -228.5t-53 -284.5v-125zM994 178q-283 0 -444 136q-162 136 -162 371v137q0 240 161 376t445 136t446 -136q161 -136 161 -376v-136q0 -236 -161 -372q-162 -136 -446 -136z" />
    <glyph glyph-name="obreve" unicode="&#x14f;" horiz-adv-x="1632" 
d="M1018 1603q-15 -80 -49 -115q-50 -52 -157 -52t-158 53q-37 38 -52 114h-165q13 -129 84 -200q95 -95 291 -95q193 0 287 94q71 72 85 201h-166zM86 559q0 -265 172 -419q190 -171 558 -171q369 0 559 171q171 154 171 419v57q0 266 -171 420q-188 169 -559 169
q-368 0 -558 -169q-172 -153 -172 -420v-57zM365 620q0 168 102 271q120 122 349 122q228 0 348 -123q102 -105 102 -271v-62q0 -170 -104 -275q-119 -121 -346 -121t-347 122q-52 53 -78 124t-26 149v64z" />
    <glyph glyph-name="Ohungarumlaut" unicode="&#x150;" horiz-adv-x="1989" 
d="M941 1916l-269 -267h216l307 267h-254zM1351 1916l-269 -267h210l319 267h-260zM99 693q0 -153 53 -284t160 -227q233 -212 682 -212t683 213q107 96 160 227t53 283v125q0 153 -53 284t-159 228q-235 212 -683 212q-449 0 -683 -211q-107 -97 -160 -228.5t-53 -284.5
v-125zM994 178q-283 0 -444 136q-162 136 -162 371v137q0 240 161 376t445 136t446 -136q161 -136 161 -376v-136q0 -236 -161 -372q-162 -136 -446 -136z" />
    <glyph glyph-name="ohungarumlaut" unicode="&#x151;" horiz-adv-x="1632" 
d="M766 1576l-269 -267h216l307 267h-254zM1176 1576l-269 -267h210l319 267h-260zM86 559q0 -265 172 -419q190 -171 558 -171q369 0 559 171q171 154 171 419v57q0 266 -171 420q-188 169 -559 169q-368 0 -558 -169q-172 -153 -172 -420v-57zM365 620q0 168 102 271
q120 122 349 122q228 0 348 -123q102 -105 102 -271v-62q0 -170 -104 -275q-119 -121 -346 -121t-347 122q-52 53 -78 124t-26 149v64z" />
    <glyph glyph-name="OE" unicode="&#x152;" horiz-adv-x="2729" 
d="M2673 0v207h-1092v457h985v207h-985v434h1085v207h-1367v-3q-160 33 -304 33q-449 0 -683 -211q-107 -97 -160 -228.5t-53 -284.5v-125q0 -153 53 -284t160 -227q233 -212 682 -212q167 0 313 30h1366zM994 178q-283 0 -444 136q-162 136 -162 371v137q0 240 161 376
t445 136q190 0 305 -70v-1014q-131 -72 -305 -72z" />
    <glyph glyph-name="oe" unicode="&#x153;" horiz-adv-x="2756" 
d="M2505 1031q168 -168 157 -458q0 -3 -3 -54h-1120q1 -47 12.5 -91t35.5 -86t59 -75q121 -114 343 -114q172 0 280 74q93 64 113 152l261 -1q-26 -111 -93 -194q-78 -100 -206 -153q-148 -62 -350 -62q-376 0 -563 171q-16 15 -31 31q-10 -11 -32 -31q-190 -171 -559 -171
q-368 0 -558 171q-172 154 -172 419v57q0 267 172 420q190 169 558 169q371 0 559 -169q11 -10 32 -31q23 23 36 34q190 166 553 166q340 0 516 -174zM2396 679v6q-8 163 -104 252q-105 97 -312 97q-155 0 -259 -57q-92 -50 -137 -132q-40 -73 -45 -150v-16h857zM1259 557
v62q0 166 -102 271q-120 123 -348 123q-229 0 -349 -122q-102 -103 -102 -271v-64q0 -78 26 -149t78 -124q120 -122 347 -122t346 121q104 105 104 275z" />
    <glyph glyph-name="Racute" unicode="&#x154;" horiz-adv-x="1877" 
d="M1001 1920l-251 -267h218l309 267h-276zM1728 1060q0 219 -145.5 335.5t-421.5 116.5h-936v-1512h284v584h499q125 -6 202 -50t105 -135l72 -225q32 -117 79 -174h304q-58 69 -98 203l-67 210q-30 96 -72 146q-47 54 -132 89q150 44 233 129q94 96 94 247v36zM1439 1043
q0 -125 -95 -188.5t-280 -63.5h-555v523h640q158 0 230 -74q60 -63 60 -176v-21z" />
    <glyph glyph-name="racute" unicode="&#x155;" horiz-adv-x="1186" 
d="M721 1572l-251 -267h218l309 267h-276zM470 0v550q0 107 50 206q56 111 156 172q116 72 276 72q77 0 117 -4q37 -5 74 -12l4 208q-43 8 -65 10q-37 3 -95 3q-211 0 -351 -100q-116 -85 -166 -228v298h-278v-1175h278z" />
    <glyph glyph-name="Rcommaaccent" unicode="&#x156;" horiz-adv-x="1877" 
d="M1728 1060q0 219 -145.5 335.5t-421.5 116.5h-936v-1512h284v584h499q125 -6 202 -50t105 -135l72 -225q32 -117 79 -174h304q-58 69 -98 203l-67 210q-30 96 -72 146q-47 54 -132 89q150 44 233 129q94 96 94 247v36zM1439 1043q0 -125 -94.5 -188.5t-280.5 -63.5h-555
v523h640q158 0 230 -74q60 -63 60 -176v-21zM761 -186q0 -92 155 -92q-7 -37 -27 -65q-14 -20 -65 -70l118 -43q58 46 89 95q45 69 45 157q0 55 -37 83q-40 31 -128 31q-77 0 -113.5 -22.5t-36.5 -73.5z" />
    <glyph glyph-name="rcommaaccent" unicode="&#x157;" horiz-adv-x="1186" 
d="M470 0v550q0 107 50 206q56 111 156 172q116 72 276 72q77 0 117 -4q37 -5 74 -12l4 208q-43 8 -65 10q-37 3 -95 3q-211 0 -351 -100q-116 -85 -166 -228v298h-278v-1175h278zM172 -191q0 -92 155 -92q-7 -37 -27 -65q-14 -20 -65 -70l118 -43q58 46 89 95q45 69 45 157
q0 55 -37 83q-40 31 -128 31q-77 0 -113.5 -22.5t-36.5 -73.5z" />
    <glyph glyph-name="Rcaron" unicode="&#x158;" horiz-adv-x="1877" 
d="M459 1893l267 -239h263l268 239h-235l-164 -149l-165 149h-234zM1728 1060q0 219 -145.5 335.5t-421.5 116.5h-936v-1512h284v584h499q125 -6 202 -50t105 -135l72 -225q32 -117 79 -174h304q-58 69 -98 203l-67 210q-30 96 -72 146q-47 54 -132 89q150 44 233 129
q94 96 94 247v36zM1439 1043q0 -125 -94.5 -188.5t-280.5 -63.5h-555v523h640q158 0 230 -74q60 -63 60 -176v-21z" />
    <glyph glyph-name="rcaron" unicode="&#x159;" horiz-adv-x="1186" 
d="M179 1545l267 -239h263l268 239h-235l-164 -149l-165 149h-234zM470 0v550q0 107 50 206q56 111 156 172q116 72 276 72q77 0 117 -4q37 -5 74 -12l4 208q-43 8 -65 10q-37 3 -95 3q-211 0 -351 -100q-116 -85 -166 -228v298h-278v-1175h278z" />
    <glyph glyph-name="Sacute" unicode="&#x15a;" horiz-adv-x="1660" 
d="M964 1921l-251 -267h218l309 267h-276zM1580 420q0 179 -129 279q-119 92 -373 136l-382 62q-157 24 -224 73q-70 51 -70 143t85 153q108 77 333 77q252 0 370 -81q97 -67 117 -199h256q-19 222 -192 345q-191 134 -553 134q-367 0 -550 -133q-79 -58 -117 -135t-38 -162
q0 -116 51.5 -198.5t152.5 -133.5t257 -78l397 -67q164 -27 238 -74q83 -54 83 -151q0 -111 -108 -174q-115 -67 -346 -67q-182 0 -305 50q-102 41 -152 116q-43 63 -43 135h-272q0 -106 50 -196.5t147 -157.5q211 -146 573 -146q361 0 552 115q192 116 192 335z" />
    <glyph glyph-name="sacute" unicode="&#x15b;" horiz-adv-x="1438" 
d="M866 1574l-251 -267h218l309 267h-276zM1359 348q0 99 -43 162t-128 100q-74 32 -179 50t-278 36q-180 17 -252 54q-67 33 -67 107q0 82 83 124t241 42q194 0 281 -66q57 -43 72 -120h244q-15 158 -149 254q-161 114 -461 114q-310 0 -459 -101q-131 -89 -131 -250
q0 -82 31.5 -141.5t98.5 -100.5q128 -79 437 -109q12 -1 62.5 -6t66.5 -6.5t50 -6t55.5 -9.5t40.5 -11q52 -17 78.5 -48t26.5 -82q0 -82 -84 -132q-97 -59 -282 -55q-182 1 -279 69q-83 55 -101 157h-243q27 -173 161 -276q162 -127 467 -128q316 -1 486 110
q77 50 115.5 119.5t38.5 149.5z" />
    <glyph glyph-name="Scircumflex" unicode="&#x15c;" horiz-adv-x="1660" 
d="M654 1653l164 149l164 -149h235l-268 239h-263l-267 -239h235zM1580 420q0 179 -129 279q-119 92 -373 136l-382 62q-157 24 -224 73q-70 51 -70 143t85 153q108 77 333 77q253 0 370 -81q97 -67 117 -199h256q-19 222 -192 345q-191 134 -553 134q-367 0 -550 -133
q-79 -58 -117 -135t-38 -162q0 -173 113.5 -271.5t347.5 -138.5l397 -67q164 -27 238 -74q83 -54 83 -151q0 -111 -108 -174q-115 -67 -346 -67q-182 0 -305 50q-102 41 -152 116q-43 63 -43 135h-272q0 -106 50 -196.5t147 -157.5q211 -146 573 -146q361 0 552 115
q192 116 192 335z" />
    <glyph glyph-name="scircumflex" unicode="&#x15d;" horiz-adv-x="1438" 
d="M556 1307l164 149l164 -149h235l-268 239h-263l-267 -239h235zM1359 348q0 99 -43 162t-128 100q-74 32 -179 50t-278 36q-180 17 -252 54q-67 33 -67 107q0 82 83 124t241 42q194 0 281 -66q57 -43 72 -120h244q-15 158 -149 254q-161 114 -461 114q-310 0 -459 -101
q-131 -89 -131 -250q0 -82 31.5 -141.5t98.5 -100.5q128 -79 437 -109q12 -1 62.5 -6t66.5 -6.5t50 -6t55.5 -9.5t40.5 -11q52 -17 78.5 -48t26.5 -82q0 -82 -84 -132q-97 -59 -282 -55q-182 1 -279 69q-83 55 -101 157h-243q27 -173 161 -276q162 -127 467 -128
q316 -1 486 110q77 50 115.5 119.5t38.5 149.5z" />
    <glyph glyph-name="Scedilla" unicode="&#x15e;" horiz-adv-x="1660" 
d="M1451 699q129 -100 129 -279q0 -219 -192 -335q-57 -34 -129.5 -58t-160.5 -38.5t-190 -17.5l-1 -58h15q8 0 12 1h9q98 0 169 -46q70 -47 70 -117q0 -91 -74.5 -137t-209.5 -46q-82 0 -150 19q-48 13 -117 44l36 101q64 -24 108.5 -35t96.5 -11q65 0 94 18q28 18 28 46
q0 41 -78 56q-32 7 -76 7q-42 0 -81 -6l1 165q-310 14 -497 144q-65 45 -109 100.5t-66 119.5t-22 134h272q0 -72 43 -135q50 -75 152 -116q123 -50 305 -50q231 0 346 67q108 63 108 174q0 97 -83 151q-74 47 -238 74l-397 67q-234 40 -347.5 138.5t-113.5 271.5
q0 85 38 162t117 135q183 133 550 133q362 0 553 -134q173 -123 192 -345h-256q-20 132 -117 199q-118 81 -370 81q-225 0 -333 -77q-85 -61 -85 -153t70 -143q67 -49 224 -73l382 -62q254 -44 373 -136z" />
    <glyph glyph-name="scedilla" unicode="&#x15f;" horiz-adv-x="1438" 
d="M1188 610q56 -25 93 -59t57.5 -85t20.5 -118q0 -80 -38.5 -149.5t-115.5 -119.5q-72 -47 -176 -75t-239 -34l-1 -56h15q8 0 12 1h9q98 0 169 -46q70 -47 70 -117q0 -91 -74.5 -137t-209.5 -46q-82 0 -150 19q-48 13 -117 44l36 101q42 -16 69.5 -24.5t63.5 -15t72 -6.5
q66 0 94 18t28 46q0 41 -78 56q-32 7 -76 7q-42 0 -81 -6l1 164q-251 15 -390 125q-134 103 -161 276h243q18 -102 101 -157q97 -68 279 -69q185 -4 282 55q84 50 84 132q0 51 -26.5 82t-78.5 48q-19 6 -40.5 11t-55.5 9.5t-49.5 6t-66.5 6.5t-63 6q-309 30 -437 109
q-34 21 -58.5 46t-40.5 55.5t-23.5 65t-7.5 75.5q0 161 131 250q149 101 459 101q300 0 461 -114q134 -96 149 -254h-244q-15 77 -72 120q-87 66 -281 66q-78 0 -138.5 -10.5t-101.5 -31t-62.5 -52t-21.5 -72.5q0 -74 67 -107q72 -37 252 -54q85 -9 139 -15.5t117.5 -17
t112.5 -23.5t88 -30z" />
    <glyph glyph-name="Scaron" unicode="&#x160;" horiz-adv-x="1660" 
d="M421 1894l267 -239h263l268 239h-235l-164 -149l-165 149h-234zM1580 420q0 179 -129 279q-119 92 -373 136l-382 62q-157 24 -224 73q-70 51 -70 143t85 153q108 77 333 77q252 0 370 -81q97 -67 117 -199h256q-19 222 -192 345q-191 134 -553 134q-367 0 -550 -133
q-79 -58 -117 -135t-38 -162q0 -116 51.5 -198t152.5 -133.5t257 -78.5l397 -67q164 -27 238 -74q83 -54 83 -151q0 -111 -108 -174q-115 -67 -346 -67q-182 0 -305 50q-102 41 -152 116q-43 63 -43 135h-272q0 -106 50 -196.5t147 -157.5q211 -146 573 -146q361 0 552 115
q192 116 192 335z" />
    <glyph glyph-name="scaron" unicode="&#x161;" horiz-adv-x="1438" 
d="M324 1548l267 -239h263l268 239h-235l-164 -149l-165 149h-234zM1359 348q0 51 -11 92t-33.5 72.5t-53.5 55.5t-73 42q-74 32 -179 50t-278 36q-180 17 -252 54q-67 33 -67 107q0 82 83 124t241 42q194 0 281 -66q57 -43 72 -120h244q-15 158 -149 254q-161 114 -461 114
q-310 0 -459 -101q-131 -89 -131 -250q0 -82 31.5 -141.5t98.5 -100.5q128 -79 437 -109q12 -1 62.5 -6t66.5 -6.5t50 -6t55.5 -9.5t40.5 -11q52 -17 78.5 -48t26.5 -82q0 -82 -84 -132q-97 -59 -282 -55q-182 1 -279 69q-83 55 -101 157h-243q27 -173 161 -276
q162 -127 467 -128q316 -1 486 110q77 50 115.5 119.5t38.5 149.5z" />
    <glyph glyph-name="uni0162" unicode="&#x162;" horiz-adv-x="1587" 
d="M1592 1305v207h-1596v-207h655v-1305h285v1305h656zM656 -179q0 -92 155 -92q-7 -37 -27 -65q-14 -20 -65 -70l118 -43q58 46 89 95q45 69 45 157q0 55 -37 83q-40 31 -128 31q-77 0 -113.5 -22.5t-36.5 -73.5z" />
    <glyph glyph-name="uni0163" unicode="&#x163;" horiz-adv-x="1098" 
d="M249 1459v-284h-200v-186h200v-519q0 -158 24 -248q32 -122 123 -182q104 -71 295 -71q101 0 189 22q72 18 127 43l-13 165l-43 -12q-22 -7 -52 -12q-63 -13 -157 -13q-129 0 -179 93q-36 66 -36 195v539h464v186h-464v284h-278zM509 -231q0 -92 155 -92q-7 -37 -27 -65
q-14 -20 -65 -70l118 -43q58 46 89 95q45 69 45 157q0 55 -37 83q-40 31 -128 31q-77 0 -113.5 -22.5t-36.5 -73.5z" />
    <glyph glyph-name="Tcaron" unicode="&#x164;" horiz-adv-x="1587" 
d="M394 1891l267 -239h263l268 239h-235l-164 -149l-165 149h-234zM1592 1305v207h-1596v-207h655v-1305h285v1305h656z" />
    <glyph glyph-name="tcaron" unicode="&#x165;" horiz-adv-x="1409" 
d="M1293 1026q49 93 72 171.5t23 124.5v194h-324v-205h45q66 0 63 -80q-3 -69 -55 -182zM249 1459v-284h-200v-186h200v-519q0 -158 24 -248q32 -122 123 -182q104 -71 295 -71q101 0 189 22q72 18 127 43l-13 165l-43 -12q-22 -7 -52 -12q-63 -13 -157 -13q-129 0 -179 93
q-36 66 -36 195v539h464v186h-464v284h-278z" />
    <glyph glyph-name="Tbar" unicode="&#x166;" horiz-adv-x="1587" 
d="M1592 1305h-656v-601h256v-155h-256v-549h-285v549h-249v155h249v601h-655v207h1596v-207z" />
    <glyph glyph-name="tbar" unicode="&#x167;" horiz-adv-x="1098" 
d="M994 199l13 -165q-55 -25 -127 -43q-88 -22 -189 -22q-191 0 -295 71q-91 60 -123 182q-24 90 -24 248v50h-183v155h183v314h-200v186h200v284h278v-284h464v-186h-464v-314h329v-155h-329v-70q0 -129 36 -195q50 -93 179 -93q94 0 157 13q30 5 52 12z" />
    <glyph glyph-name="Utilde" unicode="&#x168;" horiz-adv-x="1942" 
d="M1271 1881q-33 -39 -64 -60t-72 -21q-24 0 -51.5 9t-44 18t-50.5 28q-46 25 -86 39.5t-86 14.5q-84 0 -149 -58q-54 -48 -97 -131l99 -43q35 41 69 61.5t81 20.5q9 0 17 -1t17 -3t15 -3.5t16.5 -6t15 -6.5t16 -8t14.5 -8t16.5 -9.5t15.5 -8.5q29 -17 50.5 -27.5t54.5 -19
t66 -8.5q85 0 147 57q49 45 89 130zM1499 1512v-878q0 -201 -115 -319q-134 -137 -412 -137q-270 0 -407 134q-122 119 -122 318v882h-285v-881q0 -175 71 -314q82 -160 251 -247q193 -100 490 -100q298 0 491 102q168 88 251 248q71 136 71 311v881h-284z" />
    <glyph glyph-name="utilde" unicode="&#x169;" horiz-adv-x="1788" 
d="M1176 1537q-33 -39 -64 -60t-72 -21q-24 0 -51.5 9t-44 18t-50.5 28q-22 12 -39 20t-39.5 16.5t-46 13t-47.5 4.5q-84 0 -149 -58q-54 -48 -97 -131l99 -43q35 41 69 61.5t81 20.5q9 0 17 -1t17 -3t15 -3.5t16.5 -6t15 -6.5t16 -8t14.5 -8t16.5 -9.5t15.5 -8.5
q45 -26 84 -40.5t87 -14.5q85 0 147 57q49 45 89 130zM1321 1175v-551q0 -111 -57 -213q-61 -111 -165 -177q-117 -73 -262 -73q-214 0 -305 123q-76 101 -76 300v591h-279v-595q0 -167 35 -281q46 -150 166 -232q141 -97 388 -97q188 0 337 82q148 82 218 226v-278h279
v1175h-279z" />
    <glyph glyph-name="Umacron" unicode="&#x16a;" horiz-adv-x="1942" 
d="M1377 1656v155h-790v-155h790zM1499 1512v-878q0 -201 -115 -319q-134 -137 -412 -137q-270 0 -407 134q-122 119 -122 318v882h-285v-881q0 -175 71 -314q82 -160 251 -247q193 -100 490 -100q298 0 491 102q168 88 251 248q71 136 71 311v881h-284z" />
    <glyph glyph-name="umacron" unicode="&#x16b;" horiz-adv-x="1788" 
d="M1282 1312v155h-790v-155h790zM1321 1175v-551q0 -111 -57 -213q-61 -111 -165 -177q-117 -73 -262 -73q-214 0 -305 123q-76 101 -76 300v591h-279v-595q0 -167 35 -281q46 -150 166 -232q141 -97 388 -97q188 0 337 82q148 82 218 226v-278h279v1175h-279z" />
    <glyph glyph-name="Ubreve" unicode="&#x16c;" horiz-adv-x="1942" 
d="M1168 1948q-15 -80 -49 -115q-50 -52 -157 -52t-158 53q-37 38 -52 114h-165q13 -129 84 -200q95 -95 291 -95q193 0 287 94q71 72 85 201h-166zM1499 1512v-878q0 -201 -115 -319q-134 -137 -412 -137q-270 0 -407 134q-122 119 -122 318v882h-285v-881q0 -175 71 -314
q82 -160 251 -247q193 -100 490 -100q298 0 491 102q168 88 251 248q71 136 71 311v881h-284z" />
    <glyph glyph-name="ubreve" unicode="&#x16d;" horiz-adv-x="1788" 
d="M1073 1604q-15 -80 -49 -115q-50 -52 -157 -52t-158 53q-37 38 -52 114h-165q13 -129 84 -200q95 -95 291 -95q193 0 287 94q71 72 85 201h-166zM1321 1175v-551q0 -111 -57 -213q-61 -111 -165 -177q-117 -73 -262 -73q-214 0 -305 123q-76 101 -76 300v591h-279v-595
q0 -167 35 -281q46 -150 166 -232q141 -97 388 -97q188 0 337 82q148 82 218 226v-278h279v1175h-279z" />
    <glyph glyph-name="Uring" unicode="&#x16e;" horiz-adv-x="1942" 
d="M702 1836q0 -95 65.5 -138.5t197.5 -43.5t198 44t66 138t-66.5 138.5t-197.5 44.5q-132 0 -197.5 -44t-65.5 -139zM851 1836q0 41 27.5 57.5t86.5 16.5q39 0 63.5 -6.5t38 -23t13.5 -44.5q0 -41 -28 -57t-87 -16t-86.5 16t-27.5 57zM1499 1512v-878q0 -201 -115 -319
q-134 -137 -412 -137q-270 0 -407 134q-122 119 -122 318v882h-285v-881q0 -175 71 -314q82 -160 251 -247q193 -100 490 -100q298 0 491 102q168 88 251 248q71 136 71 311v881h-284z" />
    <glyph glyph-name="uring" unicode="&#x16f;" horiz-adv-x="1788" 
d="M607 1492q0 -64 30 -104.5t87.5 -59t145.5 -18.5q132 0 198 44t66 138q0 183 -264 183q-132 0 -197.5 -44t-65.5 -139zM756 1492q0 41 27.5 57.5t86.5 16.5t87 -16.5t28 -57.5t-28 -57t-87 -16t-86.5 16t-27.5 57zM1321 1175v-551q0 -111 -57 -213q-61 -111 -165 -177
q-117 -73 -262 -73q-214 0 -305 123q-76 101 -76 300v591h-279v-595q0 -167 35 -281q46 -150 166 -232q141 -97 388 -97q188 0 337 82q148 82 218 226v-278h279v1175h-279z" />
    <glyph glyph-name="Uhungarumlaut" unicode="&#x170;" horiz-adv-x="1942" 
d="M916 1921l-269 -267h216l307 267h-254zM1326 1921l-269 -267h210l319 267h-260zM1499 1512v-878q0 -201 -115 -319q-134 -137 -412 -137q-270 0 -407 134q-122 119 -122 318v882h-285v-881q0 -175 71 -314q82 -160 251 -247q194 -100 490 -100q298 0 491 102
q168 88 251 248q71 136 71 311v881h-284z" />
    <glyph glyph-name="uhungarumlaut" unicode="&#x171;" horiz-adv-x="1788" 
d="M821 1577l-269 -267h216l307 267h-254zM1231 1577l-269 -267h210l319 267h-260zM1321 1175v-551q0 -111 -57 -213q-61 -111 -165 -177q-117 -73 -262 -73q-214 0 -305 123q-76 101 -76 300v591h-279v-595q0 -167 35 -281q46 -150 166 -232q141 -97 388 -97q188 0 337 82
q148 82 218 226v-278h279v1175h-279z" />
    <glyph glyph-name="Uogonek" unicode="&#x172;" horiz-adv-x="1942" 
d="M1499 1512h284v-881q0 -175 -71 -311q-83 -160 -251 -248q-14 -8 -22 -11l7 -2q-140 -54 -193 -88q-82 -53 -82 -117q0 -34 26 -54q31 -24 92 -24q50 0 92 7q27 5 66 18l1 -122q-95 -43 -228 -43q-118 0 -189 46q-72 47 -72 129q0 91 82 161q-46 -2 -71 -2
q-296 0 -490 100q-169 87 -251 247q-71 139 -71 314v881h285v-882q0 -199 122 -318q137 -134 407 -134q278 0 412 137q115 118 115 319v878z" />
    <glyph glyph-name="uogonek" unicode="&#x173;" horiz-adv-x="1788" 
d="M1601 -258l1 -122q-95 -43 -228 -43q-118 0 -189 46q-72 47 -72 129q0 107 112 183q55 37 126 65h-30v278q-70 -144 -218 -226q-149 -82 -337 -82q-247 0 -388 97q-120 82 -166 232q-35 114 -35 281v595h279v-591q0 -199 76 -300q91 -123 305 -123q145 0 262 73
q104 66 165 177q57 102 57 213v551h279v-1175q-140 -54 -193 -88q-82 -52 -82 -117q0 -34 26 -54q31 -24 92 -24q50 0 92 7q27 5 66 18z" />
    <glyph glyph-name="Wcircumflex" unicode="&#x174;" horiz-adv-x="2583" 
d="M1124 1651l164 149l164 -149h235l-268 239h-263l-267 -239h235zM521 0h358v1l4 -1l393 1186l9 52h13l10 -51l391 -1187h362l506 1512h-295l-372 -1180l-20 -131h-20l-23 130l-388 1181h-315l-389 -1180l-23 -131h-21l-19 129l-372 1182h-295z" />
    <glyph glyph-name="wcircumflex" unicode="&#x175;" horiz-adv-x="2325" 
d="M998 1307l164 149l164 -149h235l-268 239h-263l-267 -239h235zM1994 1175l-289 -992h-40l-326 992h-353l-326 -992h-40l-288 992h-290l394 -1175h392l323 967h22l324 -967h392l394 1175h-289z" />
    <glyph glyph-name="Ycircumflex" unicode="&#x176;" horiz-adv-x="1701" 
d="M685 1647l164 149l164 -149h235l-268 239h-263l-267 -239h235zM1739 1512h-328l-560 -759l-563 759h-328l748 -974v-538h285v538z" />
    <glyph glyph-name="ycircumflex" unicode="&#x177;" horiz-adv-x="1525" 
d="M584 1306l164 149l164 -149h235l-268 239h-263l-267 -239h235zM1200 1175l-442 -986l-435 986h-298l578 -1175h73l-31 -75q-68 -152 -228 -237l98 -141q92 28 182 105q108 93 168 222l635 1301h-300z" />
    <glyph glyph-name="Ydieresis" unicode="&#x178;" horiz-adv-x="1701" 
d="M444 1753q0 -52 36 -77t112 -25q86 0 124 26q33 22 33 76q0 56 -33 79q-38 26 -124 26q-77 0 -112.5 -25.5t-35.5 -79.5zM946 1753q0 -52 35.5 -77t112.5 -25q86 0 123 26q33 22 33 76q0 56 -33 79q-37 26 -123 26q-52 0 -84.5 -11.5t-48 -34.5t-15.5 -59zM1739 1512
h-328l-560 -759l-563 759h-328l748 -974v-538h285v538z" />
    <glyph glyph-name="Zacute" unicode="&#x179;" horiz-adv-x="1658" 
d="M975 1917l-251 -267h218l309 267h-276zM1594 0v207h-1183l1143 1120v185h-1429v-207h1082l-1143 -1110v-195h1530z" />
    <glyph glyph-name="zacute" unicode="&#x17a;" horiz-adv-x="1441" 
d="M891 1578l-251 -267h218l309 267h-276zM1340 0v191h-915l903 813l2 171h-1169v-192h843l-903 -811v-172h1239z" />
    <glyph glyph-name="Zdotaccent" unicode="&#x17b;" horiz-adv-x="1658" 
d="M660 1772q0 -39 17.5 -64t55 -38t95.5 -13q100 0 142 29q39 26 39 86q0 61 -39 89q-42 29 -142 29q-87 0 -127.5 -29t-40.5 -89zM1594 0v207h-1183l1143 1120v185h-1429v-207h1082l-1143 -1110v-195h1530z" />
    <glyph glyph-name="zdotaccent" unicode="&#x17c;" horiz-adv-x="1441" 
d="M576 1432q0 -58 40.5 -86.5t127.5 -28.5q100 0 142 29q39 26 39 86q0 61 -39 89q-42 29 -142 29q-87 0 -127.5 -29t-40.5 -89zM1340 0v191h-915l903 813l2 171h-1169v-192h843l-903 -811v-172h1239z" />
    <glyph glyph-name="Zcaron" unicode="&#x17d;" horiz-adv-x="1658" 
d="M433 1891l267 -239h263l268 239h-235l-164 -149l-165 149h-234zM1594 0v207h-1183l1143 1120v185h-1429v-207h1082l-1143 -1110v-195h1530z" />
    <glyph glyph-name="zcaron" unicode="&#x17e;" horiz-adv-x="1441" 
d="M349 1551l267 -239h263l268 239h-235l-164 -149l-165 149h-234zM1340 0v191h-915l903 813l2 171h-1169v-192h843l-903 -811v-172h1239z" />
    <glyph glyph-name="AEacute" unicode="&#x1fc;" horiz-adv-x="2620" 
d="M1768 1918l-251 -267h218l309 267h-276zM310 0l243 393h623v-393h1374v207h-1092v457h986v207h-986v434h1085v207h-1567l-973 -1512h307zM1117 1306h59v-714h-500z" />
    <glyph glyph-name="aeacute" unicode="&#x1fd;" horiz-adv-x="2722" 
d="M1481 1586l-251 -267h218l309 267h-276zM2608 519q3 50 3 54q12 289 -157 458q-176 174 -516 174q-378 0 -570 -181q-77 86 -199 131q-138 50 -338 50q-252 0 -407 -70q-127 -57 -193 -159q-46 -73 -62 -175h266q21 97 91 149q95 70 294 70q219 0 311 -95q76 -79 76 -234
v-58q-103 38 -203 61q-165 37 -305 37q-221 0 -355 -56q-119 -50 -171 -140q-45 -75 -45 -172q0 -94 40 -169q54 -101 168 -156q139 -68 364 -68q174 0 318 68q145 68 218 185q24 24 43 46q76 -142 237 -219q170 -81 427 -81q202 0 350 62q128 53 206 153q67 83 93 194
l-261 1q-20 -88 -113 -152q-108 -74 -280 -74q-222 0 -343 114q-104 99 -106 252h1119zM1488 695q5 78 46 150q45 83 137 132q104 57 258 57q207 0 312 -97q96 -89 104 -252v-6h-857v16zM775 156q-212 0 -304 80q-64 55 -64 138q0 47 21 85q26 50 95 82q80 37 222 37
q116 0 272 -37q120 -30 190 -62v-48q-7 -33 -32.5 -78t-70.5 -86q-126 -111 -329 -111z" />
    <glyph glyph-name="Oslashacute" unicode="&#x1fe;" horiz-adv-x="1989" 
d="M1287 1918l-251 -267h218l309 267h-276zM99 693q0 -204 90 -360q95 -166 282 -259l-89 -154h257l47 81q143 -31 308 -31q449 0 683 213q107 96 160 226.5t53 283.5v125q0 207 -92 363q-101 170 -291 260l87 149h-258l-45 -77q-136 29 -296 29q-449 0 -683 -211
q-107 -97 -160 -228.5t-53 -284.5v-125zM994 178q-283 0 -444 136q-162 136 -162 371v137q0 240 161 376t445 136t446 -136q161 -136 161 -376v-136q0 -236 -161 -372q-162 -136 -446 -136z" />
    <glyph glyph-name="oslashacute" unicode="&#x1ff;" horiz-adv-x="1632" 
d="M962 1558l-251 -267h218l309 267h-276zM86 559q0 -290 202 -446l-144 -185l284 -1l68 84q142 -42 320 -42q369 0 559 171q171 154 171 419v57q0 291 -206 447l143 188l-282 2l-72 -88q-132 40 -313 40q-368 0 -558 -169q-172 -153 -172 -420v-57zM365 620q0 168 102 271
q120 122 349 122q228 0 348 -123q102 -105 102 -271v-62q0 -170 -104 -275q-119 -121 -346 -121t-347 122q-52 53 -78 124t-26 149v64z" />
    <glyph glyph-name="Scommaaccent" unicode="&#x218;" horiz-adv-x="1660" 
d="M1580 420q0 179 -129 279q-119 92 -373 136l-382 62q-157 24 -224 73q-70 51 -70 143t85 153q108 77 333 77q252 0 370 -81q97 -67 117 -199h256q-19 222 -192 345q-191 134 -553 134q-367 0 -550 -133q-79 -58 -117 -135t-38 -162q0 -116 51.5 -198.5t152.5 -133.5
t257 -78l397 -67q164 -27 238 -74q83 -54 83 -151q0 -111 -108 -174q-115 -67 -346 -67q-182 0 -305 50q-102 41 -152 116q-43 63 -43 135h-272q0 -106 50 -196.5t147 -157.5q211 -146 573 -146q361 0 552 115q192 116 192 335zM659 -223q0 -116 171 -116q-8 -45 -29 -79
q-23 -36 -72 -82l131 -53q61 49 101 118q48 86 48 188q0 68 -41 103q-47 39 -140 39q-85 0 -127 -29t-42 -89z" />
    <glyph glyph-name="scommaaccent" unicode="&#x219;" horiz-adv-x="1438" 
d="M1359 348q0 67 -20.5 118t-57.5 85t-93 59q-74 32 -179 50t-278 36q-180 17 -252 54q-67 33 -67 107q0 82 83 124t241 42q194 0 281 -66q57 -43 72 -120h244q-15 158 -149 254q-161 114 -461 114q-310 0 -459 -101q-131 -89 -131 -250q0 -82 31.5 -141.5t98.5 -100.5
q128 -79 437 -109q12 -1 62.5 -6t66.5 -6.5t50 -6t55.5 -9.5t40.5 -11q52 -17 78.5 -48t26.5 -82q0 -82 -84 -132q-97 -59 -282 -55q-182 1 -279 69q-83 55 -101 157h-243q27 -173 161 -276q162 -127 467 -128q316 -1 486 110q77 50 115.5 119.5t38.5 149.5zM599 -220
q0 -92 155 -92q-7 -37 -27 -65q-14 -20 -65 -70l118 -43q58 46 89 95q45 69 45 157q0 55 -37 83q-40 31 -128 31q-77 0 -113.5 -22.5t-36.5 -73.5z" />
    <glyph glyph-name="uni021A" unicode="&#x21a;" horiz-adv-x="1581" 
d="M1589 1305v207h-1596v-207h655v-1305h285v1305h656zM623 -173q0 -92 155 -92q-7 -37 -27 -65q-14 -20 -65 -70l118 -43q58 46 89 95q45 69 45 157q0 55 -37 83q-40 31 -128 31q-77 0 -113.5 -22.5t-36.5 -73.5z" />
    <glyph glyph-name="uni021B" unicode="&#x21b;" horiz-adv-x="1098" 
d="M249 1459v-284h-200v-186h200v-519q0 -158 24 -248q32 -122 123 -182q104 -71 295 -71q101 0 189 22q72 18 127 43l-13 165l-43 -12q-22 -7 -52 -12q-63 -13 -157 -13q-129 0 -179 93q-36 66 -36 195v539h464v186h-464v284h-278zM472 -220q0 -92 155 -92q-7 -37 -27 -65
q-14 -20 -65 -70l118 -43q58 46 89 95q45 69 45 157q0 55 -37 83q-40 31 -128 31q-77 0 -113.5 -22.5t-36.5 -73.5z" />
    <glyph glyph-name="uni0237" unicode="&#x237;" horiz-adv-x="665" 
d="M205 1175v-1049q0 -99 -6 -158.5t-25 -100.5q-22 -46 -66 -68t-118 -22q-128 0 -239 33l-28 -165q52 -21 126 -37q103 -22 209 -22q174 0 272 70q87 61 124 187q29 98 29 270v1062h-278z" />
    <glyph glyph-name="circumflex" unicode="&#x2c6;" horiz-adv-x="1385" 
d="M467 1282l164 149l164 -149h235l-268 239h-263l-267 -239h235z" />
    <glyph glyph-name="caron" unicode="&#x2c7;" horiz-adv-x="1385" 
d="M290 1521l267 -239h263l268 239h-235l-164 -149l-165 149h-234z" />
    <glyph glyph-name="breve" unicode="&#x2d8;" horiz-adv-x="1307" 
d="M826 1567q-15 -80 -49 -115q-50 -52 -157 -52t-158 53q-37 38 -52 114h-165q13 -129 84 -200q95 -95 291 -95q193 0 287 94q71 72 85 201h-166z" />
    <glyph glyph-name="dotaccent" unicode="&#x2d9;" horiz-adv-x="1035" 
d="M201 1407q0 -58 40.5 -86.5t127.5 -28.5q100 0 142 29q39 26 39 86q0 61 -39 89q-42 29 -142 29q-87 0 -127.5 -29t-40.5 -89z" />
    <glyph glyph-name="ring" unicode="&#x2da;" horiz-adv-x="752" 
d="M97 1458q0 -95 65.5 -138.5t197.5 -43.5q88 0 145.5 18.5t88 59.5t30.5 104q0 94 -66.5 138.5t-197.5 44.5q-132 0 -197.5 -44t-65.5 -139zM246 1458q0 41 27.5 57.5t86.5 16.5q29 0 50 -3.5t36 -12.5t22 -23t7 -35q0 -41 -28 -57t-87 -16t-86.5 16t-27.5 57z" />
    <glyph glyph-name="ogonek" unicode="&#x2db;" horiz-adv-x="1182" 
d="M700 -258q-38 -13 -66 -18q-42 -7 -92 -7q-61 0 -92 24q-26 20 -26 54q0 65 82 117q53 34 193 88l-140 38q-150 -45 -235 -103q-112 -76 -112 -183q0 -82 72 -129q71 -46 189 -46q133 0 228 43z" />
    <glyph glyph-name="tilde" unicode="&#x2dc;" horiz-adv-x="1263" 
d="M868 1526q-33 -39 -64 -60t-72 -21q-24 0 -51.5 9t-44 18t-50.5 28q-46 25 -86 39.5t-86 14.5q-84 0 -149 -58q-54 -48 -97 -131l99 -43q35 41 69 61.5t81 20.5q22 0 47 -7.5t40.5 -15.5t43.5 -24q8 -5 12 -7q45 -26 84 -40.5t87 -14.5q85 0 147 57q49 45 89 130z" />
    <glyph glyph-name="hungarumlaut" unicode="&#x2dd;" horiz-adv-x="852" 
d="M238 1550l-269 -267h216l307 267h-254zM648 1550l-269 -267h210l319 267h-260z" />
    <glyph glyph-name="tonos" unicode="&#x384;" horiz-adv-x="1167" 
d="M790 1550l22 -293h178l27 293h-227z" />
    <glyph glyph-name="dieresistonos" unicode="&#x385;" horiz-adv-x="1115" 
d="M447 1697l21 -294h172l28 294h-221zM86 1415q0 -52 36 -77t112 -25q86 0 123 26q33 22 33 76q0 56 -33 79q-37 26 -123 26q-77 0 -112.5 -25.5t-35.5 -79.5zM714 1415q0 -52 35.5 -77t112.5 -25q86 0 123 26q33 22 33 76q0 56 -33 79q-37 26 -123 26q-52 0 -84.5 -11.5
t-48 -34.5t-15.5 -59z" />
    <glyph glyph-name="Alphatonos" unicode="&#x386;" horiz-adv-x="1839" 
d="M104 1520l22 -293h178l27 293h-227zM299 0l180 393h881l180 -393h295l-729 1512h-373l-729 -1512h295zM896 1306h47l326 -714h-699z" />
    <glyph glyph-name="Epsilontonos" unicode="&#x388;" horiz-adv-x="1879" 
d="M1762 0v207h-1092v457h985v207h-985v434h1086v207h-1368v-1512h1374zM6 1511l22 -293h178l27 293h-227z" />
    <glyph glyph-name="Etatonos" unicode="&#x389;" horiz-adv-x="2207" 
d="M2 1515l22 -293h178l27 293h-227zM669 0v654h1028v-654h286v1512h-286v-645h-1028v645h-285v-1512h285z" />
    <glyph glyph-name="Iotatonos" unicode="&#x38a;" horiz-adv-x="734" 
d="M-139 1513l22 -293h178l27 293h-227zM510 0v1512h-285v-1512h285z" />
    <glyph glyph-name="Omicrontonos" unicode="&#x38c;" horiz-adv-x="2159" 
d="M268 693q0 -153 53 -284t160 -227q233 -212 682 -212t683 213q107 96 160 226.5t53 283.5v125q0 101 -22.5 192t-70.5 173t-119 147q-235 212 -683 212q-449 0 -683 -211q-107 -97 -160 -228.5t-53 -284.5v-125zM27 1510l22 -293h178l27 293h-227zM1163 178
q-283 0 -444 136q-162 136 -162 371v137q0 240 161 376t445 136t446 -136q161 -136 161 -376v-136q0 -236 -161 -372q-162 -136 -446 -136z" />
    <glyph glyph-name="Upsilontonos" unicode="&#x38e;" horiz-adv-x="2044" 
d="M3 1513l22 -293h178l27 293h-227zM2087 1512h-328l-560 -759l-563 759h-328l748 -974v-538h285v538z" />
    <glyph glyph-name="Omegatonos" unicode="&#x38f;" horiz-adv-x="1950" 
d="M904 0v401q-191 38 -281 171q-72 105 -72 239v103q0 83 32 158t94 132q139 126 376 126q245 0 383 -130q60 -57 90.5 -131.5t30.5 -154.5v-98q0 -74 -28 -151q-34 -95 -106 -160q-85 -77 -220 -104v-401h577v209l-351 -1l2 77q204 67 314 219q100 138 100 321v102
q0 150 -81 284q-90 146 -257 232q-190 96 -453 96q-265 0 -453 -95q-168 -86 -256 -232q-82 -133 -82 -285v-101q0 -187 100 -324q109 -149 313 -216l3 -78l-352 1v-209h577zM13 1515l22 -293h178l27 293h-227z" />
    <glyph glyph-name="iotadieresistonos" unicode="&#x390;" 
d="M228 1688l21 -294h172l28 294h-221zM-133 1406q0 -52 36 -77t112 -25q86 0 123 26q33 22 33 76q0 56 -33 79q-37 26 -123 26q-77 0 -112.5 -25.5t-35.5 -79.5zM495 1406q0 -52 35.5 -77t112.5 -25q86 0 123 26q33 22 33 76q0 56 -33 79q-37 26 -123 26q-39 0 -67 -6
t-46 -19.5t-26.5 -33t-8.5 -46.5zM471 0v1175h-279v-1175h279z" />
    <glyph glyph-name="Alpha" unicode="&#x391;" horiz-adv-x="1839" 
d="M299 0l180 393h881l180 -393h295l-729 1512h-373l-729 -1512h295zM896 1306h47l326 -714h-699z" />
    <glyph glyph-name="Beta" unicode="&#x392;" horiz-adv-x="1877" 
d="M1770 449q0 145 -108 239t-294 111q166 18 250.5 99.5t84.5 214.5v52q0 167 -139 259q-133 88 -376 88h-963v-1512h935q302 0 452 94q158 99 158 313v42zM1414 1091q0 -100 -74 -152q-82 -58 -239 -58h-591v443h627q154 0 225 -64q52 -48 52 -128v-41zM1481 442
q1 -146 -112 -200q-82 -39 -260 -39h-599v489h598q175 0 269 -52q102 -57 104 -168v-30z" />
    <glyph glyph-name="Gamma" unicode="&#x393;" horiz-adv-x="1466" 
d="M1405 1305v207h-1179v-1512h284v1305h895z" />
    <glyph glyph-name="uni0394" unicode="&#x394;" horiz-adv-x="1839" 
d="M1835 0l-729 1512h-373l-729 -1512h268v-1h1286v1h277zM896 1306h47l506 -1107h-1059z" />
    <glyph glyph-name="Epsilon" unicode="&#x395;" horiz-adv-x="1716" 
d="M1599 0v207h-1092v457h985v207h-985v434h1086v207h-1368v-1512h1374z" />
    <glyph glyph-name="Zeta" unicode="&#x396;" horiz-adv-x="1658" 
d="M1594 0v207h-1183l1143 1120v185h-1429v-207h1082l-1143 -1110v-195h1530z" />
    <glyph glyph-name="Eta" unicode="&#x397;" horiz-adv-x="2048" 
d="M510 0v654h1028v-654h286v1512h-286v-645h-1028v645h-285v-1512h285z" />
    <glyph glyph-name="Theta" unicode="&#x398;" horiz-adv-x="1989" 
d="M99 693q0 -153 53 -284t160 -227q233 -212 682 -212t683 213q107 96 160 226.5t53 283.5v125q0 153 -53 284t-159 228q-235 212 -683 212q-449 0 -683 -211q-107 -97 -160 -228.5t-53 -284.5v-125zM994 178q-283 0 -444 136q-162 136 -162 371v137q0 240 161 376t445 136
t446 -136q161 -136 161 -376v-136q0 -236 -161 -372q-162 -136 -446 -136zM588 660h811v200h-811v-200z" />
    <glyph glyph-name="Iota" unicode="&#x399;" horiz-adv-x="734" 
d="M510 0v1512h-285v-1512h285z" />
    <glyph glyph-name="Kappa" unicode="&#x39a;" horiz-adv-x="1826" 
d="M509 0v663h387l568 -663h330l-655 773l567 739h-322l-497 -631h-378v631h-285v-1512h285z" />
    <glyph glyph-name="Lambda" unicode="&#x39b;" horiz-adv-x="1819" 
d="M284 0l594 1307h51l595 -1307h298l-727 1512h-381l-726 -1512h296z" />
    <glyph glyph-name="Mu" unicode="&#x39c;" horiz-adv-x="2435" 
d="M1075 235h286l575 1048h25l-7 -85l-12 -1198h269v1512h-396l-566 -968l-25 -75h-13l-24 73l-566 970h-396v-1512h269l-12 1198l-7 85h23z" />
    <glyph glyph-name="Nu" unicode="&#x39d;" horiz-adv-x="2048" 
d="M1824 0v1512h-273l5 -1124l7 -71h-12l-1030 1195h-296v-1512h273l-5 1098l-8 82h12l1025 -1180h302z" />
    <glyph glyph-name="Xi" unicode="&#x39e;" horiz-adv-x="1557" 
d="M108 1307h1333v205h-1333v-205zM251 667h1044v207h-1044v-207zM107 0h1334v205h-1334v-205z" />
    <glyph glyph-name="Omicron" unicode="&#x39f;" horiz-adv-x="1989" 
d="M99 693q0 -153 53 -284t160 -227q233 -212 682 -212t683 213q107 96 160 226.5t53 283.5v125q0 153 -53 284t-159 228q-235 212 -683 212q-449 0 -683 -211q-107 -97 -160 -228.5t-53 -284.5v-125zM994 178q-283 0 -444 136q-162 136 -162 371v137q0 240 161 376t445 136
t446 -136q161 -136 161 -376v-136q0 -236 -161 -372q-162 -136 -446 -136z" />
    <glyph glyph-name="Pi" unicode="&#x3a0;" horiz-adv-x="1986" 
d="M506 0v1311h993v-1311h286v1512h-1563v-1512h284z" />
    <glyph glyph-name="Rho" unicode="&#x3a1;" horiz-adv-x="1791" 
d="M1728 1065q0 213 -158 330q-160 117 -455 117h-890v-1512h284v511h600q307 0 463 124t156 359v71zM1439 999q0 -140 -82 -208q-88 -73 -290 -73h-558v587h578q190 0 276 -69q76 -62 76 -188v-49z" />
    <glyph glyph-name="Sigma" unicode="&#x3a3;" horiz-adv-x="1629" 
d="M1062 793l-585 512h1014v207h-1344v-186l624 -570l-628 -569v-187h1370v207h-1016l565 511v75z" />
    <glyph glyph-name="Tau" unicode="&#x3a4;" horiz-adv-x="1587" 
d="M1592 1305v207h-1596v-207h655v-1305h285v1305h656z" />
    <glyph glyph-name="Upsilon" unicode="&#x3a5;" horiz-adv-x="1701" 
d="M1739 1512h-328l-560 -759l-563 759h-328l748 -974v-538h285v538z" />
    <glyph glyph-name="Phi" unicode="&#x3a6;" horiz-adv-x="1970" 
d="M1127 0v106q258 11 439 101q160 80 245 216q76 124 76 276v115q0 151 -76 277q-85 137 -245 219q-182 92 -439 103v105h-284v-107q-384 -17 -585 -201q-59 -54 -99 -120t-58 -134.5t-18 -141.5v-115q0 -111 43.5 -212.5t131.5 -181.5q201 -183 585 -200v-105h284z
M1598 710q0 -176 -122 -280q-127 -108 -349 -115v887q219 -10 346 -117q125 -107 125 -282v-93zM372 803q0 170 119 277q127 114 352 121v-887q-223 12 -348 118q-123 105 -123 278v93z" />
    <glyph glyph-name="Chi" unicode="&#x3a7;" horiz-adv-x="1767" 
d="M53 1512l642 -737l-694 -775h332l549 622l552 -622h332l-693 776l640 736h-332l-496 -586l-500 586h-332z" />
    <glyph glyph-name="Psi" unicode="&#x3a8;" horiz-adv-x="2038" 
d="M1166 0v414q265 13 441 107q153 82 223 221q62 123 62 276v495h-284v-489q0 -172 -95 -273q-110 -117 -347 -128v889h-284v-889q-237 10 -348 127q-93 98 -93 274v488h-286v-494q0 -154 61 -275q71 -140 223 -222q174 -94 443 -107v-414h284z" />
    <glyph glyph-name="uni03A9" unicode="&#x3a9;" horiz-adv-x="1793" 
d="M747 0v401q-191 38 -281 171q-72 105 -72 239v103q0 83 32 158t94 132q139 126 376 126q245 0 383 -130q60 -57 90.5 -131.5t30.5 -154.5v-98q0 -74 -28 -151q-34 -95 -106 -160q-85 -77 -220 -104v-401h577v209l-351 -1l2 77q204 67 314 219q100 138 100 321v102
q0 150 -81 284q-90 146 -257 232q-190 96 -453 96q-265 0 -453 -95q-168 -86 -256 -232q-82 -133 -82 -285v-101q0 -187 100 -324q109 -149 313 -216l3 -78l-352 1v-209h577z" />
    <glyph glyph-name="Iotadieresis" unicode="&#x3aa;" horiz-adv-x="734" 
d="M-31 1728q0 -34 15.5 -56.5t48.5 -34t84 -11.5q86 0 124 26q33 22 33 76q0 56 -33 79q-38 26 -124 26q-52 0 -84.5 -11.5t-48 -34.5t-15.5 -59zM471 1728q0 -26 8.5 -45t26.5 -31.5t46 -19t67 -6.5q86 0 123 26q33 22 33 76q0 56 -33 79q-37 26 -123 26q-78 0 -113 -25.5
t-35 -79.5zM510 0v1512h-285v-1512h285z" />
    <glyph glyph-name="Upsilondieresis" unicode="&#x3ab;" horiz-adv-x="1701" 
d="M445 1701q0 -52 36 -77t112 -25q86 0 124 26q33 22 33 76q0 56 -33 79q-38 26 -124 26q-52 0 -84.5 -11.5t-48 -34.5t-15.5 -59zM947 1701q0 -21 5.5 -37t16.5 -28.5t28.5 -20.5t42 -12t55.5 -4q86 0 123 26q33 22 33 76q0 56 -33 79q-37 26 -123 26q-78 0 -113 -25.5
t-35 -79.5zM1739 1512h-328l-560 -759l-563 759h-328l748 -974v-538h285v538z" />
    <glyph glyph-name="alphatonos" unicode="&#x3ac;" horiz-adv-x="1697" 
d="M718 1599l22 -293h178l27 293h-227zM1508 0v1175h-279v-194q-65 104 -175 160q-128 64 -313 64q-110 0 -204.5 -23t-165.5 -62t-126 -95q-79 -80 -119 -185.5t-40 -220.5v-68q0 -114 40.5 -218t120.5 -183q179 -181 496 -181q183 0 311 64q109 54 175 159v-192h279z
M366 609q0 171 101 279q118 125 340 125q101 0 179.5 -26.5t132.5 -79t82 -130.5t28 -180v-20q0 -203 -110 -310q-109 -106 -310 -106q-220 0 -339 121q-104 105 -104 275v52z" />
    <glyph glyph-name="epsilontonos" unicode="&#x3ad;" horiz-adv-x="1464" 
d="M660 1589l22 -293h178l27 293h-227zM729 677q-157 0 -239 36q-89 37 -89 114v13q0 88 73 131q86 51 285 51q168 0 254 -43q96 -48 112 -155l235 3l-2 21q-32 357 -602 357q-349 0 -503 -94q-137 -84 -131 -245l1 -19q0 -96 87 -168q83 -69 204 -86q-137 -18 -218 -104
q-74 -77 -74 -170v-11q0 -162 136 -245q154 -94 498 -94q309 0 464 113q127 91 139 249l1 17l-235 4l-2 -11q-8 -80 -86 -128q-95 -60 -279 -60q-199 0 -282 47q-75 42 -75 131v6q0 77 64 121q80 57 265 57h170v162h-171z" />
    <glyph glyph-name="etatonos" unicode="&#x3ae;" horiz-adv-x="1788" 
d="M851 1611l22 -293h178l27 293h-227zM470 0v551q0 109 58 214q63 112 165 176q117 73 262 73q213 0 305 -123q76 -101 76 -300v-957h278v961q0 172 -34 281q-49 152 -165 232q-142 97 -390 97q-187 0 -337 -83q-146 -81 -218 -227v280h-278v-1175h278z" />
    <glyph glyph-name="iotatonos" unicode="&#x3af;" 
d="M222 1597l22 -293h178l27 293h-227zM471 0v1175h-279v-1175h279z" />
    <glyph glyph-name="upsilondieresistonos" unicode="&#x3b0;" horiz-adv-x="1672" 
d="M750 1647l21 -294h172l28 294h-221zM389 1365q0 -52 36 -77t112 -25q86 0 123 26q33 22 33 76q0 56 -33 79q-37 26 -123 26q-39 0 -66.5 -6.5t-46 -19.5t-27 -32.5t-8.5 -46.5zM1017 1365q0 -52 35.5 -77t112.5 -25q86 0 123 26q33 22 33 76q0 56 -33 79q-37 26 -123 26
q-78 0 -113 -25.5t-35 -79.5zM151 1175v-608q0 -180 60 -306q66 -140 211 -213q157 -79 414 -79q259 0 415 79q146 74 212 213q59 124 59 306v608h-278v-589q0 -214 -86 -312q-97 -111 -322 -111q-221 0 -318 109q-89 99 -89 313v590h-278z" />
    <glyph glyph-name="alpha" unicode="&#x3b1;" horiz-adv-x="1697" 
d="M1508 0v1175h-279v-194q-65 104 -175 160q-128 64 -313 64q-110 0 -204.5 -23t-165.5 -62t-126 -95q-79 -80 -119 -185.5t-40 -220.5v-68q0 -114 40.5 -218t120.5 -183q179 -181 496 -181q183 0 311 64q109 54 175 159v-192h279zM366 609q0 171 101 279q118 125 340 125
q101 0 179.5 -26.5t132.5 -79t82 -130.5t28 -180v-20q0 -203 -110 -310q-109 -106 -310 -106q-220 0 -339 121q-104 105 -104 275v52z" />
    <glyph glyph-name="beta" unicode="&#x3b2;" horiz-adv-x="1600" 
d="M465 -366v428q94 -40 178 -60q116 -29 222 -29q226 0 372 64q128 56 188 162q52 91 52 214v54q0 121 -67 202q-75 90 -242 135q142 41 211 123q61 74 61 180v30q0 106 -52 191q-63 103 -191 160q-150 67 -380 67t-378 -83q-134 -76 -197 -215q-56 -123 -56 -294v-1329
h279zM728 710h64q180 0 276 -43q82 -37 110 -101q20 -46 20 -114v-25q0 -122 -78 -187q-89 -76 -280 -76q-101 0 -210 34q-84 24 -165 67v703q0 177 80 280q90 116 274 116q158 0 249 -60q96 -65 96 -184v-16q0 -116 -108 -166q-89 -42 -264 -42h-64v-186z" />
    <glyph glyph-name="gamma" unicode="&#x3b3;" horiz-adv-x="1556" 
d="M913 -365v365h61l541 1175h-299l-417 -993h-43l-417 993h-298l542 -1175h51v-365h279z" />
    <glyph glyph-name="delta" unicode="&#x3b4;" horiz-adv-x="1632" 
d="M86 559q0 -265 172 -419q190 -171 558 -171q369 0 559 171q171 154 171 419v57q0 174 -77 306q-83 138 -247 210q-7 4 -29.5 16.5t-37.5 21.5l-96 54q-53 29 -108 60q-92 50 -172 98q-2 1 -6 4l-21 13v1l731 -2v170h-1091v-167l126 -67q68 -36 251 -130
q-344 -11 -522 -178q-161 -152 -161 -410v-57zM365 620q0 168 102 271q120 122 349 122q228 0 348 -123q102 -105 102 -271v-62q0 -170 -104 -275q-119 -121 -346 -121t-347 122q-52 53 -78 124t-26 149v64z" />
    <glyph glyph-name="epsilon" unicode="&#x3b5;" horiz-adv-x="1464" 
d="M729 677q-157 0 -239 36q-89 37 -89 114v13q0 88 73 131q86 51 285 51q168 0 254 -43q96 -48 112 -155l235 3l-2 21q-32 357 -602 357q-349 0 -503 -94q-137 -84 -131 -245l1 -19q0 -96 87 -168q83 -69 204 -86q-137 -18 -218 -104q-74 -77 -74 -170v-11q0 -162 136 -245
q154 -94 498 -94q309 0 464 113q127 91 139 249l1 17l-235 4l-2 -11q-8 -80 -86 -128q-95 -60 -279 -60q-199 0 -282 47q-75 42 -75 131v6q0 77 64 121q80 57 265 57h170v162h-171z" />
    <glyph glyph-name="zeta" unicode="&#x3b6;" horiz-adv-x="1304" 
d="M160 1376h738l-601 -605q-172 -160 -172 -383q0 -181 130 -283q145 -115 448 -122q148 -4 192 -51q36 -40 16 -132l-38 -166h249l29 157q32 182 -42 271q-89 104 -351 110q-161 0 -256 58q-98 60 -98 171q0 67 20 119q28 73 102 147l697 709v192h-1063v-192z" />
    <glyph glyph-name="eta" unicode="&#x3b7;" horiz-adv-x="1788" 
d="M470 0v551q0 109 58 214q63 112 165 176q117 73 262 73q213 0 305 -123q76 -101 76 -300v-957h278v961q0 172 -34 281q-49 152 -165 232q-142 97 -390 97q-187 0 -337 -83q-146 -81 -218 -227v280h-278v-1175h278z" />
    <glyph glyph-name="theta" unicode="&#x3b8;" horiz-adv-x="1632" 
d="M82 628q0 -301 163 -470q182 -188 547 -188t547 188q162 168 162 469v273q0 301 -162 470q-181 187 -547 187t-547 -187q-163 -169 -163 -469v-273zM361 917q0 198 89 313q106 136 342 136q235 0 344 -137q89 -113 89 -313v-35h-864v36zM792 161q-232 0 -340 136
q-91 114 -91 314v70h864v-68q0 -205 -93 -319q-109 -133 -340 -133z" />
    <glyph glyph-name="iota" unicode="&#x3b9;" 
d="M471 0v1175h-279v-1175h279z" />
    <glyph glyph-name="kappa" unicode="&#x3ba;" horiz-adv-x="1591" 
d="M193 1175v-1175h278v507h326l439 -507h332l-552 597l483 578h-320l-372 -471h-336v471h-278z" />
    <glyph glyph-name="lambda" unicode="&#x3bb;" horiz-adv-x="1554" 
d="M344 0l420 993h40l418 -993h300l-533 1163q-79 177 -157 265q-111 125 -288 179l-86 -145q108 -38 179 -124q44 -54 91 -163h-138l-542 -1175h296z" />
    <glyph glyph-name="uni03BC" unicode="&#x3bc;" horiz-adv-x="1661" 
d="M192 1175v-1540h278v619q85 -134 230 -208q146 -76 325 -76q248 0 390 97q116 80 165 233q34 109 34 280v595h-278v-590q0 -200 -76 -301q-92 -122 -305 -122q-145 0 -262 73q-103 64 -165 177q-58 104 -58 213v550h-278z" />
    <glyph glyph-name="nu" unicode="&#x3bd;" horiz-adv-x="1529" 
d="M1203 1175l-419 -988h-39l-419 988h-299l558 -1175h360l557 1175h-299z" />
    <glyph glyph-name="xi" unicode="&#x3be;" horiz-adv-x="1355" 
d="M1218 -360l39 182q11 52 14 92t-5.5 80.5t-31.5 70.5q-77 101 -336 107q-256 0 -362 51q-113 54 -113 194v18q0 125 117 200q107 69 271 69h183v190l-179 1q-163 0 -257 53q-105 58 -105 162v23q0 109 82 173q95 72 287 72h371v190h-1147v-190l257 4q-127 -101 -127 -264
q0 -138 86.5 -220t245.5 -96q-176 -29 -271 -140q-93 -107 -93 -259q0 -108 32.5 -183.5t105.5 -124.5q145 -100 506 -107l54 -1q82 -1 126 -15q43 -13 62 -37q8 -11 12 -25t3.5 -30t-3 -30.5t-7.5 -33.5l-41 -176h224z" />
    <glyph glyph-name="omicron" unicode="&#x3bf;" horiz-adv-x="1632" 
d="M86 559q0 -265 172 -419q190 -171 558 -171q369 0 559 171q171 154 171 419v57q0 266 -171 420q-188 169 -559 169q-368 0 -558 -169q-172 -153 -172 -420v-57zM365 620q0 168 102 271q120 122 349 122q228 0 348 -123q102 -105 102 -271v-62q0 -170 -104 -275
q-119 -121 -346 -121t-347 122q-52 53 -78 124t-26 149v64z" />
    <glyph glyph-name="pi" unicode="&#x3c0;" horiz-adv-x="1926" 
d="M1862 983v192h-1799v-192h241v-983h278v983h758v-983h278v983h244z" />
    <glyph glyph-name="rho" unicode="&#x3c1;" horiz-adv-x="1689" 
d="M428 -366v432q174 -97 451 -97q367 0 558 172q172 155 172 420v53q0 267 -173 421q-191 170 -557 170q-365 0 -556 -170q-173 -154 -173 -421v-980h278zM429 619q0 168 103 272q120 122 347 122q228 0 347 -122q104 -107 104 -272v-61q0 -171 -106 -276
q-121 -121 -345 -121t-344 122q-53 53 -79.5 124t-26.5 150v62z" />
    <glyph glyph-name="uni03C2" unicode="&#x3c2;" horiz-adv-x="1581" 
d="M1284 -372l64 207q46 165 -37 244q-92 86 -354 86h-146q-216 0 -338 114q-54 51 -82 119t-28 144v91q0 159 107 263q119 117 338 117q196 0 307 -76q97 -67 128 -192l250 11q-38 206 -187 318q-175 131 -495 131q-359 0 -549 -165q-178 -154 -178 -419v-68
q0 -265 178 -418q189 -162 549 -162h19q23 0 36 1h36h20q81 0 126 -14q42 -14 59 -38q24 -36 -4 -112l-68 -181z" />
    <glyph glyph-name="sigma" unicode="&#x3c3;" horiz-adv-x="1632" 
d="M83 559q0 -265 173 -419q192 -171 562 -171q371 0 563 171q173 154 173 419v56q0 230 -132 377l181 -14v197h-507q-128 30 -278 30q-369 0 -562 -170q-87 -77 -130 -184.5t-43 -234.5v-57zM362 619q0 167 104 272q119 122 352 122q232 0 353 -123q53 -53 78.5 -124
t25.5 -147v-62q0 -167 -106 -274q-120 -122 -351 -122q-230 0 -350 123q-106 107 -106 273v62z" />
    <glyph glyph-name="tau" unicode="&#x3c4;" horiz-adv-x="1317" 
d="M1303 983v192h-1288v-192h504v-983h278v983h506z" />
    <glyph glyph-name="upsilon" unicode="&#x3c5;" horiz-adv-x="1672" 
d="M151 1175v-608q0 -180 60 -306q66 -140 211 -213q157 -79 414 -79q258 0 415 79q146 74 212 213q59 124 59 306v608h-278v-589q0 -214 -86 -312q-97 -111 -322 -111q-221 0 -318 109q-89 99 -89 313v590h-278z" />
    <glyph glyph-name="phi" unicode="&#x3c6;" horiz-adv-x="2199" 
d="M1222 -364v346l300 46q268 38 410 138q117 82 157 212q24 79 24 226v38q0 141 -27 235q-42 146 -155 227q-142 102 -392 102q-257 0 -413 -127q-163 -134 -163 -362v-545l-295 46q-185 28 -266 125q-69 81 -69 239v69q0 84 12.5 145.5t48.5 106.5q84 107 311 107l-1 196
q-347 -1 -498 -151q-134 -133 -134 -403v-42q0 -146 26 -232q39 -133 157 -216q147 -104 411 -138l297 -44v-344h259zM1222 701q1 59 22.5 114.5t62.5 97.5q94 97 251 97q77 0 131 -20q99 -40 135 -126q29 -70 29 -153v-55v-73q0 -158 -73 -242q-80 -92 -263 -121l-295 -45
v526z" />
    <glyph glyph-name="chi" unicode="&#x3c7;" horiz-adv-x="1455" 
d="M1117 0h327l-543 609l487 566h-305l-347 -422l-346 422h-305l487 -566l-543 -609h327l380 455z" />
    <glyph glyph-name="psi" unicode="&#x3c8;" horiz-adv-x="1883" 
d="M153 1174v-647q0 -247 138 -385q163 -165 516 -172v-336h272v336q349 7 514 172q139 139 139 385v648h-277v-620q0 -178 -87 -275q-94 -105 -289 -115v1403h-272v-1403q-197 7 -290 111q-86 96 -86 279v619h-278z" />
    <glyph glyph-name="omega" unicode="&#x3c9;" horiz-adv-x="2358" 
d="M1043 790v-274q0 -176 -69 -259q-81 -95 -271 -95q-183 0 -268 124q-67 97 -67 269v93q0 172 75 256q89 100 315 99l-2 192q-368 -4 -522 -142q-51 -45 -83 -107t-46 -135.5t-15 -166.5l-1 -104q-2 -150 47 -267q58 -140 181 -216q142 -88 372 -88q173 0 300 57
q107 47 185 139q72 -88 188 -138q131 -58 312 -58q230 0 371 89q123 77 180 215q48 115 48 267v104q0 281 -144 410q-156 137 -523 141l-1 -192q239 1 324 -95q38 -43 52 -106t14 -154v-93q0 -178 -66 -273q-82 -120 -268 -120q-193 0 -272 95q-69 81 -69 259v274h-277z" />
    <glyph glyph-name="iotadieresis" unicode="&#x3ca;" 
d="M-66 1412q0 -52 36 -77t112 -25q86 0 124 26q33 22 33 76q0 56 -33 79q-38 26 -124 26q-77 0 -112.5 -25.5t-35.5 -79.5zM436 1412q0 -34 15.5 -56.5t48 -34t84.5 -11.5q86 0 123 26q33 22 33 76q0 56 -33 79q-37 26 -123 26q-78 0 -113 -25.5t-35 -79.5zM471 0v1175
h-279v-1175h279z" />
    <glyph glyph-name="upsilondieresis" unicode="&#x3cb;" horiz-adv-x="1672" 
d="M460 1402q0 -52 36 -77t112 -25q86 0 124 26q33 22 33 76q0 56 -33 79q-38 26 -124 26q-52 0 -84.5 -11.5t-48 -34.5t-15.5 -59zM962 1402q0 -52 35.5 -77t112.5 -25q86 0 123 26q33 22 33 76q0 56 -33 79q-37 26 -123 26q-78 0 -113 -25.5t-35 -79.5zM151 1175v-608
q0 -180 60 -306q66 -140 211 -213q157 -79 414 -79q258 0 415 79q146 74 212 213q59 124 59 306v608h-278v-589q0 -214 -86 -312q-97 -111 -322 -111q-221 0 -318 109q-89 99 -89 313v590h-278z" />
    <glyph glyph-name="omicrontonos" unicode="&#x3cc;" horiz-adv-x="1632" 
d="M706 1594l22 -293h178l27 293h-227zM86 559q0 -265 172 -419q190 -171 558 -171q369 0 559 171q171 154 171 419v57q0 266 -171 420q-188 169 -559 169q-368 0 -558 -169q-172 -153 -172 -420v-57zM365 620q0 168 102 271q120 122 349 122q228 0 348 -123
q102 -105 102 -271v-62q0 -170 -104 -275q-119 -121 -346 -121t-347 122q-52 53 -78 124t-26 149v64z" />
    <glyph glyph-name="upsilontonos" unicode="&#x3cd;" horiz-adv-x="1672" 
d="M745 1551l22 -293h178l27 293h-227zM151 1175v-608q0 -180 60 -306q66 -140 211 -213q157 -79 414 -79q258 0 415 79q146 74 212 213q59 124 59 306v608h-278v-589q0 -214 -86 -312q-97 -111 -322 -111q-221 0 -318 109q-89 99 -89 313v590h-278z" />
    <glyph glyph-name="omegatonos" unicode="&#x3ce;" horiz-adv-x="2358" 
d="M1066 1559l22 -293h178l27 293h-227zM1043 790v-274q0 -176 -69 -259q-81 -95 -271 -95q-183 0 -268 124q-67 97 -67 269v93q0 172 75 256q89 100 315 99l-2 192q-368 -4 -522 -142q-51 -45 -83 -107t-46 -135.5t-15 -166.5l-1 -104q-2 -150 47 -267q58 -140 181 -216
q142 -88 372 -88q173 0 300 57q107 47 185 139q72 -88 188 -138q131 -58 312 -58q230 0 371 89q123 77 180 215q48 115 48 267v104q0 281 -144 410q-156 137 -523 141l-1 -192q239 1 324 -95q38 -43 52 -106t14 -154v-93q0 -178 -66 -273q-82 -120 -268 -120q-193 0 -272 95
q-69 81 -69 259v274h-277z" />
    <glyph glyph-name="uni0401" unicode="&#x401;" horiz-adv-x="1716" 
d="M540 1741q0 -26 8.5 -45t26.5 -31.5t46 -19t67 -6.5q86 0 124 26q33 22 33 76q0 56 -33 79q-38 26 -124 26q-77 0 -112.5 -25.5t-35.5 -79.5zM1042 1741q0 -52 35.5 -77t112.5 -25q86 0 123 26q33 22 33 76q0 56 -33 79q-37 26 -123 26q-78 0 -113 -25.5t-35 -79.5z
M1599 0v207h-1092v457h985v207h-985v434h1086v207h-1368v-1512h1374z" />
    <glyph glyph-name="uni0402" unicode="&#x402;" horiz-adv-x="2092" 
d="M1444 1312v200h-1453v-200h584v-1312h285v544q8 174 93 259q103 105 345 105q168 0 264 -87q95 -87 95 -240v-79q0 -161 -86 -237q-93 -82 -296 -82v-207q253 -7 411 64q138 63 203 192q54 111 54 271v99q0 117 -47 219q-61 129 -183 203q-147 89 -375 89
q-166 0 -293 -50q-114 -46 -185 -127v376h584z" />
    <glyph glyph-name="uni0403" unicode="&#x403;" horiz-adv-x="1466" 
d="M1405 1305v207h-1179v-1512h284v1305h895z" />
    <glyph glyph-name="uni0404" unicode="&#x404;" horiz-adv-x="1927" 
d="M1165 868h-789q17 220 175 342q160 124 429 124q234 0 382 -107q141 -102 178 -281l282 1q-43 269 -243 424q-221 171 -596 171q-449 0 -683 -211q-107 -96 -160 -227.5t-53 -284.5v-126q0 -153 53 -284.5t160 -227.5q234 -211 682 -211q260 0 451 86q171 78 272 218
q92 127 118 292l-282 1q-39 -173 -172 -275q-151 -114 -390 -114q-276 0 -436 131q-161 130 -167 359h789v200z" />
    <glyph glyph-name="uni0405" unicode="&#x405;" horiz-adv-x="1714" 
d="M1610 420q0 179 -129 279q-119 92 -373 136l-382 62q-157 24 -224 73q-70 51 -70 143t85 153q108 77 333 77q252 0 370 -81q97 -67 117 -199h256q-19 222 -192 345q-191 134 -553 134q-367 0 -550 -133q-53 -39 -88.5 -89t-51 -101t-15.5 -107q0 -116 51.5 -198.5
t152.5 -133.5t257 -78l397 -67q164 -27 238 -74q83 -54 83 -151q0 -111 -108 -174q-115 -67 -346 -67q-182 0 -305 50q-102 41 -152 116q-43 63 -43 135h-272q0 -106 50 -196.5t147 -157.5q211 -146 573 -146q361 0 552 115q192 116 192 335z" />
    <glyph glyph-name="uni0406" unicode="&#x406;" horiz-adv-x="734" 
d="M510 0v1512h-285v-1512h285z" />
    <glyph glyph-name="uni0407" unicode="&#x407;" horiz-adv-x="734" 
d="M-37 1730q0 -52 36 -77t112 -25q86 0 124 26q33 22 33 76q0 56 -33 79q-38 26 -124 26q-77 0 -112.5 -25.5t-35.5 -79.5zM465 1730q0 -52 35.5 -77t112.5 -25q86 0 123 26q33 22 33 76q0 56 -33 79q-37 26 -123 26q-39 0 -67 -6t-46 -19.5t-26.5 -33t-8.5 -46.5zM510 0
v1512h-285v-1512h285z" />
    <glyph glyph-name="uni0408" unicode="&#x408;" horiz-adv-x="1379" 
d="M429 1304h510l-1 -757q0 -183 -110.5 -276t-319.5 -93q-94 0 -220 28q-112 23 -175 49l-83 -180q75 -39 211 -69q151 -36 290 -36q340 0 520 152q172 147 172 418v972h-794v-208z" />
    <glyph glyph-name="uni0409" unicode="&#x409;" horiz-adv-x="2864" 
d="M2816 509q0 237 -160 340q-152 97 -479 97h-385v566l-1421 1v-993q0 -105 -11 -166t-45 -97q-36 -40 -105 -57.5t-187 -17.5v-208q189 0 311 28t194 88q69 58 98.5 154.5t29.5 242.5v816h852v-1303h702q293 0 445 102q161 108 161 336v71zM2552 458q0 -121 -66 -180
q-77 -69 -258 -69h-436v529h409q200 0 280 -65q71 -59 71 -190v-25z" />
    <glyph glyph-name="uni040A" unicode="&#x40a;" horiz-adv-x="2742" 
d="M507 0v685h866v-685h702q294 0 446 102q161 108 161 336v71q0 237 -160 340q-152 97 -480 97h-385v566h-284v-619h-866v619h-285v-1512h285zM2418 458q0 -120 -66 -180q-77 -69 -259 -69h-436v529h410q200 0 280 -65q71 -59 71 -190v-25z" />
    <glyph glyph-name="uni040B" unicode="&#x40b;" horiz-adv-x="2204" 
d="M1570 1305v207h-1596v-207h655v-1305h286v470q0 90 37 174q47 105 137 165q111 73 276 73q205 0 310 -115q96 -105 96 -291v-476h283v512q0 132 -40 243q-55 147 -179 232q-154 104 -403 104q-167 0 -311 -66q-126 -58 -206 -156v436h655z" />
    <glyph glyph-name="uni040C" unicode="&#x40c;" horiz-adv-x="1826" 
d="M1044 1869l-251 -267h218l309 267h-276zM509 0v663h387l568 -663h330l-655 773l567 739h-322l-497 -631h-378v631h-285v-1512h285z" />
    <glyph glyph-name="uni040E" unicode="&#x40e;" horiz-adv-x="1613" 
d="M1031 1878q-15 -80 -49 -115q-50 -52 -157 -52t-158 53q-37 38 -52 114h-165q13 -129 84 -200q95 -95 291 -95q193 0 287 94q71 72 85 201h-166zM1596 1512h-305l-491 -745l-455 745h-336l627 -996l-326 -516h305z" />
    <glyph glyph-name="uni040F" unicode="&#x40f;" horiz-adv-x="2007" 
d="M1782 0v1512h-285v-1304h-979v1304h-280v-1512h686v-187h258v187h600z" />
    <glyph glyph-name="uni0410" unicode="&#x410;" horiz-adv-x="1839" 
d="M299 0l180 393h881l180 -393h295l-729 1512h-373l-729 -1512h295zM896 1306h47l326 -714h-699z" />
    <glyph glyph-name="uni0411" unicode="&#x411;" horiz-adv-x="1877" 
d="M1591 523q0 209 -167 318q-151 97 -417 97h-498v370h918v204h-1202v-1512h808q244 0 392 103q166 116 166 329v91zM1327 450q0 -115 -84 -180q-79 -61 -207 -61h-527v521h501q147 0 228 -55q89 -60 89 -181v-44z" />
    <glyph glyph-name="uni0412" unicode="&#x412;" horiz-adv-x="1877" 
d="M1770 449q0 145 -108 239t-294 111q166 18 250.5 99.5t84.5 214.5v52q0 167 -139 259q-133 88 -376 88h-963v-1512h935q302 0 452 94q158 99 158 313v42zM1414 1091q0 -100 -74 -152q-82 -58 -239 -58h-591v443h627q154 0 225 -64q52 -48 52 -128v-41zM1481 442
q1 -146 -112 -200q-82 -39 -260 -39h-599v489h598q175 0 269 -52q102 -57 104 -168v-30z" />
    <glyph glyph-name="uni0413" unicode="&#x413;" horiz-adv-x="1466" 
d="M1405 1305v207h-1179v-1512h284v1305h895z" />
    <glyph glyph-name="uni0414" unicode="&#x414;" horiz-adv-x="1995" 
d="M1732 1512h-1240v-546q0 -166 -29 -314q-37 -192 -117 -306q-96 -137 -248 -137h-43v-407h285v198h1308v-198h285v407h-201v1303zM777 1303h670v-1094h-930q136 119 202 332q58 187 58 429v333z" />
    <glyph glyph-name="uni0415" unicode="&#x415;" horiz-adv-x="1716" 
d="M1599 0v207h-1092v457h985v207h-985v434h1086v207h-1368v-1512h1374z" />
    <glyph glyph-name="uni0416" unicode="&#x416;" horiz-adv-x="2591" 
d="M1429 0v663h220l567 -663h331l-655 773l567 739h-322l-498 -631h-210v631h-285v-631h-209l-498 631h-322l566 -739l-654 -773h331l566 663h220v-663h285z" />
    <glyph glyph-name="uni0417" unicode="&#x417;" horiz-adv-x="1637" 
d="M1471 445q0 147 -87 228q-90 84 -284 109q168 21 256 92q99 80 99 239v9q0 420 -670 420q-344 0 -509 -122q-149 -109 -149 -321v-34h263v24q0 114 99 178q103 67 295 67q177 0 268 -45q116 -57 116 -188q0 -116 -101 -170q-94 -50 -287 -50h-178v-207h180q185 0 286 -40
q117 -47 117 -160v-47q0 -73 -25.5 -120.5t-77.5 -76.5q-91 -51 -302 -51q-197 0 -302 62q-104 61 -104 164v37h-261v-35q0 -208 165 -319q172 -118 502 -118q380 0 540 114q53 38 87 90.5t49 117t15 146.5v7z" />
    <glyph glyph-name="uni0418" unicode="&#x418;" horiz-adv-x="2048" 
d="M1824 0v1512h-297l-1030 -1195h-12l8 71l5 1124h-273v-1512h302l1024 1180h13l-8 -82l-5 -1098h273z" />
    <glyph glyph-name="uni0419" unicode="&#x419;" horiz-adv-x="2048" 
d="M1204 1889q-15 -80 -49 -115q-50 -52 -157 -52t-158 53q-37 38 -52 114h-165q13 -129 84 -200q95 -95 291 -95q193 0 287 94q71 72 85 201h-166zM1824 0v1512h-297l-1030 -1195h-12l8 71l5 1124h-273v-1512h302l1024 1180h13l-8 -82l-5 -1098h273z" />
    <glyph glyph-name="uni041A" unicode="&#x41a;" horiz-adv-x="1826" 
d="M509 0v663h387l568 -663h330l-655 773l567 739h-322l-497 -631h-378v631h-285v-1512h285z" />
    <glyph glyph-name="uni041B" unicode="&#x41b;" horiz-adv-x="2050" 
d="M1845 0v1512h-1477v-1023q0 -64 -4 -105t-16.5 -78t-35.5 -61q-36 -38 -105.5 -54.5t-188.5 -16.5v-209q191 0 313 27t193 86q70 57 99.5 150.5t29.5 235.5v848h906v-1312h286z" />
    <glyph glyph-name="uni041C" unicode="&#x41c;" horiz-adv-x="2435" 
d="M1075 235h286l575 1048h25l-7 -85l-12 -1198h269v1512h-396l-566 -968l-25 -75h-13l-24 73l-566 970h-396v-1512h269l-12 1198l-7 85h23z" />
    <glyph glyph-name="uni041D" unicode="&#x41d;" horiz-adv-x="2048" 
d="M510 0v654h1028v-654h286v1512h-286v-645h-1028v645h-285v-1512h285z" />
    <glyph glyph-name="uni041E" unicode="&#x41e;" horiz-adv-x="1989" 
d="M99 693q0 -153 53 -284t160 -227q233 -212 682 -212t683 213q107 96 160 226.5t53 283.5v125q0 153 -53 284t-159 228q-235 212 -683 212q-449 0 -683 -211q-107 -97 -160 -228.5t-53 -284.5v-125zM994 178q-283 0 -444 136q-162 136 -162 371v137q0 240 161 376t445 136
t446 -136q161 -136 161 -376v-136q0 -236 -161 -372q-162 -136 -446 -136z" />
    <glyph glyph-name="uni041F" unicode="&#x41f;" horiz-adv-x="2001" 
d="M506 0v1311h993v-1311h286v1512h-1563v-1512h284z" />
    <glyph glyph-name="uni0420" unicode="&#x420;" horiz-adv-x="1791" 
d="M1728 1065q0 213 -158 330q-160 117 -455 117h-890v-1512h284v511h600q307 0 463 124t156 359v71zM1439 999q0 -140 -82 -208q-88 -73 -290 -73h-558v587h578q190 0 276 -69q76 -62 76 -188v-49z" />
    <glyph glyph-name="uni0421" unicode="&#x421;" horiz-adv-x="1927" 
d="M1553 567q-39 -173 -172 -275q-151 -114 -389 -114q-281 0 -442 136q-162 136 -162 370v138q0 240 160 375q162 137 444 137q235 0 383 -107q140 -101 177 -281l283 1q-43 268 -244 424q-221 171 -596 171q-447 0 -682 -211q-107 -96 -160.5 -227.5t-53.5 -284.5v-126
q0 -153 53 -284.5t160 -227.5q234 -211 682 -211q383 0 608 182q99 80 157 186.5t77 227.5z" />
    <glyph glyph-name="uni0422" unicode="&#x422;" horiz-adv-x="1587" 
d="M1592 1305v207h-1596v-207h655v-1305h285v1305h656z" />
    <glyph glyph-name="uni0423" unicode="&#x423;" horiz-adv-x="1613" 
d="M1596 1512h-305l-491 -745l-455 745h-336l627 -996l-326 -516h305z" />
    <glyph glyph-name="uni0424" unicode="&#x424;" horiz-adv-x="1950" 
d="M1127 0v106q258 11 439 101q160 80 245 216q76 124 76 276v115q0 151 -76 277q-85 137 -245 219q-182 92 -439 103v105h-284v-107q-384 -17 -585 -201q-59 -54 -99 -120t-58 -134.5t-18 -141.5v-115q0 -111 43.5 -212.5t131.5 -181.5q201 -183 585 -200v-105h284z
M1598 710q0 -176 -122 -280q-127 -108 -349 -115v887q219 -10 346 -117q125 -107 125 -282v-93zM372 803q0 170 119 277q127 114 352 121v-887q-223 12 -348 118q-123 105 -123 278v93z" />
    <glyph glyph-name="uni0425" unicode="&#x425;" horiz-adv-x="1767" 
d="M53 1512l642 -737l-694 -775h332l549 622l552 -622h332l-693 776l640 736h-332l-496 -586l-500 586h-332z" />
    <glyph glyph-name="uni0426" unicode="&#x426;" horiz-adv-x="2012" 
d="M1418 1512v-1311h-916v1311h-285v-1512h1450v-175h264v376h-228v1311h-285z" />
    <glyph glyph-name="uni0427" unicode="&#x427;" horiz-adv-x="1780" 
d="M1289 1512v-407q-7 -200 -105 -309q-115 -130 -352 -130q-225 0 -329 128q-88 109 -88 303l-1 415h-283v-463q0 -164 59 -289q64 -141 197 -217q148 -85 371 -85q193 0 333 62q122 55 198 158v-678h283v1512h-283z" />
    <glyph glyph-name="uni0428" unicode="&#x428;" horiz-adv-x="2412" 
d="M1910 1512v-1303h-554v1303h-284v-1303h-566v1303h-284v-1512h1972v1512h-284z" />
    <glyph glyph-name="uni0429" unicode="&#x429;" horiz-adv-x="2445" 
d="M1910 1512v-1303h-554v1303h-284v-1303h-566v1303h-284v-1512h1883v-198h256v407h-167v1303h-284z" />
    <glyph glyph-name="uni042A" unicode="&#x42a;" horiz-adv-x="1760" 
d="M9 1304h323v-1304h760q294 0 446 102q161 108 161 336v71q0 236 -161 340q-150 97 -479 97h-442v567h-285v-1h-323v-208zM1434 458q0 -121 -66 -180q-77 -69 -257 -69h-494v529h467q200 0 280 -65q70 -58 70 -190v-25z" />
    <glyph glyph-name="uni042B" unicode="&#x42b;" horiz-adv-x="2375" 
d="M1554 509q0 237 -160 340q-152 97 -480 97h-443v566h-284v-1512h760q294 0 446 102q161 108 161 336v71zM2163 0v1512h-285v-1512h285zM1289 458q0 -121 -66 -180q-77 -69 -258 -69h-494v529h468q200 0 280 -65q70 -58 70 -190v-25z" />
    <glyph glyph-name="uni042C" unicode="&#x42c;" horiz-adv-x="1698" 
d="M1589 509q0 237 -160 340q-152 97 -480 97h-443v566h-284v-1512h760q294 0 446 102q161 108 161 336v71zM1324 458q0 -121 -66 -180q-77 -69 -258 -69h-494v529h468q200 0 280 -65q70 -58 70 -190v-25z" />
    <glyph glyph-name="uni042D" unicode="&#x42d;" horiz-adv-x="1927" 
d="M764 668h788q-6 -230 -166 -359q-160 -131 -436 -131q-239 0 -389 114q-134 101 -173 275l-282 -1q26 -165 118 -292q101 -141 273 -218q190 -86 450 -86q448 0 682 211q107 96 160 227.5t53 284.5v126q0 153 -53 284.5t-160 227.5q-234 211 -683 211q-374 0 -595 -171
q-201 -156 -244 -424l282 -1q37 179 178 281q148 107 382 107q268 0 429 -124q157 -122 174 -342h-788v-200z" />
    <glyph glyph-name="uni042E" unicode="&#x42e;" horiz-adv-x="2735" 
d="M507 0v652h321q14 -304 230 -483q236 -199 673 -199q450 0 690 214q109 96 162.5 226.5t53.5 283.5v123q0 153 -53.5 284t-161.5 228q-241 213 -689 213q-436 0 -674 -198q-109 -90 -166.5 -214t-64.5 -270h-321v652h-285v-1512h285zM1731 178q-285 0 -450 137
q-80 67 -122.5 161.5t-42.5 210.5v133q0 240 165 377t450 137q288 0 453 -137q164 -136 164 -377v-132q0 -237 -164 -373q-165 -137 -453 -137z" />
    <glyph glyph-name="uni042F" unicode="&#x42f;" horiz-adv-x="1877" 
d="M180 1024q0 -150 94 -247q81 -85 233 -129q-86 -35 -131 -89q-43 -50 -73 -146l-66 -210q-39 -131 -98 -203h303q48 59 80 174l71 225q28 91 104.5 135t201.5 50h501v-584h284v1512h-937q-274 0 -421 -116q-146 -117 -146 -336v-36zM469 1064q0 114 61 176q71 74 229 74
h640v-523h-555q-184 0 -279.5 63.5t-95.5 188.5v21z" />
    <glyph glyph-name="uni0430" unicode="&#x430;" horiz-adv-x="1660" 
d="M1486 0v653q0 151 -46 259q-60 136 -192 208q-159 85 -417 85q-252 0 -407 -70q-127 -57 -193 -159q-46 -73 -62 -175h266q21 97 91 149q95 70 294 70q219 0 311 -95q76 -79 76 -234v-58q-103 38 -203 61q-165 37 -305 37q-221 0 -355 -56q-119 -50 -171 -140
q-45 -75 -45 -172q0 -94 40 -169q54 -101 168 -156q139 -68 364 -68q173 0 317 76q69 36 118 84t72 104v-234h279zM775 156q-212 0 -304 80q-64 55 -64 138q0 47 21 85q26 50 95 82q80 37 222 37q116 0 272 -37q120 -30 190 -62v-48q-7 -33 -32.5 -78t-70.5 -86
q-126 -111 -329 -111z" />
    <glyph glyph-name="uni0431" unicode="&#x431;" horiz-adv-x="1628" 
d="M84 547q0 -121 43 -225.5t130 -181.5q194 -171 557 -171t557 171q87 77 130 181.5t43 225.5v81q0 117 -42.5 216.5t-127.5 170.5q-187 156 -539 156q-249 0 -458 -128q35 140 138 212q120 83 339 83q221 0 326 16q112 17 171 66q50 43 90 144h-283q-10 -14 -30 -22
t-61 -12q-70 -8 -297 -9q-376 -4 -541 -209q-145 -180 -145 -527v-238zM363 591q0 165 105 270q119 119 346 119q230 0 349 -116q104 -103 104 -266v-59q0 -169 -108 -268q-120 -110 -345 -110q-227 0 -345 113q-106 100 -106 264v53z" />
    <glyph glyph-name="uni0432" unicode="&#x432;" horiz-adv-x="1645" 
d="M193 0h837q265 0 392 94q107 79 107 215v20q0 103 -67 173q-62 64 -182 102q212 70 212 236v24q0 144 -107 223q-122 88 -376 88h-816v-1175zM1212 842q0 -86 -88 -128q-61 -30 -140 -30h-519v327h509q113 0 168 -29q70 -37 70 -127v-13zM1251 332q0 -79 -57.5 -122.5
t-176.5 -43.5h-552v356h510q148 0 212 -45t64 -145z" />
    <glyph glyph-name="uni0433" unicode="&#x433;" horiz-adv-x="1301" 
d="M468 3v978h784v194h-1063v-1175z" />
    <glyph glyph-name="uni0434" unicode="&#x434;" horiz-adv-x="1743" 
d="M1296 1178h-843v-263q0 -343 -89 -528q-94 -196 -275 -196h-51v-368h277v177h1078v-177h298v368h-183v987l-212 -1v1zM730 986h502v-795h-730q126 100 182 292q46 156 46 405v98z" />
    <glyph glyph-name="uni0435" unicode="&#x435;" horiz-adv-x="1564" 
d="M1485 519q3 51 3 54q11 290 -157 458q-176 174 -516 174q-363 0 -553 -166q-176 -153 -176 -417v-40q0 -285 171 -442q187 -171 563 -171q201 0 350 62q127 53 206 153q67 83 93 194l-261 1q-20 -88 -113 -152q-108 -74 -280 -74q-222 0 -343 114q-53 50 -79.5 115.5
t-27.5 136.5h1120zM365 695q5 77 45 150q45 82 137 132q104 57 259 57q207 0 312 -97q96 -89 104 -252v-6h-857v16z" />
    <glyph glyph-name="uni0436" unicode="&#x436;" horiz-adv-x="2187" 
d="M952 1178v-474h-165l-372 471h-320l482 -578l-551 -597h333l438 507h155v-507h279v507h154l439 -507h332l-551 597l483 578h-321l-372 -471h-164v474h-279z" />
    <glyph glyph-name="uni0437" unicode="&#x437;" horiz-adv-x="1464" 
d="M550 515h170q185 0 265 -57q63 -45 63 -121v-6q0 -89 -74 -131q-82 -47 -282 -47q-186 0 -279 60q-78 48 -87 128l-1 11l-236 -4l2 -17q8 -155 139 -249q155 -113 463 -113q345 0 499 94q136 83 136 245v11q0 92 -73 170q-82 86 -219 104q123 19 203 86q88 73 88 168v19
q6 161 -130 245q-154 94 -504 94q-569 0 -602 -357l-2 -21l236 -3q16 106 113 155q86 43 253 43q199 0 285 -51q72 -43 72 -131v-13q0 -77 -89 -114q-82 -36 -239 -36h-171v-101z" />
    <glyph glyph-name="uni0438" unicode="&#x438;" horiz-adv-x="1816" 
d="M1619 1175h-299l-853 -882v882h-277v-1175h304l848 867v-867h277v1175z" />
    <glyph glyph-name="uni0439" unicode="&#x439;" horiz-adv-x="1816" 
d="M1127 1546q-15 -80 -49 -115q-50 -52 -157 -52t-158 53q-37 38 -52 114h-165q13 -129 84 -200q95 -95 291 -95q193 0 287 94q71 72 85 201h-166zM1619 1175h-299l-853 -882v882h-277v-1175h304l848 867v-867h277v1175z" />
    <glyph glyph-name="uni043A" unicode="&#x43a;" horiz-adv-x="1593" 
d="M192 1175v-1175h278v507h325l440 -507h332l-552 597l483 578h-321l-372 -471h-335v471h-278z" />
    <glyph glyph-name="uni043B" unicode="&#x43b;" horiz-adv-x="1884" 
d="M1671 0v1175h-1333v-644q0 -66 -3.5 -112t-14.5 -88t-30 -71q-31 -46 -89.5 -68t-155.5 -22v-196q170 0 280.5 33.5t175.5 103.5q62 66 88 171.5t26 261.5v429h778v-973h278z" />
    <glyph glyph-name="uni043C" unicode="&#x43c;" horiz-adv-x="2085" 
d="M900 196h284l452 751l-9 -947h264v1175h-355l-486 -775h-17l-484 775h-356v-1175h263l-9 943z" />
    <glyph glyph-name="uni043D" unicode="&#x43d;" horiz-adv-x="1799" 
d="M468 0v474h870v-474h278v1175h-278v-499h-870v499h-278v-1175h278z" />
    <glyph glyph-name="uni043E" unicode="&#x43e;" horiz-adv-x="1632" 
d="M86 559q0 -265 172 -419q190 -171 558 -171q369 0 559 171q171 154 171 419v57q0 266 -171 420q-188 169 -559 169q-368 0 -558 -169q-172 -153 -172 -420v-57zM365 620q0 168 102 271q120 122 349 122q228 0 348 -123q102 -105 102 -271v-62q0 -170 -104 -275
q-119 -121 -346 -121t-347 122q-52 53 -78 124t-26 149v64z" />
    <glyph glyph-name="uni043F" unicode="&#x43f;" horiz-adv-x="1816" 
d="M468 0v973h834v-973h279v1175h-1391v-1175h278z" />
    <glyph glyph-name="uni0440" unicode="&#x440;" horiz-adv-x="1700" 
d="M470 -366v563q64 -107 178 -164q126 -64 310 -64q306 0 487 173q83 80 126 186.5t43 227.5v52q0 118 -41 225.5t-121 189.5q-179 182 -493 182q-180 0 -306 -63q-115 -58 -183 -171v204h-278v-1541h278zM1334 555q0 -53 -11.5 -101.5t-36 -93.5t-59.5 -80
q-119 -119 -330 -119q-205 0 -315 104q-112 104 -112 306v40q2 172 94 278q109 124 334 124q212 0 331 -122q52 -54 78.5 -126t26.5 -150v-60z" />
    <glyph glyph-name="uni0441" unicode="&#x441;" horiz-adv-x="1580" 
d="M1495 751q-38 206 -190 321q-177 133 -492 133q-360 0 -551 -167q-88 -77 -132 -184t-44 -233v-66q0 -126 43.5 -233t131.5 -184q192 -169 552 -169q321 0 499 137q153 118 186 320h-257q-33 -127 -129 -192q-110 -73 -302 -73q-218 0 -337 121q-54 53 -81 122.5
t-27 145.5v76q0 161 104 266q121 121 341 121q195 0 303 -73q96 -65 128 -189h254z" />
    <glyph glyph-name="uni0442" unicode="&#x442;" horiz-adv-x="1247" 
d="M1256 989v186h-1265v-186h495v-989h277v989h493z" />
    <glyph glyph-name="uni0443" unicode="&#x443;" horiz-adv-x="1525" 
d="M1200 1175l-442 -986l-435 986h-298l578 -1175h73l-31 -75q-68 -152 -228 -237l98 -141q92 28 182 105q108 93 168 222l635 1301h-300z" />
    <glyph glyph-name="uni0444" unicode="&#x444;" horiz-adv-x="2723" 
d="M84 534q0 -114 36.5 -215t111.5 -177q170 -173 499 -173q175 0 304 62q116 57 188 159v-556h278v555q72 -102 188 -158q129 -62 304 -62q329 0 499 173q38 38 66.5 84t46 96t26.5 103t9 109v101q0 154 -61 275q-70 136 -204 211q-155 84 -380 84q-161 0 -291 -61
q-124 -59 -203 -164v588h-278v-589q-80 105 -203 164q-134 62 -292 62q-224 0 -379 -84q-133 -73 -204 -212q-61 -119 -61 -274v-101zM364 627q0 168 95 269q110 117 337 117q201 0 321 -125q35 -37 59 -82.5t35.5 -93t11.5 -96.5v-55q0 -187 -122 -296q-116 -104 -303 -104
q-227 0 -337 112q-97 96 -97 266v88zM2361 539q0 -169 -97 -266q-112 -112 -338 -112q-187 0 -303 104q-122 109 -122 296v55q0 74 27.5 145t79.5 127q118 125 319 125q227 0 339 -117q95 -101 95 -269v-88z" />
    <glyph glyph-name="uni0445" unicode="&#x445;" horiz-adv-x="1473" 
d="M1117 0h327l-543 609l487 566h-305l-347 -422l-346 422h-305l487 -566l-543 -609h327l380 455z" />
    <glyph glyph-name="uni0446" unicode="&#x446;" horiz-adv-x="1826" 
d="M193 1175v-1175h1283l-2 -204h260v406h-208v973h-277v-973h-778v973h-278z" />
    <glyph glyph-name="uni0447" unicode="&#x447;" horiz-adv-x="1770" 
d="M1288 1175v-233q-5 -116 -49 -211q-55 -115 -149 -180q-112 -76 -268 -76q-160 0 -255 69q-83 60 -116 166q-28 87 -28 205v260h-278v-263q0 -156 37 -271q51 -160 176 -248q153 -110 411 -110q162 0 299 64q136 63 220 176v-523h279v1175h-279z" />
    <glyph glyph-name="uni0448" unicode="&#x448;" horiz-adv-x="2303" 
d="M1815 1175v-988h-528v988h-280v-988h-535v987h-280v-1174h1903v1175h-280z" />
    <glyph glyph-name="uni0449" unicode="&#x449;" horiz-adv-x="2383" 
d="M1815 1175v-983h-524v983h-279v-983h-537v983h-279v-1175h1782v-190h279v382h-162v983h-280z" />
    <glyph glyph-name="uni044A" unicode="&#x44a;" horiz-adv-x="1625" 
d="M0 1175v-191h273v-984h753q241 0 383 100q148 104 148 295v25q0 185 -137 284q-143 103 -431 103h-439v368h-550zM1277 394q0 -109 -82 -159q-72 -44 -197 -44h-447v424h445q130 0 206 -53q75 -53 75 -144v-24z" />
    <glyph glyph-name="uni044B" unicode="&#x44b;" horiz-adv-x="2279" 
d="M1772 1189v-1189h260v1189h-260zM193 1175v-1175h753q240 0 381 100q148 105 148 295v25q0 185 -136 284q-141 103 -429 103h-439v368h-278zM1196 394q0 -109 -82 -159q-71 -44 -197 -44h-446v424h444q130 0 206 -53q75 -53 75 -144v-24z" />
    <glyph glyph-name="uni044C" unicode="&#x44c;" horiz-adv-x="1567" 
d="M193 1175v-1175h753q240 0 381 100q148 105 148 295v25q0 185 -136 284q-141 103 -429 103h-439v368h-278zM1196 394q0 -109 -82 -159q-71 -44 -197 -44h-446v424h444q130 0 206 -53q75 -53 75 -144v-24z" />
    <glyph glyph-name="uni044D" unicode="&#x44d;" horiz-adv-x="1580" 
d="M1244 510q-14 -147 -127 -243q-126 -106 -328 -106q-194 0 -303 73q-99 66 -132 192h-261q33 -201 187 -320q176 -137 499 -137q359 0 551 169q59 52 98 118t58 141t19 158v66q0 126 -44 233t-132 184q-191 167 -551 167q-316 0 -491 -133q-151 -113 -191 -321h258
q32 124 130 189q109 73 305 73q203 0 327 -104q109 -92 127 -235h-621v-164h622z" />
    <glyph glyph-name="uni044E" unicode="&#x44e;" horiz-adv-x="2393" 
d="M472 0v495h345q20 -237 196 -375q191 -151 538 -151q370 0 562 171q173 154 173 419v56q0 266 -173 420q-192 170 -562 170q-346 0 -537 -149q-175 -136 -196 -373h-346v492h-279v-1175h279zM1094 619q0 167 104 272q120 122 353 122q232 0 353 -123q52 -53 77.5 -124
t25.5 -147v-62q0 -166 -105 -274q-120 -122 -351 -122q-230 0 -351 123q-106 107 -106 273v62z" />
    <glyph glyph-name="uni044F" unicode="&#x44f;" horiz-adv-x="1543" 
d="M1105 417v-417h274v1175h-725q-248 0 -377 -89q-133 -93 -133 -278v-38q0 -110 71 -189q63 -72 180 -115q-70 -30 -108 -80q-32 -42 -56 -128l-27 -105q-21 -83 -79 -153h294q20 23 34 57q15 37 31 86l28 92q32 104 122 142q69 28 225 40h246zM423 799q0 106 86 155
q67 37 178 37h418v-391h-408q-274 0 -274 183v16z" />
    <glyph glyph-name="uni0451" unicode="&#x451;" horiz-adv-x="1564" 
d="M403 1416q0 -52 36 -77t112 -25q86 0 124 26q33 22 33 76q0 56 -33 79q-38 26 -124 26q-77 0 -112.5 -25.5t-35.5 -79.5zM905 1416q0 -52 35.5 -77t112.5 -25q86 0 123 26q33 22 33 76q0 56 -33 79q-37 26 -123 26q-52 0 -84.5 -11.5t-48 -34.5t-15.5 -59zM1485 519
q3 51 3 54q11 290 -157 458q-176 174 -516 174q-363 0 -553 -166q-176 -153 -176 -417v-40q0 -285 171 -442q187 -171 563 -171q201 0 350 62q127 53 206 153q66 83 93 194l-261 1q-20 -88 -113 -152q-108 -74 -280 -74q-222 0 -343 114q-53 50 -79.5 115.5t-27.5 136.5
h1120zM365 695q5 77 45 150q45 82 137 132q104 57 259 57q207 0 312 -97q96 -89 104 -252v-6h-857v16z" />
    <glyph glyph-name="uni0452" unicode="&#x452;" horiz-adv-x="1788" 
d="M1586 850q28 -109 28 -271v-465q0 -172 -29 -270q-37 -126 -124 -187q-98 -70 -272 -70q-106 0 -209 22q-72 16 -127 37l30 170q40 -15 84 -24q66 -14 154 -14q74 0 118 22t66 68q19 41 25 100.5t6 158.5v447q0 129 -21 205q-29 106 -107 166q-91 69 -255 69
q-147 0 -263 -74q-104 -66 -163 -178q-57 -106 -57 -211v-551h-278v1288h-161v155h161v125h278v-125h351v-155h-351v-354q91 130 235.5 200.5t321.5 70.5q258 0 400 -108q116 -88 159 -247z" />
    <glyph glyph-name="uni0453" unicode="&#x453;" horiz-adv-x="1289" 
d="M860 1560l-251 -267h218l309 267h-276zM468 3v978h784v194h-1063v-1175z" />
    <glyph glyph-name="uni0454" unicode="&#x454;" horiz-adv-x="1562" 
d="M968 510v164h-621q18 143 127 235q124 104 327 104q196 0 306 -73q97 -64 129 -189h258q-38 207 -189 321q-177 133 -493 133q-360 0 -551 -167q-88 -77 -132 -184t-44 -233v-66q0 -126 43.5 -233t131.5 -184q192 -169 552 -169q321 0 499 137q153 118 186 320h-261
q-33 -126 -132 -192q-110 -73 -303 -73q-202 0 -328 106q-113 95 -127 243h622z" />
    <glyph glyph-name="uni0455" unicode="&#x455;" horiz-adv-x="1444" 
d="M1359 348q0 67 -20.5 118t-57.5 85t-93 59q-74 32 -179 50t-278 36q-180 17 -252 54q-67 33 -67 107q0 82 83 124t241 42q194 0 281 -66q57 -43 72 -120h244q-15 158 -149 254q-161 114 -461 114q-310 0 -459 -101q-131 -89 -131 -250q0 -82 31.5 -141.5t98.5 -100.5
q128 -79 437 -109q12 -1 62.5 -6t66.5 -6.5t50 -6t55.5 -9.5t40.5 -11q52 -17 78.5 -48t26.5 -82q0 -82 -84 -132q-97 -59 -282 -55q-182 1 -279 69q-83 55 -101 157h-243q27 -173 161 -276q162 -127 467 -128q316 -1 486 110q77 50 115.5 119.5t38.5 149.5z" />
    <glyph glyph-name="uni0456" unicode="&#x456;" 
d="M155 1460q0 -56 43 -89t132 -33q60 0 100 16t57.5 42.5t17.5 63.5v2q0 53 -41 87q-45 37 -134 37q-87 0 -133 -36q-42 -32 -42 -88v-2zM471 0v1175h-279v-1175h279z" />
    <glyph glyph-name="uni0457" unicode="&#x457;" 
d="M-76 1417q0 -52 36 -77t112 -25q86 0 124 26q33 22 33 76q0 56 -33 79q-38 26 -124 26q-77 0 -112.5 -25.5t-35.5 -79.5zM426 1417q0 -52 35.5 -77t112.5 -25q86 0 123 26q33 22 33 76q0 56 -33 79q-37 26 -123 26q-52 0 -84.5 -11.5t-48 -34.5t-15.5 -59zM471 0v1175
h-279v-1175h279z" />
    <glyph glyph-name="uni0458" unicode="&#x458;" horiz-adv-x="665" 
d="M167 1460q0 -55 42 -87q45 -35 133 -35q89 0 134 35q41 32 41 87v2q0 53 -41 87q-45 37 -134 37q-87 0 -133 -36q-42 -32 -42 -88v-2zM205 1175v-1049q0 -99 -6 -158.5t-25 -100.5q-22 -46 -66 -68t-118 -22q-128 0 -239 33l-28 -165q52 -21 126 -37q103 -22 209 -22
q174 0 272 70q87 61 124 187q29 98 29 270v1062h-278z" />
    <glyph glyph-name="uni0459" unicode="&#x459;" horiz-adv-x="2669" 
d="M317 1175v-644q0 -100 -10 -164.5t-38 -106.5q-31 -46 -89.5 -68t-155.5 -22v-196q170 0 280.5 33.5t175.5 103.5q42 45 67.5 109.5t36 142.5t10.5 181v429h792v-973h703q241 0 383 100q148 104 148 295v25q0 185 -136 284q-143 103 -431 103h-388v368h-1348zM2340 394
q0 -109 -82 -159q-72 -44 -197 -44h-396v424h394q130 0 206 -53q75 -53 75 -144v-24z" />
    <glyph glyph-name="uni045A" unicode="&#x45a;" horiz-adv-x="2633" 
d="M469 0v474h869v-474h703q240 0 382 100q148 104 148 295v25q0 185 -136 284q-141 103 -430 103h-388v368h-279v-499h-869v499h-279v-1175h279zM2291 394q0 -109 -82 -159q-70 -44 -196 -44h-396v424h393q131 0 206 -53t75 -144v-24z" />
    <glyph glyph-name="uni045B" unicode="&#x45b;" horiz-adv-x="1858" 
d="M504 0v550q0 106 58 211q61 110 166 178q115 75 266 75q166 0 257 -69q78 -60 108 -168q21 -76 21 -205v-572h278v576q0 162 -28 271q-43 159 -160 249q-143 109 -403 109q-180 0 -325 -71q-149 -73 -238 -203v358h302v160h-302v119h-279v-119h-210v-160h210v-1289h279z
" />
    <glyph glyph-name="uni045C" unicode="&#x45c;" horiz-adv-x="1621" 
d="M943 1526l-251 -267h218l309 267h-276zM192 1175v-1175h278v507h325l440 -507h332l-552 597l483 578h-321l-372 -471h-335v471h-278z" />
    <glyph glyph-name="uni045E" unicode="&#x45e;" horiz-adv-x="1461" 
d="M950 1551q-15 -80 -49 -115q-50 -52 -157 -52t-158 53q-37 38 -52 114h-165q13 -129 84 -200q95 -95 291 -95q193 0 287 94q71 72 85 201h-166zM1167 1175l-442 -986l-435 986h-298l578 -1175h73l-31 -75q-68 -152 -228 -237l98 -141q92 28 182 105q108 93 168 222
l635 1301h-300z" />
    <glyph glyph-name="uni045F" unicode="&#x45f;" horiz-adv-x="1766" 
d="M184 0h569v-190h259v190h520v1175h-279v-981h-791v981h-278v-1175z" />
    <glyph glyph-name="uni0462" unicode="&#x462;" horiz-adv-x="1701" 
d="M1426 849q160 -103 160 -340v-71q0 -228 -161 -336q-152 -102 -446 -102h-760v1358h-199v155h790v-155h-307v-412h443q328 0 480 -97zM1321 458v25q0 132 -70 190q-80 65 -280 65h-468v-529h494q181 0 258 69q66 59 66 180z" />
    <glyph glyph-name="uni0463" unicode="&#x463;" horiz-adv-x="1598" 
d="M804 1253v169h-328v141h-257v-141h-234v-169h234v-1253h686q536 0 536 358v73q0 123 -61 203.5t-184 121t-311 40.5h-409v457h328zM1185 368q0 -98 -92 -141q-69 -32 -189 -32h-428v406l423 1q286 0 286 -185v-49z" />
    <glyph glyph-name="uni0472" unicode="&#x472;" horiz-adv-x="1990" 
d="M86 694q0 -154 53.5 -284.5t161.5 -226.5q237 -213 689 -213q450 0 690 214q109 96 162.5 226.5t53.5 283.5v123q0 206 -94 365q-101 168 -295 261q-211 99 -516 99q-452 0 -690 -212q-108 -96 -161.5 -227.5t-53.5 -285.5v-123zM990 1334q288 0 453 -137
q164 -136 164 -377v-132q0 -32 -3 -62l-1167 450q72 125 213 191.5t340 66.5zM990 178q-286 0 -451 137q-80 66 -122 161t-42 211l-1 133v27q0 8 2 26l1161 -448q-73 -119 -213 -183t-334 -64z" />
    <glyph glyph-name="uni0473" unicode="&#x473;" horiz-adv-x="1622" 
d="M81 559q0 -265 173 -419q192 -171 562 -171q371 0 563 171q173 154 173 419v56q0 266 -173 420q-192 170 -563 170q-369 0 -562 -170q-58 -52 -97.5 -119t-57.5 -141.5t-18 -158.5v-57zM816 1013q232 0 353 -123q53 -53 78.5 -124t25.5 -147v-7l-890 148q40 115 141 180
q113 73 292 73zM816 161q-230 0 -350 123q-106 108 -106 273v1l888 -147q-40 -112 -143 -178q-114 -72 -289 -72z" />
    <glyph glyph-name="uni0474" unicode="&#x474;" horiz-adv-x="1812" 
d="M1525 1512l-599 -1315h-43l-598 1315h-296l726 -1512h381l727 1512h-298z" />
    <glyph glyph-name="uni0475" unicode="&#x475;" horiz-adv-x="1523" 
d="M1200 1175l-419 -988h-39l-419 988h-299l558 -1175h360l557 1175h-299z" />
    <glyph glyph-name="uni0490" unicode="&#x490;" horiz-adv-x="1481" 
d="M1406 1304v1h10v384h-251v-177h-943v-1512h285v1304h899z" />
    <glyph glyph-name="uni0491" unicode="&#x491;" horiz-adv-x="1406" 
d="M1329 989v366l-249 2v-172h-871v-1185h258v989h862z" />
    <glyph glyph-name="uni04D9" unicode="&#x4d9;" horiz-adv-x="1564" 
d="M91 656q0 -18 -1 -26q-1 -9 -1 -29q-12 -290 156 -457q175 -175 516 -175q362 0 554 166q175 153 175 418v39q0 286 -170 442q-187 171 -563 171q-296 0 -469 -129q-140 -106 -180 -280l260 -1q20 88 113 152q108 74 280 74q222 0 343 -114q102 -96 107 -251h-1120z
M1211 480q-7 -131 -100 -222q-117 -117 -340 -117q-207 0 -313 98q-96 89 -104 250v6h857v-15z" />
    <glyph glyph-name="Wgrave" unicode="&#x1e80;" horiz-adv-x="2583" 
d="M857 1919l323 -267h216l-270 267h-269zM521 0h358v1l4 -1l393 1186l9 52h13l10 -51l391 -1187h362l506 1512h-295l-372 -1180l-20 -131h-20l-23 130l-388 1181h-315l-389 -1180l-23 -131h-21l-19 129l-372 1182h-295z" />
    <glyph glyph-name="wgrave" unicode="&#x1e81;" horiz-adv-x="2325" 
d="M732 1574l323 -267h216l-270 267h-269zM1994 1175l-289 -992h-40l-326 992h-353l-326 -992h-40l-288 992h-290l394 -1175h392l323 967h22l324 -967h392l394 1175h-289z" />
    <glyph glyph-name="Wacute" unicode="&#x1e82;" horiz-adv-x="2583" 
d="M1433 1919l-251 -267h218l309 267h-276zM521 0h358v1l4 -1l393 1186l9 52h13l10 -51l391 -1187h362l506 1512h-295l-372 -1180l-20 -131h-20l-23 130l-388 1181h-315l-389 -1180l-23 -131h-21l-19 129l-372 1182h-295z" />
    <glyph glyph-name="wacute" unicode="&#x1e83;" horiz-adv-x="2325" 
d="M1308 1574l-251 -267h218l309 267h-276zM1994 1175l-289 -992h-40l-326 992h-353l-326 -992h-40l-288 992h-290l394 -1175h392l323 967h22l324 -967h392l394 1175h-289z" />
    <glyph glyph-name="Wdieresis" unicode="&#x1e84;" horiz-adv-x="2583" 
d="M883 1757q0 -52 36 -77t112 -25q86 0 124 26q33 22 33 76q0 56 -33 79q-38 26 -124 26q-77 0 -112.5 -25.5t-35.5 -79.5zM1385 1757q0 -34 15.5 -56.5t48 -34t84.5 -11.5q86 0 123 26q33 22 33 76q0 56 -33 79q-37 26 -123 26q-52 0 -84.5 -11.5t-48 -34.5t-15.5 -59z
M521 0h358v1l4 -1l393 1186l9 52h13l10 -51l391 -1187h362l506 1512h-295l-372 -1180l-20 -131h-20l-23 130l-388 1181h-315l-389 -1180l-23 -131h-21l-19 129l-372 1182h-295z" />
    <glyph glyph-name="wdieresis" unicode="&#x1e85;" horiz-adv-x="2325" 
d="M758 1412q0 -52 36 -77t112 -25q86 0 124 26q33 22 33 76q0 56 -33 79q-38 26 -124 26q-77 0 -112.5 -25.5t-35.5 -79.5zM1260 1412q0 -52 35.5 -77t112.5 -25q86 0 123 26q33 22 33 76q0 56 -33 79q-37 26 -123 26q-52 0 -84.5 -11.5t-48 -34.5t-15.5 -59zM1994 1175
l-289 -992h-40l-326 992h-353l-326 -992h-40l-288 992h-290l394 -1175h392l323 967h22l324 -967h392l394 1175h-289z" />
    <glyph glyph-name="uni1E9E" unicode="&#x1e9e;" horiz-adv-x="1732" 
d="M833 762h83q221 -4 314 -70q85 -62 85 -191v-22q0 -140 -89 -210q-101 -78 -328 -78v-207q273 0 439 65q146 56 212 169q54 95 54 238v40q0 178 -107 278q-115 108 -362 138l424 384v216h-680q-296 0 -459 -79q-135 -65 -186 -198q-35 -91 -35 -266v-969h283v923
q0 137 17 198q24 90 104 134q91 50 271 50h359l-399 -362v-181z" />
    <glyph glyph-name="Ygrave" unicode="&#x1ef2;" horiz-adv-x="1701" 
d="M418 1915l323 -267h216l-270 267h-269zM1739 1512h-328l-560 -759l-563 759h-328l748 -974v-538h285v538z" />
    <glyph glyph-name="ygrave" unicode="&#x1ef3;" horiz-adv-x="1525" 
d="M318 1574l323 -267h216l-270 267h-269zM1200 1175l-442 -986l-435 986h-298l578 -1175h73l-31 -75q-68 -152 -228 -237l98 -141q92 28 182 105q108 93 168 222l635 1301h-300z" />
    <glyph glyph-name="figuredash" unicode="&#x2012;" horiz-adv-x="1192" 
d="M1079 500v181h-941v-181h941z" />
    <glyph glyph-name="endash" unicode="&#x2013;" horiz-adv-x="1609" 
d="M1536 498v181h-1457v-181h1457z" />
    <glyph glyph-name="emdash" unicode="&#x2014;" horiz-adv-x="2565" 
d="M2382 498v182h-2201v-182h2201z" />
    <glyph glyph-name="quoteleft" unicode="&#x2018;" horiz-adv-x="504" 
d="M187 1582q-48 -91 -74 -179q-20 -68 -20 -117v-195h323v207h-46q-64 0 -61 81q3 68 55 181z" />
    <glyph glyph-name="quoteright" unicode="&#x2019;" horiz-adv-x="495" 
d="M321 1022q34 64 56.5 125.5t30.5 102t8 68.5v194h-324v-205h45q66 0 63 -80q-3 -69 -55 -182z" />
    <glyph glyph-name="quotesinglbase" unicode="&#x201a;" horiz-adv-x="636" 
d="M393 -274q52 99 75 180q19 68 19 116v194h-323v-206h45q66 0 63 -80q-3 -68 -55 -181z" />
    <glyph glyph-name="quotedblleft" unicode="&#x201c;" horiz-adv-x="984" 
d="M648 1587q-47 -90 -74 -180q-20 -68 -20 -116v-196h323v207h-45q-67 0 -62 81q5 73 56 181zM213 1586q-50 -93 -72.5 -171.5t-22.5 -124.5v-195h323v206h-45q-64 0 -61 81q3 68 55 181z" />
    <glyph glyph-name="quotedblright" unicode="&#x201d;" horiz-adv-x="987" 
d="M356 1022q50 94 75 180q20 68 20 116v194h-324v-206h45q66 0 63 -80q-3 -69 -55 -182zM768 1023q50 95 75 179q20 68 20 116v194h-323v-205h45q65 0 62 -80q-3 -67 -56 -182z" />
    <glyph glyph-name="quotedblbase" unicode="&#x201e;" horiz-adv-x="1051" 
d="M376 -274q49 93 71.5 171t22.5 125v194h-324v-206h46q67 0 62 -80q-4 -72 -55 -181zM801 -274q49 94 71.5 171.5t22.5 124.5v194h-324v-206h46q67 0 62 -80q-4 -72 -55 -181z" />
    <glyph glyph-name="dagger" unicode="&#x2020;" horiz-adv-x="1458" 
d="M1339 868v198h-496v449h-258v-449h-494v-198h494v-1209h258v1209h496z" />
    <glyph glyph-name="daggerdbl" unicode="&#x2021;" horiz-adv-x="1458" 
d="M1340 868v198h-497v449h-258v-449h-495v-198h495v-432h-447v-201h447v-575h258v575h448v201h-448v432h497z" />
    <glyph glyph-name="bullet" unicode="&#x2022;" horiz-adv-x="759" 
d="M584 700q0 78 -54 130q-55 52 -135 52q-78 0 -133 -52q-56 -54 -56 -130q0 -74 56 -127q55 -52 133 -52q80 0 135 52q54 51 54 127z" />
    <glyph glyph-name="ellipsis" unicode="&#x2026;" horiz-adv-x="2124" 
d="M218 97q0 -59 40.5 -87.5t128.5 -28.5q97 0 139 30q39 26 39 86q0 61 -39 89q-43 29 -139 29q-88 0 -128.5 -28.5t-40.5 -89.5zM886 97q0 -58 40.5 -87t127.5 -29q97 0 139 30q39 26 39 86q0 61 -39 89q-43 29 -139 29q-87 0 -127.5 -29t-40.5 -89zM1552 97
q0 -59 40 -87.5t128 -28.5q98 0 140 30q38 27 38 86q0 61 -38 89q-43 29 -140 29q-88 0 -128 -28.5t-40 -89.5z" />
    <glyph glyph-name="perthousand" unicode="&#x2030;" horiz-adv-x="3759" 
d="M107 980q0 -117 38 -206q46 -109 144 -169q113 -71 292 -71q183 0 296 70q96 60 141 172q36 91 36 216v91q0 128 -34 217q-43 110 -140 171q-112 69 -299 69q-186 0 -298 -69q-97 -61 -141 -172q-35 -88 -35 -216v-103zM1938 1521h-254l-1005 -1521h256zM581 700
q-143 0 -207 103q-46 72 -46 187v108q0 72 14 120q19 70 70 109q63 48 169 48q154 0 214 -99q38 -64 38 -180v-123q0 -118 -45 -183q-61 -90 -207 -90zM1585 416q0 -117 38 -206q46 -109 144 -169q113 -71 292 -71q183 0 296 70q96 60 141 172q36 91 36 216v91
q0 128 -34 217q-43 110 -140 171q-112 69 -299 69q-186 0 -298 -69q-97 -61 -141 -172q-35 -88 -35 -216v-103zM2696 416q0 -117 38 -206q47 -110 144 -169q115 -71 293 -71q183 0 296 70q96 60 141 172q36 91 36 216v91q0 129 -35 217q-45 111 -140 171q-112 69 -298 69
t-298 -69q-99 -62 -141 -172q-36 -94 -36 -216v-103zM2059 136q-143 0 -207 103q-46 72 -46 187v108q0 72 14 120q19 70 70 109q63 48 169 48q154 0 214 -99q38 -64 38 -180v-123q0 -118 -45 -183q-61 -90 -207 -90zM3171 136q-144 0 -208 103q-46 72 -46 187v108
q0 113 40 179q59 98 214 98q154 0 214 -99q38 -64 38 -180v-123q0 -118 -45 -183q-61 -90 -207 -90z" />
    <glyph glyph-name="guilsinglleft" unicode="&#x2039;" horiz-adv-x="897" 
d="M764 188l-399 402l399 404h-265l-392 -404l392 -402h265z" />
    <glyph glyph-name="guilsinglright" unicode="&#x203a;" horiz-adv-x="808" 
d="M368 188l391 402l-391 404h-266l399 -404l-399 -402h266z" />
    <glyph glyph-name="fraction" unicode="&#x2044;" horiz-adv-x="924" 
d="M1136 1505l-180 110l-1135 -1557l187 -110z" />
    <glyph glyph-name="uni2070" unicode="&#x2070;" horiz-adv-x="1261" 
d="M158 1280q0 -116 38 -206q46 -109 144 -169q113 -71 293 -71q185 0 296 70q96 60 140 172q36 91 36 216v91q0 128 -34 217q-43 110 -140 171q-112 69 -298 69t-298 -69q-99 -62 -141 -172q-36 -94 -36 -216v-103zM633 1000q-144 0 -208 103q-46 72 -46 187v108
q0 111 44 179q61 98 210 98q146 0 208 -99q43 -70 43 -180v-123q0 -114 -48 -183q-63 -90 -203 -90z" />
    <glyph glyph-name="uni2074" unicode="&#x2074;" horiz-adv-x="1107" 
d="M426 1821l-374 -687v-128h634v-152h228v152h155v176h-155v284h-228v-284h-370l347 639h-237z" />
    <glyph glyph-name="uni2075" unicode="&#x2075;" horiz-adv-x="1138" 
d="M1055 1185q0 154 -80 229q-97 87 -324 87q-108 0 -186 -20q-59 -16 -111 -52l15 227h612v165h-830l-32 -556h231v17q18 22 52 38.5t84.5 26t110.5 9.5q130 0 182 -44q44 -39 44 -119q0 -53 -9 -87.5t-33 -57.5q-54 -51 -204 -51q-124 0 -179 34q-47 29 -47 85v22h-232
v-12q0 -145 105 -218q109 -77 352 -77q264 0 373 80q55 41 80.5 108.5t25.5 165.5z" />
    <glyph glyph-name="uni2076" unicode="&#x2076;" horiz-adv-x="1178" 
d="M117 1202q0 -101 25 -167q35 -92 129 -141q113 -59 312 -59q200 0 313 44q99 38 138 114q31 59 31 155v19q0 104 -17 154q-29 79 -106 117q-99 46 -277 46q-242 0 -317 -108v79q0 97 35 146q55 80 198 80q87 0 132 -13t68 -33q31 -29 31 -86v-21h226v24q0 85 -25 136
q-35 71 -126 109q-111 44 -306 44q-192 0 -304 -66q-93 -55 -132 -157q-28 -73 -28 -183v-233zM607 1321q148 0 197 -52q14 -15 21 -35.5t8 -35.5t1 -40v-12q0 -74 -40 -105q-53 -42 -205 -42q-147 0 -204 55q-36 35 -36 90v20q0 73 43 108q61 49 215 49z" />
    <glyph glyph-name="uni2077" unicode="&#x2077;" horiz-adv-x="1046" 
d="M985 1665v156h-909v-268h216v90h434l-484 -789h253z" />
    <glyph glyph-name="uni2078" unicode="&#x2078;" horiz-adv-x="1144" 
d="M120 1563q0 -69 24 -113q30 -58 99 -90q-81 -34 -115 -93q-25 -45 -25 -110v-29q0 -140 90 -208q110 -86 377 -86q268 0 377 85q89 68 89 210v31q0 63 -25 107q-34 59 -117 93q66 33 99 88q25 43 25 108v12q0 130 -88 194q-109 78 -362 78q-246 0 -357 -78
q-91 -66 -91 -195v-4zM570 1436q-81 0 -126 12q-44 10 -66 29q-14 11 -21 26t-8.5 26t-1.5 28v6q0 48 35 76q55 43 188 43q131 0 184 -39q38 -29 38 -80v-10q0 -20 -4 -37q-8 -46 -92 -68q-45 -12 -126 -12zM570 1285q150 0 205 -46q35 -31 35 -89v-11q0 -69 -48 -102
q-59 -41 -192 -41q-132 0 -191 41q-50 34 -50 101v12q0 58 36 88q56 47 205 47z" />
    <glyph glyph-name="uni2079" unicode="&#x2079;" horiz-adv-x="1170" 
d="M1058 1474q0 105 -25 167q-37 92 -130 141q-113 59 -312 59q-201 0 -312 -44q-99 -39 -138 -113q-32 -59 -32 -156v-19q0 -100 18 -153q27 -79 107 -116q97 -47 277 -47q240 0 315 107v-78q0 -98 -34 -147q-57 -80 -199 -80q-151 0 -200 46q-31 29 -31 87v21h-226v-25
q0 -85 25 -136q35 -71 127 -108q109 -45 305 -45q192 0 305 67q93 54 132 157q28 73 28 182v233zM567 1355q-148 0 -197 54q-19 21 -24.5 46.5t-5.5 63.5v11q0 75 41 106q54 41 204 41q146 0 204 -54q36 -34 36 -90v-21q0 -71 -43 -107q-60 -50 -215 -50z" />
    <glyph glyph-name="uni207D" unicode="&#x207d;" horiz-adv-x="723" 
d="M671 775v166h-69q-155 0 -232 75q-64 63 -64 167v307q0 55 17 99q24 62 82 99q72 44 196 44h70v165h-83q-213 0 -337 -71q-99 -58 -139 -165q-28 -72 -28 -183v-283q0 -121 37 -204q45 -101 149 -155q117 -61 318 -61h83z" />
    <glyph glyph-name="uni207E" unicode="&#x207e;" horiz-adv-x="719" 
d="M152 775q201 0 318 61q104 54 149 155q37 83 37 204v283q0 110 -27 183q-42 108 -139 165q-124 71 -337 71h-84v-165h70q124 0 196 -44q59 -38 83 -99q16 -41 16 -99v-307q0 -105 -63 -167q-77 -75 -232 -75h-70v-166h83z" />
    <glyph glyph-name="uni2080" unicode="&#x2080;" horiz-adv-x="1261" 
d="M158 36q0 -116 38 -206q46 -109 144 -169q113 -71 293 -71q185 0 296 70q96 60 140 172q36 91 36 216v91q0 128 -34 217q-43 110 -140 171q-112 69 -298 69t-298 -69q-99 -62 -141 -172q-36 -94 -36 -216v-103zM633 -244q-144 0 -208 103q-46 72 -46 187v108
q0 111 44 179q61 98 210 98q146 0 208 -99q43 -70 43 -180v-123q0 -114 -48 -183q-63 -90 -203 -90z" />
    <glyph glyph-name="uni2081" unicode="&#x2081;" horiz-adv-x="826" 
d="M48 274q181 24 325 95v-759h223v967h-190q-60 -41 -155 -81q-102 -44 -203 -66v-156z" />
    <glyph glyph-name="uni2082" unicode="&#x2082;" horiz-adv-x="1133" 
d="M1030 -390v170h-647q7 32 39 60q52 47 181 110q63 30 116 57q142 71 211 134q95 85 95 182q0 132 -113 203.5t-338 71.5q-247 0 -363 -79q-106 -72 -106 -215v-44h231v39q0 55 42 86q55 40 193 40q118 0 173 -31.5t55 -92.5q0 -32 -30 -62q-53 -55 -192 -119
q-44 -19 -129 -59q-168 -76 -242 -128q-110 -77 -110 -154v-169h934z" />
    <glyph glyph-name="uni2083" unicode="&#x2083;" horiz-adv-x="1125" 
d="M1019 -126q0 117 -68 176q-58 49 -175 60q108 8 166 56q63 50 63 142q0 149 -107 218q-110 70 -348 70q-260 0 -360 -83q-45 -37 -63 -91.5t-18 -129.5v-15l219 1v31q0 65 45 94q48 30 176 30q126 0 180 -33q48 -30 48 -96v-15q0 -57 -72 -86q-63 -25 -172 -25h-89v-143
h141q94 0 143 -22q63 -28 63 -99v-49q0 -59 -65 -85q-62 -25 -177 -25q-142 0 -198 45q-35 27 -35 81v26h-218v-20q0 -160 110 -230q108 -69 344 -69q216 0 334 62q133 71 133 224z" />
    <glyph glyph-name="uni2084" unicode="&#x2084;" horiz-adv-x="1107" 
d="M426 577l-374 -687v-128h634v-152h228v152h155v176h-155v284h-228v-284h-370l347 639h-237z" />
    <glyph glyph-name="uni2085" unicode="&#x2085;" horiz-adv-x="1138" 
d="M1055 -59q0 154 -80 229q-97 87 -324 87q-108 0 -186 -20q-59 -16 -111 -52l15 227h612v165h-830l-32 -556h231v17q18 22 52 38.5t84.5 26t110.5 9.5q130 0 182 -44q44 -39 44 -119q0 -53 -9 -87.5t-33 -57.5q-54 -51 -204 -51q-124 0 -179 34q-47 29 -47 85v22h-232v-12
q0 -145 105 -218q109 -77 352 -77q264 0 373 80q37 28 60.5 67.5t34.5 90.5t11 116z" />
    <glyph glyph-name="uni2086" unicode="&#x2086;" horiz-adv-x="1190" 
d="M117 -41q0 -101 25 -167q35 -92 129 -141q113 -59 312 -59q200 0 313 44q99 38 138 114q31 59 31 155v19q0 104 -17 154q-29 79 -106 117q-99 46 -277 46q-242 0 -317 -108v79q0 97 35 146q55 80 198 80q87 0 132 -13t68 -33q31 -29 31 -86v-21h226v24q0 85 -25 136
q-35 71 -126 109q-111 44 -306 44q-192 0 -304 -66q-93 -55 -132 -157q-28 -73 -28 -183v-233zM607 78q148 0 197 -52q14 -15 21 -35.5t8 -35.5t1 -40v-12q0 -74 -40 -105q-53 -42 -205 -42q-147 0 -204 55q-36 35 -36 90v20q0 34 9 61t34 47q61 49 215 49z" />
    <glyph glyph-name="uni2087" unicode="&#x2087;" horiz-adv-x="1046" 
d="M985 415v156h-909v-268h216v90h434l-484 -789h253z" />
    <glyph glyph-name="uni2088" unicode="&#x2088;" horiz-adv-x="1156" 
d="M120 317q0 -69 24 -113q30 -58 99 -90q-81 -34 -115 -93q-25 -45 -25 -110v-29q0 -140 90 -208q110 -86 377 -86q268 0 377 85q89 68 89 210v31q0 63 -25 107q-34 59 -117 93q65 33 99 88q25 43 25 108v12q0 130 -88 194q-109 78 -362 78q-247 0 -357 -78
q-91 -66 -91 -195v-4zM570 190q-81 0 -126 12q-44 10 -66 29q-14 11 -21 26t-8.5 26t-1.5 28v6q0 48 35 76q55 43 188 43q131 0 184 -39q38 -29 38 -80v-10q0 -20 -4 -37q-8 -46 -92 -68q-45 -12 -126 -12zM570 39q150 0 205 -46q35 -31 35 -89v-11q0 -69 -48 -102
q-59 -41 -192 -41q-132 0 -191 41q-50 34 -50 101v12q0 58 36 88q56 47 205 47z" />
    <glyph glyph-name="uni2089" unicode="&#x2089;" horiz-adv-x="1190" 
d="M1058 230q0 104 -25 167q-37 92 -130 141q-113 59 -312 59q-201 0 -312 -44q-99 -39 -138 -113q-32 -59 -32 -156v-19q0 -100 18 -153q27 -79 107 -116q97 -47 277 -47q240 0 315 107v-78q0 -98 -34 -147q-57 -80 -199 -80q-151 0 -200 46q-31 29 -31 87v21h-226v-25
q0 -85 25 -136q35 -71 127 -108q109 -45 305 -45q192 0 305 67q93 54 132 157q28 73 28 182v233zM567 111q-148 0 -197 54q-19 21 -24.5 46.5t-5.5 63.5v11q0 75 41 106q54 41 204 41q146 0 204 -54q36 -34 36 -90v-21q0 -71 -43 -107q-60 -50 -215 -50z" />
    <glyph glyph-name="uni208D" unicode="&#x208d;" horiz-adv-x="707" 
d="M671 -469v166h-69q-155 0 -232 75q-64 63 -64 167v307q0 55 17 99q24 62 82 99q72 44 196 44h70v165h-83q-213 0 -337 -71q-99 -58 -139 -165q-28 -72 -28 -183v-283q0 -121 37 -204q45 -101 149 -155q117 -61 318 -61h83z" />
    <glyph glyph-name="uni208E" unicode="&#x208e;" horiz-adv-x="702" 
d="M152 -468q201 0 318 61q104 54 149 155q37 83 37 204v283q0 110 -27 183q-42 108 -139 165q-124 71 -337 71h-84v-165h70q124 0 196 -44q59 -38 83 -99q16 -41 16 -99v-307q0 -105 -63 -167q-77 -75 -232 -75h-70v-166h83z" />
    <glyph glyph-name="lira" unicode="&#x20a4;" horiz-adv-x="1484" 
d="M437 1121q0 98 84 153q92 60 280 60q168 0 255 -74q72 -63 74 -162l243 1q-5 203 -127 311q-146 130 -460 130q-310 0 -475 -100q-161 -98 -161 -283q0 -135 65 -269h-117v-132h188q44 -80 60 -127h-248v-133h262q-9 -95 -63 -169t-164 -136v-193q74 8 111 11
q110 12 199 12q102 0 312 -25q202 -26 308 -26q102 0 195 26q76 22 147 58l-73 175q-51 -21 -94 -34t-95 -20.5t-110 -7.5q-77 0 -145 13q-73 14 -139 24q-168 27 -287 -9q148 108 172 301h427v133h-429q-15 60 -48 127h477v132h-550q-74 135 -74 233z" />
    <glyph glyph-name="Euro" unicode="&#x20ac;" horiz-adv-x="1975" 
d="M1610 567l283 -1q-19 -121 -77 -227.5t-157 -186.5q-225 -182 -608 -182q-448 0 -682 211q-163 148 -202 376h-150l22 127h117v9v126v6h-139l22 128h128q38 230 203 378q235 211 682 211q375 0 596 -171q201 -156 244 -424l-283 -1q-37 180 -177 281q-148 107 -383 107
q-282 0 -444 -137q-111 -93 -146 -244h681l-22 -128h-673v-3v-138h695l-22 -127h-659q34 -148 148 -243q161 -136 442 -136q238 0 389 114q133 102 172 275z" />
    <glyph glyph-name="uni2116" unicode="&#x2116;" horiz-adv-x="3094" 
d="M2016 966q0 -183 95 -292q119 -139 383 -139q184 0 297 66q97 57 141 165q36 88 36 211v123q0 129 -35 213q-45 108 -140 164q-114 65 -299 65q-272 0 -388 -138q-90 -108 -90 -303v-135zM1749 0v1512h-284l7 -1163h-10l-934 1163h-309v-1512h285l-8 1152h10l939 -1152
h304zM2494 702q-147 0 -210 95q-47 69 -47 179v140q0 106 44 170q63 91 213 91q147 0 210 -91q44 -65 44 -172v-154q0 -112 -49 -176q-62 -82 -205 -82zM3004 242v182h-1003v-182h1003z" />
    <glyph glyph-name="trademark" unicode="&#x2122;" horiz-adv-x="2485" 
d="M982 1347v165h-991v-165h383v-757h225v757h383zM1621 727h216l274 557h41l-15 -694h221v921h-317l-295 -587h-36l-293 587h-318v-921h221l-16 694h42z" />
    <glyph glyph-name="uni2126" unicode="&#x2126;" horiz-adv-x="1787" 
d="M744 0v401q-191 38 -281 171q-72 105 -72 239v103q0 83 32 158t94 132q139 126 376 126q245 0 383 -130q60 -57 90.5 -131.5t30.5 -154.5v-98q0 -74 -28 -151q-34 -95 -106 -160q-85 -77 -220 -104v-401h577v209l-351 -1l2 77q204 67 314 219q100 138 100 321v102
q0 150 -81 284q-90 146 -257 232q-190 96 -453 96q-265 0 -453 -95q-168 -86 -256 -232q-82 -133 -82 -285v-101q0 -187 100 -324q109 -149 313 -216l3 -78l-352 1v-209h577z" />
    <glyph glyph-name="partialdiff" unicode="&#x2202;" horiz-adv-x="1566" 
d="M673 1341q12 0 22 1q9 0 31.5 0.5t35.5 0.5h37q208 0 290 -99q25 -30 39.5 -71t19.5 -84t5 -99v-30q-57 91 -158 137q-121 55 -309 55q-236 0 -373 -81q-119 -70 -168 -200q-39 -104 -39 -253v-100q0 -151 48 -256q59 -130 194 -200q155 -81 411 -81q267 0 427 89
q133 74 188 206q41 101 41 239v451q0 192 -36 297q-47 135 -169 203q-137 74 -393 74h-56h-38h-26q-7 -1 -20 -1zM735 953q174 0 285 -75q133 -91 133 -270v-82q0 -180 -88 -260q-92 -85 -306 -85q-229 0 -321 107q-70 80 -70 243v74q0 177 79 259q86 89 288 89z" />
    <glyph glyph-name="uni2206" unicode="&#x2206;" horiz-adv-x="1833" 
d="M1832 0l-729 1512h-373l-729 -1512h268v-1h1286v1h277zM893 1306h47l506 -1107h-1059z" />
    <glyph glyph-name="product" unicode="&#x220f;" horiz-adv-x="1740" 
d="M487 -183v1488h766v-1488h285v1695h-1335v-1695h284z" />
    <glyph glyph-name="summation" unicode="&#x2211;" horiz-adv-x="1623" 
d="M1059 611l-586 694h1015v207h-1344v-186l635 -754l-639 -752v-187h1370v208h-1018l567 693v77z" />
    <glyph glyph-name="minus" unicode="&#x2212;" horiz-adv-x="1703" 
d="M1389 612v182h-1076v-182h1076z" />
    <glyph glyph-name="approxequal" unicode="&#x2248;" horiz-adv-x="1345" 
d="M1147 880q-64 -48 -113.5 -69t-102.5 -21q-12 0 -25 1t-24 2t-24.5 3.5t-22.5 4.5t-24 6l-22.5 6t-23.5 7t-22 7l-24 8t-23 8q-74 25 -136 38.5t-133 13.5q-81 0 -158 -42q-66 -35 -167 -127l88 -91q31 25 61 43t60 28.5t59.5 15.5t62.5 5q40 0 86 -9.5t66 -16t78 -26.5
q49 -17 80 -26t83.5 -18t104.5 -9q78 0 152 43q57 32 149 119zM1147 455q-65 -48 -114 -68.5t-102 -20.5q-14 0 -27 0.5t-28 3t-25.5 4t-27 6t-24 6.5t-27 8t-24.5 7.5t-27 9t-25 8.5q-74 25 -136 38.5t-133 13.5q-81 0 -158 -42q-63 -34 -167 -128l88 -90q114 92 243 92
q40 0 86 -9.5t66 -16t78 -26.5q49 -17 80 -26t83.5 -18t104.5 -9q80 0 152 42q58 34 149 120z" />
    <glyph glyph-name="notequal" unicode="&#x2260;" horiz-adv-x="1347" 
d="M1167 728h-302l-147 -237h449v-182h-561l-124 -201l-180 70l81 131h-206v182h318l146 237h-464v182h576l116 188l181 -70l-73 -118h190v-182z" />
    <glyph glyph-name="lessequal" unicode="&#x2264;" horiz-adv-x="1225" 
d="M1043 291v216l-598 252l598 253v217l-881 -384v-170zM1097 23v154h-952v-154h952z" />
    <glyph glyph-name="greaterequal" unicode="&#x2265;" horiz-adv-x="1225" 
d="M1079 675v170l-881 384v-217l598 -253l-598 -252v-216zM1097 23v154h-952v-154h952z" />
    <glyph glyph-name="uniF6C3" unicode="&#xf6c3;" horiz-adv-x="0" 
d="M-567 -167q0 -92 155 -92q-7 -37 -27 -65q-14 -20 -65 -70l118 -43q58 46 89 95q45 69 45 157q0 55 -37 83q-40 31 -128 31q-77 0 -113.5 -22.5t-36.5 -73.5z" />
    <glyph glyph-name="uniF6C9" unicode="&#xf6c9;" horiz-adv-x="734" 
d="M99 693q0 -244 126 -416v-277h285v57q200 -87 484 -87q449 0 683 213q107 96 160 226.5t53 283.5v125q0 153 -53 284t-159 228q-235 212 -683 212q-285 0 -485 -87v57h-285v-278q-126 -172 -126 -416v-125zM994 178q-323 0 -484 173v810q161 173 484 173q284 0 446 -136
q161 -136 161 -376v-136q0 -236 -161 -372q-162 -136 -446 -136z" />
    <glyph glyph-name="uniF6E1" unicode="&#xf6e1;" horiz-adv-x="774" 
d="M212 -272q0 -116 171 -116q-8 -44 -29 -78q-22 -35 -72 -83l131 -53q63 52 101 118q48 86 48 188q0 68 -41 103q-47 39 -140 39q-85 0 -127 -29t-42 -89z" />
    <glyph glyph-name="uniF6E2" unicode="&#xf6e2;" horiz-adv-x="679" 
d="M164 952q0 -115 171 -115q-7 -43 -29 -79q-22 -35 -71 -82l130 -53q64 54 100 118q49 86 49 188q0 67 -40 103q-47 39 -141 39q-87 0 -128 -28.5t-41 -90.5z" />
    <glyph glyph-name="uniF6E5" unicode="&#xf6e5;" horiz-adv-x="905" 
d="M854 3v157h-814v-157h814z" />
    <glyph glyph-name="uniF6E6" unicode="&#xf6e6;" horiz-adv-x="896" 
d="M854 1250v157h-814v-157h814z" />
    <glyph glyph-name="uniF6E7" unicode="&#xf6e7;" horiz-adv-x="792" 
d="M218 -313q0 -59 40.5 -87t128.5 -28q98 0 139 29q39 26 39 86q0 61 -39 89q-41 29 -139 29q-59 0 -96.5 -13t-55 -39t-17.5 -66z" />
    <glyph glyph-name="uniF6E8" unicode="&#xf6e8;" horiz-adv-x="696" 
d="M170 946q0 -59 40.5 -87t128.5 -28q98 0 139 29q39 26 39 86q0 61 -39 89q-41 29 -139 29q-59 0 -96.5 -13t-55 -39t-17.5 -66z" />
    <glyph glyph-name="uniF6F9" unicode="&#xf6f9;" horiz-adv-x="1328" 
d="M193 1175v-516l-142 -70v-183l142 71v-477h1042v193h-764v388l144 71v182l-144 -71v412h-278z" />
    <glyph glyph-name="uniF6FA" unicode="&#xf6fa;" horiz-adv-x="2480" 
d="M2365 991h-823v-298q0 -2 0.5 -5t1 -6.5t0.5 -5.5h641v-171h-641q0 -9 -2 -23v-298h823v-184h-1098v65q-178 -96 -451 -96q-368 0 -558 171q-172 154 -172 419v57q0 267 172 420q190 169 558 169q274 0 451 -94v64h1098v-184zM1266 557v62q0 166 -102 271
q-120 123 -348 123q-229 0 -349 -122q-102 -103 -102 -271v-64q0 -78 26 -149t78 -124q120 -122 347 -122t346 121q104 105 104 275z" />
    <glyph glyph-name="uniF6FD" unicode="&#xf6fd;" horiz-adv-x="1438" 
d="M380 1524l267 -239h263l268 239h-235l-164 -149l-165 149h-234zM1359 348q0 67 -20.5 118t-58 85t-94.5 59q-76 32 -181 50t-278 36q-184 18 -256 53q-71 35 -71 108q0 166 332 166q194 0 281 -66q57 -43 72 -120h244q-26 161 -153 253q-161 115 -457 115
q-311 0 -463 -101q-135 -90 -135 -250q0 -161 135 -242q129 -79 440 -109q13 -1 63 -6t66.5 -6.5t50.5 -6t55.5 -9.5t41.5 -11q35 -11 58 -27.5t36 -42t13 -60.5q0 -82 -84 -132q-97 -59 -282 -55q-182 1 -279 69q-83 55 -101 157h-243q27 -173 161 -276q162 -127 467 -128
q316 -1 486 110q77 50 115.5 119.5t38.5 149.5z" />
    <glyph glyph-name="uniF6FF" unicode="&#xf6ff;" horiz-adv-x="1441" 
d="M358 1534l267 -239h263l268 239h-235l-164 -149l-165 149h-234zM1340 0v191h-915l903 813l2 171h-1169v-192h843l-903 -811v-172h1239z" />
    <glyph glyph-name="uniF730" unicode="&#xf730;" horiz-adv-x="1596" 
d="M81 547q0 -256 167 -407q187 -171 550 -171q364 0 551 171q166 152 166 407v81q0 255 -166 407q-190 170 -551 170q-364 0 -550 -170q-167 -151 -167 -407v-81zM361 630q0 165 100 266q115 117 337 117q224 0 340 -118q100 -103 100 -265v-83q0 -168 -104 -271
q-118 -115 -336 -115q-221 0 -335 117q-102 103 -102 268v84z" />
    <glyph glyph-name="uniF731" unicode="&#xf731;" horiz-adv-x="1231" 
d="M871 0v1175h-250q-86 -67 -223 -118q-160 -58 -322 -76v-186q145 12 292 52q148 40 225 95v-942h278z" />
    <glyph glyph-name="uniF732" unicode="&#xf732;" horiz-adv-x="1549" 
d="M1417 0v188h-951q7 38 51 73q80 61 263 128q130 49 171 65q213 83 314 157q141 104 141 227q0 172 -139 266q-153 101 -464 101q-344 0 -505 -117q-136 -100 -136 -290v-34h257v26q0 103 64 153q88 68 320 68q180 0 258 -57q63 -46 63 -130q0 -74 -142 -147
q-25 -13 -52.5 -25.5t-66 -27.5t-59.5 -23l-73.5 -28t-67.5 -25q-225 -85 -331 -147q-159 -94 -182 -201v-200h1267z" />
    <glyph glyph-name="uniF733" unicode="&#xf733;" horiz-adv-x="1495" 
d="M1415 147q0 142 -84 220q-87 81 -274 106q163 21 248 89q95 76 95 229v9q0 405 -650 405q-335 0 -493 -117q-145 -108 -145 -311v-33h261v23q0 110 95.5 171.5t280.5 61.5q168 0 257 -43q110 -54 110 -178q0 -111 -97 -163q-92 -49 -274 -49h-148v-197h150q178 0 273 -40
q111 -47 111 -154v-45q0 -132 -97 -187q-87 -48 -289 -48q-187 0 -288 60q-99 58 -99 156v34h-259v-34q0 -200 161 -309q166 -113 485 -113q367 0 523 110q77 54 112 138t35 203v6z" />
    <glyph glyph-name="uniF734" unicode="&#xf734;" horiz-adv-x="1575" 
d="M578 1175l-512 -1032v-143h899v-243h280v243h255v204h-255v400h-280v-400h-577l489 971h-299z" />
    <glyph glyph-name="uniF735" unicode="&#xf735;" horiz-adv-x="1540" 
d="M1467 216q0 238 -155 356q-148 110 -438 110q-76 0 -146 -6.5t-126.5 -18.5t-101.5 -28t-75 -36l29 380h910v201h-1182l-50 -833h259l2 30q35 58 161 85q102 22 244 22q220 0 314 -89q69 -67 69 -188v-15q0 -161 -115 -231q-98 -61 -289 -61q-194 0 -295 68
q-95 64 -95 174v13h-261v-37q0 -188 157 -298q177 -126 507 -126q354 0 519 133q158 128 158 388v7z" />
    <glyph glyph-name="uniF736" unicode="&#xf736;" horiz-adv-x="1594" 
d="M818 -29q258 0 417 69q141 60 208 177q57 100 57 240v36q0 127 -44 218q-55 111 -180 170q-146 69 -390 69q-183 0 -305 -53q-114 -49 -172 -138l-1 96q-2 189 83 295q104 130 331 130q160 0 251 -44q72 -35 102 -97q19 -42 19 -95v-3h258v17q0 103 -38 181
q-56 111 -180 172q-153 75 -419 75q-281 0 -446 -106q-139 -89 -200 -254q-47 -123 -47 -300v-331q2 -144 62 -254q71 -128 213 -193q165 -77 421 -77zM832 744q211 0 307 -84q76 -67 76 -179v-7q0 -126 -74 -200q-98 -98 -323 -98q-216 0 -322 88q-82 67 -82 167v43
q5 117 99 187q111 83 319 83z" />
    <glyph glyph-name="uniF737" unicode="&#xf737;" horiz-adv-x="1478" 
d="M1419 1007v167h-1356v-378h242v173h799l-782 -1251h296z" />
    <glyph glyph-name="uniF738" unicode="&#xf738;" horiz-adv-x="1480" 
d="M105 1084q0 -111 49 -185q59 -92 194 -138q-151 -49 -220 -145q-60 -82 -60 -202v-24q0 -99 58 -187q66 -102 207 -163q159 -69 407 -69q247 0 408 69q139 60 207 163q57 88 57 187v28q0 112 -61 195q-71 97 -226 147q138 48 200 141q50 74 50 182v4q0 99 -40 174
q-55 100 -181 157q-152 68 -414 68q-257 0 -414 -66q-126 -54 -181 -156q-40 -75 -40 -177v-3zM741 870q-192 0 -282 71q-69 54 -69 136q0 83 67 140q89 75 283 75q193 0 285 -79q65 -57 65 -139q-2 -82 -70 -134q-91 -70 -279 -70zM740 660q210 0 312 -84q39 -33 57 -72.5
t18 -74.5v-24q0 -43 -28 -86q-39 -60 -115 -96q-94 -46 -244 -46t-246 47q-76 36 -113 97q-28 44 -28 84v24q0 85 75 148q101 83 312 83z" />
    <glyph glyph-name="uniF739" unicode="&#xf739;" horiz-adv-x="1527" 
d="M751 1187q-259 0 -416 -69q-145 -63 -208 -177q-57 -100 -57 -241v-35q0 -127 44 -218q54 -111 180 -170q146 -69 390 -69q179 0 304 53q113 48 171 136l2 -94q2 -190 -83 -296q-104 -130 -331 -130q-158 0 -250 45q-75 36 -102 97q-20 41 -20 95v3h-258v-18
q0 -103 39 -180q53 -110 180 -171q157 -76 418 -76q276 0 447 107q138 87 201 253q46 124 46 300v331h-1q-5 152 -62 255q-71 126 -213 193q-165 76 -421 76zM737 414q-211 0 -306 85q-76 68 -76 180v5q0 126 74 200q99 97 322 97q219 0 323 -87q81 -69 81 -168v-31
q0 -120 -93 -193q-110 -88 -325 -88z" />
    <glyph glyph-name="uniF761" unicode="&#xf761;" horiz-adv-x="1507" 
d="M932 1175h-358l-545 -1175h279l104 244h683l105 -244h279zM735 999h36l244 -568h-523z" />
    </font>
</defs>
</svg>
