<?xml version="1.0" standalone="no"?>
<!DOCTYPE svg PUBLIC "-//W3C//DTD SVG 1.1//EN" "http://www.w3.org/Graphics/SVG/1.1/DTD/svg11.dtd" >
<svg xmlns="http://www.w3.org/2000/svg" xmlns:xlink="http://www.w3.org/1999/xlink" version="1.1">
<metadata>
Created by FontForge 20170731 at Sat Mar 31 17:44:41 2018
 By Aleksey,,,
Copyright (c) 2018 by Studio Kmzero &#38; Zetafonts. All rights reserved.
</metadata>
<defs>
<font id="HeadingProWide-ExtraBold" horiz-adv-x="749" >
  <font-face 
    font-family="Heading Pro Wide ExtraBold"
    font-weight="700"
    font-stretch="normal"
    units-per-em="2048"
    panose-1="0 0 8 0 0 0 0 0 0 0"
    ascent="1638"
    descent="-410"
    x-height="1180"
    cap-height="1513"
    bbox="-607 -693 4119 2094"
    underline-thickness="102"
    underline-position="-409"
    unicode-range="U+000D-FB06"
  />
<missing-glyph horiz-adv-x="2602" 
 />
    <glyph glyph-name="ff" unicode="ff" horiz-adv-x="2089" 
d="M27 904h212v-904h429v904h608v-904h429v904h363v276h-361q6 90 36 123q34 38 117 38q114 0 199 -20l40 235q-90 29 -133 38q-114 22 -242 22q-237 0 -341 -120q-88 -103 -103 -316h-610q6 90 37 123q34 38 117 38q113 0 198 -20l40 235q-90 29 -133 38q-114 22 -242 22
q-237 0 -341 -120q-88 -103 -103 -316h-216v-276z" />
    <glyph glyph-name="fi" unicode="fi" horiz-adv-x="1770" 
d="M18 904h213v-904h429v904h531v-904h430v1180h-959q6 90 36 123q34 38 117 38q114 0 199 -20l40 235q-90 29 -133 38q-114 22 -242 22q-237 0 -341 -120q-88 -103 -103 -316h-217v-276z" />
    <glyph glyph-name="fl" unicode="fl" horiz-adv-x="1778" 
d="M25 904h212v-904h430v904h531v-904h430v1568h-430v-388h-529q6 90 36 123q34 38 117 38q114 0 199 -20l40 235q-90 29 -133 38q-114 22 -242 22q-236 0 -342 -120q-88 -101 -103 -316h-216v-276z" />
    <glyph glyph-name="ffi" unicode="ffi" horiz-adv-x="2815" 
d="M27 904h212v-904h429v904h608v-904h429v904h521v-904h429v1180h-948q6 90 36 123q34 38 117 38q114 0 199 -20l40 235q-90 29 -133 38q-114 22 -242 22q-237 0 -341 -120q-88 -103 -103 -316h-610q6 90 37 123q34 38 117 38q113 0 198 -20l40 235q-90 29 -133 38
q-114 22 -242 22q-237 0 -341 -120q-88 -103 -103 -316h-216v-276z" />
    <glyph glyph-name="ffl" unicode="ffl" horiz-adv-x="2826" 
d="M27 904h212v-904h429v904h614v-904h429v904h528v-904h430v1568h-430v-388h-526q6 90 37 123q34 38 117 38q113 0 198 -20l40 235q-90 29 -133 38q-114 22 -242 22q-237 0 -341 -120q-88 -103 -103 -316h-616q6 90 37 123q34 38 117 38q113 0 198 -20l40 235
q-90 29 -133 38q-114 22 -242 22q-237 0 -341 -120q-88 -103 -103 -316h-216v-276z" />
    <glyph glyph-name="f_t" unicode="ft" horiz-adv-x="1975" 
d="M1904 289l17 -243q-72 -34 -155 -54q-102 -26 -218 -26q-222 0 -339 69q-107 61 -145 192q-31 103 -31 295v382h-188h-179v-904h-429v904h-212v276h216q15 213 103 316q104 120 341 120q128 0 242 -22q43 -9 133 -38l-16 -95h419v-281h429v-276h-429v-417q0 -108 30 -161
q40 -75 150 -75q91 0 158 13q42 8 103 25zM1033 1180v217l-13 -76q-85 20 -198 20q-83 0 -117 -38q-31 -33 -37 -123h365z" />
    <glyph glyph-name="f_f_j" unicode="ffj" horiz-adv-x="2811" 
d="M27 904h212v-904h429v904h608v-904h429v904h515v-783q0 -49 -1.5 -79.5t-8.5 -62.5t-20 -54q-42 -71 -169 -71q-133 0 -229 27l-37 -245q66 -26 147 -41q113 -23 239 -23q289 0 409 158q99 131 99 400v1050h-942q6 90 36 123q34 38 117 38q114 0 199 -20l40 235
q-90 29 -133 38q-114 22 -242 22q-237 0 -341 -120q-88 -103 -103 -316h-610q6 90 37 123q34 38 117 38q113 0 198 -20l40 235q-90 29 -133 38q-114 22 -242 22q-237 0 -341 -120q-88 -103 -103 -316h-216v-276z" />
    <glyph glyph-name="f_j" unicode="fj" horiz-adv-x="1784" 
d="M27 904h212v-904h429v904h532v-783q0 -74 -5.5 -119t-24.5 -77q-42 -71 -169 -71q-133 0 -229 27l-37 -245q66 -26 147 -41q113 -23 239 -23q289 0 409 158q99 131 99 400v1050h-959q6 90 37 123q34 38 117 38q112 0 199 -20l39 235q-90 29 -133 38q-114 22 -241 22
q-238 0 -342 -120q-88 -103 -103 -316h-216v-276z" />
    <glyph glyph-name=".notdef" horiz-adv-x="2602" 
 />
    <glyph glyph-name=".null" horiz-adv-x="0" 
 />
    <glyph glyph-name="uni000D" unicode="&#xd;" horiz-adv-x="0" 
 />
    <glyph glyph-name="NULL" horiz-adv-x="0" 
 />
    <glyph glyph-name="NULL" horiz-adv-x="0" 
 />
    <glyph glyph-name="space" unicode=" " horiz-adv-x="946" 
 />
    <glyph glyph-name="exclam" unicode="!" horiz-adv-x="875" 
d="M608 419l56 1094h-457l59 -1094h342zM189 130q0 -83 58.5 -121.5t184.5 -38.5q131 0 189.5 38t58.5 122q0 85 -58.5 124t-189.5 39q-84 0 -137.5 -17t-79.5 -52.5t-26 -93.5z" />
    <glyph glyph-name="quotedbl" unicode="&#x22;" horiz-adv-x="1106" 
d="M462 1064l30 449h-364l27 -449h307zM973 1064l30 449h-365l28 -449h307z" />
    <glyph glyph-name="numbersign" unicode="#" horiz-adv-x="1799" 
d="M1646 606h-258l82 323h264l43 248h-244l88 346h-334l-87 -346h-353l88 346h-334l-87 -346h-292l-43 -248h273l-81 -323h-281l-44 -249h262l-89 -357h330l90 357h357l-89 -357h328l90 357h277zM784 929h354l-80 -323h-356z" />
    <glyph glyph-name="dollar" unicode="$" horiz-adv-x="1739" 
d="M1668 439q0 -202 -147.5 -318t-435.5 -145v-174h-357v171q-277 26 -449 148q-101 71 -153 167.5t-52 207.5h419q6 -102 80 -159q98 -74 311 -74q179 0 267 48q72 40 72 113q0 63 -54 98q-51 33 -172 56l-419 77q-243 45 -355 159q-106 107 -106 281q0 124 66 219
q76 108 231 167q126 49 314 62v171h357v-182q223 -32 362 -131q182 -132 195 -363h-391q-19 104 -92 152q-92 60 -293 60q-163 0 -242 -51q-61 -39 -61 -102t51 -97q54 -38 173 -57l362 -64q278 -53 398 -154q121 -102 121 -286z" />
    <glyph glyph-name="percent" unicode="%" horiz-adv-x="3017" 
d="M97 977q0 -206 116 -327q138 -145 432 -145q293 0 431 141q113 117 113 331v89q0 219 -112 338q-135 141 -432 141q-299 0 -434 -141q-114 -119 -114 -338v-89zM2174 1522h-385l-974 -1522h384zM645 745q-117 0 -172 78q-45 61 -45 154v112q0 87 41 143q54 75 176 75
t174 -76q38 -56 38 -145v-118q0 -95 -43 -151q-55 -72 -169 -72zM1804 438q0 -205 116 -327q138 -145 432 -145q295 0 431 141q113 117 113 332v88q0 219 -112 338q-135 141 -432 141q-298 0 -434 -141q-114 -119 -114 -338v-89zM2352 206q-116 0 -171 78q-45 61 -45 154
v112q0 87 41 143q54 75 175 75q120 0 174 -75q38 -54 38 -146v-118q0 -95 -43 -151q-55 -72 -169 -72z" />
    <glyph glyph-name="ampersand" unicode="&#x26;" horiz-adv-x="1782" 
d="M1288 1513h-472q-363 0 -530 -103q-162 -100 -162 -319q0 -158 84 -240q80 -81 244 -101q-185 -16 -271 -102q-78 -78 -78 -210q0 -124 37.5 -211.5t119.5 -144.5q167 -116 563 -116q233 0 392.5 56t242 167t82.5 274v136h183v289h-183v130h-432v-129l-309 1
q-106 0 -163 34q-66 37 -66 112v17q0 52 23.5 84.5t72.5 48t127 15.5h495v312zM823 280q-161 0 -218 35q-30 18 -43 49.5t-13 80.5v20q0 69 58 103q51 30 140 30h361v-99q0 -116 -59 -165q-66 -54 -226 -54z" />
    <glyph glyph-name="quotesingle" unicode="'" horiz-adv-x="660" 
d="M483 1064l30 449h-365l27 -449h308z" />
    <glyph glyph-name="parenleft" unicode="(" horiz-adv-x="1073" 
d="M929 -115v279h-49q-157 0 -219 94q-54 80 -54 265v468q0 180 53 265q62 100 220 100h49v278h-80q-275 0 -436 -91q-136 -77 -192 -228q-43 -115 -43 -293v-524q0 -176 44 -294q56 -151 192 -227q160 -92 436 -92h79z" />
    <glyph glyph-name="parenright" unicode=")" horiz-adv-x="1059" 
d="M215 -115q276 0 437 92q137 77 193 227q42 112 42 294v524q0 181 -42 293q-56 150 -192 228q-162 91 -436 91h-80v-278h48q158 0 220 -100q53 -85 53 -265v-468q0 -184 -53 -265q-63 -94 -220 -94h-48v-279h78z" />
    <glyph glyph-name="asterisk" unicode="*" horiz-adv-x="1012" 
d="M720 737l173 172l-196 169l248 52l-65 236l-274 -110l22 260h-244l21 -258l-270 108l-65 -236l249 -52l-195 -169l173 -172l211 257z" />
    <glyph glyph-name="plus" unicode="+" horiz-adv-x="1156" 
d="M421 162h313v316h340v267h-340v314h-313v-314h-342v-267h342v-316z" />
    <glyph glyph-name="comma" unicode="," horiz-adv-x="834" 
d="M167 138q0 -160 232 -160q-11 -57 -36 -95q-27 -39 -94 -94l186 -78q87 60 140 148q65 108 65 246q0 94 -58 143q-62 53 -193 53q-83 0 -136 -17t-79.5 -53t-26.5 -93z" />
    <glyph glyph-name="hyphen" unicode="-" horiz-adv-x="1245" 
d="M1163 457v267h-1080v-267h1080z" />
    <glyph glyph-name="period" unicode="." horiz-adv-x="857" 
d="M178 133q0 -83 58.5 -122t185.5 -39q131 0 189 38.5t58 122.5q0 57 -25 92.5t-79.5 52.5t-142.5 17q-85 0 -138.5 -17t-79.5 -52.5t-26 -92.5z" />
    <glyph glyph-name="slash" unicode="/" horiz-adv-x="1377" 
d="M1355 1588h-393l-940 -1668h391z" />
    <glyph glyph-name="zero" unicode="0" horiz-adv-x="1859" 
d="M75 668q0 -96 21 -183t67 -166.5t114 -142.5q226 -210 654 -210t654 210q102 94 152 221t50 273v175q0 96 -21 183t-66.5 167t-113.5 143q-227 209 -655 209q-427 0 -654 -209q-102 -94 -152 -220.5t-50 -272.5v-177zM931 1234q194 0 304 -101q107 -98 107 -267v-219
q0 -170 -116 -270q-112 -98 -295 -98q-194 0 -304 105q-105 97 -105 257v218q0 173 107 274t302 101z" />
    <glyph glyph-name="one" unicode="1" horiz-adv-x="1110" 
d="M925 0v1515h-374q-127 -75 -230 -115q-158 -62 -326 -83v-310q145 11 290 52q117 32 203 75v-1134h437z" />
    <glyph glyph-name="two" unicode="2" horiz-adv-x="1682" 
d="M1586 0v311h-929q69 86 217 171q79 46 311 162q198 94 297 196q117 120 117 269q0 207 -187 323q-190 115 -545 115q-381 0 -564 -140q-163 -126 -163 -359v-37h417v29q0 81 62 132q75 62 231 62q149 0 229 -44q75 -41 75 -112q0 -36 -23 -73q-46 -73 -167 -150
q-78 -50 -332 -182q-105 -56 -190 -110q-205 -131 -312 -290v-273h1456z" />
    <glyph glyph-name="three" unicode="3" horiz-adv-x="1684" 
d="M1585 440q0 137 -82 219q-90 90 -283 125q172 26 254 94q94 78 94 229v10q0 141 -81 236.5t-244 144.5t-404 49q-379 0 -554 -120q-166 -113 -166 -342v-38h404v23q0 79 83 123q80 41 228 41q131 0 202 -31q86 -40 86 -120q0 -152 -301 -152h-189v-311h191q154 0 232 -31
q85 -34 85 -111v-33q0 -90 -79 -130q-72 -36 -230 -36q-159 0 -242 40q-84 41 -84 113v32h-402v-39q0 -227 190 -343q187 -116 538 -116q401 0 579 113q175 110 175 354v7z" />
    <glyph glyph-name="four" unicode="4" horiz-adv-x="1788" 
d="M640 1513l-537 -1095v-205h929v-213h437v213h213v310h-213v284h-437v-284h-426l498 990h-464z" />
    <glyph glyph-name="five" unicode="5" horiz-adv-x="1770" 
d="M1662 533q0 244 -152 362t-453 118q-132 0 -252 -15q-108 -13 -167 -38l19 242h893v311h-1319l-51 -885h404l1 17q45 34 125 46.5t217 12.5q159 0 231 -59q56 -47 56 -136v-18q0 -114 -86 -166q-77 -46 -229 -46q-160 0 -238.5 46t-78.5 142v18h-404v-51q0 -213 172 -333
q191 -135 572 -135q384 0 564 137q176 135 176 422v8z" />
    <glyph glyph-name="six" unicode="6" horiz-adv-x="1745" 
d="M882 -34q285 0 465 70q159 62 231 181q63 104 63 248v56q0 142 -45 232q-57 114 -190 175q-152 68 -416 68q-315 0 -447 -153l-1 55q-5 155 77 241q89 95 274 95q171 0 244 -59q48 -40 48 -102v-3h403v26q0 122 -52 211q-66 110 -209 171q-169 69 -444 69
q-301 0 -486 -95q-165 -84 -240 -245q-64 -136 -64 -335v-339q2 -161 72 -282q78 -133 244 -205q186 -80 473 -80zM895 683q162 0 238 -56q62 -45 62 -120v-29q0 -82 -63 -134q-80 -65 -250 -65q-187 0 -269 61q-60 44 -60 113v44q0 78 74 128q86 58 268 58z" />
    <glyph glyph-name="seven" unicode="7" horiz-adv-x="1673" 
d="M1601 1264v249h-1517v-465h374v152h651l-759 -1200h460z" />
    <glyph glyph-name="eight" unicode="8" horiz-adv-x="1726" 
d="M167 1112q0 -117 46 -194q51 -86 167 -134q-132 -47 -192 -137q-55 -80 -55 -208v-26q0 -192 166 -310q191 -137 580 -137q263 0 439 65q157 57 237 164q70 96 70 218v26q0 124 -56 205q-64 90 -201 140q119 49 175 137q48 75 48 190v11q0 118 -50 200q-64 104 -208 160
q-171 65 -454 65q-284 0 -455 -65q-144 -56 -207 -161q-50 -83 -50 -199v-10zM879 943q-137 0 -207 45q-59 38 -59 97q0 58 56 98q70 51 210 51t210 -51q55 -41 55 -99q-2 -58 -58 -96q-68 -45 -207 -45zM879 629q158 0 237 -57q63 -45 63 -110v-14q0 -60 -62 -107
q-82 -62 -238 -62t-238 62q-62 47 -62 106v12q0 66 64 112q81 58 236 58z" />
    <glyph glyph-name="nine" unicode="9" horiz-adv-x="1745" 
d="M841 1548q-287 0 -465 -70q-161 -63 -232 -180q-63 -104 -63 -248v-56q0 -141 45 -232q56 -114 190 -174q153 -70 416 -70q316 0 446 151l2 -53q5 -154 -76 -241q-89 -95 -274 -95q-171 0 -243 59q-50 39 -50 102v3h-402v-27q0 -121 53 -210q64 -110 209 -169
q168 -71 442 -71q302 0 487 95q164 84 240 245q64 136 64 335v338q-2 165 -71 282q-79 133 -245 206q-182 80 -473 80zM827 832q-159 0 -237 56q-63 44 -63 120v29q0 83 65 133q81 64 249 64q190 0 271 -60q56 -42 58 -113v-43q0 -79 -73 -128q-88 -58 -270 -58z" />
    <glyph glyph-name="colon" unicode=":" horiz-adv-x="726" 
d="M114 1044q0 -83 58.5 -122t185.5 -39q131 0 189 38.5t58 122.5q0 85 -58 123.5t-189 38.5q-127 0 -185.5 -38.5t-58.5 -123.5zM114 133q0 -83 58.5 -122t185.5 -39q131 0 189 38.5t58 122.5q0 57 -25 92.5t-79.5 52.5t-142.5 17q-85 0 -138.5 -17t-79.5 -52.5t-26 -92.5z
" />
    <glyph glyph-name="semicolon" unicode=";" horiz-adv-x="730" 
d="M115 1043q0 -83 58.5 -122t185.5 -39q131 0 189 38.5t58 122.5q0 85 -58 123.5t-189 38.5q-127 0 -185.5 -38.5t-58.5 -123.5zM104 138q0 -160 232 -160q-11 -57 -36 -95q-27 -39 -94 -94l186 -78q87 60 140 148q65 108 65 246q0 94 -58 143q-62 53 -193 53
q-83 0 -136 -17t-79.5 -53t-26.5 -93z" />
    <glyph glyph-name="less" unicode="&#x3c;" horiz-adv-x="1290" 
d="M1102 71v321l-565 227l565 228v321l-992 -425v-247z" />
    <glyph glyph-name="equal" unicode="=" horiz-adv-x="1386" 
d="M1235 705v267h-1087v-267h1087zM1235 252v267h-1087v-267h1087z" />
    <glyph glyph-name="greater" unicode="&#x3e;" horiz-adv-x="1290" 
d="M1172 496v247l-993 425v-321l566 -228l-566 -227v-321z" />
    <glyph glyph-name="question" unicode="?" horiz-adv-x="1466" 
d="M1394 1139q0 208 -170 306t-511 98q-356 0 -516 -131q-133 -109 -133 -316l1 -47h394v26q0 76 54 112q61 42 199 42q127 0 182 -35t55 -110q0 -49 -35 -89q-32 -36 -79 -70t-123 -82q-56 -35 -113 -86q-121 -111 -120 -248l1 -87h395l2 54q1 40 24 76q43 65 143 136
q36 26 94 69q120 90 176 161q80 102 80 221zM431 130q0 -83 58.5 -121.5t183.5 -38.5q131 0 189.5 38t58.5 122q0 57 -25.5 92.5t-80 53t-142.5 17.5q-126 0 -184 -38.5t-58 -124.5z" />
    <glyph glyph-name="at" unicode="@" horiz-adv-x="2299" 
d="M2123 160v777q0 174 -86 303q-95 142 -294 218q-220 84 -559 84q-521 0 -786 -200q-278 -210 -278 -634v-171q0 -420 253 -619q257 -202 814 -202h927v287h-794q-247 0 -396 36q-189 44 -283 153q-108 125 -108 344v176q0 249 139 384q161 158 516 158q283 0 409 -69
q111 -61 111 -183v-12q-47 65 -137 98q-106 39 -270 39q-239 0 -385 -95q-114 -75 -162 -204q-33 -88 -33 -187q0 -115 21 -191q36 -137 150 -219q146 -105 409 -105q172 0 272 39q85 32 135 102v-107h415zM1417 422q-157 0 -224 70q-48 49 -48 136q0 100 62 151
q68 54 215 54q170 0 240 -56q49 -40 49 -125v-40q0 -95 -55 -137q-71 -53 -239 -53z" />
    <glyph glyph-name="A" unicode="A" horiz-adv-x="1947" 
d="M450 0l130 312h787l130 -312h454l-694 1513h-567l-694 -1513h454zM951 1204h46l247 -595h-541z" />
    <glyph glyph-name="B" unicode="B" horiz-adv-x="1920" 
d="M1841 455q0 146 -110 242q-106 90 -281 109q165 22 245 96.5t80 207.5v47q0 172 -144 264t-403 92h-1039v-1513h1020q300 0 457 90q175 99 175 316v49zM1329 1072q0 -68 -51.5 -106.5t-156.5 -38.5h-491v307h509q100 0 149 -42q41 -35 41 -91v-29zM1395 466
q1 -96 -76 -133q-61 -29 -180 -29h-509v343h503q122 0 188 -35q70 -39 74 -118v-28z" />
    <glyph glyph-name="C" unicode="C" horiz-adv-x="1937" 
d="M1437 573q-37 -137 -146 -213q-114 -81 -286 -81q-206 0 -336 97q-142 105 -142 299l-1 160q0 191 140 299q130 100 341 100q169 0 284 -78q116 -79 147 -223l436 1q-41 284 -257 446q-226 167 -607 167q-453 0 -696 -194q-234 -187 -234 -524v-145q0 -337 233 -523
q242 -195 696 -195q386 0 616 174q70 53 122 121.5t83 146t43 164.5z" />
    <glyph glyph-name="D" unicode="D" horiz-adv-x="2034" 
d="M189 0h920q432 0 653 195q194 172 194 474v172q0 305 -200 480q-219 192 -647 192h-920v-1513zM630 1202h444q222 0 336 -114q100 -100 100 -262v-127q0 -185 -113 -286q-114 -102 -322 -102h-445v891z" />
    <glyph glyph-name="E" unicode="E" horiz-adv-x="1740" 
d="M1633 0v311h-1008v296h896v311h-896v284h1002v311h-1438v-1513h1444z" />
    <glyph glyph-name="F" unicode="F" horiz-adv-x="1643" 
d="M1610 1202v311h-1421v-1513h441v560h866l-1 311h-865v331h980z" />
    <glyph glyph-name="G" unicode="G" horiz-adv-x="1956" 
d="M1001 560h470q-18 -132 -126 -208q-123 -87 -338 -87t-346 103q-142 110 -142 307v161q0 201 143 310q132 102 346 102q118 0 207.5 -32.5t146.5 -96t78 -155.5h427q-56 280 -274 431q-221 152 -583 152q-454 0 -696 -194q-234 -187 -234 -524v-145q0 -335 231 -521
q244 -197 698 -197q195 0 351 53.5t269 148.5q105 90 165 207t70 245q2 30 2 38l4 167h-869v-265z" />
    <glyph glyph-name="H" unicode="H" horiz-adv-x="2088" 
d="M630 0v597h827v-597h442v1513h-442v-596h-827v596h-441v-1513h441z" />
    <glyph glyph-name="I" unicode="I" horiz-adv-x="819" 
d="M630 0v1513h-441v-1513h441z" />
    <glyph glyph-name="J" unicode="J" horiz-adv-x="1436" 
d="M396 1201h466v-631q0 -145 -83.5 -218t-245.5 -73q-89 0 -224 26q-119 23 -173 46l-125 -266q79 -43 226 -77q175 -42 335 -42q340 0 526 137q205 151 205 457v953h-907v-312z" />
    <glyph glyph-name="K" unicode="K" horiz-adv-x="1920" 
d="M629 0v605h303l467 -605h501l-605 771l530 742h-489l-422 -579h-285v579h-440v-1513h440z" />
    <glyph glyph-name="L" unicode="L" horiz-adv-x="1583" 
d="M1510 0v311h-882v1202l-441 -1v-1512h1323z" />
    <glyph glyph-name="M" unicode="M" horiz-adv-x="2499" 
d="M1039 219h421l452 946h15l-11 -119l-20 -1046h413v1513h-595l-435 -841l-27 -96h-5l-26 94l-436 843h-596v-1513h414l-20 1046l-12 118h15z" />
    <glyph glyph-name="N" unicode="N" horiz-adv-x="2088" 
d="M1899 0v1513h-420l8 -913l11 -102h-7l-881 1015h-421v-1513h420l-7 880l-13 110h7l869 -990h434z" />
    <glyph glyph-name="O" unicode="O" horiz-adv-x="2020" 
d="M80 684q0 -335 233 -523q242 -195 696 -195q452 0 698 197q116 93 174.5 225.5t58.5 295.5v144q0 163 -59 296t-174 226q-246 197 -697 197q-454 0 -696 -195q-234 -187 -234 -524v-144zM1009 279q-210 0 -340 99q-142 107 -142 299l-1 157q0 196 142 302q129 98 341 98
q214 0 343 -97q142 -107 142 -303v-157q0 -192 -142 -299q-132 -99 -343 -99z" />
    <glyph glyph-name="P" unicode="P" horiz-adv-x="1874" 
d="M1817 1041q0 73 -20 137.5t-58.5 117t-94.5 93.5q-174 124 -472 124h-983v-1513h439v448h555q299 0 465 131q169 133 169 378v84zM1371 965q0 -207 -265 -207h-477v444h492q129 0 189.5 -46t60.5 -145v-46z" />
    <glyph glyph-name="Q" unicode="Q" horiz-adv-x="2020" 
d="M80 684q0 -292 178 -472q187 -190 531 -232v-283h445v283q345 46 529 234q177 182 177 470v144q0 163 -59 296t-174 226q-246 197 -697 197q-454 0 -696 -195q-234 -187 -234 -524v-144zM1009 279q-209 0 -340 99q-142 107 -142 299l-1 157q0 196 142 302q129 98 341 98
q214 0 343 -97q142 -107 142 -303v-157q0 -192 -142 -299q-132 -99 -343 -99z" />
    <glyph glyph-name="R" unicode="R" horiz-adv-x="1955" 
d="M1817 1032q0 233 -168 359q-166 122 -461 122h-999v-1513h439v527h376q110 -6 171 -42.5t84 -115.5l55 -176q31 -125 87 -193h466q-63 79 -108 232l-48 155q-30 93 -69 145q-41 54 -118 90q139 51 210 131q83 94 83 234v45zM1371 1020q0 -91 -70 -139q-66 -44 -186 -44
h-486v380h535q104 0 155.5 -47t51.5 -132v-18z" />
    <glyph glyph-name="S" unicode="S" horiz-adv-x="1714" 
d="M1654 439q0 184 -121 286q-120 101 -398 154l-362 64q-119 19 -173 57q-51 34 -51 97t61 102q79 51 242 51q201 0 293 -60q73 -48 92 -152h391q-13 231 -195 363q-202 146 -585 146q-274 0 -448 -66q-155 -59 -231 -167q-66 -96 -66 -219q0 -174 106 -281
q112 -114 355 -159l419 -77q121 -23 172 -56q54 -35 54 -98q0 -73 -72 -113q-88 -48 -267 -48q-213 0 -311 74q-75 57 -80 159h-419q0 -111 52 -207.5t153 -167.5q220 -155 601 -155q388 0 588 119t200 354z" />
    <glyph glyph-name="T" unicode="T" horiz-adv-x="1637" 
d="M1639 1202v311h-1640v-311h599v-1202h441v1202h600z" />
    <glyph glyph-name="U" unicode="U" horiz-adv-x="1992" 
d="M1416 1513v-860q0 -174 -95 -268q-109 -106 -324 -106q-214 0 -322 103q-98 94 -98 270v861h-441v-861q0 -317 191 -490q217 -196 668 -196q433 0 656 193q204 176 204 494v860h-439z" />
    <glyph glyph-name="V" unicode="V" horiz-adv-x="1937" 
d="M1491 1513l-503 -1219h-41l-502 1219h-456l689 -1513h580l689 1513h-456z" />
    <glyph glyph-name="W" unicode="W" horiz-adv-x="2631" 
d="M1635 0h539l454 1513h-455l-264 -1050l-16 -163h-13l-21 163l-314 1050h-458v-1l-1 1l-314 -1050l-21 -163h-14l-15 161l-265 1052h-454l454 -1513h533v1l6 -1l306 1020l11 68h6l11 -67z" />
    <glyph glyph-name="X" unicode="X" horiz-adv-x="1856" 
d="M44 1513l596 -747l-648 -766h507l428 535l430 -535h506l-646 768l594 745h-506l-375 -518l-379 518h-507z" />
    <glyph glyph-name="Y" unicode="Y" horiz-adv-x="1811" 
d="M1853 1513h-501l-446 -660l-448 660h-501l728 -984v-529h441v529z" />
    <glyph glyph-name="Z" unicode="Z" horiz-adv-x="1727" 
d="M1664 0v311h-1064l1023 929v273h-1497v-311h966l-1022 -911v-291h1594z" />
    <glyph glyph-name="bracketleft" unicode="[" horiz-adv-x="1019" 
d="M907 -115v278h-320v1193h320v278h-750v-1749h750z" />
    <glyph glyph-name="backslash" unicode="\" horiz-adv-x="1377" 
d="M965 -80h390l-940 1668h-393z" />
    <glyph glyph-name="bracketright" unicode="]" horiz-adv-x="1028" 
d="M849 -115v1749h-749v-278h320v-1193h-320v-278h749z" />
    <glyph glyph-name="asciicircum" unicode="^" horiz-adv-x="2076" 
d="M1336 1506h-598l-557 -758h415l413 490h55l414 -490h417z" />
    <glyph glyph-name="underscore" unicode="_" horiz-adv-x="1551" 
d="M1521 -284v247h-1481v-247h1481z" />
    <glyph glyph-name="grave" unicode="`" horiz-adv-x="909" 
d="M107 1569l361 -290h303l-277 290h-387z" />
    <glyph glyph-name="a" unicode="a" horiz-adv-x="1706" 
d="M1562 0v611q0 181 -51 297q-64 145 -209 220q-165 85 -448 85q-264 0 -428 -70q-138 -60 -205 -164q-50 -77 -63 -185h406q14 64 62 98q69 48 210 48q169 0 240 -69q57 -56 57 -174v-33q-79 30 -173 50q-128 26 -259 26q-318 0 -466 -100q-134 -92 -134 -275
q0 -104 47 -186q55 -96 172 -150q134 -62 348 -62q162 0 288 62q127 61 177 159v-188h429zM797 241q-152 0 -219 51q-47 36 -47 93q0 53 42 87q62 48 208 48q93 0 208 -27q87 -22 144 -47v-26q-8 -23 -31.5 -52.5t-60.5 -56.5q-97 -70 -244 -70z" />
    <glyph glyph-name="b" unicode="b" horiz-adv-x="1748" 
d="M589 0v139q137 -173 441 -173q307 0 486 173q83 80 126 187.5t43 231.5v64q0 125 -43 233t-126 187q-179 171 -486 171q-301 0 -441 -174v529h-430v-1568h430zM922 929q158 0 247 -87q85 -83 85 -223v-59q0 -142 -86 -225q-90 -85 -246 -85q-165 0 -251 88
q-82 84 -82 228v59q5 136 83 216q86 88 250 88z" />
    <glyph glyph-name="c" unicode="c" horiz-adv-x="1640" 
d="M1572 735q-26 138 -101 236q-85 112 -231 174q-160 68 -388 68q-398 0 -596 -166q-181 -151 -181 -414v-86q0 -264 180 -414q199 -167 597 -167q340 0 533 150q159 124 191 332h-391q-31 -100 -112 -149t-226 -49q-164 0 -255 85q-87 79 -87 208v95q0 127 84 206
q92 85 258 85q145 0 230 -51q78 -47 108 -143h387z" />
    <glyph glyph-name="d" unicode="d" horiz-adv-x="1754" 
d="M1600 0v1568h-429v-529q-69 85 -168 127q-113 47 -266 47q-312 0 -492 -167q-84 -78 -127 -184.5t-43 -233.5v-77q0 -126 43 -232.5t127 -184.5q179 -168 492 -168q295 0 434 174v-140h429zM1171 551q-5 -138 -89 -218q-88 -83 -238 -83q-166 0 -254 86q-85 82 -85 226
v54q0 143 86 226q90 87 253 87q155 0 243 -88q84 -87 84 -239v-51z" />
    <glyph glyph-name="e" unicode="e" horiz-adv-x="1612" 
d="M1548 489l3 24q1 4 1.5 13t0.5 14q24 317 -159 495q-184 178 -543 178q-401 0 -599 -166q-177 -148 -177 -416v-66q0 -281 176 -431q197 -168 604 -168q313 0 494 134q147 109 188 293h-398q-16 -58 -85 -102q-81 -54 -208 -54q-165 0 -256 78q-81 68 -86 174h1044z
M505 727q3 38 22 78.5t54 74.5q88 83 254 83q157 0 236 -72q63 -58 75 -170v-3h-641v9z" />
    <glyph glyph-name="f" unicode="f" horiz-adv-x="1064" 
d="M1062 1556q-90 29 -133 38q-114 22 -242 22q-237 0 -341 -120q-88 -103 -103 -316h-216v-276h212v-904h429v904h363v276h-361q6 90 37 123q34 38 117 38q113 0 198 -20z" />
    <glyph glyph-name="g" unicode="g" horiz-adv-x="1756" 
d="M71 598q0 -113 42.5 -215.5t123.5 -180.5q86 -82 209.5 -127.5t281.5 -45.5q155 0 272 52q100 45 167 129v-77q0 -112 -83 -181q-95 -79 -282 -79q-138 0 -270 12q-151 12 -221 27l-33 -261q108 -20 232 -34q157 -18 352 -18q385 0 573 173q161 148 161 413v995h-429
v-147q-65 84 -167 130q-113 50 -269 50q-216 0 -373 -85q-142 -77 -217 -214q-70 -125 -70 -281v-35zM501 624q0 131 83 216q89 89 247 89q159 0 249 -84q87 -81 87 -215v-10q0 -140 -85 -222q-90 -85 -251 -85q-156 0 -244 82q-86 80 -86 212v17z" />
    <glyph glyph-name="h" unicode="h" horiz-adv-x="1824" 
d="M589 0v551q0 69 26.5 137t75.5 122q51 55 120.5 87t151.5 32q173 0 240 -110q48 -79 48 -238v-581h429v592q0 172 -35 287q-47 153 -166 236q-144 98 -391 98q-166 0 -294 -62q-133 -64 -205 -180v597h-430v-1568h430z" />
    <glyph glyph-name="i" unicode="i" 
d="M126 1459q0 -75 57 -118q62 -48 189 -48q129 0 191 48q56 43 56 118v3q0 75 -56 118q-65 49 -191 49q-125 0 -189 -49q-57 -43 -57 -118v-3zM589 0v1180h-429v-1180h429z" />
    <glyph glyph-name="j" unicode="j" horiz-adv-x="750" 
d="M133 1459q0 -75 57 -118q62 -48 190 -48q129 0 191 48q56 43 56 118v3q0 75 -56 118q-65 49 -191 49q-125 0 -190 -49q-57 -43 -57 -118v-3zM168 1180v-1059q0 -74 -5.5 -119t-24.5 -77q-42 -71 -170 -71q-60 0 -138 10q-46 6 -91 17l-37 -245q65 -26 148 -41
q113 -23 238 -23q290 0 410 158q99 131 99 400v1050h-429z" />
    <glyph glyph-name="k" unicode="k" horiz-adv-x="1698" 
d="M159 1568v-1568h430v471h222l362 -471h504l-523 603l460 577h-487l-299 -415h-239v803h-430z" />
    <glyph glyph-name="l" unicode="l" 
d="M589 0v1568h-430v-1568h430z" />
    <glyph glyph-name="m" unicode="m" horiz-adv-x="2721" 
d="M589 0v565q2 68 25.5 133.5t64.5 116.5q92 114 236 114q149 0 202 -97q37 -69 37 -230v-602h429v552q0 87 32 169q37 94 107 147q80 61 197 61q132 0 185 -87q44 -72 44 -216v-626h429v593q0 183 -28 290q-41 153 -150 234q-130 96 -364 96q-164 0 -298 -78
q-132 -76 -193 -205q-46 130 -149 200q-125 83 -339 83q-151 0 -273.5 -57.5t-193.5 -163.5v188h-430v-1180h430z" />
    <glyph glyph-name="n" unicode="n" horiz-adv-x="1824" 
d="M589 0v551q0 73 28 141.5t78 121.5q110 115 271 115q159 0 229 -99q56 -79 56 -238v-592h429v598q0 176 -34 287q-46 151 -167 233q-142 95 -394 95q-163 0 -292 -63q-131 -63 -204 -180v210h-430v-1180h430z" />
    <glyph glyph-name="o" unicode="o" horiz-adv-x="1694" 
d="M75 553q0 -270 175 -419q197 -168 597 -168q398 0 598 169q175 148 175 417v75q0 270 -175 419q-199 167 -598 167q-400 0 -597 -167q-175 -149 -175 -418v-75zM505 629q0 136 82 214q91 86 260 86q170 0 259 -86q83 -80 83 -215v-76q0 -135 -84 -216q-89 -86 -258 -86
q-168 0 -258 87q-84 80 -84 214v78z" />
    <glyph glyph-name="p" unicode="p" horiz-adv-x="1760" 
d="M589 -366v508q62 -81 164 -126q109 -50 266 -50q316 0 497 175q83 79 126 185.5t43 227.5v65q0 118 -41.5 225.5t-121.5 188.5q-56 56 -128 95.5t-167 62t-205 22.5q-156 0 -267 -50q-99 -45 -166 -131v148h-430v-1546h430zM1254 559q0 -139 -84 -221q-90 -88 -254 -88
q-154 0 -238 81q-89 84 -89 241v29q0 147 76 233q84 95 253 95q163 0 252 -87q84 -84 84 -221v-62z" />
    <glyph glyph-name="q" unicode="q" horiz-adv-x="1760" 
d="M1596 -366v1546h-429v-148q-66 86 -167 131q-111 50 -267 50q-163 0 -289 -47.5t-211 -132.5q-54 -54 -90.5 -121.5t-54.5 -141t-18 -151.5v-65q0 -121 43 -227.5t126 -185.5q181 -175 498 -175q157 0 266 50q102 45 164 126v-508h429zM501 621q0 137 84 221
q89 87 252 87q164 0 250 -91q75 -81 80 -224v-42q0 -156 -88 -241q-85 -81 -240 -81q-165 0 -255 88q-83 82 -83 221v62z" />
    <glyph glyph-name="r" unicode="r" horiz-adv-x="1257" 
d="M589 0v564q5 144 103 236q111 106 309 106q120 0 214 -22l2 312q-51 11 -67 13q-33 4 -96 4q-202 0 -322 -84q-101 -70 -143 -187v238h-430v-1180h430z" />
    <glyph glyph-name="s" unicode="s" horiz-adv-x="1521" 
d="M1455 366q0 100 -40.5 165t-123.5 105q-76 36 -189.5 58t-297.5 42q-152 17 -197 37q-18 7 -29 17t-15.5 22t-4.5 28q0 50 54 78q53 28 171 28q156 0 218 -48q35 -28 45 -83h369q-11 181 -166 284q-172 114 -489 114q-340 0 -498 -111q-134 -94 -134 -263
q0 -88 32.5 -151.5t103.5 -109.5q143 -92 479 -123q162 -15 208 -29q37 -12 55.5 -31t18.5 -51q0 -51 -59 -82q-71 -37 -211 -36q-152 0 -225 48q-60 39 -72 117h-368q28 -188 164 -292q171 -133 509 -133q347 0 532 122q81 54 120.5 125.5t39.5 152.5z" />
    <glyph glyph-name="t" unicode="t" horiz-adv-x="1188" 
d="M221 1461v-281h-188v-276h188v-382q0 -192 31 -295q19 -64 54 -112t91 -80q117 -69 339 -69q116 0 218 26q83 20 155 54l-17 243q-61 -17 -103 -25q-67 -13 -158 -13q-110 0 -150 75q-30 53 -30 161v417h429v276h-429v281h-430z" />
    <glyph glyph-name="u" unicode="u" horiz-adv-x="1824" 
d="M1240 1180v-552q0 -72 -28 -140.5t-78 -121.5q-52 -54 -121.5 -85t-148.5 -31q-160 0 -230 99q-56 79 -56 239v592h-429v-598q0 -177 34 -287q47 -151 167 -232q141 -96 394 -96q161 0 292 63q131 62 204 179v-209h430v1180h-430z" />
    <glyph glyph-name="v" unicode="v" horiz-adv-x="1654" 
d="M1179 1180l-337 -904h-31l-336 904h-460l540 -1180h544l540 1180h-460z" />
    <glyph glyph-name="w" unicode="w" horiz-adv-x="2479" 
d="M389 0h592l254 868h8l255 -868h592l367 1180h-448l-213 -913h-35l-260 913h-523l-261 -913h-34l-213 913h-448z" />
    <glyph glyph-name="x" unicode="x" horiz-adv-x="1570" 
d="M1074 0h497l-530 611l470 569h-462l-260 -351l-258 351h-462l469 -569l-530 -611h497l285 379z" />
    <glyph glyph-name="y" unicode="y" horiz-adv-x="1652" 
d="M1177 1180l-356 -870l-348 870h-460l575 -1180h112l-16 -42q-58 -147 -217 -248l151 -204q115 37 217 132q113 105 183 261l620 1281h-461z" />
    <glyph glyph-name="z" unicode="z" horiz-adv-x="1509" 
d="M1407 0v284h-828l818 645l4 251h-1263v-285h767l-816 -643v-252h1318z" />
    <glyph glyph-name="braceleft" unicode="{" horiz-adv-x="1129" 
d="M33 898v-286q172 -4 231 -53q28 -23 39 -59t11 -91q0 -43 -9 -89q-10 -46 -10 -101q0 -132 90 -213q80 -73 229 -103q126 -27 312 -27h125v278h-120q-137 0 -182 42q-20 19 -26.5 44.5t-6.5 64.5q0 11 1 22l3 41q1 7 2.5 23.5t2 25.5t2 25.5t1.5 23.5q4 41 4 64
q2 100 -80.5 157t-243.5 68q156 7 241 66q17 11 30 24.5t22.5 25.5t16 29t10.5 28.5t5.5 30.5t2 28.5t-1 29.5t-2.5 27t-3.5 27.5t-3.5 23.5q-7 57 -9 111q0 40 6 65.5t26 43.5q46 41 184 41h119v278h-125q-185 0 -312 -26q-150 -32 -229 -104q-90 -81 -90 -213
q0 -56 10 -100q9 -47 9 -90q0 -55 -11 -91t-40 -60q-61 -51 -230 -52z" />
    <glyph glyph-name="bar" unicode="|" horiz-adv-x="891" 
d="M650 -82v1686h-403v-1686h403z" />
    <glyph glyph-name="braceright" unicode="}" horiz-adv-x="1130" 
d="M1096 898q-169 1 -230 52q-28 23 -39 59.5t-11 91.5q0 46 10 90q9 46 9 100q1 132 -88 213q-80 72 -230 104q-127 26 -312 26h-125v-278h118q138 0 184 -41q32 -30 32 -109q-1 -54 -9 -111q-8 -63 -7 -114q-2 -101 82 -159.5t242 -66.5q-107 -8 -179.5 -35t-109 -75
t-35.5 -115q0 -23 4 -64q0 -7 1.5 -23.5t2.5 -25.5q0 -7 1 -16l2 -18t1 -15l3 -41q1 -11 1 -22q0 -38 -7 -64t-27 -45q-45 -42 -181 -42h-119v-278h125q185 0 311 27q151 31 230 103q89 81 89 213q0 53 -9 101q-10 44 -10 89q0 55 11 91t39 59q59 49 230 53v286z" />
    <glyph glyph-name="asciitilde" unicode="~" horiz-adv-x="1047" 
d="M829 725q-57 -72 -137 -72q-15 0 -28.5 1.5t-32 6.5t-26 7t-32.5 10.5t-29 9.5q-110 34 -183 34q-108 0 -186 -73q-63 -57 -112 -165l152 -39q55 72 148 72q9 0 19 -1t18 -2t19 -3.5t17 -4t19 -5.5t17.5 -5.5l19.5 -6.5l18 -6q102 -34 178 -34q110 0 189 72
q58 54 106 168z" />
    <glyph glyph-name="uni00A0" unicode="&#xa0;" horiz-adv-x="431" 
 />
    <glyph glyph-name="exclamdown" unicode="&#xa1;" horiz-adv-x="876" 
d="M189 1055q0 -84 58.5 -123t184.5 -39q88 0 142.5 17t80 52.5t25.5 92.5q0 84 -59 122.5t-189 38.5q-126 0 -184.5 -38.5t-58.5 -122.5zM266 767l-59 -1095h457l-56 1095h-342z" />
    <glyph glyph-name="cent" unicode="&#xa2;" horiz-adv-x="1637" 
d="M1183 448h391q-32 -208 -191 -332q-129 -100 -328 -134v-180h-357v171q-287 27 -445 160q-180 150 -180 414v86q0 263 181 414q156 131 444 159v172h357v-181q105 -18 183 -52q146 -62 231 -174q75 -98 101 -236h-387q-30 96 -108 143q-85 51 -230 51q-166 0 -258 -85
q-84 -80 -84 -206v-95q0 -129 87 -208q91 -85 255 -85q145 0 226 49t112 149z" />
    <glyph glyph-name="sterling" unicode="&#xa3;" horiz-adv-x="1559" 
d="M569 1083q0 74 67 114.5t204 40.5q139 0 209 -60q61 -54 56 -143l370 1q0 241 -134 366q-159 145 -523 146q-332 0 -507 -97q-185 -102 -185 -304q0 -115 41 -216q28 -68 88 -151h-177v-202h286q4 -20 4 -42q0 -93 -56 -155q-58 -62 -192 -103v-282q20 2 60 4.5t59 3.5
q136 8 219 8q117 0 347 -22q220 -23 338 -23q210 0 382 105l-125 257q-77 -36 -149 -52q-71 -17 -161 -17q-64 0 -117 10l-110 18q-136 22 -231 1q161 99 162 289h353v202h-426q-17 24 -51 73q-26 35 -49 73q-52 85 -52 157z" />
    <glyph glyph-name="currency" unicode="&#xa4;" horiz-adv-x="1093" 
d="M35 360l158 -159l131 135q102 -49 237 -49q117 0 216 41l124 -127l159 159l-107 109q56 85 56 192q0 108 -60 199l111 115l-159 159l-132 -136q-94 39 -208 39q-126 0 -229 -47l-139 144l-158 -159l127 -131q-49 -82 -49 -184q0 -98 44 -175zM383 660q0 58 51 95
q49 35 127 35t127 -35q52 -37 52 -95q0 -57 -52 -93q-51 -35 -127 -35t-127 35t-51 93z" />
    <glyph glyph-name="yen" unicode="&#xa5;" horiz-adv-x="1808" 
d="M1851 1513l-632 -856h325v-174h-420v-93h420v-174h-420v-216h-441v216h-416v174h416v93h-416v174h321l-633 856h501l448 -660l446 660h501z" />
    <glyph glyph-name="brokenbar" unicode="&#xa6;" horiz-adv-x="912" 
d="M665 818v786h-404v-786h404zM261 716v-798h404v798h-404z" />
    <glyph glyph-name="section" unicode="&#xa7;" horiz-adv-x="1505" 
d="M117 780q0 -159 144 -252t457 -130l116 -14q54 -6 87 -16q37 -11 55 -29t18 -48q0 -52 -56 -86q-67 -39 -203 -39q-140 0 -219 55q-62 43 -78 112l-332 -8q26 -177 153 -273q159 -121 481 -122q327 0 501 114q152 100 152 261q0 130 -76 200q83 93 83 208q0 182 -162 271
q-51 28 -124 49.5t-152 35.5t-184 26q-144 17 -199 40q-56 22 -56 71q0 46 55 79t174 33q154 0 226 -59q42 -36 53 -93l327 10q-25 175 -154 267q-157 111 -466 111q-320 0 -477 -105q-137 -90 -137 -246q0 -128 79 -201q-86 -97 -86 -222zM774 649q-152 17 -213 49
q-53 28 -53 87q0 51 40 85q50 -11 175 -26q9 -1 36.5 -5t36.5 -5t31 -4.5t32.5 -5.5t26 -5t27 -6.5t21.5 -7.5q75 -31 75 -102q0 -52 -37 -79q-81 12 -198 25z" />
    <glyph glyph-name="dieresis" unicode="&#xa8;" horiz-adv-x="1053" 
d="M-5 1423q0 -72 47.5 -104.5t150.5 -32.5q110 0 156.5 32.5t46.5 104.5q0 75 -46.5 107.5t-156.5 32.5q-104 0 -151 -33t-47 -107zM558 1423q0 -72 47 -104.5t150 -32.5q74 0 119 14.5t65 44.5t20 78q0 75 -47 107.5t-157 32.5q-103 0 -150 -33t-47 -107z" />
    <glyph glyph-name="copyright" unicode="&#xa9;" horiz-adv-x="2527" 
d="M2420 750q0 406 -313 612q-299 197 -857 197q-555 0 -855 -196q-313 -206 -313 -616v-27q0 -415 308 -623q293 -198 859 -198q564 0 861 198q310 207 310 621v32zM1247 1327q442 0 646 -148q192 -139 192 -425v-41q0 -294 -190 -433q-203 -148 -646 -148t-645 150
q-187 139 -187 433v38q0 288 187 425q201 149 643 149zM1759 825q-27 149 -133 233q-128 102 -364 102q-270 0 -412 -117q-124 -104 -124 -272v-69q0 -168 124 -272q141 -118 412 -118q237 0 369 99q111 83 131 222l-286 13q-16 -62 -71.5 -93.5t-146.5 -31.5
q-105 0 -161 50q-56 48 -56 130v72q0 81 57 129.5t160 48.5q185 0 218 -124z" />
    <glyph glyph-name="ordfeminine" unicode="&#xaa;" horiz-adv-x="1284" 
d="M1156 772v750h-348v-74q-99 97 -265 97q-247 0 -358 -109q-95 -94 -95 -268v-28q0 -190 96 -283q110 -108 360 -108q162 0 262 95v-72h348zM621 988q-92 0 -139 36t-47 105v36q0 141 186 141q96 0 143 -40q39 -33 39 -92v-62q0 -58 -46.5 -91t-135.5 -33zM139 443h1017
v237h-1017v-237z" />
    <glyph glyph-name="guillemotleft" unicode="&#xab;" horiz-adv-x="1633" 
d="M861 187l-401 403l401 404h-400l-387 -404l387 -403h400zM1514 187l-400 403l400 404h-399l-386 -404l386 -403h399z" />
    <glyph glyph-name="logicalnot" unicode="&#xac;" horiz-adv-x="1694" 
d="M1160 359h352v478h-1377v-267h1025v-211z" />
    <glyph glyph-name="uni00AD" unicode="&#xad;" horiz-adv-x="1340" 
d="M1247 -113v267h-1080v-267h1080z" />
    <glyph glyph-name="registered" unicode="&#xae;" horiz-adv-x="2506" 
d="M2420 750q0 406 -313 612q-299 197 -857 197q-555 0 -855 -196q-313 -206 -313 -616v-27q0 -415 308 -623q293 -198 859 -198q564 0 861 198q310 207 310 621v32zM1247 1327q442 0 646 -148q192 -139 192 -425v-41q0 -294 -190 -433q-203 -148 -646 -148t-645 150
q-187 139 -187 433v38q0 288 187 425q201 149 643 149zM1727 892q0 132 -99 202q-98 69 -271 69h-548v-843h255v289h184q64 -5 98 -20q45 -21 57 -66l28 -94q20 -71 51 -109h272q-36 45 -63 133l-24 80q-16 51 -39 81t-64 50q76 28 117 74q46 53 46 128v26zM1468 882
q0 -49 -39 -72q-36 -20 -97 -20h-268v192h280q64 0 94 -21.5t30 -68.5v-10z" />
    <glyph glyph-name="macron" unicode="&#xaf;" horiz-adv-x="1101" 
d="M980 1318v221h-857v-221h857z" />
    <glyph glyph-name="degree" unicode="&#xb0;" horiz-adv-x="808" 
d="M81 1477q0 -116 82 -168.5t244 -52.5q106 0 177.5 22.5t110 72t38.5 126.5q0 224 -326 224q-162 0 -244 -54t-82 -170zM293 1478q0 20 7 33.5t22 21t35.5 11t49.5 3.5q59 0 87 -15.5t28 -53.5q0 -40 -28 -55t-87 -15q-60 0 -87 15t-27 55z" />
    <glyph glyph-name="plusminus" unicode="&#xb1;" horiz-adv-x="1436" 
d="M538 334h313v318h342v267h-342v315h-313v-315h-343v-267h343v-318zM1255 -18v267h-1096v-267h1096z" />
    <glyph glyph-name="uni00B2" unicode="&#xb2;" horiz-adv-x="1266" 
d="M1147 828v249h-608q10 15 40 33.5t59.5 32t86.5 38.5q193 84 279 143q143 100 143 222q0 143 -118 219q-129 82 -389 82q-284 0 -416 -85q-125 -81 -125 -245v-39h348v32q0 39 32 58q44 26 155 26q101 0 141 -23q34 -21 34 -61q0 -39 -111 -90q-65 -31 -246 -101
q-167 -67 -246 -114q-112 -68 -112 -130v-247h1053z" />
    <glyph glyph-name="uni00B3" unicode="&#xb3;" horiz-adv-x="1229" 
d="M1129 1110q0 100 -73 162q-64 54 -179 65q110 6 170 55q65 52 65 145q0 154 -121 230q-126 78 -398 78q-291 0 -404 -82q-56 -40 -79.5 -100t-23.5 -146v-11l329 2v19q0 43 32 61q36 20 143 20q106 0 148 -24q33 -19 33 -61v-10q0 -48 -60 -65q-48 -15 -154 -15h-89v-201
h176q69 0 102 -16q40 -21 40 -67v-28q0 -44 -51 -60q-53 -17 -145 -17q-119 0 -162 29q-29 19 -29 62v19h-327v-19q0 -183 132 -261q120 -72 388 -72q254 0 393 76q144 79 144 232z" />
    <glyph glyph-name="acute" unicode="&#xb4;" horiz-adv-x="1129" 
d="M491 1569l-249 -290h312l335 290h-398z" />
    <glyph glyph-name="uni00B5" unicode="&#xb5;" horiz-adv-x="1820" 
d="M158 1180v-1546h429v556q86 -109 213 -166t283 -57q253 0 395 96q118 79 167 232q34 110 34 287v598h-430v-592q0 -159 -56 -238q-70 -99 -229 -99q-160 0 -271 116q-50 53 -78 121t-28 141v551h-429z" />
    <glyph glyph-name="paragraph" unicode="&#xb6;" horiz-adv-x="2078" 
d="M1247 -369v1884h-403q-228 0 -381 -30t-246 -92q-91 -61 -131.5 -154.5t-40.5 -227.5q0 -87 19 -155.5t59.5 -124t104.5 -95.5q187 -119 616 -125v-880h403zM1851 -369v1884h-403v-1884h403z" />
    <glyph glyph-name="periodcentered" unicode="&#xb7;" horiz-adv-x="835" 
d="M166 584q0 -83 58.5 -122t185.5 -39q131 0 189 38.5t58 122.5q0 85 -58 123.5t-189 38.5q-127 0 -185.5 -38.5t-58.5 -123.5z" />
    <glyph glyph-name="cedilla" unicode="&#xb8;" horiz-adv-x="1172" 
d="M258 -393q107 -41 141 -49q92 -23 191 -23q175 0 266 52q97 54 97 167q0 39 -22.5 75.5t-62.5 63.5q-85 58 -212 58h-10q-5 -1 -14 -1h-16l2 102h-209l-1 -244q38 7 88 7t88 -7q93 -15 93 -54q0 -27 -30 -41q-33 -14 -105 -14q-57 0 -110.5 12t-126.5 37z" />
    <glyph glyph-name="uni00B9" unicode="&#xb9;" horiz-adv-x="876" 
d="M40 1458q85 4 172 26q76 17 133 42v-698h334v994h-277q-73 -42 -155 -75q-109 -44 -207 -61v-228z" />
    <glyph glyph-name="ordmasculine" unicode="&#xba;" horiz-adv-x="1291" 
d="M147 1179q0 -195 102 -304q123 -133 397 -133q278 0 397 129q98 106 98 309v16q0 209 -97 314q-119 129 -398 129t-400 -129q-99 -106 -99 -313v-18zM646 966q-109 0 -155 70q-35 50 -35 142v41q0 84 33 132q46 67 157 67q112 0 156 -68q31 -48 31 -134v-47
q0 -90 -35 -139q-47 -64 -152 -64zM117 430h1055v238h-1055v-238z" />
    <glyph glyph-name="guillemotright" unicode="&#xbb;" horiz-adv-x="1633" 
d="M474 187l385 403l-385 404h-400l400 -404l-400 -403h400zM1128 187l386 403l-386 404h-400l401 -404l-401 -403h400z" />
    <glyph glyph-name="onehalf" unicode="&#xbd;" horiz-adv-x="3018" 
d="M74 1448q85 4 172 26q76 17 133 42v-698h334v994h-277q-73 -42 -155 -75q-109 -44 -207 -61v-228zM1908 1479l-272 163l-1064 -1527l282 -163zM2746 4v249h-608q10 15 40 33.5t59.5 32t86.5 38.5q193 84 279 143q143 100 143 222q0 143 -118 219q-129 82 -389 82
q-284 0 -416 -85q-125 -80 -125 -245v-39h348v32q0 39 32 58q44 26 155 26q101 0 141 -23q34 -21 34 -61q0 -39 -111 -90q-66 -31 -246 -101q-167 -67 -246 -114q-112 -68 -112 -130v-247h1053z" />
    <glyph glyph-name="questiondown" unicode="&#xbf;" horiz-adv-x="1466" 
d="M1026 1053q0 84 -58.5 122.5t-183.5 38.5q-88 0 -142.5 -17.5t-80 -52.5t-25.5 -91q0 -85 58.5 -123.5t189.5 -38.5q126 0 184 38.5t58 123.5zM63 45q0 -209 173 -308q168 -96 508 -96q356 0 516 131q133 109 133 316l-1 47h-393v-26q0 -75 -53 -112q-62 -42 -201 -42
q-127 0 -182 35t-55 110q0 49 35 90q22 24 57.5 52t64 47.5t80.5 52.5q58 35 114 85q120 108 119 248l-1 87h-396l-1 -54q-2 -40 -24 -75q-43 -67 -142 -137q-56 -40 -95 -69q-120 -90 -176 -161q-80 -102 -80 -221z" />
    <glyph glyph-name="Agrave" unicode="&#xc0;" horiz-adv-x="1947" 
d="M454 1936l361 -290h303l-277 290h-387zM450 0l130 312h787l130 -312h454l-694 1513h-567l-694 -1513h454zM951 1204h46l247 -595h-541z" />
    <glyph glyph-name="Aacute" unicode="&#xc1;" horiz-adv-x="1947" 
d="M1068 1936l-249 -290h312l335 290h-398zM450 0l130 312h787l130 -312h454l-694 1513h-567l-694 -1513h454zM951 1204h46l247 -595h-541z" />
    <glyph glyph-name="Acircumflex" unicode="&#xc2;" horiz-adv-x="1947" 
d="M844 1645l129 124l128 -124h342l-279 247h-384l-278 -247h342zM450 0l130 312h787l130 -312h454l-694 1513h-567l-694 -1513h454zM951 1204h46l247 -595h-541z" />
    <glyph glyph-name="Atilde" unicode="&#xc3;" horiz-adv-x="1947" 
d="M1263 1944q-18 -27 -36 -44.5t-43 -28.5t-56 -11q-15 0 -28.5 2t-31 9.5t-24.5 10t-31.5 15t-27.5 14.5q-32 16 -53.5 25t-56.5 17.5t-69 8.5q-109 0 -186 -77q-57 -57 -103 -170l146 -51q19 28 38.5 45.5t46.5 28t60 10.5q12 0 25.5 -2.5t23 -5t24 -9t22 -10t24.5 -12
t24 -11.5q22 -12 38 -19t39 -15.5t47 -12.5t50 -4q111 0 186 75q57 57 98 171zM450 0l130 312h787l130 -312h454l-694 1513h-567l-694 -1513h454zM951 1204h46l247 -595h-541z" />
    <glyph glyph-name="Adieresis" unicode="&#xc4;" horiz-adv-x="1947" 
d="M484 1786q0 -72 47.5 -104.5t150.5 -32.5q110 0 156.5 32.5t46.5 104.5q0 75 -46.5 107.5t-156.5 32.5q-104 0 -151 -33t-47 -107zM1047 1786q0 -72 47 -104.5t150 -32.5q110 0 157 32.5t47 104.5q0 75 -47 107.5t-157 32.5q-69 0 -112 -14t-64 -45t-21 -81zM450 0
l130 312h787l130 -312h454l-694 1513h-567l-694 -1513h454zM951 1204h46l247 -595h-541z" />
    <glyph glyph-name="Aring" unicode="&#xc5;" horiz-adv-x="1947" 
d="M646 1869q0 -116 82 -168.5t244 -52.5q106 0 177.5 22.5t110 72t38.5 126.5q0 224 -326 224q-162 0 -244 -54t-82 -170zM858 1870q0 38 27.5 53.5t86.5 15.5t87 -15.5t28 -53.5q0 -40 -28 -55t-87 -15q-60 0 -87 15t-27 55zM450 0l130 312h787l130 -312h454l-694 1513
h-567l-694 -1513h454zM951 1204h46l247 -595h-541z" />
    <glyph glyph-name="AE" unicode="&#xc6;" horiz-adv-x="2681" 
d="M468 0l167 312h538v-312h1444v311h-1008v296h896v311h-896v284h1001v311h-1734l-878 -1513h470zM1114 1204h59v-595h-378z" />
    <glyph glyph-name="Ccedilla" unicode="&#xc7;" horiz-adv-x="1937" 
d="M1291 360q109 76 146 213l436 -1q-18 -132 -80.5 -242.5t-167.5 -189.5q-200 -151 -521 -171l-1 -62h16q9 0 14 1h10q127 0 212 -58q40 -27 62.5 -63.5t22.5 -75.5q0 -113 -97 -167q-91 -52 -266 -52q-99 0 -191 23q-33 8 -141 49l47 141q73 -25 126.5 -37t110.5 -12
q72 0 105 14q30 14 30 41q0 39 -93 54q-38 7 -88 7t-88 -7l1 204q-375 24 -583 192q-233 186 -233 523v145q0 336 234 524q242 194 696 194q381 0 607 -167q216 -162 257 -446l-436 -1q-31 144 -147 223q-115 78 -284 78q-211 0 -341 -100q-140 -108 -140 -299l1 -160
q0 -194 142 -299q130 -97 336 -97q172 0 286 81z" />
    <glyph glyph-name="Egrave" unicode="&#xc8;" horiz-adv-x="1740" 
d="M430 1935l361 -290h303l-277 290h-387zM1633 0v311h-1008v296h896v311h-896v284h1002v311h-1438v-1513h1444z" />
    <glyph glyph-name="Eacute" unicode="&#xc9;" horiz-adv-x="1740" 
d="M1044 1934l-249 -290h312l335 290h-398zM1633 0v311h-1008v296h896v311h-896v284h1002v311h-1438v-1513h1444z" />
    <glyph glyph-name="Ecircumflex" unicode="&#xca;" horiz-adv-x="1740" 
d="M820 1643l129 124l128 -124h342l-279 247h-384l-278 -247h342zM1633 0v311h-1008v296h896v311h-896v284h1002v311h-1438v-1513h1444z" />
    <glyph glyph-name="Edieresis" unicode="&#xcb;" horiz-adv-x="1740" 
d="M461 1784q0 -72 47.5 -104.5t150.5 -32.5q110 0 156.5 32.5t46.5 104.5q0 38 -11 64t-35 43t-62.5 25t-94.5 8q-104 0 -151 -33t-47 -107zM1024 1784q0 -72 47 -104.5t150 -32.5q110 0 157 32.5t47 104.5q0 75 -47 107.5t-157 32.5q-52 0 -88.5 -8t-61 -24.5t-36 -43
t-11.5 -64.5zM1633 0v311h-1008v296h896v311h-896v284h1002v311h-1438v-1513h1444z" />
    <glyph glyph-name="Igrave" unicode="&#xcc;" horiz-adv-x="819" 
d="M-110 1935l361 -290h303l-277 290h-387zM630 0v1513h-441v-1513h441z" />
    <glyph glyph-name="Iacute" unicode="&#xcd;" horiz-adv-x="819" 
d="M504 1935l-249 -290h312l335 290h-398zM630 0v1513h-441v-1513h441z" />
    <glyph glyph-name="Icircumflex" unicode="&#xce;" horiz-adv-x="819" 
d="M280 1644l129 124l128 -124h342l-279 247h-384l-278 -247h342zM630 0v1513h-441v-1513h441z" />
    <glyph glyph-name="Idieresis" unicode="&#xcf;" horiz-adv-x="819" 
d="M-80 1784q0 -72 47.5 -104.5t150.5 -32.5q110 0 156.5 32.5t46.5 104.5q0 75 -46.5 107.5t-156.5 32.5q-104 0 -151 -33t-47 -107zM483 1784q0 -72 47 -104.5t150 -32.5q110 0 157 32.5t47 104.5q0 75 -47 107.5t-157 32.5q-52 0 -88.5 -8t-61 -24.5t-36 -43t-11.5 -64.5
zM630 0v1513h-441v-1513h441z" />
    <glyph glyph-name="Eth" unicode="&#xd0;" horiz-adv-x="2031" 
d="M188 0h920q431 0 652 195q194 172 194 474v172q0 305 -200 480q-219 192 -646 192h-920v-617h-164v-267h164v-629zM758 629v267h-130v306h444q223 0 337 -114q100 -100 100 -262v-127q0 -185 -113 -286q-114 -102 -323 -102h-445v318h130z" />
    <glyph glyph-name="Ntilde" unicode="&#xd1;" horiz-adv-x="2088" 
d="M1311 1943q-27 -41 -58.5 -62.5t-76.5 -21.5q-15 0 -28.5 2t-31 9.5t-24.5 10t-31.5 15t-27.5 14.5q-32 16 -53.5 25t-56.5 17.5t-69 8.5q-109 0 -186 -77q-56 -56 -103 -170l146 -51q29 42 63 63t82 21q11 0 21.5 -1.5t21 -4.5t19.5 -6t20.5 -8.5t19 -9t21 -10.5
t20.5 -10q30 -16 51.5 -25t55 -17.5t67.5 -8.5q111 0 186 75q57 57 98 171zM1899 0v1513h-420l8 -913l11 -102h-7l-881 1015h-421v-1513h420l-7 880l-13 110h7l869 -990h434z" />
    <glyph glyph-name="Ograve" unicode="&#xd2;" horiz-adv-x="2020" 
d="M489 1933l361 -290h303l-277 290h-387zM80 684q0 -335 233 -523q242 -195 696 -195q452 0 698 197q116 93 174.5 225.5t58.5 295.5v144q0 163 -59 296t-174 226q-246 197 -697 197q-454 0 -696 -195q-234 -187 -234 -524v-144zM1009 279q-210 0 -340 99
q-142 106 -142 299l-1 157q0 196 142 302q129 98 341 98q214 0 343 -97q142 -107 142 -303v-157q0 -193 -142 -299q-132 -99 -343 -99z" />
    <glyph glyph-name="Oacute" unicode="&#xd3;" horiz-adv-x="2020" 
d="M1103 1933l-249 -290h312l335 290h-398zM80 684q0 -335 233 -523q242 -195 696 -195q452 0 698 197q116 93 174.5 225.5t58.5 295.5v144q0 163 -59 296t-174 226q-246 197 -697 197q-454 0 -696 -195q-234 -187 -234 -524v-144zM1009 279q-210 0 -340 99
q-142 106 -142 299l-1 157q0 196 142 302q129 98 341 98q214 0 343 -97q142 -107 142 -303v-157q0 -193 -142 -299q-132 -99 -343 -99z" />
    <glyph glyph-name="Ocircumflex" unicode="&#xd4;" horiz-adv-x="2020" 
d="M879 1642l129 124l128 -124h342l-279 247h-384l-278 -247h342zM80 684q0 -335 233 -523q242 -195 696 -195q452 0 698 197q116 93 174.5 225.5t58.5 295.5v144q0 163 -59 296t-174 226q-246 197 -697 197q-454 0 -696 -195q-234 -187 -234 -524v-144zM1009 279
q-210 0 -340 99q-142 107 -142 299l-1 157q0 196 142 302q129 98 341 98q214 0 343 -97q142 -107 142 -303v-157q0 -192 -142 -299q-132 -99 -343 -99z" />
    <glyph glyph-name="Otilde" unicode="&#xd5;" horiz-adv-x="2020" 
d="M1329 1941q-27 -42 -58.5 -63t-76.5 -21q-11 0 -21 1.5t-21 4.5t-19.5 6t-20.5 8.5t-19.5 9t-21 10.5t-20.5 11q-32 16 -53.5 25t-56.5 17.5t-69 8.5q-109 0 -186 -77q-56 -57 -103 -170l146 -51q29 42 63 63t82 21q15 0 28.5 -2t31.5 -9t25 -10t31 -15t27 -14
q30 -16 51.5 -25t55 -17.5t67.5 -8.5q111 0 186 75q57 57 98 171zM80 684q0 -335 233 -523q242 -195 696 -195q452 0 698 197q116 93 174.5 225.5t58.5 295.5v144q0 163 -59 296t-174 226q-246 197 -697 197q-454 0 -696 -195q-234 -187 -234 -524v-144zM1009 279
q-209 0 -340 99q-142 106 -142 299l-1 157q0 196 142 302q129 98 341 98q214 0 343 -97q142 -107 142 -303v-157q0 -193 -142 -299q-132 -99 -343 -99z" />
    <glyph glyph-name="Odieresis" unicode="&#xd6;" horiz-adv-x="2020" 
d="M519 1782q0 -72 47.5 -104.5t150.5 -32.5q56 0 94.5 8t62.5 25t35 42.5t11 61.5q0 38 -11 64t-35 43t-62.5 25t-94.5 8q-104 0 -151 -33t-47 -107zM1082 1782q0 -72 47 -104.5t150 -32.5q56 0 94.5 8t63 25t35.5 42.5t11 61.5q0 75 -47 107.5t-157 32.5q-103 0 -150 -33
t-47 -107zM80 684q0 -335 233 -523q242 -195 696 -195q452 0 698 197q116 93 174.5 225.5t58.5 295.5v144q0 163 -59 296t-174 226q-246 197 -697 197q-454 0 -696 -195q-234 -187 -234 -524v-144zM1009 279q-209 0 -340 99q-142 107 -142 299l-1 157q0 196 142 302
q129 98 341 98q214 0 343 -97q142 -107 142 -303v-157q0 -192 -142 -299q-132 -99 -343 -99z" />
    <glyph glyph-name="multiply" unicode="&#xd7;" horiz-adv-x="1113" 
d="M128 392l221 -221l208 212l214 -218l201 200l-213 218l220 223l-222 221l-220 -222l-214 212l-201 -200l214 -213z" />
    <glyph glyph-name="Oslash" unicode="&#xd8;" horiz-adv-x="2020" 
d="M80 684q0 -207 90.5 -360.5t268.5 -243.5l-90 -160h390l35 62q105 -16 235 -16q452 0 698 197q116 93 174.5 225.5t58.5 295.5v144q0 208 -93 362.5t-278 246.5l86 151h-394l-31 -55q-106 14 -220 14q-454 0 -696 -195q-234 -187 -234 -524v-144zM1009 279
q-209 0 -340 99q-142 106 -142 299l-1 157q0 195 142 302q129 98 341 98q214 0 343 -97q142 -107 142 -303v-157q0 -193 -142 -299q-132 -99 -343 -99z" />
    <glyph glyph-name="Ugrave" unicode="&#xd9;" horiz-adv-x="1992" 
d="M486 1938l361 -290h303l-277 290h-387zM1416 1513v-860q0 -174 -95 -268q-109 -106 -324 -106q-214 0 -322 103q-98 94 -98 270v861h-441v-861q0 -317 191 -490q217 -196 668 -196q433 0 656 193q204 176 204 494v860h-439z" />
    <glyph glyph-name="Uacute" unicode="&#xda;" horiz-adv-x="1992" 
d="M1100 1937l-249 -290h312l335 290h-398zM1416 1513v-860q0 -174 -95 -268q-109 -106 -324 -106q-214 0 -322 103q-98 94 -98 270v861h-441v-861q0 -317 191 -490q217 -196 668 -196q433 0 656 193q204 176 204 494v860h-439z" />
    <glyph glyph-name="Ucircumflex" unicode="&#xdb;" horiz-adv-x="1992" 
d="M876 1647l129 124l128 -124h342l-279 247h-384l-278 -247h342zM1416 1513v-860q0 -174 -95 -268q-109 -106 -324 -106q-214 0 -322 103q-98 94 -98 270v861h-441v-861q0 -317 191 -490q217 -196 668 -196q433 0 656 193q204 176 204 494v860h-439z" />
    <glyph glyph-name="Udieresis" unicode="&#xdc;" horiz-adv-x="1992" 
d="M516 1787q0 -72 47.5 -104.5t150.5 -32.5q110 0 156.5 32.5t46.5 104.5q0 75 -46.5 107.5t-156.5 32.5q-104 0 -151 -33t-47 -107zM1079 1787q0 -72 47 -104.5t150 -32.5q110 0 157 32.5t47 104.5q0 75 -47 107.5t-157 32.5q-103 0 -150 -33t-47 -107zM1416 1513v-860
q0 -174 -95 -268q-109 -106 -324 -106q-214 0 -322 103q-98 94 -98 270v861h-441v-861q0 -317 191 -490q217 -196 668 -196q433 0 656 193q204 176 204 494v860h-439z" />
    <glyph glyph-name="Yacute" unicode="&#xdd;" horiz-adv-x="1811" 
d="M1002 1933l-249 -290h312l335 290h-398zM1853 1513h-501l-446 -660l-448 660h-501l728 -984v-529h441v529z" />
    <glyph glyph-name="Thorn" unicode="&#xde;" horiz-adv-x="1617" 
d="M604 0v247h434q218 0 359 133q140 132 140 333v54q0 74 -16.5 140t-47.5 121t-75 98q-139 134 -364 134h-430v253h-429v-1513h429zM1145 747q0 -92 -56 -153q-58 -63 -159 -63h-326v444h329q92 0 152 -57t60 -152v-19z" />
    <glyph glyph-name="germandbls" unicode="&#xdf;" horiz-adv-x="1796" 
d="M814 663h66q131 0 200 -32q58 -27 78 -74q13 -30 13 -82v-35q0 -93 -50 -136q-71 -61 -251 -50v-283q288 -17 463 44q152 53 216 166q53 93 53 238v32q0 249 -282 344q129 40 190.5 113.5t61.5 187.5v48q0 174 -144 281q-175 130 -548 130q-362 0 -537 -160
q-168 -153 -168 -461v-934h430v961q0 146 58 222q67 88 219 88q122 0 194 -43q70 -44 70 -113v-23q0 -81 -64 -118t-202 -37h-66v-274z" />
    <glyph glyph-name="agrave" unicode="&#xe0;" horiz-adv-x="1706" 
d="M385 1600l361 -290h303l-277 290h-387zM1562 0v611q0 181 -51 297q-64 145 -209 220q-165 85 -448 85q-264 0 -428 -70q-138 -60 -205 -164q-50 -77 -63 -185h406q14 64 62 98q69 48 210 48q169 0 240 -69q57 -56 57 -174v-33q-79 30 -173 50q-128 26 -259 26
q-318 0 -466 -100q-134 -92 -134 -275q0 -104 47 -186q55 -96 172 -150q134 -62 348 -62q162 0 288 62q127 61 177 159v-188h429zM797 241q-152 0 -219 51q-47 36 -47 93q0 53 42 87q62 48 208 48q93 0 208 -27q87 -22 144 -47v-26q-8 -23 -31.5 -52.5t-60.5 -56.5
q-97 -70 -244 -70z" />
    <glyph glyph-name="aacute" unicode="&#xe1;" horiz-adv-x="1706" 
d="M945 1599l-249 -290h312l335 290h-398zM1562 0v611q0 181 -51 297q-64 145 -209 220q-165 85 -448 85q-264 0 -428 -70q-138 -60 -205 -164q-50 -77 -63 -185h406q14 64 62 98q69 48 210 48q169 0 240 -69q57 -56 57 -174v-33q-79 30 -173 50q-128 26 -259 26
q-318 0 -466 -100q-134 -92 -134 -275q0 -104 47 -186q55 -96 172 -150q134 -62 348 -62q162 0 288 62q127 61 177 159v-188h429zM797 241q-152 0 -219 51q-47 36 -47 93q0 53 42 87q62 48 208 48q93 0 208 -27q87 -22 144 -47v-26q-8 -23 -31.5 -52.5t-60.5 -56.5
q-97 -70 -244 -70z" />
    <glyph glyph-name="acircumflex" unicode="&#xe2;" horiz-adv-x="1706" 
d="M721 1309l129 124l128 -124h342l-279 247h-384l-278 -247h342zM1562 0v611q0 181 -51 297q-64 145 -209 220q-165 85 -448 85q-264 0 -428 -70q-138 -60 -205 -164q-50 -77 -63 -185h406q14 64 62 98q69 48 210 48q169 0 240 -69q57 -56 57 -174v-33q-79 30 -173 50
q-128 26 -259 26q-318 0 -466 -100q-134 -92 -134 -275q0 -104 47 -186q55 -96 172 -150q134 -62 348 -62q162 0 288 62q127 61 177 159v-188h429zM797 241q-152 0 -219 51q-47 36 -47 93q0 53 42 87q62 48 208 48q93 0 208 -27q87 -22 144 -47v-26q-8 -23 -31.5 -52.5
t-60.5 -56.5q-97 -70 -244 -70z" />
    <glyph glyph-name="atilde" unicode="&#xe3;" horiz-adv-x="1706" 
d="M1175 1608q-13 -20 -26 -34.5t-29.5 -26t-36.5 -17.5t-43 -6q-15 0 -28.5 2t-31 9.5t-24.5 10t-31.5 15t-27.5 14.5q-23 12 -39.5 19t-40 15.5t-48.5 12.5t-51 4q-109 0 -186 -77q-56 -57 -103 -170l146 -51q14 20 28.5 35t32 26.5t38.5 17t46 5.5q15 0 28.5 -2t31.5 -9
t25 -10t31 -15t27 -14q30 -16 51.5 -25t55 -17.5t67.5 -8.5q111 0 186 75q57 57 98 171zM1562 0v611q0 181 -51 297q-64 145 -209 220q-165 85 -448 85q-264 0 -428 -70q-138 -60 -205 -164q-50 -77 -63 -185h406q14 64 62 98q69 48 210 48q169 0 240 -69q57 -56 57 -174
v-33q-79 30 -173 50q-128 26 -259 26q-318 0 -466 -100q-134 -92 -134 -275q0 -104 47 -186q55 -96 172 -150q134 -62 348 -62q162 0 288 62q127 61 177 159v-188h429zM797 241q-152 0 -219 51q-47 36 -47 93q0 53 42 87q62 48 208 48q93 0 208 -27q87 -22 144 -47v-26
q-8 -23 -31.5 -52.5t-60.5 -56.5q-97 -70 -244 -70z" />
    <glyph glyph-name="adieresis" unicode="&#xe4;" horiz-adv-x="1706" 
d="M388 1449q0 -72 47.5 -104.5t150.5 -32.5q110 0 156.5 32.5t46.5 104.5q0 75 -46.5 107.5t-156.5 32.5q-104 0 -151 -33t-47 -107zM951 1449q0 -72 47 -104.5t150 -32.5q110 0 157 32.5t47 104.5q0 75 -47 107.5t-157 32.5q-103 0 -150 -33t-47 -107zM1562 0v611
q0 181 -51 297q-64 145 -209 220q-165 85 -448 85q-264 0 -428 -70q-138 -60 -205 -164q-50 -77 -63 -185h406q14 64 62 98q69 48 210 48q169 0 240 -69q57 -56 57 -174v-33q-79 30 -173 50q-128 26 -259 26q-318 0 -466 -100q-134 -92 -134 -275q0 -104 47 -186
q55 -96 172 -150q134 -62 348 -62q162 0 288 62q127 61 177 159v-188h429zM797 241q-152 0 -219 51q-47 36 -47 93q0 53 42 87q62 48 208 48q93 0 208 -27q87 -22 144 -47v-26q-8 -23 -31.5 -52.5t-60.5 -56.5q-97 -70 -244 -70z" />
    <glyph glyph-name="aring" unicode="&#xe5;" horiz-adv-x="1706" 
d="M551 1532q0 -116 82 -168.5t244 -52.5q80 0 139.5 12.5t101.5 39t63.5 69t21.5 100.5q0 224 -326 224q-162 0 -244 -54t-82 -170zM763 1533q0 38 27.5 53.5t86.5 15.5q39 0 63.5 -6t38 -21.5t13.5 -41.5q0 -40 -28 -55t-87 -15q-60 0 -87 15t-27 55zM1562 0v611
q0 181 -51 297q-64 145 -209 220q-165 85 -448 85q-264 0 -428 -70q-138 -60 -205 -164q-50 -77 -63 -185h406q14 64 62 98q69 48 210 48q169 0 240 -69q57 -56 57 -174v-33q-79 30 -173 50q-128 26 -259 26q-318 0 -466 -100q-134 -92 -134 -275q0 -104 47 -186
q55 -96 172 -150q134 -62 348 -62q162 0 288 62q127 61 177 159v-188h429zM797 241q-152 0 -219 51q-47 36 -47 93q0 53 42 87q62 48 208 48q93 0 208 -27q87 -22 144 -47v-26q-8 -23 -31.5 -52.5t-60.5 -56.5q-97 -70 -244 -70z" />
    <glyph glyph-name="ae" unicode="&#xe6;" horiz-adv-x="2705" 
d="M2609 489l3 24q0 2 0.5 5.5t0.5 6.5t0.5 7t0.5 8q24 317 -159 495q-184 178 -543 178q-348 0 -545 -126q-172 126 -513 126q-264 0 -428 -70q-138 -60 -205 -164q-50 -77 -63 -185h406q14 64 62 98q69 48 210 48q169 0 240 -69q57 -56 57 -174v-33q-79 30 -173 50
q-128 26 -259 26q-318 0 -466 -100q-134 -92 -134 -275q0 -104 47 -186q55 -96 172 -150q134 -62 348 -62q159 0 297 55q133 53 212 145q20 16 30 25l28 24q88 -121 250 -183q175 -67 431 -67q313 0 494 134q147 109 188 293h-398q-16 -58 -85 -102q-81 -54 -208 -54
q-165 0 -256 78q-81 68 -86 174h1044zM1566 727q3 38 22 78.5t54 74.5q88 83 254 83q157 0 236 -72q63 -58 75 -170v-3h-641v9zM797 241q-152 0 -219 51q-47 36 -47 93q0 53 42 87q62 48 208 48q93 0 208 -27q87 -22 144 -47v-26q-8 -23 -31.5 -52.5t-60.5 -56.5
q-97 -70 -244 -70z" />
    <glyph glyph-name="ccedilla" unicode="&#xe7;" horiz-adv-x="1640" 
d="M1185 448h391q-32 -208 -191 -332q-56 -43 -125 -74.5t-161.5 -51.5t-200.5 -23l-1 -62h16q9 0 14 1h10q127 0 212 -58q40 -27 62.5 -63.5t22.5 -75.5q0 -113 -97 -167q-91 -52 -266 -52q-99 0 -191 23q-33 8 -141 49l47 141q36 -12 62 -20t56.5 -15t59.5 -10.5t59 -3.5
q72 0 105 14q30 14 30 41q0 38 -93 54q-38 7 -88 7t-88 -7l1 211q-282 29 -435 159q-180 150 -180 414v86q0 263 181 414q198 166 596 166q228 0 388 -68q146 -62 231 -174q75 -98 101 -236h-387q-30 96 -108 143q-85 51 -230 51q-166 0 -258 -85q-84 -80 -84 -206v-95
q0 -129 87 -208q91 -85 255 -85q145 0 226 49t112 149z" />
    <glyph glyph-name="egrave" unicode="&#xe8;" horiz-adv-x="1612" 
d="M329 1599l361 -290h303l-277 290h-387zM1548 489l3 24q1 4 1.5 13t0.5 14q24 317 -159 495q-184 178 -543 178q-401 0 -599 -166q-177 -148 -177 -416v-66q0 -281 176 -431q197 -168 604 -168q313 0 494 134q147 109 188 293h-398q-16 -58 -85 -102q-81 -54 -208 -54
q-165 0 -256 78q-81 68 -86 174h1044zM505 727q3 38 22 78.5t54 74.5q88 83 254 83q157 0 236 -72q63 -58 75 -170v-3h-641v9z" />
    <glyph glyph-name="eacute" unicode="&#xe9;" horiz-adv-x="1612" 
d="M943 1599l-249 -290h312l335 290h-398zM1548 489l3 24q1 4 1.5 13t0.5 14q24 317 -159 495q-184 178 -543 178q-401 0 -599 -166q-177 -148 -177 -416v-66q0 -281 176 -431q197 -168 604 -168q313 0 494 134q147 109 188 293h-398q-16 -58 -85 -102q-81 -54 -208 -54
q-165 0 -256 78q-81 68 -86 174h1044zM505 727q3 38 22 78.5t54 74.5q88 83 254 83q157 0 236 -72q63 -58 75 -170v-3h-641v9z" />
    <glyph glyph-name="ecircumflex" unicode="&#xea;" horiz-adv-x="1612" 
d="M719 1308l129 124l128 -124h342l-279 247h-384l-278 -247h342zM1548 489l3 24q1 4 1.5 13t0.5 14q24 317 -159 495q-184 178 -543 178q-401 0 -599 -166q-177 -148 -177 -416v-66q0 -281 176 -431q197 -168 604 -168q313 0 494 134q147 109 188 293h-398
q-16 -58 -85 -102q-81 -54 -208 -54q-165 0 -256 78q-81 68 -86 174h1044zM505 727q2 24 10 49t25 53t41 51q88 83 254 83q157 0 236 -72q63 -58 75 -170v-3h-641v9z" />
    <glyph glyph-name="edieresis" unicode="&#xeb;" horiz-adv-x="1612" 
d="M359 1448q0 -72 47.5 -104.5t150.5 -32.5q110 0 156.5 32.5t46.5 104.5q0 75 -46.5 107.5t-156.5 32.5q-104 0 -151 -33t-47 -107zM922 1448q0 -72 47 -104.5t150 -32.5q110 0 157 32.5t47 104.5q0 75 -47 107.5t-157 32.5q-52 0 -88.5 -8t-61 -24.5t-36 -43t-11.5 -64.5
zM1548 489l3 24q1 4 1.5 13t0.5 14q24 317 -159 495q-184 178 -543 178q-401 0 -599 -166q-177 -148 -177 -416v-66q0 -281 176 -431q197 -168 604 -168q313 0 494 134q147 109 188 293h-398q-16 -58 -85 -102q-81 -54 -208 -54q-165 0 -256 78q-81 68 -86 174h1044z
M505 727q3 38 22 78.5t54 74.5q88 83 254 83q157 0 236 -72q63 -58 75 -170v-3h-641v9z" />
    <glyph glyph-name="igrave" unicode="&#xec;" 
d="M-148 1598l361 -290h303l-277 290h-387zM589 0v1180h-429v-1180h429z" />
    <glyph glyph-name="iacute" unicode="&#xed;" 
d="M466 1598l-249 -290h312l335 290h-398zM589 0v1180h-429v-1180h429z" />
    <glyph glyph-name="icircumflex" unicode="&#xee;" 
d="M242 1307l129 124l128 -124h342l-279 247h-384l-278 -247h342zM589 0v1180h-429v-1180h429z" />
    <glyph glyph-name="idieresis" unicode="&#xef;" 
d="M-117 1447q0 -72 47.5 -104.5t150.5 -32.5q110 0 156.5 32.5t46.5 104.5q0 75 -46.5 107.5t-156.5 32.5q-69 0 -112.5 -14t-64.5 -45t-21 -81zM446 1447q0 -72 47 -104.5t150 -32.5q110 0 157 32.5t47 104.5q0 75 -47 107.5t-157 32.5q-103 0 -150 -33t-47 -107zM589 0
v1180h-429v-1180h429z" />
    <glyph glyph-name="eth" unicode="&#xf0;" horiz-adv-x="1689" 
d="M786 1245l175 -73l59 107q144 -82 196 -236q-191 90 -380 90q-261 0 -441 -82q-158 -73 -241 -205q-73 -116 -73 -260v-60q0 -155 74 -273q81 -133 243 -206q178 -81 447 -81q268 0 447 81q163 74 243 206q73 119 73 273v189q0 313 -144 529q-113 168 -313 270l56 101
l-173 74l-59 -106q-96 29 -219 44l-80 -250q29 -6 68 -11q48 -7 99 -19zM511 584q0 106 80 180q92 85 254 85q163 0 256 -86q40 -38 60.5 -84.5t20.5 -93.5v-63q0 -118 -85 -192q-91 -80 -252 -80q-162 0 -254 84q-80 73 -80 186v64z" />
    <glyph glyph-name="ntilde" unicode="&#xf1;" horiz-adv-x="1824" 
d="M1176 1607q-18 -27 -36 -44.5t-43 -28.5t-56 -11q-11 0 -21 1.5t-21 4.5t-19.5 6t-20.5 8.5t-19.5 9t-21 10.5t-20.5 11q-32 16 -53.5 25t-56.5 17.5t-69 8.5q-109 0 -186 -77q-56 -57 -103 -170l146 -51q29 42 63 63t82 21q15 0 28.5 -2t31.5 -9t25 -10t31 -15t27 -14
q30 -16 51.5 -25t55 -17.5t67.5 -8.5q111 0 186 75q57 57 98 171zM589 0v551q0 73 28 141.5t78 121.5q110 115 271 115q159 0 229 -99q56 -79 56 -238v-592h429v598q0 176 -34 287q-46 151 -167 233q-142 95 -394 95q-163 0 -292 -63q-131 -63 -204 -180v210h-430v-1180h430
z" />
    <glyph glyph-name="ograve" unicode="&#xf2;" horiz-adv-x="1694" 
d="M328 1600l361 -290h303l-277 290h-387zM75 553q0 -270 175 -419q197 -168 597 -168q398 0 598 169q175 148 175 417v75q0 270 -175 419q-199 167 -598 167q-400 0 -597 -167q-175 -149 -175 -418v-75zM505 629q0 136 82 214q91 86 260 86q170 0 259 -86q83 -80 83 -215
v-76q0 -135 -84 -216q-89 -86 -258 -86q-168 0 -258 87q-84 80 -84 214v78z" />
    <glyph glyph-name="oacute" unicode="&#xf3;" horiz-adv-x="1694" 
d="M942 1599l-249 -290h312l335 290h-398zM75 553q0 -270 175 -419q197 -168 597 -168q398 0 598 169q175 148 175 417v75q0 270 -175 419q-199 167 -598 167q-400 0 -597 -167q-175 -149 -175 -418v-75zM505 629q0 136 82 214q91 86 260 86q170 0 259 -86q83 -80 83 -215
v-76q0 -135 -84 -216q-89 -86 -258 -86q-168 0 -258 87q-84 80 -84 214v78z" />
    <glyph glyph-name="ocircumflex" unicode="&#xf4;" horiz-adv-x="1694" 
d="M718 1309l129 124l128 -124h342l-279 247h-384l-278 -247h342zM75 553q0 -270 175 -419q197 -168 597 -168q398 0 598 169q175 148 175 417v75q0 270 -175 419q-199 167 -598 167q-400 0 -597 -167q-175 -149 -175 -418v-75zM505 629q0 136 82 214q91 86 260 86
q170 0 259 -86q83 -80 83 -215v-76q0 -135 -84 -216q-89 -86 -258 -86q-168 0 -258 87q-84 80 -84 214v78z" />
    <glyph glyph-name="otilde" unicode="&#xf5;" horiz-adv-x="1694" 
d="M1138 1608q-27 -42 -58.5 -63t-76.5 -21q-15 0 -28.5 2t-31 9.5t-24.5 10t-31.5 15t-27.5 14.5q-23 12 -39.5 19t-40.5 15.5t-48.5 12.5t-50.5 4q-109 0 -186 -77q-56 -56 -103 -170l146 -51q19 28 38.5 45.5t46.5 28t60 10.5q15 0 28.5 -2t31.5 -9t25 -10t31 -15t27 -14
q30 -16 51.5 -25t55 -17.5t67.5 -8.5q111 0 186 75q57 57 98 171zM75 553q0 -270 175 -419q197 -168 597 -168q398 0 598 169q175 148 175 417v75q0 270 -175 419q-199 167 -598 167q-400 0 -597 -167q-175 -149 -175 -418v-75zM505 629q0 136 82 214q91 86 260 86
q170 0 259 -86q83 -80 83 -215v-76q0 -135 -84 -216q-89 -86 -258 -86q-168 0 -258 87q-84 80 -84 214v78z" />
    <glyph glyph-name="odieresis" unicode="&#xf6;" horiz-adv-x="1694" 
d="M358 1449q0 -72 47.5 -104.5t150.5 -32.5q74 0 118.5 14.5t64.5 44.5t20 78q0 38 -11 64t-35 43t-62.5 25t-94.5 8q-104 0 -151 -33t-47 -107zM921 1449q0 -72 47 -104.5t150 -32.5q110 0 157 32.5t47 104.5q0 75 -47 107.5t-157 32.5q-103 0 -150 -33t-47 -107zM75 553
q0 -270 175 -419q197 -168 597 -168q398 0 598 169q175 148 175 417v75q0 270 -175 419q-199 167 -598 167q-400 0 -597 -167q-175 -149 -175 -418v-75zM505 629q0 136 82 214q91 86 260 86q170 0 259 -86q83 -80 83 -215v-76q0 -135 -84 -216q-89 -86 -258 -86
q-168 0 -258 87q-84 80 -84 214v78z" />
    <glyph glyph-name="divide" unicode="&#xf7;" horiz-adv-x="1379" 
d="M437 1002q0 -83 58 -122t183 -39q135 0 193 39q57 38 57 122q0 87 -57 124q-58 38 -193 38q-126 0 -183.5 -38t-57.5 -124zM1226 487v259h-1084v-259h1084zM437 204q0 -41 14 -71t44 -49.5t75 -29t108 -9.5q133 0 193 39q57 37 57 120q0 86 -57 124q-58 39 -193 39
q-126 0 -183.5 -38.5t-57.5 -124.5z" />
    <glyph glyph-name="oslash" unicode="&#xf8;" horiz-adv-x="1694" 
d="M75 553q0 -275 183 -425l-161 -209h437l57 68q123 -21 256 -21q398 0 598 169q175 148 175 417v75q0 266 -174 417l168 224l-435 1l-66 -79q-121 23 -266 23q-400 0 -597 -167q-175 -149 -175 -418v-75zM505 629q0 136 82 214q91 86 260 86q170 0 259 -86q83 -80 83 -215
v-76q0 -135 -84 -216q-89 -86 -258 -86q-168 0 -258 87q-84 80 -84 214v78z" />
    <glyph glyph-name="ugrave" unicode="&#xf9;" horiz-adv-x="1824" 
d="M384 1601l361 -290h303l-277 290h-387zM1240 1180v-552q0 -48 -12.5 -95t-36.5 -89.5t-57 -77.5q-52 -54 -121.5 -85t-148.5 -31q-160 0 -230 99q-56 79 -56 239v592h-429v-598q0 -177 34 -287q47 -151 167 -232q141 -96 394 -96q161 0 292 63q131 62 204 179v-209h430
v1180h-430z" />
    <glyph glyph-name="uacute" unicode="&#xfa;" horiz-adv-x="1824" 
d="M998 1600l-249 -290h312l335 290h-398zM1240 1180v-552q0 -48 -12.5 -95t-36.5 -89.5t-57 -77.5q-52 -54 -121.5 -85t-148.5 -31q-160 0 -230 99q-56 79 -56 239v592h-429v-598q0 -177 34 -287q46 -151 167 -232q141 -96 394 -96q161 0 292 63q131 62 204 179v-209h430
v1180h-430z" />
    <glyph glyph-name="ucircumflex" unicode="&#xfb;" horiz-adv-x="1824" 
d="M774 1310l129 124l128 -124h342l-279 247h-384l-278 -247h342zM1240 1180v-552q0 -48 -12.5 -95t-36.5 -89.5t-57 -77.5q-52 -54 -121.5 -85t-148.5 -31q-160 0 -230 99q-56 79 -56 239v592h-429v-598q0 -177 34 -287q47 -151 167 -232q141 -96 394 -96q161 0 292 63
q131 62 204 179v-209h430v1180h-430z" />
    <glyph glyph-name="udieresis" unicode="&#xfc;" horiz-adv-x="1824" 
d="M414 1450q0 -72 47.5 -104.5t150.5 -32.5q74 0 118.5 14.5t64.5 44.5t20 78q0 50 -20 80.5t-64.5 45t-118.5 14.5q-104 0 -151 -33t-47 -107zM977 1450q0 -72 47 -104.5t150 -32.5q110 0 157 32.5t47 104.5q0 75 -47 107.5t-157 32.5q-103 0 -150 -33t-47 -107z
M1240 1180v-552q0 -72 -28 -140.5t-78 -121.5q-52 -54 -121.5 -85t-148.5 -31q-160 0 -230 99q-56 79 -56 239v592h-429v-598q0 -177 34 -287q47 -151 167 -232q141 -96 394 -96q161 0 292 63q131 62 204 179v-209h430v1180h-430z" />
    <glyph glyph-name="yacute" unicode="&#xfd;" horiz-adv-x="1652" 
d="M917 1598l-249 -290h312l335 290h-398zM1177 1180l-356 -870l-348 870h-460l575 -1180h112l-16 -42q-58 -147 -217 -248l151 -204q115 37 217 132q113 105 183 261l620 1281h-461z" />
    <glyph glyph-name="thorn" unicode="&#xfe;" horiz-adv-x="1758" 
d="M587 -362v486q153 -158 419 -158q327 0 509 171q83 78 125.5 184t42.5 228v72q0 122 -42.5 228.5t-125.5 184.5q-183 170 -509 170q-261 0 -419 -160v512h-430v-1918h430zM587 638q5 127 90 203q88 79 239 79q165 0 254 -83q83 -77 83 -212v-78q0 -135 -85 -214
q-89 -83 -252 -83q-155 0 -244 84q-85 79 -85 212v92z" />
    <glyph glyph-name="ydieresis" unicode="&#xff;" horiz-adv-x="1652" 
d="M333 1447q0 -72 47.5 -104.5t150.5 -32.5q110 0 156.5 32.5t46.5 104.5q0 50 -20 80.5t-64.5 45t-118.5 14.5q-52 0 -89 -8t-61.5 -24.5t-36 -43t-11.5 -64.5zM896 1447q0 -72 47 -104.5t150 -32.5q110 0 157 32.5t47 104.5q0 50 -20.5 80.5t-65 45t-118.5 14.5
q-52 0 -88.5 -8t-61 -24.5t-36 -43t-11.5 -64.5zM1177 1180l-356 -870l-348 870h-460l575 -1180h112l-16 -42q-58 -147 -217 -248l151 -204q115 37 217 132q113 105 183 261l620 1281h-461z" />
    <glyph glyph-name="Amacron" unicode="&#x100;" horiz-adv-x="1947" 
d="M1409 1650v221h-857v-221h857zM450 0l130 312h787l130 -312h454l-694 1513h-567l-694 -1513h454zM951 1204h46l247 -595h-541z" />
    <glyph glyph-name="amacron" unicode="&#x101;" horiz-adv-x="1706" 
d="M1320 1314v221h-857v-221h857zM1562 0v611q0 181 -51 297q-64 145 -209 220q-165 85 -448 85q-264 0 -428 -70q-138 -60 -205 -164q-50 -77 -63 -185h406q14 64 62 98q69 48 210 48q169 0 240 -69q57 -56 57 -174v-33q-79 30 -173 50q-128 26 -259 26q-318 0 -466 -100
q-134 -92 -134 -275q0 -104 47 -186q55 -96 172 -150q134 -62 348 -62q162 0 288 62q127 61 177 159v-188h429zM797 241q-152 0 -219 51q-47 36 -47 93q0 53 42 87q62 48 208 48q93 0 208 -27q87 -22 144 -47v-26q-8 -23 -31.5 -52.5t-60.5 -56.5q-97 -70 -244 -70z" />
    <glyph glyph-name="Abreve" unicode="&#x102;" horiz-adv-x="1947" 
d="M1148 1972q-13 -72 -43 -104q-42 -45 -140 -45q-96 0 -141 47q-31 31 -46 102h-237q7 -139 90 -221q106 -104 334 -104q222 0 330 103q82 79 91 222h-238zM450 0l130 312h787l130 -312h454l-694 1513h-567l-694 -1513h454zM951 1204h46l247 -595h-541z" />
    <glyph glyph-name="abreve" unicode="&#x103;" horiz-adv-x="1706" 
d="M1060 1635q-13 -72 -43 -104q-42 -45 -140 -45q-96 0 -141 47q-31 31 -46 102h-237q7 -139 90 -221q106 -104 334 -104q222 0 330 103q82 79 91 222h-238zM1562 0v611q0 181 -51 297q-64 145 -209 220q-165 85 -448 85q-264 0 -428 -70q-138 -60 -205 -164
q-50 -77 -63 -185h406q14 64 62 98q69 48 210 48q169 0 240 -69q57 -56 57 -174v-33q-79 30 -173 50q-128 26 -259 26q-318 0 -466 -100q-134 -92 -134 -275q0 -104 47 -186q55 -96 172 -150q134 -62 348 -62q162 0 288 62q127 61 177 159v-188h429zM797 241q-152 0 -219 51
q-47 36 -47 93q0 53 42 87q62 48 208 48q93 0 208 -27q87 -22 144 -47v-26q-8 -23 -31.5 -52.5t-60.5 -56.5q-97 -70 -244 -70z" />
    <glyph glyph-name="Aogonek" unicode="&#x104;" horiz-adv-x="1947" 
d="M1876 -261q16 3 74 22l1 -175q-117 -56 -277 -56q-149 0 -234 51t-85 149q0 112 112 195q56 41 139 75h-109l-130 312h-787l-130 -312h-454l694 1513h567l694 -1513h-6l4 -1q-154 -61 -207 -96q-70 -46 -70 -105q0 -67 110 -67q54 0 94 8zM703 609h541l-247 595h-46z" />
    <glyph glyph-name="aogonek" unicode="&#x105;" horiz-adv-x="1706" 
d="M1564 -238l1 -175q-117 -56 -277 -56q-149 0 -234 51t-85 149q0 112 112 195q52 39 136 74h-84v188q-50 -98 -177 -159q-126 -62 -288 -62q-214 0 -348 62q-117 54 -172 150q-47 82 -47 186q0 183 134 275q148 100 466 100q131 0 259 -26q94 -20 173 -50v33
q0 118 -57 174q-71 69 -240 69q-141 0 -210 -48q-48 -34 -62 -98h-406q13 108 63 185q67 104 205 164q164 70 428 70q283 0 448 -85q145 -75 209 -220q51 -116 51 -297v-611h1q-154 -61 -207 -96q-70 -46 -70 -105q0 -67 110 -67q54 0 94 8q16 3 74 22zM1133 420v26
q-57 25 -144 47q-115 27 -208 27q-146 0 -208 -48q-42 -34 -42 -87q0 -57 47 -93q67 -51 219 -51q147 0 244 70q26 18 46 39.5t30.5 38t15.5 31.5z" />
    <glyph glyph-name="Cacute" unicode="&#x106;" horiz-adv-x="1937" 
d="M1103 1935l-249 -290h312l335 290h-398zM1437 573q-37 -137 -146 -213q-114 -81 -286 -81q-206 0 -336 97q-142 105 -142 299l-1 160q0 191 140 299q130 100 341 100q169 0 284 -78q116 -79 147 -223l436 1q-41 284 -257 446q-226 167 -607 167q-454 0 -696 -194
q-234 -187 -234 -524v-145q0 -337 233 -523q242 -195 696 -195q386 0 616 174q105 79 167.5 189.5t80.5 242.5z" />
    <glyph glyph-name="cacute" unicode="&#x107;" horiz-adv-x="1640" 
d="M948 1599l-249 -290h312l335 290h-398zM1572 735q-26 138 -101 236q-85 112 -231 174q-160 68 -388 68q-398 0 -596 -166q-181 -151 -181 -414v-86q0 -264 180 -414q199 -167 597 -167q340 0 533 150q159 124 191 332h-391q-31 -100 -112 -149t-226 -49q-164 0 -255 85
q-87 79 -87 208v95q0 127 84 206q92 85 258 85q145 0 230 -51q78 -47 108 -143h387z" />
    <glyph glyph-name="Ccircumflex" unicode="&#x108;" horiz-adv-x="1937" 
d="M879 1644l129 124l128 -124h342l-279 247h-384l-278 -247h342zM1437 573q-37 -137 -146 -213q-114 -81 -286 -81q-206 0 -336 97q-142 105 -142 299l-1 160q0 191 140 299q130 100 341 100q169 0 284 -78q116 -79 147 -223l436 1q-41 284 -257 446q-226 167 -607 167
q-453 0 -696 -194q-234 -188 -234 -524v-145q0 -337 233 -523q242 -195 696 -195q386 0 616 174q70 53 122 121.5t83 146t43 164.5z" />
    <glyph glyph-name="ccircumflex" unicode="&#x109;" horiz-adv-x="1640" 
d="M724 1309l129 124l128 -124h342l-279 247h-384l-278 -247h342zM1572 735q-26 138 -101 236q-85 112 -231 174q-160 68 -388 68q-398 0 -596 -166q-181 -151 -181 -414v-86q0 -264 180 -414q199 -167 597 -167q340 0 533 150q159 124 191 332h-391q-31 -100 -112 -149
t-226 -49q-164 0 -255 85q-87 79 -87 208v95q0 127 84 206q92 85 258 85q145 0 230 -51q78 -47 108 -143h387z" />
    <glyph glyph-name="Cdotaccent" unicode="&#x10a;" horiz-adv-x="1937" 
d="M761 1811q0 -56 25.5 -91t78.5 -52t137 -17q134 0 194 39q58 38 58 121q0 85 -58 124t-194 39q-126 0 -183.5 -38.5t-57.5 -124.5zM1437 573q-37 -137 -146 -213q-114 -81 -286 -81q-206 0 -336 97q-142 105 -142 299l-1 160q0 191 140 299q130 100 341 100
q169 0 284 -78q116 -79 147 -223l436 1q-41 284 -257 446q-226 167 -607 167q-453 0 -696 -194q-234 -188 -234 -524v-145q0 -337 233 -523q242 -195 696 -195q386 0 616 174q70 53 122 121.5t83 146t43 164.5z" />
    <glyph glyph-name="cdotaccent" unicode="&#x10b;" horiz-adv-x="1640" 
d="M607 1476q0 -83 58 -121.5t183 -38.5q134 0 194 39q58 38 58 121q0 85 -58 124t-194 39q-84 0 -137 -17t-78.5 -52.5t-25.5 -93.5zM1572 735q-26 138 -101 236q-85 112 -231 174q-160 68 -388 68q-398 0 -596 -166q-181 -151 -181 -414v-86q0 -264 180 -414
q199 -167 597 -167q340 0 533 150q159 124 191 332h-391q-31 -100 -112 -149t-226 -49q-164 0 -255 85q-87 79 -87 208v95q0 126 84 206q92 85 258 85q145 0 230 -51q78 -47 108 -143h387z" />
    <glyph glyph-name="Ccaron" unicode="&#x10c;" horiz-adv-x="1937" 
d="M537 1894l277 -247h384l280 247h-342l-129 -124l-129 124h-341zM1437 573q-37 -137 -146 -213q-114 -81 -286 -81q-206 0 -336 97q-142 105 -142 299l-1 160q0 191 140 299q130 100 341 100q169 0 284 -78q116 -79 147 -223l436 1q-41 284 -257 446q-226 167 -607 167
q-453 0 -696 -194q-234 -187 -234 -524v-145q0 -337 233 -523q242 -195 696 -195q386 0 616 174q71 53 122.5 121.5t82.5 146t43 164.5z" />
    <glyph glyph-name="ccaron" unicode="&#x10d;" horiz-adv-x="1640" 
d="M383 1559l277 -247h384l280 247h-342l-129 -124l-129 124h-341zM1572 735q-26 138 -101 236q-85 112 -231 174q-160 68 -388 68q-398 0 -596 -166q-181 -151 -181 -414v-86q0 -264 180 -414q199 -167 597 -167q340 0 533 150q159 124 191 332h-391q-31 -100 -112 -149
t-226 -49q-164 0 -255 85q-87 79 -87 208v95q0 127 84 206q92 85 258 85q145 0 230 -51q78 -47 108 -143h387z" />
    <glyph glyph-name="Dcaron" unicode="&#x10e;" horiz-adv-x="2034" 
d="M417 1892l277 -247h384l280 247h-342l-129 -124l-129 124h-341zM189 0h920q432 0 653 195q194 172 194 474v172q0 305 -200 480q-219 192 -647 192h-920v-1513zM630 1202h444q222 0 336 -114q100 -100 100 -262v-127q0 -185 -113 -286q-114 -102 -322 -102h-445v891z" />
    <glyph glyph-name="dcaron" unicode="&#x10f;" horiz-adv-x="2156" 
d="M1600 0v1568h-429v-529q-69 85 -168 127q-113 47 -266 47q-312 0 -492 -167q-84 -78 -127 -184.5t-43 -233.5v-77q0 -126 43 -232.5t127 -184.5q179 -168 492 -168q295 0 434 174v-140h429zM2016 932q124 247 124 376v260h-445v-278h65q77 0 65 -106q-9 -83 -68 -224z
M1171 551q-5 -138 -89 -218q-88 -83 -238 -83q-166 0 -254 86q-85 82 -85 226v54q0 143 86 226q90 87 253 87q155 0 243 -88q84 -87 84 -239v-51z" />
    <glyph glyph-name="Dcroat" unicode="&#x110;" horiz-adv-x="2034" 
d="M1756 1321q200 -175 200 -480v-172q0 -302 -194 -474q-221 -195 -653 -195h-920v637h-169v221h169v655h920q428 0 647 -192zM1510 699v127q0 162 -100 262q-114 114 -336 114h-444v-344h247v-221h-247v-326h445q208 0 322 102q113 101 113 286z" />
    <glyph glyph-name="dcroat" unicode="&#x111;" horiz-adv-x="1754" 
d="M1726 1471v-192h-126v-1279h-429v140q-139 -174 -434 -174q-313 0 -492 168q-84 78 -127 184.5t-43 232.5v77q0 127 43 233.5t127 184.5q180 167 492 167q153 0 266 -47q99 -42 168 -127v240h-304v192h304v97h429v-97h126zM1171 551v51q0 152 -84 239q-88 88 -243 88
q-163 0 -253 -87q-86 -83 -86 -226v-54q0 -144 85 -226q88 -86 254 -86q150 0 238 83q84 80 89 218z" />
    <glyph glyph-name="Emacron" unicode="&#x112;" horiz-adv-x="1740" 
d="M1386 1649v221h-857v-221h857zM1633 0v311h-1008v296h896v311h-896v284h1002v311h-1438v-1513h1444z" />
    <glyph glyph-name="emacron" unicode="&#x113;" horiz-adv-x="1612" 
d="M1284 1313v221h-857v-221h857zM1548 489l3 24q1 4 1.5 13t0.5 14q24 317 -159 495q-184 178 -543 178q-401 0 -599 -166q-177 -148 -177 -416v-66q0 -281 176 -431q197 -168 604 -168q313 0 494 134q147 109 188 293h-398q-16 -58 -85 -102q-81 -54 -208 -54
q-165 0 -256 78q-81 68 -86 174h1044zM505 727q3 38 22 78.5t54 74.5q88 83 254 83q157 0 236 -72q63 -58 75 -170v-3h-641v9z" />
    <glyph glyph-name="Ebreve" unicode="&#x114;" horiz-adv-x="1740" 
d="M1125 1970q-13 -72 -43 -104q-42 -45 -140 -45q-96 0 -141 47q-31 31 -46 102h-237q7 -139 90 -221q106 -104 334 -104q222 0 330 103q82 79 91 222h-238zM1633 0v311h-1008v296h896v311h-896v284h1002v311h-1438v-1513h1444z" />
    <glyph glyph-name="ebreve" unicode="&#x115;" horiz-adv-x="1612" 
d="M1024 1634q-13 -72 -43 -104q-42 -45 -140 -45q-96 0 -141 47q-31 31 -46 102h-237q7 -139 90 -221q106 -104 334 -104q222 0 330 103q82 79 91 222h-238zM1548 489l3 24q1 4 1.5 13t0.5 14q24 317 -159 495q-184 178 -543 178q-401 0 -599 -166q-177 -148 -177 -416v-66
q0 -281 176 -431q197 -168 604 -168q313 0 494 134q147 109 188 293h-398q-16 -58 -85 -102q-81 -54 -208 -54q-165 0 -256 78q-81 68 -86 174h1044zM505 727q3 38 22 78.5t54 74.5q88 83 254 83q157 0 236 -72q63 -58 75 -170v-3h-641v9z" />
    <glyph glyph-name="Edotaccent" unicode="&#x116;" horiz-adv-x="1740" 
d="M703 1811q0 -56 25.5 -91t78.5 -52t137 -17q134 0 194 39q58 38 58 121q0 85 -58 124t-194 39q-126 0 -183.5 -38.5t-57.5 -124.5zM1633 0v311h-1008v296h896v311h-896v284h1002v311h-1438v-1513h1444z" />
    <glyph glyph-name="edotaccent" unicode="&#x117;" horiz-adv-x="1612" 
d="M602 1475q0 -83 58 -121.5t183 -38.5q134 0 194 39q58 38 58 121q0 85 -58 124t-194 39q-126 0 -183.5 -38.5t-57.5 -124.5zM1548 489l3 24q1 4 1.5 13t0.5 14q24 317 -159 495q-184 178 -543 178q-401 0 -599 -166q-177 -148 -177 -416v-66q0 -281 176 -431
q197 -168 604 -168q313 0 494 134q147 109 188 293h-398q-16 -58 -85 -102q-81 -54 -208 -54q-165 0 -256 78q-81 68 -86 174h1044zM505 727q3 38 22 78.5t54 74.5q88 83 254 83q157 0 236 -72q63 -58 75 -170v-3h-641v9z" />
    <glyph glyph-name="Eogonek" unicode="&#x118;" horiz-adv-x="1740" 
d="M1633 -238l1 -175q-117 -56 -277 -56q-149 0 -234 51t-85 149q0 112 112 195q52 39 136 74h-1097v1513h1438v-311h-1002v-284h896v-311h-896v-296h1008v-311h-1q-154 -61 -207 -96q-70 -46 -70 -105q0 -67 110 -67q54 0 94 8q16 3 74 22z" />
    <glyph glyph-name="eogonek" unicode="&#x119;" horiz-adv-x="1612" 
d="M1394 1035q183 -178 159 -495q0 -5 -0.5 -14t-1.5 -13l-3 -24h-1044q5 -106 86 -174q91 -78 256 -78q127 0 208 54q69 44 85 102h398q-41 -184 -188 -293q-29 -21 -61 -39.5t-71 -34t-82 -26.5q-65 -44 -65 -102q0 -67 110 -67q54 0 94 8q16 3 74 22l1 -175
q-117 -56 -277 -56q-149 0 -234 51t-85 149q0 75 50 137q-368 10 -552 167q-176 150 -176 431v66q0 268 177 416q198 166 599 166q359 0 543 -178zM1146 718v3q-12 112 -75 170q-79 72 -236 72q-166 0 -254 -83q-35 -34 -54 -74.5t-22 -78.5v-9h641z" />
    <glyph glyph-name="Ecaron" unicode="&#x11a;" horiz-adv-x="1740" 
d="M479 1894l277 -247h384l280 247h-342l-129 -124l-129 124h-341zM1633 0v311h-1008v296h896v311h-896v284h1002v311h-1438v-1513h1444z" />
    <glyph glyph-name="ecaron" unicode="&#x11b;" horiz-adv-x="1612" 
d="M377 1558l277 -247h384l280 247h-342l-129 -124l-129 124h-341zM1548 489l3 24q1 4 1.5 13t0.5 14q24 317 -159 495q-184 178 -543 178q-401 0 -599 -166q-177 -148 -177 -416v-66q0 -281 176 -431q197 -168 604 -168q313 0 494 134q147 109 188 293h-398
q-16 -58 -85 -102q-81 -54 -208 -54q-165 0 -256 78q-81 68 -86 174h1044zM505 727q3 38 22 78.5t54 74.5q88 83 254 83q157 0 236 -72q63 -58 75 -170v-3h-641v9z" />
    <glyph glyph-name="Gcircumflex" unicode="&#x11c;" horiz-adv-x="1956" 
d="M885 1642l129 124l128 -124h342l-279 247h-384l-278 -247h342zM1001 560h470q-18 -132 -126 -208q-123 -87 -338 -87t-346 103q-142 110 -142 307v161q0 201 143 310q132 102 346 102q118 0 207.5 -32.5t146.5 -96t78 -155.5h427q-56 280 -274 431q-221 152 -583 152
q-454 0 -696 -194q-234 -187 -234 -524v-145q0 -335 231 -521q244 -197 698 -197q195 0 351 53.5t269 148.5q105 90 165 207t70 245q2 30 2 38l4 167h-869v-265z" />
    <glyph glyph-name="gcircumflex" unicode="&#x11d;" horiz-adv-x="1756" 
d="M776 1314l129 124l128 -124h342l-279 247h-384l-278 -247h342zM71 598q0 -113 42.5 -215.5t123.5 -180.5q86 -82 209.5 -127.5t281.5 -45.5q155 0 272 52q100 45 167 129v-77q0 -112 -83 -181q-95 -79 -282 -79q-138 0 -270 12q-151 12 -221 27l-33 -261q108 -20 232 -34
q157 -18 352 -18q385 0 573 173q161 148 161 413v995h-429v-147q-65 84 -167 130q-113 50 -269 50q-216 0 -373 -85q-142 -77 -217 -214q-70 -125 -70 -281v-35zM501 624q0 131 83 216q89 89 247 89q159 0 249 -84q87 -81 87 -215v-10q0 -140 -85 -222q-90 -85 -251 -85
q-156 0 -244 82q-86 80 -86 212v17z" />
    <glyph glyph-name="Gbreve" unicode="&#x11e;" horiz-adv-x="1956" 
d="M1190 1968q-13 -72 -43 -104q-42 -45 -140 -45q-96 0 -141 47q-31 31 -46 102h-237q7 -139 90 -221q106 -104 334 -104q222 0 330 103q82 79 91 222h-238zM1001 560h470q-18 -132 -126 -208q-123 -87 -338 -87t-346 103q-142 110 -142 307v161q0 201 143 310
q132 102 346 102q118 0 207.5 -32.5t146.5 -96t78 -155.5h427q-56 280 -274 431q-221 152 -583 152q-454 0 -696 -194q-234 -187 -234 -524v-145q0 -335 231 -521q244 -197 698 -197q195 0 351 53.5t269 148.5q105 90 165 207t70 245q2 30 2 38l4 167h-869v-265z" />
    <glyph glyph-name="gbreve" unicode="&#x11f;" horiz-adv-x="1756" 
d="M1074 1641q-13 -72 -43 -104q-42 -45 -140 -45q-96 0 -141 47q-31 31 -46 102h-237q7 -139 90 -221q106 -104 334 -104q222 0 330 103q82 79 91 222h-238zM71 598q0 -113 42.5 -215.5t123.5 -180.5q86 -82 209.5 -127.5t281.5 -45.5q155 0 272 52q100 45 167 129v-77
q0 -112 -83 -181q-95 -79 -282 -79q-138 0 -270 12q-151 12 -221 27l-33 -261q108 -20 232 -34q157 -18 352 -18q385 0 573 173q161 148 161 413v995h-429v-147q-65 84 -167 130q-113 50 -269 50q-216 0 -373 -85q-142 -77 -217 -214q-70 -125 -70 -281v-35zM501 624
q0 132 83 216q89 89 247 89q159 0 249 -84q87 -81 87 -215v-10q0 -140 -85 -222q-90 -85 -251 -85q-156 0 -244 82q-86 80 -86 212v17z" />
    <glyph glyph-name="Gdotaccent" unicode="&#x120;" horiz-adv-x="1956" 
d="M768 1809q0 -83 58 -121.5t183 -38.5q134 0 194 39q58 38 58 121q0 85 -58 124t-194 39q-126 0 -183.5 -38.5t-57.5 -124.5zM1001 560h470q-18 -132 -126 -208q-123 -87 -338 -87t-346 103q-142 110 -142 307v161q0 201 143 310q132 102 346 102q118 0 207.5 -32.5
t146.5 -96t78 -155.5h427q-56 280 -274 431q-221 152 -583 152q-454 0 -696 -194q-234 -188 -234 -524v-145q0 -335 231 -521q244 -197 698 -197q195 0 351 53.5t269 148.5q105 90 165 207t70 245q2 30 2 38l4 167h-869v-265z" />
    <glyph glyph-name="gdotaccent" unicode="&#x121;" horiz-adv-x="1756" 
d="M639 1481q0 -56 25.5 -91t78.5 -52t137 -17q134 0 194 39q58 38 58 121q0 85 -58 124t-194 39q-126 0 -183.5 -38.5t-57.5 -124.5zM71 598q0 -113 42.5 -215.5t123.5 -180.5q86 -82 209.5 -127.5t281.5 -45.5q155 0 272 52q100 45 167 129v-77q0 -112 -83 -181
q-95 -79 -282 -79q-138 0 -270 12q-151 12 -221 27l-33 -261q108 -20 232 -34q157 -18 352 -18q385 0 573 173q161 148 161 413v995h-429v-147q-65 84 -167 130q-113 50 -269 50q-216 0 -373 -85q-142 -77 -217 -214q-70 -125 -70 -281v-35zM501 624q0 131 83 216
q89 89 247 89q159 0 249 -84q87 -81 87 -215v-10q0 -140 -85 -222q-90 -85 -251 -85q-156 0 -244 82q-86 80 -86 212v17z" />
    <glyph glyph-name="Gcommaaccent" unicode="&#x122;" horiz-adv-x="1956" 
d="M1001 560h470q-18 -132 -126 -208q-123 -87 -338 -87t-346 103q-142 110 -142 307v161q0 201 143 310q132 102 346 102q118 0 207.5 -32.5t146.5 -96t78 -155.5h427q-56 280 -274 431q-221 152 -583 152q-454 0 -696 -194q-234 -187 -234 -524v-145q0 -335 231 -521
q244 -197 698 -197q195 0 351 53.5t269 148.5q105 90 165 207t70 245q2 30 2 38l4 167h-869v-265zM804 -234q0 -42 22 -69t65.5 -39.5t110.5 -12.5q-10 -41 -32 -71q-25 -32 -81 -74l159 -61q79 54 118 111q57 83 57 191q0 49 -21.5 81t-70 50t-124.5 18q-105 0 -154 -28.5
t-49 -95.5z" />
    <glyph glyph-name="gcommaaccent" unicode="&#x123;" horiz-adv-x="1756" 
d="M1046 1471q0 160 -232 160q11 58 37 95q25 39 93 94l-186 78q-87 -60 -140 -148q-65 -108 -65 -246q0 -93 58 -142q64 -54 193 -54q124 0 183 39t59 124zM71 598q0 -113 42.5 -215.5t123.5 -180.5q86 -82 209.5 -127.5t281.5 -45.5q155 0 272 52q100 45 167 129v-77
q0 -112 -83 -181q-95 -79 -282 -79q-138 0 -270 12q-151 12 -221 27l-33 -261q108 -20 232 -34q157 -18 352 -18q385 0 573 173q161 148 161 413v995h-429v-147q-65 84 -167 130q-113 50 -269 50q-216 0 -373 -85q-142 -77 -217 -214q-70 -125 -70 -281v-35zM501 624
q0 131 83 216q89 89 247 89q159 0 249 -84q87 -81 87 -215v-10q0 -140 -85 -222q-90 -85 -251 -85q-156 0 -244 82q-86 80 -86 212v17z" />
    <glyph glyph-name="Hcircumflex" unicode="&#x124;" horiz-adv-x="2088" 
d="M922 1631l129 124l128 -124h342l-279 247h-384l-278 -247h342zM630 0v597h827v-597h442v1513h-442v-596h-827v596h-441v-1513h441z" />
    <glyph glyph-name="hcircumflex" unicode="&#x125;" horiz-adv-x="1824" 
d="M244 1655l129 124l128 -124h342l-279 247h-384l-278 -247h342zM589 0v551q0 69 26.5 137t75.5 122q51 55 120.5 87t151.5 32q173 0 240 -110q48 -79 48 -238v-581h429v592q0 172 -35 287q-47 153 -166 236q-144 98 -391 98q-166 0 -294 -62q-133 -64 -205 -180v597h-430
v-1568h430z" />
    <glyph glyph-name="Hbar" unicode="&#x126;" horiz-adv-x="2088" 
d="M630 0v597h827v-597h442v1513h-442v-154h-827v154h-441v-1513h441zM630 1138h827v-221h-827v221z" />
    <glyph glyph-name="hbar" unicode="&#x127;" horiz-adv-x="1824" 
d="M1645 879q35 -115 35 -287v-592h-429v581q0 159 -48 238q-67 110 -240 110q-42 0 -81 -8.5t-73 -24.5t-63.5 -37.5t-54.5 -48.5q-24 -27 -43 -58t-32 -64t-20 -68t-7 -69v-551h-430v1258h-113v221h113v89h430v-89h274v-221h-274v-287q72 116 205 180q128 62 294 62
q247 0 391 -98q119 -83 166 -236z" />
    <glyph glyph-name="Itilde" unicode="&#x128;" horiz-adv-x="819" 
d="M700 1943q-27 -42 -58.5 -63t-76.5 -21q-15 0 -28.5 2t-31 9.5t-24.5 10t-31.5 15t-27.5 14.5q-32 16 -53.5 25t-56.5 17.5t-69 8.5q-109 0 -186 -77q-56 -56 -103 -170l146 -51q29 42 63 63t82 21q15 0 28.5 -2t31.5 -9t25 -10t31 -15t27 -14q30 -16 51.5 -25t55 -17.5
t67.5 -8.5q111 0 186 75q57 57 98 171zM630 0v1513h-441v-1513h441z" />
    <glyph glyph-name="itilde" unicode="&#x129;" 
d="M662 1606q-27 -42 -58.5 -63t-76.5 -21q-15 0 -28.5 2t-31 9.5t-24.5 10t-31.5 15t-27.5 14.5q-32 16 -53.5 25t-56.5 17.5t-69 8.5q-109 0 -186 -77q-56 -56 -103 -170l146 -51q29 42 63 63t82 21q15 0 28.5 -2t31.5 -9t25 -10t31 -15t27 -14q22 -12 38 -19t39 -15.5
t47 -12.5t50 -4q111 0 186 75q57 57 98 171zM589 0v1180h-429v-1180h429z" />
    <glyph glyph-name="Imacron" unicode="&#x12a;" horiz-adv-x="819" 
d="M846 1649v221h-857v-221h857zM630 0v1513h-441v-1513h441z" />
    <glyph glyph-name="imacron" unicode="&#x12b;" 
d="M808 1312v221h-857v-221h857zM589 0v1180h-429v-1180h429z" />
    <glyph glyph-name="Ibreve" unicode="&#x12c;" horiz-adv-x="819" 
d="M585 1971q-13 -72 -43 -104q-42 -45 -140 -45q-96 0 -141 47q-31 31 -46 102h-237q7 -139 90 -221q106 -104 334 -104q222 0 330 103q82 79 91 222h-238zM630 0v1513h-441v-1513h441z" />
    <glyph glyph-name="ibreve" unicode="&#x12d;" 
d="M547 1633q-13 -72 -43 -104q-42 -45 -140 -45q-96 0 -141 47q-31 31 -46 102h-237q7 -139 90 -221q106 -104 334 -104q222 0 330 103q82 79 91 222h-238zM589 0v1180h-429v-1180h429z" />
    <glyph glyph-name="Iogonek" unicode="&#x12e;" horiz-adv-x="819" 
d="M370 -93q-70 -46 -70 -105q0 -67 110 -67q54 0 94 8q16 3 74 22l1 -175q-117 -56 -277 -56q-149 0 -234 51t-85 149q0 112 112 195q51 38 129 71h-35v1513h441v-1513h-61q-147 -59 -199 -93z" />
    <glyph glyph-name="iogonek" unicode="&#x12f;" 
d="M563 1580q56 -43 56 -118v-3q0 -75 -56 -118q-62 -48 -191 -48q-127 0 -189 48q-57 43 -57 118v3q0 75 57 118q64 49 189 49q126 0 191 -49zM160 0v1180h429v-1180h-43q-154 -61 -207 -96q-70 -46 -70 -105q0 -67 110 -67q54 0 94 8q16 3 74 22l1 -175q-117 -56 -277 -56
q-149 0 -234 51t-85 149q0 112 112 195q52 39 136 74h-40z" />
    <glyph glyph-name="Idotaccent" unicode="&#x130;" horiz-adv-x="819" 
d="M163 1811q0 -83 58 -121.5t183 -38.5q134 0 194 39q58 38 58 121q0 85 -58 124t-194 39q-126 0 -183.5 -38.5t-57.5 -124.5zM630 0v1513h-441v-1513h441z" />
    <glyph glyph-name="dotlessi" unicode="&#x131;" 
d="M589 0v1180h-429v-1180h429z" />
    <glyph glyph-name="IJ" unicode="&#x132;" horiz-adv-x="2254" 
d="M625 0v1513h-441v-1513h441zM1223 1201h466v-631q0 -145 -83.5 -218t-245.5 -73q-89 0 -224 26q-119 23 -173 46l-125 -266q79 -43 226 -77q175 -42 335 -42q340 0 526 137q205 151 205 457v953h-907v-312z" />
    <glyph glyph-name="ij" unicode="&#x133;" horiz-adv-x="1527" 
d="M149 1459q0 -75 57 -118q62 -48 189 -48q129 0 191 48q56 43 56 118v3q0 75 -56 118q-65 49 -191 49q-125 0 -189 -49q-57 -43 -57 -118v-3zM902 1459q0 -75 57 -118q62 -48 190 -48q129 0 191 48q56 43 56 118v3q0 75 -56 118q-65 49 -191 49q-125 0 -190 -49
q-57 -43 -57 -118v-3zM612 0v1180h-429v-1180h429zM937 1180v-1059q0 -74 -5.5 -119t-24.5 -77q-42 -71 -170 -71q-60 0 -138 10q-46 6 -91 17l-37 -245q65 -26 148 -41q113 -23 238 -23q290 0 410 158q99 131 99 400v1050h-429z" />
    <glyph glyph-name="Jcircumflex" unicode="&#x134;" horiz-adv-x="1436" 
d="M744 1635l129 124l128 -124h342l-279 247h-384l-278 -247h342zM396 1201h466v-631q0 -145 -83.5 -218t-245.5 -73q-89 0 -224 26q-119 23 -173 46l-125 -266q79 -43 226 -77q175 -42 335 -42q340 0 526 137q205 151 205 457v953h-907v-312z" />
    <glyph glyph-name="jcircumflex" unicode="&#x135;" horiz-adv-x="750" 
d="M249 1310l129 124l128 -124h342l-279 247h-384l-278 -247h342zM168 1180v-1059q0 -74 -5.5 -119t-24.5 -77q-42 -71 -170 -71q-60 0 -138 10q-46 6 -91 17l-37 -245q65 -26 148 -41q113 -23 238 -23q290 0 410 158q99 131 99 400v1050h-429z" />
    <glyph glyph-name="Kcommaaccent" unicode="&#x136;" horiz-adv-x="1920" 
d="M629 0v605h303l467 -605h501l-605 771l530 742h-489l-422 -579h-285v579h-440v-1513h440zM728 -205q0 -42 22 -69t65.5 -39.5t110.5 -12.5q-10 -41 -32 -71q-25 -32 -81 -74l159 -61q79 54 118 111q57 83 57 191q0 74 -51.5 111.5t-164.5 37.5q-105 0 -154 -28.5
t-49 -95.5z" />
    <glyph glyph-name="kcommaaccent" unicode="&#x137;" horiz-adv-x="1698" 
d="M159 1568v-1568h430v471h222l362 -471h504l-523 603l460 577h-487l-299 -415h-239v803h-430zM639 -189q0 -62 48.5 -91.5t149.5 -29.5q-10 -41 -32 -71q-25 -32 -81 -74l159 -61q79 54 118 111q57 83 57 191q0 74 -51.5 111.5t-164.5 37.5q-105 0 -154 -28.5t-49 -95.5z
" />
    <glyph glyph-name="kgreenlandic" unicode="&#x138;" horiz-adv-x="1698" 
d="M159 1180v-1180h430v471h222l362 -471h504l-523 603l460 577h-487l-299 -415h-239v415h-430z" />
    <glyph glyph-name="Lacute" unicode="&#x139;" horiz-adv-x="1583" 
d="M494 1935l-249 -290h312l335 290h-398zM1510 0v311h-882v1202l-441 -1v-1512h1323z" />
    <glyph glyph-name="lacute" unicode="&#x13a;" 
d="M472 1937l-249 -290h312l335 290h-398zM589 0v1568h-430v-1568h430z" />
    <glyph glyph-name="Lcommaaccent" unicode="&#x13b;" horiz-adv-x="1583" 
d="M1510 0v311h-882v1202l-441 -1v-1512h1323zM582 -189q0 -62 48.5 -91.5t149.5 -29.5q-10 -41 -32 -71q-25 -32 -81 -74l159 -61q79 54 118 111q57 83 57 191q0 49 -21.5 81.5t-70 50t-124.5 17.5q-105 0 -154 -28.5t-49 -95.5z" />
    <glyph glyph-name="lcommaaccent" unicode="&#x13c;" 
d="M589 0v1568h-430v-1568h430zM161 -215q0 -62 48.5 -91.5t149.5 -29.5q-10 -41 -32 -71q-25 -32 -81 -74l159 -61q79 54 118 111q57 83 57 191q0 74 -51.5 111.5t-164.5 37.5q-105 0 -154 -28.5t-49 -95.5z" />
    <glyph glyph-name="Lcaron" unicode="&#x13d;" horiz-adv-x="1583" 
d="M1342 880q124 247 124 376v260h-445v-278h65q77 0 65 -106q-9 -83 -68 -224zM1510 0v311h-882v1202l-441 -1v-1512h1323z" />
    <glyph glyph-name="lcaron" unicode="&#x13e;" horiz-adv-x="1177" 
d="M1042 933q124 247 124 376v260h-445v-278h65q77 0 65 -106q-9 -83 -68 -224zM589 0v1568h-430v-1568h430z" />
    <glyph glyph-name="Ldot" unicode="&#x13f;" horiz-adv-x="1583" 
d="M1510 0v311h-882v1202l-441 -1v-1512h1323zM906 815q0 -83 58.5 -122t185.5 -39q131 0 189 38.5t58 122.5q0 43 -14 73t-44 50t-76.5 29.5t-112.5 9.5q-127 0 -185.5 -38.5t-58.5 -123.5z" />
    <glyph glyph-name="ldot" unicode="&#x140;" horiz-adv-x="1183" 
d="M589 0v1568h-430v-1568h430zM718 764q0 -83 58.5 -122t185.5 -39q131 0 189 38.5t58 122.5q0 85 -58 123.5t-189 38.5q-127 0 -185.5 -38.5t-58.5 -123.5z" />
    <glyph glyph-name="Lslash" unicode="&#x141;" horiz-adv-x="1583" 
d="M1510 0v311h-882v428l176 84v265l-176 -84v509l-441 -1v-711l-171 -81v-265l171 80v-535h1323z" />
    <glyph glyph-name="lslash" unicode="&#x142;" 
d="M713 1088v-265l-124 -79v-744h-430v469l-129 -82v265l129 82v834h430v-559z" />
    <glyph glyph-name="Nacute" unicode="&#x143;" horiz-adv-x="2088" 
d="M1116 1934l-249 -290h312l335 290h-398zM1899 0v1513h-420l8 -913l11 -102h-7l-881 1015h-421v-1513h420l-7 880l-13 110h7l869 -990h434z" />
    <glyph glyph-name="nacute" unicode="&#x144;" horiz-adv-x="1824" 
d="M980 1599l-249 -290h312l335 290h-398zM589 0v551q0 73 28 141.5t78 121.5q110 115 271 115q159 0 229 -99q56 -79 56 -238v-592h429v598q0 176 -34 287q-46 151 -167 233q-142 95 -394 95q-163 0 -292 -63q-131 -63 -204 -180v210h-430v-1180h430z" />
    <glyph glyph-name="Ncommaaccent" unicode="&#x145;" horiz-adv-x="2088" 
d="M1899 0v1513h-420l8 -913l11 -102h-7l-881 1015h-421v-1513h420l-7 880l-13 110h7l869 -990h434zM816 -189q0 -62 48.5 -91.5t149.5 -29.5q-10 -41 -32 -71q-25 -32 -81 -74l159 -61q79 54 118 111q57 83 57 191q0 74 -51.5 111.5t-164.5 37.5q-105 0 -154 -28.5
t-49 -95.5z" />
    <glyph glyph-name="ncommaaccent" unicode="&#x146;" horiz-adv-x="1824" 
d="M589 0v551q0 73 28 141.5t78 121.5q110 115 271 115q159 0 229 -99q56 -79 56 -238v-592h429v598q0 176 -34 287q-46 151 -167 233q-142 95 -394 95q-163 0 -292 -63q-131 -63 -204 -180v210h-430v-1180h430zM702 -189q0 -63 48.5 -92t149.5 -29q-10 -41 -32 -71
q-25 -32 -81 -74l159 -61q79 54 118 111q57 83 57 191q0 74 -51.5 111.5t-164.5 37.5q-105 0 -154 -28.5t-49 -95.5z" />
    <glyph glyph-name="Ncaron" unicode="&#x147;" horiz-adv-x="2088" 
d="M550 1893l277 -247h384l280 247h-342l-129 -124l-129 124h-341zM1899 0v1513h-420l8 -913l11 -102h-7l-881 1015h-421v-1513h420l-7 880l-13 110h7l869 -990h434z" />
    <glyph glyph-name="ncaron" unicode="&#x148;" horiz-adv-x="1824" 
d="M414 1558l277 -247h384l280 247h-342l-129 -124l-129 124h-341zM589 0v551q0 73 28 141.5t78 121.5q110 115 271 115q159 0 229 -99q56 -79 56 -238v-592h429v598q0 177 -34 287q-46 151 -167 233q-142 95 -394 95q-163 0 -292 -63q-131 -63 -204 -180v210h-430v-1180
h430z" />
    <glyph glyph-name="napostrophe" unicode="&#x149;" horiz-adv-x="2170" 
d="M935 0v551q0 73 28 141.5t78 121.5q110 115 271 115q159 0 229 -99q56 -79 56 -238v-592h429v598q0 176 -34 287q-46 151 -167 233q-142 95 -394 95q-163 0 -292 -63q-131 -63 -204 -180v210h-430v-1180h430zM-32 1069q0 -63 48.5 -92t149.5 -29q-10 -41 -32 -71
q-25 -32 -81 -74l159 -61q79 54 118 111q57 83 57 191q0 74 -51.5 111.5t-164.5 37.5q-105 0 -154 -28.5t-49 -95.5z" />
    <glyph glyph-name="Eng" unicode="&#x14a;" horiz-adv-x="2088" 
d="M609 0l-7 880l-13 110h7l853 -972q-45 -198 -318 -198q-98 0 -225 26q-108 22 -172 46l-126 -265q78 -42 226 -78q175 -42 336 -42q339 0 525 134q205 148 205 454v205h-1v1213h-420l8 -913l11 -102h-7l-881 1015h-421v-1513h420z" />
    <glyph glyph-name="eng" unicode="&#x14b;" horiz-adv-x="1824" 
d="M1680 100v498q0 177 -34 287q-46 151 -167 233q-142 95 -394 95q-163 0 -292 -63q-131 -63 -204 -180v210h-430v-1180h430v551q0 48 12.5 95.5t36.5 90t57 77.5q110 115 271 115q159 0 229 -99q56 -79 56 -238v-457q0 -74 -5.5 -120t-24.5 -77q-42 -70 -169 -70
q-54 0 -86 4q-63 5 -109 20q-13 3 -35 9l-36 -251q70 -28 147 -42q113 -23 239 -23q292 0 409 136q54 63 76.5 156t22.5 223z" />
    <glyph glyph-name="Omacron" unicode="&#x14c;" horiz-adv-x="2020" 
d="M1445 1647v221h-857v-221h857zM80 684q0 -335 233 -523q242 -195 696 -195q452 0 698 197q116 93 174.5 225.5t58.5 295.5v144q0 163 -59 296t-174 226q-246 197 -697 197q-454 0 -696 -195q-234 -187 -234 -524v-144zM1009 279q-210 0 -340 99q-142 107 -142 299l-1 157
q0 196 142 302q129 98 341 98q214 0 343 -97q142 -107 142 -303v-157q0 -192 -142 -299q-132 -99 -343 -99z" />
    <glyph glyph-name="omacron" unicode="&#x14d;" horiz-adv-x="1694" 
d="M1284 1314v221h-857v-221h857zM75 553q0 -270 175 -419q197 -168 597 -168q398 0 598 169q175 148 175 417v75q0 270 -175 419q-199 167 -598 167q-400 0 -597 -167q-175 -149 -175 -418v-75zM505 629q0 136 82 214q91 86 260 86q170 0 259 -86q83 -80 83 -215v-76
q0 -135 -84 -216q-89 -86 -258 -86q-168 0 -258 87q-84 80 -84 214v78z" />
    <glyph glyph-name="Obreve" unicode="&#x14e;" horiz-adv-x="2020" 
d="M1184 1968q-13 -72 -43 -104q-42 -45 -140 -45q-96 0 -141 47q-31 31 -46 102h-237q7 -139 90 -221q106 -104 334 -104q222 0 330 103q82 79 91 222h-238zM80 684q0 -335 233 -523q242 -195 696 -195q452 0 698 197q115 93 174 225.5t59 295.5v144q0 163 -59 296
t-174 226q-246 197 -697 197q-454 0 -696 -195q-234 -187 -234 -524v-144zM1009 279q-210 0 -340 99q-142 107 -142 299l-1 157q0 196 142 302q129 98 341 98q214 0 343 -97q142 -106 142 -303v-157q0 -192 -142 -299q-132 -99 -343 -99z" />
    <glyph glyph-name="obreve" unicode="&#x14f;" horiz-adv-x="1694" 
d="M1023 1635q-13 -72 -43 -104q-42 -45 -140 -45q-96 0 -141 47q-31 31 -46 102h-237q7 -139 90 -221q106 -104 334 -104q222 0 330 103q82 79 91 222h-238zM75 553q0 -270 175 -419q197 -168 597 -168q398 0 598 169q175 148 175 417v75q0 270 -175 419q-199 167 -598 167
q-400 0 -597 -167q-175 -149 -175 -418v-75zM505 629q0 136 82 214q91 86 260 86q170 0 259 -86q83 -80 83 -215v-76q0 -135 -84 -216q-89 -86 -258 -86q-168 0 -258 87q-84 80 -84 214v78z" />
    <glyph glyph-name="Ohungarumlaut" unicode="&#x150;" horiz-adv-x="2020" 
d="M881 1935l-277 -290h301l333 290h-357zM1376 1935l-276 -290h293l351 290h-368zM80 684q0 -335 233 -523q242 -195 696 -195q452 0 698 197q116 93 174.5 225.5t58.5 295.5v144q0 163 -59 296t-174 226q-246 197 -697 197q-454 0 -696 -195q-234 -187 -234 -524v-144z
M1009 279q-209 0 -340 99q-142 107 -142 299l-1 157q0 196 142 302q129 98 341 98q214 0 343 -97q142 -107 142 -303v-157q0 -192 -142 -299q-132 -99 -343 -99z" />
    <glyph glyph-name="ohungarumlaut" unicode="&#x151;" horiz-adv-x="1694" 
d="M720 1601l-277 -290h301l333 290h-357zM1215 1601l-276 -290h293l351 290h-368zM75 553q0 -270 175 -419q197 -168 597 -168q398 0 598 169q175 148 175 417v75q0 270 -175 419q-199 167 -598 167q-400 0 -597 -167q-175 -149 -175 -418v-75zM505 629q0 136 82 214
q91 86 260 86q170 0 259 -86q83 -80 83 -215v-76q0 -135 -84 -216q-89 -86 -258 -86q-168 0 -258 87q-84 80 -84 214v78z" />
    <glyph glyph-name="OE" unicode="&#x152;" horiz-adv-x="2813" 
d="M2753 0v311h-1007v296h895v311h-895v284h1000v311h-1423q-174 34 -313 34q-454 0 -696 -195q-234 -187 -234 -524v-144q0 -335 233 -523q242 -195 696 -195q187 0 351 34h1393zM1009 279q-209 0 -340 99q-142 107 -142 299l-1 157q0 196 142 302q129 98 341 98
q192 0 301 -84v-782q-121 -89 -301 -89z" />
    <glyph glyph-name="oe" unicode="&#x153;" horiz-adv-x="2762" 
d="M2513 1035q183 -178 159 -495q0 -5 -0.5 -14t-1.5 -13l-3 -24h-1044q5 -106 86 -174q91 -78 256 -78q127 0 208 54q69 44 85 102h398q-41 -184 -188 -293q-181 -134 -494 -134q-371 0 -565 138q-201 -138 -558 -138q-400 0 -597 168q-175 149 -175 419v75q0 269 175 418
q198 167 597 167q360 0 558 -137q197 137 561 137q359 0 543 -178zM2265 718v3q-12 112 -75 170q-79 72 -236 72q-166 0 -254 -83q-35 -34 -54 -74.5t-22 -78.5v-9h641zM1193 552v76q0 135 -83 215q-89 86 -259 86q-169 0 -260 -86q-82 -78 -82 -214v-78q0 -134 84 -214
q90 -87 258 -87q169 0 258 86q84 81 84 216z" />
    <glyph glyph-name="Racute" unicode="&#x154;" horiz-adv-x="1955" 
d="M973 1938l-249 -290h312l335 290h-398zM1817 1032q0 233 -168 359q-166 122 -461 122h-999v-1513h439v527h376q110 -6 171 -42.5t84 -115.5l55 -176q31 -125 87 -193h466q-63 79 -108 232l-48 155q-30 93 -69 145q-41 54 -118 90q139 51 210 131q83 94 83 234v45z
M1371 1020q0 -91 -70 -139q-66 -44 -186 -44h-486v380h535q104 0 155.5 -47t51.5 -132v-18z" />
    <glyph glyph-name="racute" unicode="&#x155;" horiz-adv-x="1257" 
d="M718 1595l-249 -290h312l335 290h-398zM589 0v564q5 144 103 236q111 106 309 106q120 0 214 -22l2 312q-51 11 -67 13q-33 4 -96 4q-202 0 -322 -84q-101 -70 -143 -187v238h-430v-1180h430z" />
    <glyph glyph-name="Rcommaaccent" unicode="&#x156;" horiz-adv-x="1955" 
d="M1817 1032q0 233 -168 359q-166 122 -461 122h-999v-1513h439v527h376q110 -6 171 -42.5t84 -115.5l55 -176q31 -125 87 -193h466q-63 79 -108 232l-48 155q-30 93 -69 145q-41 54 -118 90q139 51 210 131q83 94 83 234v45zM1371 1020q0 -91 -70 -139q-66 -44 -186 -44
h-486v380h535q104 0 155.5 -47t51.5 -132v-18zM730 -212q0 -42 22 -69t65.5 -39.5t110.5 -12.5q-10 -41 -32 -71q-25 -32 -81 -74l159 -61q79 54 118 111q57 83 57 191q0 74 -51.5 111.5t-164.5 37.5q-105 0 -154 -28.5t-49 -95.5z" />
    <glyph glyph-name="rcommaaccent" unicode="&#x157;" horiz-adv-x="1257" 
d="M589 0v564q5 144 103 236q111 106 309 106q120 0 214 -22l2 312q-51 11 -67 13q-33 4 -96 4q-202 0 -322 -84q-101 -70 -143 -187v238h-430v-1180h430zM155 -215q0 -62 48.5 -91.5t149.5 -29.5q-10 -41 -32 -71q-25 -32 -81 -74l159 -61q79 54 118 111q57 83 57 191
q0 74 -51.5 111.5t-164.5 37.5q-105 0 -154 -28.5t-49 -95.5z" />
    <glyph glyph-name="Rcaron" unicode="&#x158;" horiz-adv-x="1955" 
d="M407 1897l277 -247h384l280 247h-342l-129 -124l-129 124h-341zM1817 1032q0 233 -168 359q-166 122 -461 122h-999v-1513h439v527h376q110 -6 171 -42.5t84 -115.5l55 -176q31 -125 87 -193h466q-63 79 -108 232l-48 155q-30 93 -69 145q-41 54 -118 90q139 51 210 131
q83 94 83 234v45zM1371 1020q0 -91 -70 -139q-66 -44 -186 -44h-486v380h535q104 0 155.5 -47t51.5 -132v-18z" />
    <glyph glyph-name="rcaron" unicode="&#x159;" horiz-adv-x="1257" 
d="M153 1554l277 -247h384l280 247h-342l-129 -124l-129 124h-341zM589 0v564q5 144 103 236q111 106 309 106q120 0 214 -22l2 312q-51 11 -67 13q-33 4 -96 4q-202 0 -322 -84q-101 -70 -143 -187v238h-430v-1180h430z" />
    <glyph glyph-name="Sacute" unicode="&#x15a;" horiz-adv-x="1714" 
d="M944 1940l-249 -290h312l335 290h-398zM1654 439q0 184 -121 286q-120 101 -398 154l-362 64q-119 19 -173 57q-51 34 -51 97t61 102q79 51 242 51q201 0 293 -60q73 -48 92 -152h391q-13 231 -195 363q-202 146 -585 146q-274 0 -448 -66q-155 -59 -231 -167
q-66 -96 -66 -219q0 -174 106 -281q112 -114 355 -159l419 -77q121 -23 172 -56q54 -35 54 -98q0 -73 -72 -113q-88 -48 -267 -48q-213 0 -311 74q-75 57 -80 159h-419q0 -111 52 -207.5t153 -167.5q220 -155 601 -155q388 0 588 119t200 354z" />
    <glyph glyph-name="sacute" unicode="&#x15b;" horiz-adv-x="1521" 
d="M855 1601l-249 -290h312l335 290h-398zM1455 366q0 67 -18.5 118.5t-54.5 88t-91 63.5q-76 36 -189.5 58t-297.5 42q-152 17 -197 37q-18 7 -29 17t-15.5 22t-4.5 28q0 50 54 78q53 28 171 28q156 0 218 -48q35 -28 45 -83h369q-11 181 -166 284q-172 114 -489 114
q-340 0 -498 -111q-134 -94 -134 -263q0 -88 32.5 -151.5t103.5 -109.5q143 -92 479 -123q162 -15 208 -29q37 -12 55.5 -31t18.5 -51q0 -51 -59 -82q-71 -37 -211 -36q-152 0 -225 48q-60 39 -72 117h-368q28 -188 164 -292q171 -133 509 -133q347 0 532 122
q81 54 120.5 125.5t39.5 152.5z" />
    <glyph glyph-name="Scircumflex" unicode="&#x15c;" horiz-adv-x="1714" 
d="M720 1650l129 124l128 -124h342l-279 247h-384l-278 -247h342zM1654 439q0 184 -121 286q-120 101 -398 154l-362 64q-119 19 -173 57q-51 34 -51 97t61 102q79 51 242 51q201 0 293 -60q73 -48 92 -152h391q-13 231 -195 363q-202 146 -585 146q-274 0 -448 -66
q-155 -59 -231 -167q-66 -96 -66 -219q0 -174 106 -281q112 -114 355 -159l419 -77q121 -23 172 -56q54 -35 54 -98q0 -73 -72 -113q-88 -48 -267 -48q-213 0 -311 74q-75 56 -80 159h-419q0 -111 52 -207.5t153 -167.5q220 -155 601 -155q388 0 588 119t200 354z" />
    <glyph glyph-name="scircumflex" unicode="&#x15d;" horiz-adv-x="1521" 
d="M631 1310l129 124l128 -124h342l-279 247h-384l-278 -247h342zM1455 366q0 67 -18.5 118.5t-54.5 88t-91 63.5q-76 36 -189.5 58t-297.5 42q-152 17 -197 37q-18 7 -29 17t-15.5 22t-4.5 28q0 50 54 78q53 28 171 28q156 0 218 -48q35 -28 45 -83h369q-11 181 -166 284
q-172 114 -489 114q-340 0 -498 -111q-134 -94 -134 -263q0 -88 32.5 -151.5t103.5 -109.5q143 -92 479 -123q162 -15 208 -29q37 -12 55.5 -31t18.5 -51q0 -51 -59 -82q-71 -37 -211 -36q-152 0 -225 48q-60 39 -72 117h-368q28 -188 164 -292q171 -133 509 -133
q347 0 532 122q81 54 120.5 125.5t39.5 152.5z" />
    <glyph glyph-name="Scedilla" unicode="&#x15e;" horiz-adv-x="1714" 
d="M1654 439q0 -219 -173 -337t-510 -134l-1 -60h16q9 0 14 1h10q127 0 212 -58q40 -27 62.5 -63.5t22.5 -75.5q0 -113 -97 -167q-91 -52 -266 -52q-99 0 -191 23q-33 8 -141 49l47 141q73 -25 126.5 -37t110.5 -12q72 0 105 14q30 13 30 41q0 39 -93 54q-38 7 -88 7t-88 -7
l1 203q-311 20 -498 152q-101 71 -153 167.5t-52 207.5h419q6 -103 80 -159q98 -74 311 -74q179 0 267 48q72 40 72 113q0 63 -54 98q-51 33 -172 56l-419 77q-243 45 -355 159q-106 107 -106 281q0 123 66 219q76 108 231 167q174 66 448 66q383 0 585 -146
q182 -132 195 -363h-391q-19 104 -92 152q-92 60 -293 60q-163 0 -242 -51q-61 -39 -61 -102t51 -97q54 -38 173 -57l362 -64q278 -53 398 -154q121 -102 121 -286z" />
    <glyph glyph-name="scedilla" unicode="&#x15f;" horiz-adv-x="1521" 
d="M1291 636q55 -27 91 -63.5t54.5 -88t18.5 -118.5q0 -81 -39.5 -152.5t-120.5 -125.5q-155 -102 -429 -119l-1 -64h16q9 0 14 1h10q127 0 212 -58q40 -27 62.5 -63.5t22.5 -75.5q0 -113 -97 -167q-91 -52 -266 -52q-99 0 -191 23q-33 8 -141 49l47 141q73 -25 126.5 -37
t110.5 -12q72 0 105 14q30 14 30 41q0 39 -93 54q-38 7 -88 7t-88 -7l1 207q-262 18 -404 129q-136 104 -164 292h368q12 -78 72 -117q73 -48 225 -48q140 -1 211 36q59 31 59 82q0 22 -8.5 37.5t-24.5 26t-41 18.5q-46 14 -208 29q-336 31 -479 123q-71 46 -103.5 109.5
t-32.5 151.5q0 169 134 263q158 111 498 111q317 0 489 -114q155 -103 166 -284h-369q-10 55 -45 83q-62 48 -218 48q-118 0 -171 -28q-54 -28 -54 -78q0 -24 11 -40t38 -27q45 -20 197 -37q184 -20 297.5 -42t189.5 -58z" />
    <glyph glyph-name="Scaron" unicode="&#x160;" horiz-adv-x="1714" 
d="M378 1900l277 -247h384l280 247h-342l-129 -124l-129 124h-341zM1654 439q0 184 -121 286q-120 101 -398 154l-362 64q-119 19 -173 57q-51 34 -51 97t61 102q79 51 242 51q201 0 293 -60q73 -48 92 -152h391q-13 231 -195 363q-202 146 -585 146q-274 0 -448 -66
q-155 -59 -231 -167q-66 -96 -66 -219q0 -174 106 -281q112 -114 355 -159l419 -77q121 -23 172 -56q54 -35 54 -98q0 -73 -72 -113q-88 -48 -267 -48q-213 0 -311 74q-74 57 -80 159h-419q0 -111 52 -207.5t153 -167.5q220 -155 601 -155q388 0 588 119t200 354z" />
    <glyph glyph-name="scaron" unicode="&#x161;" horiz-adv-x="1521" 
d="M290 1560l277 -247h384l280 247h-342l-129 -124l-129 124h-341zM1455 366q0 67 -18.5 118.5t-54.5 88t-91 63.5q-76 36 -189.5 58t-297.5 42q-152 17 -197 37q-18 7 -29 17t-15.5 22t-4.5 28q0 50 54 78q53 28 171 28q156 0 218 -48q35 -28 45 -83h369q-11 181 -166 284
q-172 114 -489 114q-340 0 -498 -111q-134 -94 -134 -263q0 -88 32.5 -151.5t103.5 -109.5q143 -92 479 -123q162 -15 208 -29q37 -12 55.5 -31t18.5 -51q0 -51 -59 -82q-71 -37 -211 -36q-152 0 -225 48q-60 39 -72 117h-368q28 -188 164 -292q171 -133 509 -133
q347 0 532 122q81 54 120.5 125.5t39.5 152.5z" />
    <glyph glyph-name="uni0162" unicode="&#x162;" horiz-adv-x="1637" 
d="M1639 1202v311h-1640v-311h599v-1202h441v1202h600zM628 -203q0 -62 48.5 -91.5t149.5 -29.5q-10 -41 -32 -71q-25 -32 -81 -74l159 -61q79 54 118 111q57 83 57 191q0 74 -51.5 111.5t-164.5 37.5q-105 0 -154 -28.5t-49 -95.5z" />
    <glyph glyph-name="uni0163" unicode="&#x163;" horiz-adv-x="1188" 
d="M221 1461v-281h-188v-276h188v-382q0 -192 31 -295q19 -64 54 -112t91 -80q117 -69 339 -69q116 0 218 26q83 20 155 54l-17 243q-61 -17 -103 -25q-67 -13 -158 -13q-110 0 -150 75q-30 53 -30 161v417h429v276h-429v281h-430zM486 -248q0 -42 22 -69t65.5 -39.5
t110.5 -12.5q-10 -41 -32 -71q-25 -32 -81 -74l159 -61q79 54 118 111q57 83 57 191q0 74 -51.5 111.5t-164.5 37.5q-105 0 -154 -28.5t-49 -95.5z" />
    <glyph glyph-name="Tcaron" unicode="&#x164;" horiz-adv-x="1637" 
d="M351 1894l277 -247h384l280 247h-342l-129 -124l-129 124h-341zM1639 1202v311h-1640v-311h599v-1202h441v1202h600z" />
    <glyph glyph-name="tcaron" unicode="&#x165;" horiz-adv-x="1629" 
d="M1486 883q124 247 124 376v260h-445v-278h65q77 0 65 -106q-9 -83 -68 -224zM221 1461v-281h-188v-276h188v-382q0 -192 31 -295q38 -131 145 -192q117 -69 339 -69q116 0 218 26q83 20 155 54l-17 243q-61 -17 -103 -25q-67 -13 -158 -13q-110 0 -150 75q-30 53 -30 161
v417h429v276h-429v281h-430z" />
    <glyph glyph-name="Tbar" unicode="&#x166;" horiz-adv-x="1637" 
d="M1639 1202h-600v-487h213v-221h-213v-494h-441v494h-203v221h203v487h-599v311h1640v-311z" />
    <glyph glyph-name="tbar" unicode="&#x167;" horiz-adv-x="1188" 
d="M1092 289l17 -243q-72 -34 -155 -54q-102 -26 -218 -26q-222 0 -339 69q-107 61 -145 192q-28 92 -31 253h-152v221h152v203h-188v276h188v281h430v-281h429v-276h-429v-203h275v-221h-275q0 -102 30 -154q40 -75 150 -75q91 0 158 13q42 8 103 25z" />
    <glyph glyph-name="Utilde" unicode="&#x168;" horiz-adv-x="1992" 
d="M1296 1946q-27 -42 -58.5 -63t-76.5 -21q-15 0 -28.5 2t-31 9.5t-24.5 10t-31.5 15t-27.5 14.5q-32 16 -53.5 25t-56.5 17.5t-69 8.5q-109 0 -186 -77q-56 -56 -103 -170l146 -51q19 28 38.5 45.5t46.5 28t60 10.5q15 0 28.5 -2t31.5 -9t25 -10t31 -15t27 -14
q30 -16 51.5 -25t55 -17.5t67.5 -8.5q111 0 186 75q57 57 98 171zM1416 1513v-860q0 -174 -95 -268q-109 -106 -324 -106q-214 0 -322 103q-98 94 -98 270v861h-441v-861q0 -317 191 -490q217 -196 668 -196q433 0 656 193q204 176 204 494v860h-439z" />
    <glyph glyph-name="utilde" unicode="&#x169;" horiz-adv-x="1824" 
d="M1194 1609q-27 -42 -58.5 -63t-76.5 -21q-15 0 -28.5 2t-31 9.5t-24.5 10t-31.5 15t-27.5 14.5q-32 16 -53.5 25t-56.5 17.5t-69 8.5q-109 0 -186 -77q-56 -57 -103 -170l146 -51q29 42 63 63t82 21q15 0 28.5 -2t31.5 -9t25 -10t31 -15t27 -14q22 -12 38 -19t39 -15.5
t47 -12.5t50 -4q111 0 186 75q57 57 98 171zM1240 1180v-552q0 -48 -12.5 -95t-36.5 -89.5t-57 -77.5q-52 -54 -121.5 -85t-148.5 -31q-160 0 -230 99q-56 79 -56 239v592h-429v-598q0 -177 34 -287q47 -151 167 -232q141 -96 394 -96q161 0 292 63q131 62 204 179v-209h430
v1180h-430z" />
    <glyph glyph-name="Umacron" unicode="&#x16a;" horiz-adv-x="1992" 
d="M1441 1652v221h-857v-221h857zM1416 1513v-860q0 -174 -95 -268q-109 -106 -324 -106q-214 0 -322 103q-98 94 -98 270v861h-441v-861q0 -317 191 -490q217 -196 668 -196q433 0 656 193q204 176 204 494v860h-439z" />
    <glyph glyph-name="umacron" unicode="&#x16b;" horiz-adv-x="1824" 
d="M1340 1315v221h-857v-221h857zM1240 1180v-552q0 -48 -12.5 -95t-36.5 -89.5t-57 -77.5q-52 -54 -121.5 -85t-148.5 -31q-160 0 -230 99q-56 79 -56 239v592h-429v-598q0 -176 34 -287q47 -151 167 -232q141 -96 394 -96q161 0 292 63q131 62 204 179v-209h430v1180h-430
z" />
    <glyph glyph-name="Ubreve" unicode="&#x16c;" horiz-adv-x="1992" 
d="M1181 1973q-13 -72 -43 -104q-42 -45 -140 -45q-96 0 -141 47q-31 31 -46 102h-237q7 -139 90 -221q106 -104 334 -104q222 0 330 103q82 79 91 222h-238zM1416 1513v-860q0 -174 -95 -268q-109 -106 -324 -106q-214 0 -322 103q-98 94 -98 270v861h-441v-861
q0 -317 191 -490q217 -196 668 -196q433 0 656 193q204 176 204 494v860h-439z" />
    <glyph glyph-name="ubreve" unicode="&#x16d;" horiz-adv-x="1824" 
d="M1079 1636q-13 -72 -43 -104q-42 -45 -140 -45q-96 0 -141 47q-31 31 -46 102h-237q7 -139 90 -221q106 -104 334 -104q222 0 330 103q82 79 91 222h-238zM1240 1180v-552q0 -72 -28 -140.5t-78 -121.5q-52 -54 -121.5 -85t-148.5 -31q-160 0 -230 99q-56 79 -56 239v592
h-429v-598q0 -176 34 -287q46 -151 167 -232q141 -96 394 -96q161 0 292 63q131 62 204 179v-209h430v1180h-430z" />
    <glyph glyph-name="Uring" unicode="&#x16e;" horiz-adv-x="1992" 
d="M678 1870q0 -116 82 -168.5t244 -52.5q80 0 139.5 12.5t101.5 39t63.5 69t21.5 100.5q0 224 -326 224q-162 0 -244 -54t-82 -170zM890 1871q0 20 7 33.5t22 21t35.5 11t49.5 3.5q39 0 63.5 -6t38 -21.5t13.5 -41.5q0 -40 -28 -55t-87 -15q-60 0 -87 15t-27 55zM1416 1513
v-860q0 -174 -95 -268q-109 -106 -324 -106q-214 0 -322 103q-98 94 -98 270v861h-441v-861q0 -317 191 -490q217 -196 668 -196q433 0 656 193q204 176 204 494v860h-439z" />
    <glyph glyph-name="uring" unicode="&#x16f;" horiz-adv-x="1824" 
d="M577 1533q0 -116 82 -168.5t244 -52.5q80 0 139.5 12.5t101.5 39t63.5 69t21.5 100.5q0 224 -326 224q-107 0 -178.5 -23t-109.5 -73t-38 -128zM789 1534q0 38 27.5 53.5t86.5 15.5t87 -15.5t28 -53.5q0 -40 -28 -55t-87 -15q-60 0 -87 15t-27 55zM1240 1180v-552
q0 -48 -12.5 -95t-36.5 -89.5t-57 -77.5q-52 -54 -121.5 -85t-148.5 -31q-160 0 -230 99q-56 79 -56 239v592h-429v-598q0 -177 34 -287q46 -151 167 -232q141 -96 394 -96q161 0 292 63q131 62 204 179v-209h430v1180h-430z" />
    <glyph glyph-name="Uhungarumlaut" unicode="&#x170;" horiz-adv-x="1992" 
d="M878 1939l-277 -290h301l333 290h-357zM1373 1939l-276 -290h293l351 290h-368zM1416 1513v-860q0 -174 -95 -268q-109 -106 -324 -106q-214 0 -322 103q-98 94 -98 270v861h-441v-861q0 -317 191 -490q217 -196 668 -196q433 0 656 193q204 176 204 494v860h-439z" />
    <glyph glyph-name="uhungarumlaut" unicode="&#x171;" horiz-adv-x="1824" 
d="M776 1602l-277 -290h301l333 290h-357zM1271 1602l-276 -290h293l351 290h-368zM1240 1180v-552q0 -72 -28 -140.5t-78 -121.5q-52 -54 -121.5 -85t-148.5 -31q-160 0 -230 99q-56 79 -56 239v592h-429v-598q0 -177 34 -287q47 -151 167 -232q141 -96 394 -96
q161 0 292 63q131 62 204 179v-209h430v1180h-430z" />
    <glyph glyph-name="Uogonek" unicode="&#x172;" horiz-adv-x="1992" 
d="M1416 1513h439v-860q0 -318 -204 -494q-59 -51 -138 -91l7 -2q-154 -61 -207 -96q-70 -46 -70 -105q0 -67 110 -67q54 0 94 8q16 3 74 22l1 -175q-117 -56 -277 -56q-149 0 -234 51t-85 149q0 94 80 169h-11q-451 0 -668 196q-191 173 -191 490v861h441v-861
q0 -176 98 -270q108 -103 322 -103q215 0 324 106q95 94 95 268v860z" />
    <glyph glyph-name="uogonek" unicode="&#x173;" horiz-adv-x="1824" 
d="M1670 -238l1 -175q-117 -56 -277 -56q-149 0 -234 51t-85 149q0 112 112 195q52 39 136 74h-83v209q-73 -117 -204 -179q-131 -63 -292 -63q-253 0 -394 96q-120 81 -167 232q-34 111 -34 287v598h429v-592q0 -160 56 -239q70 -99 230 -99q79 0 148.5 31t121.5 85
q33 35 57 77.5t36.5 89.5t12.5 95v552h430v-1180h-1q-154 -61 -207 -96q-70 -46 -70 -105q0 -67 110 -67q54 0 94 8q16 3 74 22z" />
    <glyph glyph-name="Wcircumflex" unicode="&#x174;" horiz-adv-x="2631" 
d="M1185 1647l129 124l128 -124h342l-279 247h-384l-278 -247h342zM1635 0h539l454 1513h-455l-264 -1050l-16 -163h-13l-21 163l-314 1050h-458v-1l-1 1l-314 -1050l-21 -163h-14l-15 161l-265 1052h-454l454 -1513h533v1l6 -1l306 1020l11 68h6l11 -67z" />
    <glyph glyph-name="wcircumflex" unicode="&#x175;" horiz-adv-x="2479" 
d="M1112 1309l129 124l128 -124h342l-279 247h-384l-278 -247h342zM389 0h592l254 868h8l255 -868h592l367 1180h-448l-213 -913h-35l-260 913h-523l-261 -913h-34l-213 913h-448z" />
    <glyph glyph-name="Ycircumflex" unicode="&#x176;" horiz-adv-x="1811" 
d="M778 1642l129 124l128 -124h342l-279 247h-384l-278 -247h342zM1853 1513h-501l-446 -660l-448 660h-501l728 -984v-529h441v529z" />
    <glyph glyph-name="ycircumflex" unicode="&#x177;" horiz-adv-x="1652" 
d="M693 1307l129 124l128 -124h342l-279 247h-384l-278 -247h342zM1177 1180l-356 -870l-348 870h-460l575 -1180h112l-16 -42q-58 -147 -217 -248l151 -204q115 37 217 132q113 105 183 261l620 1281h-461z" />
    <glyph glyph-name="Ydieresis" unicode="&#x178;" horiz-adv-x="1811" 
d="M418 1782q0 -72 47.5 -104.5t150.5 -32.5q110 0 156.5 32.5t46.5 104.5q0 75 -46.5 107.5t-156.5 32.5q-69 0 -112.5 -14t-64.5 -45t-21 -81zM981 1782q0 -72 47 -104.5t150 -32.5q110 0 157 32.5t47 104.5q0 75 -47 107.5t-157 32.5q-103 0 -150 -33t-47 -107z
M1853 1513h-501l-446 -660l-448 660h-501l728 -984v-529h441v529z" />
    <glyph glyph-name="Zacute" unicode="&#x179;" horiz-adv-x="1727" 
d="M961 1937l-249 -290h312l335 290h-398zM1664 0v311h-1064l1023 929v273h-1497v-311h966l-1022 -911v-291h1594z" />
    <glyph glyph-name="zacute" unicode="&#x17a;" horiz-adv-x="1509" 
d="M856 1602l-249 -290h312l335 290h-398zM1407 0v284h-828l818 645l4 251h-1263v-285h767l-816 -643v-252h1318z" />
    <glyph glyph-name="Zdotaccent" unicode="&#x17b;" horiz-adv-x="1727" 
d="M620 1813q0 -83 58 -121.5t183 -38.5q134 0 194 39q58 38 58 121q0 85 -58 124t-194 39q-84 0 -137 -17t-78.5 -52.5t-25.5 -93.5zM1664 0v311h-1064l1023 929v273h-1497v-311h966l-1022 -911v-291h1594z" />
    <glyph glyph-name="zdotaccent" unicode="&#x17c;" horiz-adv-x="1509" 
d="M514 1478q0 -83 58 -121.5t183 -38.5q134 0 194 39q58 38 58 121q0 85 -58 124t-194 39q-84 0 -137 -17t-78.5 -52.5t-25.5 -93.5zM1407 0v284h-828l818 645l4 251h-1263v-285h767l-816 -643v-252h1318z" />
    <glyph glyph-name="Zcaron" unicode="&#x17d;" horiz-adv-x="1727" 
d="M395 1896l277 -247h384l280 247h-342l-129 -124l-129 124h-341zM1664 0v311h-1064l1023 929v273h-1497v-311h966l-1022 -911v-291h1594z" />
    <glyph glyph-name="zcaron" unicode="&#x17e;" horiz-adv-x="1509" 
d="M290 1561l277 -247h384l280 247h-342l-129 -124l-129 124h-341zM1407 0v284h-828l818 645l4 251h-1263v-285h767l-816 -643v-252h1318z" />
    <glyph glyph-name="AEacute" unicode="&#x1fc;" horiz-adv-x="2681" 
d="M1702 1936l-249 -290h312l335 290h-398zM468 0l167 312h538v-312h1444v311h-1008v296h896v311h-896v284h1001v311h-1734l-878 -1513h470zM1114 1204h59v-595h-378z" />
    <glyph glyph-name="aeacute" unicode="&#x1fd;" horiz-adv-x="2706" 
d="M1417 1616l-249 -290h312l335 290h-398zM2609 489l3 24q1 4 1.5 13t0.5 14q24 317 -159 495q-184 178 -543 178q-348 0 -545 -126q-172 126 -513 126q-264 0 -428 -70q-138 -60 -205 -164q-50 -77 -63 -185h406q14 64 62 98q69 48 210 48q169 0 240 -69q57 -56 57 -174
v-33q-79 30 -173 50q-128 26 -259 26q-318 0 -466 -100q-134 -92 -134 -275q0 -104 47 -186q55 -96 172 -150q134 -62 348 -62q159 0 297 55q133 53 212 145q20 16 30 25l28 24q88 -121 250 -183q175 -67 431 -67q313 0 494 134q147 109 188 293h-398q-16 -58 -85 -102
q-81 -54 -208 -54q-165 0 -256 78q-81 68 -86 174h1044zM1566 727q3 38 22 78.5t54 74.5q88 83 254 83q157 0 236 -72q63 -58 75 -170v-3h-641v9zM797 241q-152 0 -219 51q-47 36 -47 93q0 53 42 87q62 48 208 48q93 0 208 -27q87 -22 144 -47v-26q-8 -23 -31.5 -52.5
t-60.5 -56.5q-97 -70 -244 -70z" />
    <glyph glyph-name="Oslashacute" unicode="&#x1fe;" horiz-adv-x="2020" 
d="M1266 1946l-249 -290h312l335 290h-398zM80 684q0 -207 90.5 -360.5t268.5 -243.5l-90 -160h390l35 62q105 -16 235 -16q452 0 698 197q116 93 174.5 225.5t58.5 295.5v144q0 208 -93 362.5t-278 246.5l86 151h-394l-31 -55q-106 14 -220 14q-454 0 -696 -195
q-234 -187 -234 -524v-144zM1009 279q-209 0 -340 99q-142 106 -142 299l-1 157q0 195 142 302q129 98 341 98q214 0 343 -97q142 -107 142 -303v-157q0 -193 -142 -299q-132 -99 -343 -99z" />
    <glyph glyph-name="oslashacute" unicode="&#x1ff;" horiz-adv-x="1694" 
d="M923 1583l-249 -290h312l335 290h-398zM75 553q0 -275 183 -425l-161 -209h437l57 68q123 -21 256 -21q398 0 598 169q175 148 175 417v75q0 266 -174 417l168 224l-435 1l-66 -79q-121 23 -266 23q-400 0 -597 -167q-175 -149 -175 -418v-75zM505 629q0 136 82 214
q91 86 260 86q170 0 259 -86q83 -80 83 -215v-76q0 -135 -84 -216q-89 -86 -258 -86q-168 0 -258 87q-84 80 -84 214v78z" />
    <glyph glyph-name="Scommaaccent" unicode="&#x218;" horiz-adv-x="1714" 
d="M1654 439q0 184 -121 286q-120 101 -398 154l-362 64q-119 19 -173 57q-51 34 -51 97t61 102q79 51 242 51q201 0 293 -60q73 -48 92 -152h391q-13 231 -195 363q-202 146 -585 146q-274 0 -448 -66q-155 -59 -231 -167q-66 -96 -66 -219q0 -174 106 -281
q112 -114 355 -159l419 -77q121 -23 172 -56q54 -35 54 -98q0 -73 -72 -113q-88 -48 -267 -48q-213 0 -311 74q-75 57 -80 159h-419q0 -111 52 -207.5t153 -167.5q220 -155 601 -155q388 0 588 119t200 354zM615 -266q0 -160 232 -160q-11 -57 -36 -95q-27 -39 -94 -94
l186 -78q87 60 140 148q65 108 65 246q0 94 -58 143q-62 53 -193 53q-83 0 -136 -16.5t-79.5 -53t-26.5 -93.5z" />
    <glyph glyph-name="scommaaccent" unicode="&#x219;" horiz-adv-x="1521" 
d="M1455 366q0 100 -40.5 165t-123.5 105q-76 36 -189.5 58t-297.5 42q-152 17 -197 37q-18 7 -29 17t-15.5 22t-4.5 28q0 50 54 78q53 28 171 28q156 0 218 -48q35 -28 45 -83h369q-11 181 -166 284q-172 114 -489 114q-340 0 -498 -111q-134 -94 -134 -263
q0 -88 32.5 -151.5t103.5 -109.5q143 -92 479 -123q162 -15 208 -29q37 -12 55.5 -31t18.5 -51q0 -51 -59 -82q-71 -37 -211 -36q-152 0 -225 48q-60 39 -72 117h-368q28 -188 164 -292q171 -133 509 -133q347 0 532 122q81 54 120.5 125.5t39.5 152.5zM601 -235
q0 -31 12 -54t37 -38t62 -22t87 -7q-10 -41 -32 -71q-25 -32 -81 -74l159 -61q79 54 118 111q57 83 57 191q0 74 -51.5 111.5t-164.5 37.5q-105 0 -154 -28.5t-49 -95.5z" />
    <glyph glyph-name="uni021A" unicode="&#x21a;" horiz-adv-x="1634" 
d="M1637 1202v311h-1640v-311h599v-1202h441v1202h600zM595 -194q0 -62 48.5 -91.5t149.5 -29.5q-10 -41 -32 -71q-25 -32 -81 -74l159 -61q79 54 118 111q57 83 57 191q0 74 -51.5 111.5t-164.5 37.5q-105 0 -154 -28.5t-49 -95.5z" />
    <glyph glyph-name="uni021B" unicode="&#x21b;" horiz-adv-x="1188" 
d="M221 1461v-281h-188v-276h188v-382q0 -192 31 -295q19 -64 54 -112t91 -80q117 -69 339 -69q116 0 218 26q83 20 155 54l-17 243q-61 -17 -103 -25q-67 -13 -158 -13q-110 0 -150 75q-30 53 -30 161v417h429v276h-429v281h-430zM459 -244q0 -42 22 -69t65.5 -39.5
t110.5 -12.5q-10 -41 -32 -71q-25 -32 -81 -74l159 -61q79 54 118 111q57 83 57 191q0 74 -51.5 111.5t-164.5 37.5q-105 0 -154 -28.5t-49 -95.5z" />
    <glyph glyph-name="uni0237" unicode="&#x237;" horiz-adv-x="750" 
d="M168 1180v-1059q0 -74 -5.5 -119t-24.5 -77q-42 -71 -170 -71q-60 0 -138 10q-46 6 -91 17l-37 -245q65 -26 148 -41q113 -23 238 -23q290 0 410 158q99 131 99 400v1050h-429z" />
    <glyph glyph-name="circumflex" unicode="&#x2c6;" horiz-adv-x="1411" 
d="M446 1280l129 124l128 -124h342l-279 247h-384l-278 -247h342z" />
    <glyph glyph-name="caron" unicode="&#x2c7;" horiz-adv-x="1411" 
d="M231 1527l277 -247h384l280 247h-342l-129 -124l-129 124h-341z" />
    <glyph glyph-name="breve" unicode="&#x2d8;" horiz-adv-x="1410" 
d="M857 1596q-13 -72 -43 -104q-42 -45 -140 -45q-96 0 -141 47q-31 31 -46 102h-237q7 -139 90 -221q106 -104 334 -104q222 0 330 103q82 79 91 222h-238z" />
    <glyph glyph-name="dotaccent" unicode="&#x2d9;" horiz-adv-x="1022" 
d="M166 1409q0 -83 58 -121.5t183 -38.5q134 0 194 39q58 38 58 121q0 85 -58 124t-194 39q-84 0 -137 -17t-78.5 -52.5t-25.5 -93.5z" />
    <glyph glyph-name="ring" unicode="&#x2da;" horiz-adv-x="808" 
d="M50 1477q0 -116 82 -168.5t244 -52.5q106 0 177.5 22.5t110 72t38.5 126.5q0 224 -326 224q-162 0 -244 -54t-82 -170zM262 1478q0 26 13.5 41.5t37.5 21.5t63 6q59 0 87 -15.5t28 -53.5q0 -20 -7 -34t-22.5 -22t-36 -11t-49.5 -3q-60 0 -87 15t-27 55z" />
    <glyph glyph-name="ogonek" unicode="&#x2db;" horiz-adv-x="1088" 
d="M711 -238q-58 -19 -74 -22q-40 -8 -94 -8q-110 0 -110 67q0 59 70 105q53 35 207 96l-196 52q-195 -58 -286 -126q-112 -83 -112 -195q0 -98 85 -149t234 -51q160 0 277 56z" />
    <glyph glyph-name="tilde" unicode="&#x2dc;" horiz-adv-x="1110" 
d="M818 1559q-10 -16 -20.5 -28.5t-23 -23t-26 -17.5t-30 -11t-35.5 -4q-15 0 -28.5 2t-31 9.5t-24.5 10t-31.5 15t-27.5 14.5q-23 12 -39.5 19t-40.5 15.5t-48.5 12.5t-50.5 4q-109 0 -186 -77q-56 -56 -103 -170l146 -51q29 42 63 63t82 21q15 0 28.5 -2t31.5 -9t25 -10
t31 -15t27 -14q30 -16 51.5 -25t55 -17.5t67.5 -8.5q111 0 186 75q57 57 98 171z" />
    <glyph glyph-name="hungarumlaut" unicode="&#x2dd;" horiz-adv-x="843" 
d="M142 1569l-277 -290h301l333 290h-357zM637 1569l-276 -290h293l351 290h-368z" />
    <glyph glyph-name="tonos" unicode="&#x384;" horiz-adv-x="1131" 
d="M761 1569l36 -334h261l45 334h-342z" />
    <glyph glyph-name="dieresistonos" unicode="&#x385;" horiz-adv-x="1051" 
d="M431 1745l35 -334h249l46 334h-330zM-7 1423q0 -72 47.5 -104.5t150.5 -32.5q74 0 118.5 14.5t64 44.5t19.5 78q0 50 -19.5 80.5t-64 45t-118.5 14.5q-104 0 -151 -33t-47 -107zM786 1423q0 -72 47 -104.5t149 -32.5q110 0 156.5 32.5t46.5 104.5q0 75 -46.5 107.5
t-156.5 32.5q-103 0 -149.5 -33t-46.5 -107z" />
    <glyph glyph-name="Alphatonos" unicode="&#x386;" horiz-adv-x="1947" 
d="M10 1517l36 -334h261l45 334h-342zM450 0l130 312h787l130 -312h454l-694 1513h-567l-694 -1513h454zM951 1204h46l247 -595h-541z" />
    <glyph glyph-name="Epsilontonos" unicode="&#x388;" horiz-adv-x="2017" 
d="M1910 0v311h-1008v296h896v311h-896v284h1002v311h-1438v-1513h1444zM-2 1512l36 -334h261l45 334h-342z" />
    <glyph glyph-name="Etatonos" unicode="&#x389;" horiz-adv-x="2358" 
d="M-10 1515l36 -334h261l45 334h-342zM900 0v597h827v-597h442v1513h-442v-596h-827v596h-441v-1513h441z" />
    <glyph glyph-name="Iotatonos" unicode="&#x38a;" horiz-adv-x="819" 
d="M-252 1513l36 -334h261l45 334h-342zM630 0v1513h-441v-1513h441z" />
    <glyph glyph-name="Omicrontonos" unicode="&#x38c;" horiz-adv-x="2308" 
d="M368 684q0 -335 233 -523q242 -195 696 -195q452 0 698 197q116 93 174.5 225.5t58.5 295.5v144q0 163 -59 296t-174 226q-246 197 -697 197q-454 0 -696 -195q-234 -187 -234 -524v-144zM17 1511l36 -334h261l45 334h-342zM1297 279q-210 0 -340 99q-142 107 -142 299
l-1 157q0 196 142 302q129 98 341 98q214 0 343 -97q142 -106 142 -303v-157q0 -192 -142 -299q-132 -99 -343 -99z" />
    <glyph glyph-name="Upsilontonos" unicode="&#x38e;" horiz-adv-x="2248" 
d="M-11 1513l36 -334h261l45 334h-342zM2292 1513h-501l-446 -660l-448 660h-501l728 -984v-529h441v529z" />
    <glyph glyph-name="Omegatonos" unicode="&#x38f;" horiz-adv-x="2074" 
d="M1056 0v502q-144 37 -205 131q-49 74 -49 185v102q0 132 95 218q104 92 274 92q175 0 278 -95q92 -85 92 -215v-99q0 -100 -49 -179q-64 -103 -206 -140v-502h637v313l-299 -1l1 27q178 67 269.5 192.5t91.5 305.5v106q0 152 -90 286q-96 141 -271 224q-194 90 -453 90
q-262 0 -453 -89q-177 -82 -272 -223q-91 -133 -91 -288v-105q0 -365 360 -500l2 -26l-300 1v-313h638zM11 1515l36 -334h261l45 334h-342z" />
    <glyph glyph-name="iotadieresistonos" unicode="&#x390;" 
d="M216 1756l35 -334h249l46 334h-330zM-222 1434q0 -72 47.5 -104.5t150.5 -32.5q109 0 155.5 32.5t46.5 104.5q0 75 -46 107.5t-156 32.5q-69 0 -112.5 -14t-64.5 -45t-21 -81zM571 1434q0 -72 47 -104.5t149 -32.5q110 0 156.5 32.5t46.5 104.5q0 75 -46.5 107.5
t-156.5 32.5q-103 0 -149.5 -33t-46.5 -107zM589 0v1180h-429v-1180h429z" />
    <glyph glyph-name="Alpha" unicode="&#x391;" horiz-adv-x="1947" 
d="M450 0l130 312h787l130 -312h454l-694 1513h-567l-694 -1513h454zM951 1204h46l247 -595h-541z" />
    <glyph glyph-name="Beta" unicode="&#x392;" horiz-adv-x="1920" 
d="M1841 455q0 146 -110 242q-106 90 -281 109q165 22 245 96.5t80 207.5v47q0 172 -144 264t-403 92h-1039v-1513h1020q300 0 457 90q175 99 175 316v49zM1329 1072q0 -68 -51.5 -106.5t-156.5 -38.5h-491v307h509q100 0 149 -42q41 -35 41 -91v-29zM1395 466
q1 -96 -76 -133q-61 -29 -180 -29h-509v343h503q122 0 188 -35q70 -39 74 -118v-28z" />
    <glyph glyph-name="Gamma" unicode="&#x393;" horiz-adv-x="1534" 
d="M1480 1202v311h-1290v-1513h440v1202h850z" />
    <glyph glyph-name="uni0394" unicode="&#x394;" horiz-adv-x="1947" 
d="M1951 0l-694 1513h-567l-694 -1513h1955zM951 1204h46l376 -907h-800z" />
    <glyph glyph-name="Epsilon" unicode="&#x395;" horiz-adv-x="1740" 
d="M1633 0v311h-1008v296h896v311h-896v284h1002v311h-1438v-1513h1444z" />
    <glyph glyph-name="Zeta" unicode="&#x396;" horiz-adv-x="1727" 
d="M1664 0v311h-1064l1023 929v273h-1497v-311h966l-1022 -911v-291h1594z" />
    <glyph glyph-name="Eta" unicode="&#x397;" horiz-adv-x="2088" 
d="M630 0v597h827v-597h442v1513h-442v-596h-827v596h-441v-1513h441z" />
    <glyph glyph-name="Theta" unicode="&#x398;" horiz-adv-x="2020" 
d="M80 684q0 -335 233 -523q242 -195 696 -195q452 0 698 197q116 93 174.5 225.5t58.5 295.5v144q0 163 -59 296t-174 226q-246 197 -697 197q-454 0 -696 -195q-234 -187 -234 -524v-144zM1009 279q-210 0 -340 99q-142 107 -142 299l-1 157q0 196 142 302q129 98 341 98
q214 0 343 -97q142 -107 142 -303v-157q0 -192 -142 -299q-132 -99 -343 -99zM698 611h626v299h-626v-299z" />
    <glyph glyph-name="Iota" unicode="&#x399;" horiz-adv-x="819" 
d="M630 0v1513h-441v-1513h441z" />
    <glyph glyph-name="Kappa" unicode="&#x39a;" horiz-adv-x="1920" 
d="M629 0v605h303l467 -605h501l-605 771l530 742h-489l-422 -579h-285v579h-440v-1513h440z" />
    <glyph glyph-name="Lambda" unicode="&#x39b;" horiz-adv-x="1938" 
d="M439 0l496 1206h51l498 -1206h456l-689 1513h-580l-689 -1513h457z" />
    <glyph glyph-name="Mu" unicode="&#x39c;" horiz-adv-x="2499" 
d="M1039 219h421l452 946h15l-11 -119l-20 -1046h413v1513h-595l-435 -841l-27 -96h-5l-26 94l-436 843h-596v-1513h414l-20 1046l-12 118h15z" />
    <glyph glyph-name="Nu" unicode="&#x39d;" horiz-adv-x="2088" 
d="M1899 0v1513h-420l8 -913l11 -102h-7l-881 1015h-421v-1513h420l-7 880l-13 110h7l869 -990h434z" />
    <glyph glyph-name="Xi" unicode="&#x39e;" horiz-adv-x="1619" 
d="M108 1206h1389v307h-1389v-307zM252 612h1096v310h-1096v-310zM106 0h1391v307h-1391v-307z" />
    <glyph glyph-name="Omicron" unicode="&#x39f;" horiz-adv-x="2020" 
d="M80 684q0 -335 233 -523q242 -195 696 -195q452 0 698 197q116 93 174.5 225.5t58.5 295.5v144q0 163 -59 296t-174 226q-246 197 -697 197q-454 0 -696 -195q-234 -187 -234 -524v-144zM1009 279q-210 0 -340 99q-142 107 -142 299l-1 157q0 196 142 302q129 98 341 98
q214 0 343 -97q142 -107 142 -303v-157q0 -192 -142 -299q-132 -99 -343 -99z" />
    <glyph glyph-name="Pi" unicode="&#x3a0;" horiz-adv-x="2054" 
d="M627 0v1214h809v-1214h441v1513h-1690v-1513h440z" />
    <glyph glyph-name="Rho" unicode="&#x3a1;" horiz-adv-x="1870" 
d="M1817 1041q0 73 -20 137.5t-58.5 117t-94.5 93.5q-174 124 -472 124h-983v-1513h439v448h555q299 0 465 131q169 133 169 378v84zM1371 965q0 -207 -265 -207h-477v444h492q129 0 189.5 -46t60.5 -145v-46z" />
    <glyph glyph-name="Sigma" unicode="&#x3a3;" horiz-adv-x="1714" 
d="M1167 815l-510 387h904v311h-1402v-277l565 -479l-576 -480v-277h1435v311h-896l480 387v117z" />
    <glyph glyph-name="Tau" unicode="&#x3a4;" horiz-adv-x="1637" 
d="M1639 1202v311h-1640v-311h599v-1202h441v1202h600z" />
    <glyph glyph-name="Upsilon" unicode="&#x3a5;" horiz-adv-x="1811" 
d="M1853 1513h-501l-446 -660l-448 660h-501l728 -984v-529h441v529z" />
    <glyph glyph-name="Phi" unicode="&#x3a6;" horiz-adv-x="2093" 
d="M1268 0v107q377 17 582 200q90 80 134.5 181t44.5 210v119q0 146 -77 272q-85 137 -247 219q-184 93 -437 104v104h-440v-107q-259 -11 -439 -103q-162 -82 -246 -219q-76 -124 -76 -271v-119q0 -147 76 -270q84 -138 246 -218q182 -93 439 -104v-105h440zM1583 717
q0 -131 -76 -208q-82 -82 -239 -89v675q154 -7 238 -91q77 -78 77 -206v-81zM513 798q0 126 74 203q83 86 241 93v-674q-159 11 -240 94q-75 76 -75 203v81z" />
    <glyph glyph-name="Chi" unicode="&#x3a7;" horiz-adv-x="1856" 
d="M44 1513l596 -747l-648 -766h507l428 535l430 -535h506l-646 768l594 745h-506l-375 -518l-379 518h-507z" />
    <glyph glyph-name="Psi" unicode="&#x3a8;" horiz-adv-x="2186" 
d="M1315 0v413q280 16 455 105q157 80 235 224q67 123 67 292v480h-441v-470q0 -150 -71 -227q-77 -83 -245 -89v785h-440v-785q-170 4 -245 89q-69 77 -69 229v467h-441v-478q0 -170 65 -292q76 -145 233 -223q181 -92 457 -105v-415h440z" />
    <glyph glyph-name="uni03A9" unicode="&#x3a9;" horiz-adv-x="1808" 
d="M789 0v502q-144 37 -205 131q-49 74 -49 185v102q0 132 95 218q103 92 274 92q175 0 278 -95q92 -85 92 -215v-99q0 -100 -49 -179q-64 -103 -206 -140v-502h637v313l-299 -1l1 27q119 45 199 115t121 166.5t41 216.5v106q0 152 -90 286q-96 141 -271 224
q-194 90 -453 90q-262 0 -453 -89q-177 -82 -272 -223q-91 -133 -91 -288v-105q0 -365 360 -500l2 -26l-300 1v-313h638z" />
    <glyph glyph-name="Iotadieresis" unicode="&#x3aa;" horiz-adv-x="819" 
d="M-66 1751q0 -72 47.5 -104.5t150.5 -32.5q110 0 156.5 32.5t46.5 104.5q0 75 -46.5 107.5t-156.5 32.5q-104 0 -151 -33t-47 -107zM497 1751q0 -72 47 -104.5t150 -32.5q110 0 157 32.5t47 104.5q0 75 -47 107.5t-157 32.5q-103 0 -150 -32.5t-47 -107.5zM630 0v1513
h-441v-1513h441z" />
    <glyph glyph-name="Upsilondieresis" unicode="&#x3ab;" horiz-adv-x="1811" 
d="M423 1742q0 -72 47.5 -104.5t150.5 -32.5q110 0 156.5 32.5t46.5 104.5q0 75 -46.5 107.5t-156.5 32.5q-69 0 -112.5 -14t-64.5 -45t-21 -81zM986 1742q0 -72 47 -104.5t150 -32.5q110 0 157 32.5t47 104.5q0 75 -47 107.5t-157 32.5q-103 0 -150 -33t-47 -107z
M1853 1513h-501l-446 -660l-448 660h-501l728 -984v-529h441v529z" />
    <glyph glyph-name="alphatonos" unicode="&#x3ac;" horiz-adv-x="1755" 
d="M669 1638l36 -334h261l45 334h-342zM1600 0v1180h-429v-141q-63 81 -166 125q-114 49 -272 49q-318 0 -499 -181q-79 -80 -119 -183t-40 -214v-92q0 -151 71 -277q76 -137 218 -214q159 -86 373 -86q157 0 269 48q104 45 165 123v-137h429zM505 618q0 139 82 221
q90 90 260 90q153 0 237 -81q87 -84 87 -243v-48q-4 -150 -92 -230q-85 -77 -230 -77q-170 0 -260 88q-84 81 -84 218v62z" />
    <glyph glyph-name="epsilontonos" unicode="&#x3ad;" horiz-adv-x="1564" 
d="M660 1629l36 -334h261l45 334h-342zM967 715h-191q-109 0 -170 24q-62 23 -62 73v8q0 56 49 85q64 38 224 38q143 0 212 -33q65 -31 76 -101l356 1l-1 22q-6 127 -78 211.5t-214 127t-355 42.5q-380 0 -550 -92q-158 -85 -150 -265l1 -18q0 -90 94 -162q80 -61 183 -84
q-126 -21 -206 -103q-35 -36 -53.5 -77.5t-18.5 -79.5v-12q0 -169 157 -257q174 -97 543 -97q328 0 495 111q147 97 152 276l1 20l-356 2l-1 -8q-6 -55 -61 -87q-76 -44 -228 -44q-158 0 -220 38q-51 29 -51 88v4q0 51 44 79q56 36 189 36h189v84h1v150z" />
    <glyph glyph-name="etatonos" unicode="&#x3ae;" horiz-adv-x="1824" 
d="M809 1645l36 -334h261l45 334h-342zM589 0v551q0 73 28 141.5t78 121.5q110 115 271 115q159 0 229 -99q56 -79 56 -238v-958h429v964q0 176 -34 287q-46 151 -167 233q-142 95 -394 95q-163 0 -292 -63q-131 -63 -204 -180v210h-430v-1180h430z" />
    <glyph glyph-name="iotatonos" unicode="&#x3af;" 
d="M212 1628l36 -334h261l45 334h-342zM589 0v1180h-429v-1180h429z" />
    <glyph glyph-name="upsilondieresistonos" unicode="&#x3b0;" horiz-adv-x="1730" 
d="M739 1719l35 -334h249l46 334h-330zM301 1397q0 -72 47.5 -104.5t150.5 -32.5q74 0 118.5 14.5t64 44.5t19.5 78q0 50 -19.5 80.5t-64 45t-118.5 14.5q-104 0 -151 -33t-47 -107zM1094 1397q0 -72 47 -104.5t149 -32.5q110 0 156.5 32.5t46.5 104.5q0 75 -46.5 107.5
t-156.5 32.5q-103 0 -149.5 -33t-46.5 -107zM129 1180v-632q0 -176 65 -298q74 -138 228 -207q171 -77 444 -77q274 0 445 77q155 70 228 207q64 120 64 298v632h-430v-598q0 -168 -61 -242q-71 -86 -246 -86q-171 0 -242 83q-65 74 -65 244v599h-430z" />
    <glyph glyph-name="alpha" unicode="&#x3b1;" horiz-adv-x="1755" 
d="M1600 0v1180h-429v-141q-63 81 -166 125q-114 49 -272 49q-318 0 -499 -181q-79 -80 -119 -183t-40 -214v-92q0 -151 71 -277q76 -137 218 -214q159 -86 373 -86q157 0 269 48q104 45 165 123v-137h429zM505 618q0 139 82 221q90 90 260 90q153 0 237 -81q87 -84 87 -243
v-48q-4 -150 -92 -230q-85 -77 -230 -77q-170 0 -260 88q-84 81 -84 218v62z" />
    <glyph glyph-name="beta" unicode="&#x3b2;" horiz-adv-x="1685" 
d="M586 -366v396q180 -62 344 -62q348 0 511 128q142 111 142 323v76q0 116 -66 190t-202 113q60 21 105 49.5t74.5 65t44 81t14.5 98.5v36q0 113 -60 202q-70 103 -213 160q-167 65 -419 65q-380 0 -553 -173q-152 -152 -152 -446v-1302h430zM796 658h52q189 0 258 -61
q47 -41 47 -126v-31q0 -87 -54 -133q-66 -56 -212 -56q-145 0 -301 76v620q0 147 59 229q69 95 219 95q83 0 141.5 -18.5t90 -56.5t31.5 -95v-15q0 -82 -68 -119q-63 -33 -198 -35h-65v-274z" />
    <glyph glyph-name="gamma" unicode="&#x3b3;" horiz-adv-x="1669" 
d="M1045 -366v366h70l531 1180h-460l-348 -913h-9l-347 913h-459l531 -1180h62v-366h429z" />
    <glyph glyph-name="delta" unicode="&#x3b4;" horiz-adv-x="1694" 
d="M75 553q0 -270 175 -419q197 -168 597 -168q398 0 598 169q175 148 175 417v75q0 179 -80 308q-86 138 -263 208q-103 54 -116 61l-77 41q-84 43 -124 65q-21 10 -21 12v2l619 -2v246h-1151v-242q60 -28 89 -40q31 -13 89 -39q49 -22 99 -42q-317 -33 -469 -193
q-140 -146 -140 -384v-75zM505 629q0 136 82 214q91 86 260 86q170 0 259 -86q83 -80 83 -215v-76q0 -135 -84 -216q-89 -86 -258 -86q-168 0 -258 87q-84 80 -84 214v78z" />
    <glyph glyph-name="epsilon" unicode="&#x3b5;" horiz-adv-x="1564" 
d="M967 715h-191q-109 0 -170 24q-62 23 -62 73v8q0 56 49 85q64 38 224 38q143 0 212 -33q65 -31 76 -101l356 1l-1 22q-6 127 -78 211.5t-214 127t-355 42.5q-380 0 -550 -92q-158 -85 -150 -265l1 -18q0 -90 94 -162q80 -61 183 -84q-126 -21 -206 -103
q-35 -36 -53.5 -77.5t-18.5 -79.5v-12q0 -169 157 -257q174 -97 543 -97q328 0 495 111q147 97 152 276l1 20l-356 2l-1 -8q-6 -55 -61 -87q-76 -44 -228 -44q-158 0 -220 38q-51 29 -51 88v4q0 51 44 79q56 36 189 36h189v84h1v150z" />
    <glyph glyph-name="zeta" unicode="&#x3b6;" horiz-adv-x="1426" 
d="M162 1284h658l-525 -490q-188 -157 -188 -389q0 -189 140 -294q157 -117 487 -130q145 -6 191 -45q43 -38 23 -133l-37 -169h372l29 169q38 231 -73 339q-113 109 -415 119q-90 2 -153.5 20.5t-98.5 55.5t-35 91q0 52 19 96q24 57 85 112l687 648v285h-1166v-285z" />
    <glyph glyph-name="eta" unicode="&#x3b7;" horiz-adv-x="1824" 
d="M589 0v551q0 73 28 141.5t78 121.5q110 115 271 115q159 0 229 -99q56 -79 56 -238v-958h429v964q0 176 -34 287q-46 151 -167 233q-142 95 -394 95q-163 0 -292 -63q-131 -63 -204 -180v210h-430v-1180h430z" />
    <glyph glyph-name="theta" unicode="&#x3b8;" horiz-adv-x="1694" 
d="M61 631q0 -193 71 -335q77 -157 238 -239q177 -91 443 -91t445 91q159 82 238 239q70 143 70 334v264q0 300 -166 469q-192 195 -587 195q-394 0 -586 -195q-166 -169 -166 -469v-263zM813 1274q176 0 259 -106q67 -86 69 -240h-651q2 153 68 240q79 106 255 106z
M813 250q-176 0 -257 109q-66 89 -66 246v24h651v-22q0 -162 -71 -251q-85 -106 -257 -106z" />
    <glyph glyph-name="iota" unicode="&#x3b9;" 
d="M589 0v1180h-429v-1180h429z" />
    <glyph glyph-name="kappa" unicode="&#x3ba;" horiz-adv-x="1681" 
d="M160 1180v-1180h429v471h223l361 -471h504l-523 603l460 577h-486l-299 -415h-240v415h-429z" />
    <glyph glyph-name="lambda" unicode="&#x3bb;" horiz-adv-x="1672" 
d="M494 0l351 912h10l346 -912h461l-514 1149q-43 96 -84 164.5t-92 121.5q-110 115 -313 183l-139 -213q93 -35 151 -96q48 -53 81 -129h-181l-532 -1180h455z" />
    <glyph glyph-name="uni03BC" unicode="&#x3bc;" horiz-adv-x="1740" 
d="M160 1180v-1546h429v556q86 -109 213 -166t283 -57q253 0 395 96q118 79 167 232q34 110 34 287v598h-430v-592q0 -159 -56 -238q-70 -99 -229 -99q-160 0 -271 116q-50 53 -78 121t-28 141v551h-429z" />
    <glyph glyph-name="nu" unicode="&#x3bd;" horiz-adv-x="1654" 
d="M1179 1180l-337 -904h-31l-336 904h-460l540 -1180h544l540 1180h-460z" />
    <glyph glyph-name="xi" unicode="&#x3be;" horiz-adv-x="1458" 
d="M1330 -357l44 203q40 193 -38 288q-97 114 -391 124q-197 0 -279 47q-80 43 -80 141v12q0 93 84 148q79 52 207 52l212 -1v283l-206 1q-48 0 -88.5 7t-71 20t-52 32t-32 43t-10.5 53v14q0 74 47 118q59 56 195 60h439v280h-1281v-280l247 6q-78 -89 -78 -202
q0 -112 73 -188q84 -89 235 -99q-182 -34 -271 -147q-80 -100 -80 -252q0 -109 36 -184.5t114 -125.5q151 -96 519 -108l37 -2q71 -1 112 -15q75 -24 75 -86q0 -27 -8 -64l-42 -178h332z" />
    <glyph glyph-name="omicron" unicode="&#x3bf;" horiz-adv-x="1694" 
d="M75 553q0 -270 175 -419q197 -168 597 -168q398 0 598 169q175 148 175 417v75q0 270 -175 419q-199 167 -598 167q-400 0 -597 -167q-175 -149 -175 -418v-75zM505 629q0 136 82 214q91 86 260 86q170 0 259 -86q83 -80 83 -215v-76q0 -135 -84 -216q-89 -86 -258 -86
q-168 0 -258 87q-84 80 -84 214v78z" />
    <glyph glyph-name="pi" unicode="&#x3c0;" horiz-adv-x="1988" 
d="M1946 894v286h-1906v-286h229v-894h428v894h585v-894h429v894h235z" />
    <glyph glyph-name="rho" unicode="&#x3c1;" horiz-adv-x="1741" 
d="M552 -366v373q146 -41 343 -41q398 0 596 169q176 150 176 418v73q0 269 -176 419q-199 168 -596 168q-399 0 -596 -167q-176 -150 -176 -419v-993h429zM553 631q0 134 83 213q90 85 259 85q168 0 259 -85q83 -79 83 -214v-79q0 -137 -84 -216q-91 -85 -258 -85t-257 85
q-85 79 -85 216v80z" />
    <glyph glyph-name="uni03C2" unicode="&#x3c2;" horiz-adv-x="1634" 
d="M1397 -366l60 243q48 201 -61 290q-109 87 -406 87h-139q-164 0 -258 80q-89 75 -89 202v109q0 126 86 203q90 81 256 81q146 0 236 -55q84 -54 109 -148l380 17q-40 213 -194 330q-184 140 -526 140q-396 0 -595 -164q-182 -151 -182 -419v-84q0 -268 182 -415
q199 -161 595 -161h84q67 0 106 -11q36 -12 50 -32q6 -10 8.5 -22t1 -27t-4.5 -27.5t-9 -31.5l-59 -184z" />
    <glyph glyph-name="sigma" unicode="&#x3c3;" horiz-adv-x="1694" 
d="M74 553q0 -269 176 -419q197 -168 598 -168q400 0 600 169q176 149 176 417v75q0 158 -61 273l132 -15v295h-533q-140 33 -314 33q-401 0 -598 -167q-176 -150 -176 -418v-75zM503 629q0 136 84 214q91 86 261 86q172 0 263 -86q83 -80 83 -215v-76q0 -135 -85 -215
q-92 -87 -261 -87q-170 0 -260 87q-85 80 -85 215v77z" />
    <glyph glyph-name="tau" unicode="&#x3c4;" horiz-adv-x="1427" 
d="M1407 894v286h-1387v-286h479v-895h428v895h480z" />
    <glyph glyph-name="upsilon" unicode="&#x3c5;" horiz-adv-x="1730" 
d="M129 1180v-632q0 -176 65 -298q74 -138 228 -207q171 -77 444 -77q274 0 445 77q155 70 228 207q64 120 64 298v632h-430v-598q0 -168 -61 -242q-71 -86 -246 -86q-171 0 -242 83q-65 74 -65 244v599h-430z" />
    <glyph glyph-name="phi" unicode="&#x3c6;" horiz-adv-x="2399" 
d="M1394 -363v341l265 35q309 37 474 142q133 85 177 221q9 28 15 57.5t8 63.5t2.5 55t0.5 58v39q0 140 -37 240q-54 145 -185 226q-167 100 -445 100q-304 0 -481 -127q-191 -137 -191 -397v-434l-262 39q-162 23 -230 104q-54 64 -54 184v69q0 66 13.5 114t48.5 82
q79 74 287 74l-1 292q-386 -2 -565 -135q-180 -134 -180 -426v-40q0 -50 1 -81.5t7.5 -77.5t19.5 -83q46 -138 180 -223q159 -102 472 -140l263 -34v-338h397zM1394 664q0 46 18.5 92t54.5 82q82 85 230 85q111 0 173 -50q47 -39 63 -109q8 -39 8 -102v-77q0 -120 -58 -186
q-69 -78 -227 -101l-262 -38v404z" />
    <glyph glyph-name="chi" unicode="&#x3c7;" horiz-adv-x="1570" 
d="M1074 0h497l-530 611l470 569h-462l-260 -351l-258 351h-462l469 -569l-530 -611h497l285 379z" />
    <glyph glyph-name="psi" unicode="&#x3c8;" horiz-adv-x="2031" 
d="M122 1179v-668q0 -143 60 -253q70 -128 212 -200q163 -84 412 -91v-333h419v333q363 13 538 181q144 140 144 363v669h-429v-619q0 -119 -55 -197q-65 -91 -198 -106v1310h-419v-1311q-135 13 -200 101q-55 74 -55 203v618h-429z" />
    <glyph glyph-name="omega" unicode="&#x3c9;" horiz-adv-x="2521" 
d="M1048 785v-254q0 -144 -60 -210q-64 -70 -209 -70q-149 0 -214 91q-54 76 -54 216v101q0 132 70 196q81 75 259 69l-2 284q-209 -3 -351.5 -33.5t-230.5 -95.5q-45 -33 -78 -75.5t-54.5 -96t-31.5 -117t-10 -140.5v-118q0 -155 51 -268q62 -136 200 -211q161 -87 425 -87
q164 0 293 51q116 46 200 129q87 -83 205 -128q138 -52 311 -52q262 0 423 87q140 75 202 213q50 111 50 267v117q0 153 -42.5 258t-132.5 171q-60 43 -144.5 71t-192 41.5t-244.5 15.5l-1 -283q204 6 274 -63q17 -16 28 -37t16.5 -48t7.5 -53.5t2 -63.5v-102
q0 -150 -52 -220q-64 -86 -215 -86q-148 0 -211 72q-59 66 -59 208v254h-428z" />
    <glyph glyph-name="iotadieresis" unicode="&#x3ca;" 
d="M-101 1441q0 -72 47.5 -104.5t150.5 -32.5q110 0 156.5 32.5t46.5 104.5q0 75 -46.5 107.5t-156.5 32.5q-104 0 -151 -33t-47 -107zM462 1441q0 -72 47 -104.5t150 -32.5q110 0 157 32.5t47 104.5q0 75 -47 107.5t-157 32.5q-103 0 -150 -33t-47 -107zM589 0v1180h-429
v-1180h429z" />
    <glyph glyph-name="upsilondieresis" unicode="&#x3cb;" horiz-adv-x="1730" 
d="M420 1427q0 -72 47.5 -104.5t150.5 -32.5q110 0 156.5 32.5t46.5 104.5q0 38 -11 64t-35 43t-62.5 25t-94.5 8q-52 0 -89 -8t-61.5 -24.5t-36 -43t-11.5 -64.5zM983 1427q0 -72 47 -104.5t150 -32.5q56 0 94.5 8t63 25t35.5 42.5t11 61.5q0 50 -20 80.5t-65 45t-119 14.5
q-69 0 -112 -14t-64 -45t-21 -81zM129 1180v-632q0 -176 65 -298q74 -138 228 -207q171 -77 444 -77q274 0 445 77q155 70 228 207q64 120 64 298v632h-430v-598q0 -168 -61 -242q-71 -86 -246 -86q-171 0 -242 83q-65 74 -65 244v599h-430z" />
    <glyph glyph-name="omicrontonos" unicode="&#x3cc;" horiz-adv-x="1694" 
d="M680 1634l36 -334h261l45 334h-342zM75 553q0 -270 175 -419q197 -168 597 -168q398 0 598 169q175 148 175 417v75q0 270 -175 419q-199 167 -598 167q-400 0 -597 -167q-175 -149 -175 -418v-75zM505 629q0 136 82 214q91 86 260 86q170 0 259 -86q83 -80 83 -215v-76
q0 -135 -84 -216q-89 -86 -258 -86q-168 0 -258 87q-84 80 -84 214v78z" />
    <glyph glyph-name="upsilontonos" unicode="&#x3cd;" horiz-adv-x="1730" 
d="M722 1582l36 -334h261l45 334h-342zM129 1180v-632q0 -176 65 -298q74 -138 228 -207q171 -77 444 -77q274 0 445 77q155 70 228 207q64 120 64 298v632h-430v-598q0 -168 -61 -242q-71 -86 -246 -86q-171 0 -242 83q-65 74 -65 244v599h-430z" />
    <glyph glyph-name="omegatonos" unicode="&#x3ce;" horiz-adv-x="2521" 
d="M1085 1587l36 -334h261l45 334h-342zM1048 785v-254q0 -144 -60 -210q-64 -70 -209 -70q-149 0 -214 91q-54 76 -54 216v101q0 132 70 196q81 75 259 69l-2 284q-209 -3 -351.5 -33.5t-230.5 -95.5q-90 -65 -132 -170t-42 -259v-118q0 -155 51 -268q62 -136 200 -211
q161 -87 425 -87q164 0 293 51q116 46 200 129q87 -83 205 -128q138 -52 311 -52q262 0 423 87q140 75 202 213q50 111 50 267v117q0 153 -42.5 258t-132.5 171q-45 32 -103.5 56t-131 39.5t-158 23.5t-188.5 9l-1 -283q204 6 274 -63q17 -16 28 -37t16.5 -48t7.5 -53.5
t2 -63.5v-102q0 -150 -52 -220q-64 -86 -215 -86q-148 0 -211 72q-59 66 -59 208v254h-428z" />
    <glyph glyph-name="uni0401" unicode="&#x401;" horiz-adv-x="1740" 
d="M458 1761q0 -72 47.5 -104.5t150.5 -32.5q110 0 156.5 32.5t46.5 104.5q0 75 -46.5 107.5t-156.5 32.5q-69 0 -112.5 -14t-64.5 -45t-21 -81zM1021 1761q0 -72 47 -104.5t150 -32.5q110 0 157 32.5t47 104.5q0 75 -47 107.5t-157 32.5q-103 0 -150 -33t-47 -107zM1633 0
v311h-1008v296h896v311h-896v284h1002v311h-1438v-1513h1444z" />
    <glyph glyph-name="uni0402" unicode="&#x402;" horiz-adv-x="2189" 
d="M1553 1214v299h-1557v-299h557v-1214h442v508q7 122 77 187q81 75 261 75q80 0 138 -25.5t89.5 -76.5t31.5 -123v-48q0 -107 -61 -158q-68 -57 -215 -57l3 -313q272 -12 439 62q148 65 218 197q59 111 59 270v85q0 111 -52 211q-65 125 -192 197q-154 86 -383 86
q-134 0 -243 -37q-99 -33 -170 -92v266h558z" />
    <glyph glyph-name="uni0403" unicode="&#x403;" horiz-adv-x="1534" 
d="M1480 1202v311h-1290v-1513h440v1202h850z" />
    <glyph glyph-name="uni0404" unicode="&#x404;" horiz-adv-x="1937" 
d="M1174 915h-648q28 155 161 239q127 80 313 80q169 0 284 -78q116 -79 147 -223l435 1q-42 285 -256 446q-226 167 -607 167q-454 0 -696 -194q-234 -188 -234 -524v-145q0 -337 233 -523q242 -195 696 -195q386 0 616 174q105 79 167.5 189.5t80.5 242.5l-436 1
q-37 -137 -146 -213q-114 -81 -286 -81q-191 0 -316 83q-137 89 -159 254h651v299z" />
    <glyph glyph-name="uni0405" unicode="&#x405;" horiz-adv-x="1743" 
d="M1670 439q0 184 -121 286q-120 101 -398 154l-362 64q-119 19 -173 57q-51 34 -51 97t61 102q79 51 242 51q201 0 293 -60q73 -48 92 -152h391q-13 231 -195 363q-202 146 -585 146q-274 0 -448 -66q-155 -59 -231 -167q-66 -96 -66 -219q0 -174 106 -281
q112 -114 355 -159l419 -77q121 -23 172 -56q54 -35 54 -98q0 -73 -72 -113q-88 -48 -267 -48q-213 0 -311 74q-75 57 -80 159h-419q0 -111 52 -207.5t153 -167.5q220 -155 601 -155q388 0 588 119t200 354z" />
    <glyph glyph-name="uni0406" unicode="&#x406;" horiz-adv-x="819" 
d="M630 0v1513h-441v-1513h441z" />
    <glyph glyph-name="uni0407" unicode="&#x407;" horiz-adv-x="819" 
d="M-75 1757q0 -72 47.5 -104.5t150.5 -32.5q110 0 156.5 32.5t46.5 104.5q0 75 -46.5 107.5t-156.5 32.5q-69 0 -112.5 -14t-64.5 -45t-21 -81zM488 1757q0 -72 47 -104.5t150 -32.5q110 0 157 32.5t47 104.5q0 50 -20.5 80.5t-65 45t-118.5 14.5q-103 0 -150 -32.5
t-47 -107.5zM630 0v1513h-441v-1513h441z" />
    <glyph glyph-name="uni0408" unicode="&#x408;" horiz-adv-x="1436" 
d="M396 1201h466v-631q0 -145 -83.5 -218t-245.5 -73q-89 0 -224 26q-119 23 -173 46l-125 -266q79 -43 226 -77q175 -42 335 -42q340 0 526 137q205 151 205 457v953h-907v-312z" />
    <glyph glyph-name="uni0409" unicode="&#x409;" horiz-adv-x="2939" 
d="M2891 550q0 243 -185 349q-160 90 -497 90h-310v524l-1587 1v-942q0 -88 -10.5 -141.5t-40.5 -86.5q-31 -35 -89.5 -50.5t-155.5 -15.5v-312q207 0 347.5 31.5t227.5 97.5q84 65 122.5 168.5t38.5 253.5v682h706v-1199h776q310 0 472 94q185 108 185 351v105zM2487 480
q0 -86 -54 -126t-172 -40h-362v363h347q134 0 188 -40q53 -39 53 -130v-27z" />
    <glyph glyph-name="uni040A" unicode="&#x40a;" horiz-adv-x="2829" 
d="M628 0v600h727v-600h776q311 0 471 94q185 108 185 351v105q0 243 -184 349q-159 90 -498 90h-310v524h-440v-601h-727v601h-440v-1513h440zM2383 480q0 -85 -54 -125.5t-171 -40.5h-363v363h348q133 0 187 -40q53 -39 53 -130v-27z" />
    <glyph glyph-name="uni040B" unicode="&#x40b;" horiz-adv-x="2250" 
d="M1625 1202v311h-1641v-311h600v-1202h441v437q6 114 80 195q94 103 269 103q155 0 232 -85q72 -79 72 -227v-423h438v479q0 124 -31 222q-50 150 -173 237q-155 110 -429 110q-131 0 -254 -39q-119 -38 -204 -107v300h600z" />
    <glyph glyph-name="uni040C" unicode="&#x40c;" horiz-adv-x="1920" 
d="M1047 1889l-249 -290h312l335 290h-398zM629 0v605h303l467 -605h501l-605 771l530 742h-489l-422 -579h-285v579h-440v-1513h440z" />
    <glyph glyph-name="uni040E" unicode="&#x40e;" horiz-adv-x="1778" 
d="M1096 1916q-13 -72 -43 -104q-42 -45 -140 -45q-96 0 -141 47q-31 31 -46 102h-237q7 -139 90 -221q106 -104 334 -104q222 0 330 103q82 79 91 222h-238zM1772 1513h-467l-424 -639l-360 639h-519l627 -1025l-304 -488h466z" />
    <glyph glyph-name="uni040F" unicode="&#x40f;" horiz-adv-x="2098" 
d="M1890 0v1513h-441v-1200h-803v1200h-431v-1513h685v-177h394v177h596z" />
    <glyph glyph-name="uni0410" unicode="&#x410;" horiz-adv-x="1947" 
d="M450 0l130 312h787l130 -312h454l-694 1513h-567l-694 -1513h454zM951 1204h46l247 -595h-541z" />
    <glyph glyph-name="uni0411" unicode="&#x411;" horiz-adv-x="1920" 
d="M1675 546q0 224 -182 336q-157 94 -428 94h-436v232h862v305h-1302v-1513h889q257 0 414 98q183 115 183 350v98zM1271 479q0 -82 -56 -125q-50 -40 -136 -40h-450v350h437q95 0 148 -38q57 -41 57 -122v-25z" />
    <glyph glyph-name="uni0412" unicode="&#x412;" horiz-adv-x="1920" 
d="M1841 455q0 146 -110 242q-106 90 -281 109q165 22 245 96.5t80 207.5v47q0 172 -144 264t-403 92h-1039v-1513h1020q300 0 457 90q175 99 175 316v49zM1329 1072q0 -68 -51.5 -106.5t-156.5 -38.5h-491v307h509q100 0 149 -42q41 -35 41 -91v-29zM1395 466
q1 -96 -76 -133q-61 -29 -180 -29h-509v343h503q122 0 188 -35q70 -39 74 -118v-28z" />
    <glyph glyph-name="uni0413" unicode="&#x413;" horiz-adv-x="1534" 
d="M1480 1202v311h-1290v-1513h440v1202h850z" />
    <glyph glyph-name="uni0414" unicode="&#x414;" horiz-adv-x="2094" 
d="M1833 1513h-1366v-518q0 -143 -28 -283q-36 -171 -108 -274q-89 -124 -220 -124v-1h-57v-526h440v213h1102v-213h440v526h-203v1200zM907 1199h486v-886h-714q120 123 178 316q50 165 50 375v195z" />
    <glyph glyph-name="uni0415" unicode="&#x415;" horiz-adv-x="1740" 
d="M1633 0v311h-1008v296h896v311h-896v284h1002v311h-1438v-1513h1444z" />
    <glyph glyph-name="uni0416" unicode="&#x416;" horiz-adv-x="2791" 
d="M1602 0v605h173l467 -605h501l-605 771l530 742h-490l-421 -579h-155v579h-440v-579h-155l-422 579h-490l531 -742l-606 -771h503l466 605h173v-605h440z" />
    <glyph glyph-name="uni0417" unicode="&#x417;" horiz-adv-x="1696" 
d="M1581 440q0 137 -82 219q-90 90 -283 125q172 26 254 94q94 78 94 229v10q0 141 -81 236.5t-244 144.5t-404 49q-379 0 -554 -120q-167 -114 -167 -342v-38h404v23q0 79 84 123q82 41 228 41q131 0 202 -31q86 -40 86 -120q0 -152 -301 -152h-189v-311h191q154 0 232 -31
q85 -34 85 -111v-33q0 -90 -79 -130q-72 -36 -230 -36q-159 0 -242 40q-84 41 -84 113v32h-402v-39q0 -227 190 -343q187 -116 538 -116q401 0 579 113q175 110 175 354v7z" />
    <glyph glyph-name="uni0418" unicode="&#x418;" horiz-adv-x="2088" 
d="M1899 1513h-420l-882 -1015h-7l12 102l7 913h-420v-1513h434l870 990h6l-12 -110l-8 -880h420v1513z" />
    <glyph glyph-name="uni0419" unicode="&#x419;" horiz-adv-x="2088" 
d="M1223 1926q-13 -72 -43 -104q-42 -45 -140 -45q-96 0 -141 47q-31 31 -46 102h-237q7 -139 90 -221q106 -104 334 -104q222 0 330 103q82 79 91 222h-238zM1899 1513h-420l-882 -1015h-7l12 102l7 913h-420v-1513h434l870 990h6l-12 -110l-8 -880h420v1513z" />
    <glyph glyph-name="uni041A" unicode="&#x41a;" horiz-adv-x="1920" 
d="M629 0v605h303l467 -605h501l-605 771l530 742h-489l-422 -579h-285v579h-440v-1513h440z" />
    <glyph glyph-name="uni041B" unicode="&#x41b;" horiz-adv-x="2079" 
d="M1918 0v1513h-1604v-980q0 -74 -11 -120.5t-41 -75.5q-60 -59 -245 -59v-313q208 0 348.5 30t227.5 93q85 63 123 161.5t38 241.5v723h721v-1214h443z" />
    <glyph glyph-name="uni041C" unicode="&#x41c;" horiz-adv-x="2499" 
d="M1039 219h421l452 946h15l-11 -119l-20 -1046h413v1513h-595l-435 -841l-27 -96h-5l-26 94l-436 843h-596v-1513h414l-20 1046l-12 118h15z" />
    <glyph glyph-name="uni041D" unicode="&#x41d;" horiz-adv-x="2088" 
d="M630 0v597h827v-597h442v1513h-442v-596h-827v596h-441v-1513h441z" />
    <glyph glyph-name="uni041E" unicode="&#x41e;" horiz-adv-x="2020" 
d="M80 684q0 -335 233 -523q242 -195 696 -195q452 0 698 197q116 93 174.5 225.5t58.5 295.5v144q0 163 -59 296t-174 226q-246 197 -697 197q-454 0 -696 -195q-234 -187 -234 -524v-144zM1009 279q-210 0 -340 99q-142 107 -142 299l-1 157q0 196 142 302q129 98 341 98
q214 0 343 -97q142 -107 142 -303v-157q0 -192 -142 -299q-132 -99 -343 -99z" />
    <glyph glyph-name="uni041F" unicode="&#x41f;" horiz-adv-x="2062" 
d="M627 0v1214h809v-1214h441v1513h-1690v-1513h440z" />
    <glyph glyph-name="uni0420" unicode="&#x420;" horiz-adv-x="1870" 
d="M1817 1041q0 73 -20 137.5t-58.5 117t-94.5 93.5q-174 124 -472 124h-983v-1513h439v448h555q299 0 465 131q169 133 169 378v84zM1371 965q0 -207 -265 -207h-477v444h492q129 0 189.5 -46t60.5 -145v-46z" />
    <glyph glyph-name="uni0421" unicode="&#x421;" horiz-adv-x="1937" 
d="M1437 573q-37 -137 -146 -213q-114 -81 -286 -81q-206 0 -336 97q-142 105 -142 299l-1 160q0 191 140 299q130 100 341 100q169 0 284 -78q116 -79 147 -223l436 1q-41 284 -257 446q-226 167 -607 167q-453 0 -696 -194q-234 -187 -234 -524v-145q0 -337 233 -523
q242 -195 696 -195q386 0 616 174q70 53 122 121.5t83 146t43 164.5z" />
    <glyph glyph-name="uni0422" unicode="&#x422;" horiz-adv-x="1637" 
d="M1639 1202v311h-1640v-311h599v-1202h441v1202h600z" />
    <glyph glyph-name="uni0423" unicode="&#x423;" horiz-adv-x="1778" 
d="M1772 1513h-467l-424 -639l-360 639h-519l627 -1025l-304 -488h466z" />
    <glyph glyph-name="uni0424" unicode="&#x424;" horiz-adv-x="2082" 
d="M1268 0v107q377 17 582 200q90 80 134.5 181t44.5 210v119q0 146 -77 272q-85 137 -247 219q-184 93 -437 104v104h-440v-107q-259 -11 -439 -103q-162 -82 -246 -219q-76 -124 -76 -271v-119q0 -147 76 -270q84 -138 246 -218q182 -93 439 -104v-105h440zM1583 717
q0 -131 -76 -208q-82 -82 -239 -89v675q154 -7 238 -91q77 -78 77 -206v-81zM513 798q0 126 74 203q83 86 241 93v-674q-159 11 -240 94q-75 76 -75 203v81z" />
    <glyph glyph-name="uni0425" unicode="&#x425;" horiz-adv-x="1856" 
d="M44 1513l596 -747l-648 -766h507l428 535l430 -535h506l-646 768l594 745h-506l-375 -518l-379 518h-507z" />
    <glyph glyph-name="uni0426" unicode="&#x426;" horiz-adv-x="2069" 
d="M1346 1513v-1214h-726v1214h-440v-1513h1439v-175h404v474h-235v1214h-442z" />
    <glyph glyph-name="uni0427" unicode="&#x427;" horiz-adv-x="1880" 
d="M1275 1513v-460q-5 -153 -92 -240q-96 -98 -278 -98q-198 0 -282 107q-70 87 -70 263l-1 428h-437v-471q0 -183 54 -311q63 -154 201 -236q158 -94 413 -94q317 0 492 164v-565h437v1513h-437z" />
    <glyph glyph-name="uni0428" unicode="&#x428;" horiz-adv-x="2507" 
d="M1891 1513v-1199h-405v1199h-440v-1199h-419v1199h-440v-1513h2144v1513h-440z" />
    <glyph glyph-name="uni0429" unicode="&#x429;" horiz-adv-x="2542" 
d="M1891 1513v-1199h-405v1199h-440v-1199h-419v1199h-440v-1513h1923v-214h390v528h-169v1199h-440z" />
    <glyph glyph-name="uni042A" unicode="&#x42a;" horiz-adv-x="1846" 
d="M11 1200h298v-1200h830q310 0 472 94q185 108 185 351v105q0 243 -185 349q-160 90 -497 90h-365v524h-738v-313zM1391 480q0 -85 -54 -125.5t-171 -40.5h-417v363h403q133 0 186 -40t53 -130v-27z" />
    <glyph glyph-name="uni042B" unicode="&#x42b;" horiz-adv-x="2553" 
d="M1656 550q0 243 -184 349q-159 90 -498 90h-365v524h-440v-1513h830q310 0 472 94q185 108 185 351v105zM2366 0v1513h-441v-1513h441zM1251 480q0 -57 -23.5 -93.5t-73.5 -54.5t-128 -18h-417v363h403q133 0 186 -40t53 -130v-27z" />
    <glyph glyph-name="uni042C" unicode="&#x42c;" horiz-adv-x="1771" 
d="M1675 550q0 243 -184 349q-159 90 -498 90h-365v524h-440v-1513h830q310 0 472 94q185 108 185 351v105zM1270 480q0 -57 -23.5 -93.5t-73.5 -54.5t-128 -18h-417v363h403q133 0 186 -40t53 -130v-27z" />
    <glyph glyph-name="uni042D" unicode="&#x42d;" horiz-adv-x="1937" 
d="M776 616h651q-22 -165 -159 -254q-126 -83 -316 -83q-173 0 -285 81q-109 76 -146 213l-437 -1q38 -274 249 -432q230 -174 615 -174q454 0 696 195q233 186 233 523v145q0 336 -233 524q-244 194 -697 194q-381 0 -606 -167q-219 -163 -257 -446l435 -1q31 144 147 223
q115 78 285 78q184 0 312 -79q133 -84 162 -240h-649v-299z" />
    <glyph glyph-name="uni042E" unicode="&#x42e;" horiz-adv-x="2822" 
d="M628 0v600h251q31 -298 263 -462q242 -172 667 -172q455 0 700 198q235 190 235 520v144q0 163 -59 295.5t-175 226.5q-244 197 -700 197q-427 0 -668 -171q-232 -164 -263 -463h-251v600h-440v-1513h440zM1809 279q-215 0 -345 99q-143 109 -143 300v155q0 193 143 302
q130 99 345 99q214 0 346 -98q143 -107 143 -303v-155q0 -191 -143 -300q-131 -99 -346 -99z" />
    <glyph glyph-name="uni042F" unicode="&#x42f;" horiz-adv-x="1955" 
d="M156 987q0 -141 82 -234q71 -80 210 -131q-78 -36 -117 -90q-39 -52 -69 -145l-48 -155q-45 -153 -108 -232h466q53 64 88 193l54 176q23 79 83.5 115.5t170.5 42.5h377v-527h439v1513h-999q-295 0 -460 -122q-169 -126 -169 -359v-45zM602 1038q0 56 21.5 95t68.5 61.5
t117 22.5h535v-380h-486q-120 0 -185 44q-71 47 -71 139v18z" />
    <glyph glyph-name="uni0430" unicode="&#x430;" horiz-adv-x="1706" 
d="M1562 0v611q0 181 -51 297q-64 145 -209 220q-165 85 -448 85q-264 0 -428 -70q-138 -60 -205 -164q-50 -77 -63 -185h406q14 64 62 98q69 48 210 48q169 0 240 -69q57 -56 57 -174v-33q-79 30 -173 50q-128 26 -259 26q-318 0 -466 -100q-134 -92 -134 -275
q0 -104 47 -186q55 -96 172 -150q134 -62 348 -62q162 0 288 62q127 61 177 159v-188h429zM797 241q-152 0 -219 51q-47 36 -47 93q0 53 42 87q62 48 208 48q93 0 208 -27q87 -22 144 -47v-26q-8 -23 -31.5 -52.5t-60.5 -56.5q-97 -70 -244 -70z" />
    <glyph glyph-name="uni0431" unicode="&#x431;" horiz-adv-x="1692" 
d="M74 539q0 -118 43.5 -221t132.5 -179q203 -173 596 -173t597 173q89 76 132.5 179t43.5 221v102q0 232 -172 366q-191 148 -565 148q-173 0 -364 -82q39 96 123 142q98 54 269 54q266 0 396 24q126 24 187 92q28 31 48 75t41 111h-427q-9 -12 -29 -18q-21 -7 -62 -8
q-62 -4 -292 -6q-361 -6 -532 -198q-166 -187 -166 -554v-248zM504 576q0 132 85 211q90 84 257 84q171 0 262 -78q85 -73 85 -205v-62q0 -133 -89.5 -204.5t-257.5 -71.5q-169 0 -257 75q-85 72 -85 199v52z" />
    <glyph glyph-name="uni0432" unicode="&#x432;" horiz-adv-x="1704" 
d="M160 0h886q189 0 315.5 37t188 107.5t61.5 173.5v20q0 92 -58 161q-53 62 -155 100q180 73 180 226v27q0 155 -136 240q-145 88 -416 88h-866v-1180zM1146 827q0 -55 -52 -85q-42 -24 -95 -24h-421v224h417q68 0 108 -23q43 -27 43 -84v-8zM1183 358q0 -55 -38.5 -86
t-114.5 -31h-452v243h432q89 0 131 -31t42 -95z" />
    <glyph glyph-name="uni0433" unicode="&#x433;" horiz-adv-x="1374" 
d="M587 2v890h754v288h-1183v-1180z" />
    <glyph glyph-name="uni0434" unicode="&#x434;" horiz-adv-x="1845" 
d="M429 1181v-283q0 -285 -88 -449q-89 -165 -251 -165h-54v-460h428v176h867v-176h463v460h-168v897h-1197zM856 896h344v-612h-518q94 91 137 241q37 133 37 344v27z" />
    <glyph glyph-name="uni0435" unicode="&#x435;" horiz-adv-x="1612" 
d="M1548 489l3 24q1 4 1.5 13t0.5 14q24 317 -159 495q-184 178 -543 178q-401 0 -599 -166q-177 -148 -177 -416v-66q0 -281 176 -431q197 -168 604 -168q313 0 494 134q147 109 188 293h-398q-16 -58 -85 -102q-81 -54 -208 -54q-165 0 -256 78q-81 68 -86 174h1044z
M505 727q3 38 22 78.5t54 74.5q88 83 254 83q157 0 236 -72q63 -58 75 -170v-3h-641v9z" />
    <glyph glyph-name="uni0436" unicode="&#x436;" horiz-adv-x="2417" 
d="M991 1181v-416h-132l-299 415h-487l460 -577l-522 -603h504l361 471h115v-471h430v471h112l362 -471h504l-523 603l460 577h-487l-299 -415h-129v416h-430z" />
    <glyph glyph-name="uni0437" unicode="&#x437;" horiz-adv-x="1564" 
d="M587 481h190q133 0 189 -36q43 -28 43 -79v-4q0 -58 -50 -88q-63 -38 -220 -38q-152 0 -228 44q-56 32 -62 87v8l-357 -2l1 -20q6 -179 154 -276q166 -111 494 -111q369 0 543 97q157 88 157 257v12q0 25 -8 51.5t-24.5 54t-39.5 51.5q-82 82 -207 103q103 23 183 84
q94 72 94 162l1 18q8 180 -149 265q-172 92 -550 92q-319 0 -479 -95t-169 -286l-1 -22l357 -1q8 68 76 101q69 33 212 33q158 0 224 -38q48 -30 48 -85v-8q0 -51 -61 -73q-61 -24 -171 -24h-191v-150z" />
    <glyph glyph-name="uni0438" unicode="&#x438;" horiz-adv-x="1865" 
d="M1688 1180h-439l-666 -701v701h-428v-1180h439l667 687v-687h427v1180z" />
    <glyph glyph-name="uni0439" unicode="&#x439;" horiz-adv-x="1865" 
d="M1125 1586q-13 -72 -43 -104q-42 -45 -140 -45q-96 0 -141 47q-31 31 -46 102h-237q7 -139 90 -221q106 -104 334 -104q222 0 330 103q82 79 91 222h-238zM1688 1180h-439l-666 -701v701h-428v-1180h439l667 687v-687h427v1180z" />
    <glyph glyph-name="uni043A" unicode="&#x43a;" horiz-adv-x="1682" 
d="M159 1180v-1180h430v471h222l362 -471h504l-523 603l460 577h-487l-299 -415h-239v415h-430z" />
    <glyph glyph-name="uni043B" unicode="&#x43b;" horiz-adv-x="1914" 
d="M1733 0v1180h-1453v-636q0 -78 -10 -129.5t-36 -85.5q-55 -71 -203 -71v-292q374 0 529 143q77 71 112.5 183.5t35.5 274.5v316h596v-883h429z" />
    <glyph glyph-name="uni043C" unicode="&#x43c;" horiz-adv-x="2205" 
d="M898 178h409l348 628l-15 -806h404v1180h-525l-410 -697h-14l-408 697h-527v-1180h404l-14 805z" />
    <glyph glyph-name="uni043D" unicode="&#x43d;" horiz-adv-x="1835" 
d="M585 0v433h668v-433h430v1180h-430v-449h-668v449h-430v-1180h430z" />
    <glyph glyph-name="uni043E" unicode="&#x43e;" horiz-adv-x="1694" 
d="M75 553q0 -270 175 -419q197 -168 597 -168q398 0 598 169q175 148 175 417v75q0 270 -175 419q-199 167 -598 167q-400 0 -597 -167q-175 -149 -175 -418v-75zM505 629q0 136 82 214q91 86 260 86q170 0 259 -86q83 -80 83 -215v-76q0 -135 -84 -216q-89 -86 -258 -86
q-168 0 -258 87q-84 80 -84 214v78z" />
    <glyph glyph-name="uni043F" unicode="&#x43f;" horiz-adv-x="1865" 
d="M585 0v881h649v-881h431v1180h-1510v-1180h430z" />
    <glyph glyph-name="uni0440" unicode="&#x440;" horiz-adv-x="1760" 
d="M589 -366v508q62 -81 164 -126q109 -50 266 -50q316 0 497 175q83 79 126 185.5t43 227.5v65q0 118 -41.5 225.5t-121.5 188.5q-56 56 -128 95.5t-167 62t-205 22.5q-156 0 -267 -50q-99 -45 -166 -131v148h-430v-1546h430zM1254 559q0 -139 -84 -221q-90 -88 -254 -88
q-154 0 -238 81q-89 84 -89 241v29q0 147 76 233q84 95 253 95q163 0 252 -87q84 -84 84 -221v-62z" />
    <glyph glyph-name="uni0441" unicode="&#x441;" horiz-adv-x="1640" 
d="M1572 735q-26 138 -101 236q-85 112 -231 174q-160 68 -388 68q-398 0 -596 -166q-181 -151 -181 -414v-86q0 -264 180 -414q199 -167 597 -167q340 0 533 150q159 124 191 332h-391q-31 -100 -112 -149t-226 -49q-164 0 -255 85q-87 79 -87 208v95q0 127 84 206
q92 85 258 85q145 0 230 -51q78 -47 108 -143h387z" />
    <glyph glyph-name="uni0442" unicode="&#x442;" horiz-adv-x="1358" 
d="M1367 904v276h-1375v-276h475v-905h428v905h472z" />
    <glyph glyph-name="uni0443" unicode="&#x443;" horiz-adv-x="1652" 
d="M1177 1180l-356 -870l-348 870h-460l575 -1180h112l-16 -42q-58 -147 -217 -248l151 -204q115 37 217 132q113 105 183 261l620 1281h-461z" />
    <glyph glyph-name="uni0444" unicode="&#x444;" horiz-adv-x="2750" 
d="M73 525q0 -147 62 -267q70 -134 207 -208q157 -84 385 -84q146 0 260 46q104 41 174 116v-494h429v495q73 -78 174 -117q114 -46 261 -46q228 0 385 84q137 74 206 208q62 120 62 267v128q0 148 -59 265q-68 135 -204 210q-154 85 -384 85q-278 0 -441 -166v521h-429
v-521q-163 166 -440 166q-230 0 -384 -85q-138 -76 -204 -210q-60 -121 -60 -265v-128zM503 640q0 132 79 208q86 81 256 81q140 0 233 -86q85 -82 90 -201v-91q0 -140 -93 -222q-88 -79 -228 -79q-173 0 -258 80q-79 75 -79 205v105zM2248 535q0 -131 -78 -205
q-85 -80 -259 -80q-138 0 -226 79q-95 84 -95 222v91q5 119 91 201q91 86 232 86q171 0 257 -81q78 -75 78 -208v-105z" />
    <glyph glyph-name="uni0445" unicode="&#x445;" horiz-adv-x="1579" 
d="M1074 0h497l-530 611l470 569h-462l-260 -351l-258 351h-462l469 -569l-530 -611h497l285 379z" />
    <glyph glyph-name="uni0446" unicode="&#x446;" horiz-adv-x="1916" 
d="M160 1180v-1180h1289l-2 -203h396v500h-230v883h-428v-883h-596v883h-429z" />
    <glyph glyph-name="uni0447" unicode="&#x447;" horiz-adv-x="1813" 
d="M1205 1180v-208q0 -99 -37 -189q-41 -101 -120 -157q-90 -66 -219 -66q-165 0 -234 111q-52 84 -52 238v271h-429v-278q0 -170 42 -287q53 -155 181 -239q149 -99 403 -99q138 0 257.5 45.5t207.5 131.5v-454h430v1180h-430z" />
    <glyph glyph-name="uni0448" unicode="&#x448;" horiz-adv-x="2441" 
d="M1838 1180v-904h-405v904h-432v-904h-410v903h-432v-1179h2111v1180h-432z" />
    <glyph glyph-name="uni0449" unicode="&#x449;" horiz-adv-x="2566" 
d="M1838 1180v-895h-396v895h-431v-895h-415v895h-431v-1180h1863v-178h429v463h-187v895h-432z" />
    <glyph glyph-name="uni044A" unicode="&#x44a;" horiz-adv-x="1746" 
d="M1 1180v-281h274v-899h835q260 0 416 108q165 115 165 324v15q0 203 -153 307q-160 108 -489 108h-346v318h-702zM1260 426q0 -70 -54 -107q-50 -35 -137 -35h-364v294h363q93 0 145 -41q47 -37 47 -94v-17z" />
    <glyph glyph-name="uni044B" unicode="&#x44b;" horiz-adv-x="2464" 
d="M1847 1204v-1204h397v1204h-397zM160 1180v-1180h834q259 0 415 108q165 115 165 324v15q0 203 -152 307q-158 108 -486 108h-347v318h-429zM1144 426q0 -71 -55 -107q-51 -35 -136 -35h-364v294h363q92 0 144 -41q48 -38 48 -94v-17z" />
    <glyph glyph-name="uni044C" unicode="&#x44c;" horiz-adv-x="1652" 
d="M160 1180v-1180h834q259 0 415 108q165 115 165 324v15q0 203 -152 307q-158 108 -486 108h-347v318h-429zM1144 426q0 -71 -55 -107q-51 -35 -136 -35h-364v294h363q92 0 144 -41q48 -38 48 -94v-17z" />
    <glyph glyph-name="uni044D" unicode="&#x44d;" horiz-adv-x="1640" 
d="M1173 475q-25 -101 -117 -162q-96 -63 -238 -63q-145 0 -229 49t-115 149h-398q28 -205 192 -332q192 -150 532 -150q397 0 598 167q179 150 179 414v86q0 263 -181 414q-199 166 -596 166q-228 0 -388 -68q-144 -61 -230 -174q-76 -100 -102 -236h394q58 194 344 194
q143 0 238 -62q91 -62 115 -157h-498v-235h500z" />
    <glyph glyph-name="uni044E" unicode="&#x44e;" horiz-adv-x="2511" 
d="M589 0v448h290q34 -224 212 -346q198 -136 557 -136q399 0 599 169q176 149 176 417v75q0 268 -176 418q-198 168 -599 168q-363 0 -561 -137q-177 -123 -209 -351h-289v454h-429v-1179h429zM1302 629q0 136 84 214q91 86 262 86t262 -86q83 -80 83 -215v-76
q0 -134 -85 -215q-92 -87 -260 -87q-169 0 -261 87q-85 81 -85 215v77z" />
    <glyph glyph-name="uni044F" unicode="&#x44f;" horiz-adv-x="1630" 
d="M1069 361v-361h421v1180h-828q-249 0 -388 -92q-152 -100 -152 -298v-47q0 -103 64 -181q59 -73 158 -118q-58 -30 -85 -70q-29 -43 -53 -128l-24 -90q-23 -83 -88 -156h449q22 22 36 53q10 21 38 96l26 70q28 88 113 117q24 8 59.5 13.5t60.5 7t79 4.5h114zM552 773
q0 64 51 101q46 34 122 34h344v-277h-339q-86 0 -132 35.5t-46 99.5v7z" />
    <glyph glyph-name="uni0451" unicode="&#x451;" horiz-adv-x="1612" 
d="M351 1433q0 -72 47.5 -104.5t150.5 -32.5q74 0 118.5 14.5t64.5 44.5t20 78q0 75 -46.5 107.5t-156.5 32.5q-52 0 -89 -8t-61.5 -24.5t-36 -43t-11.5 -64.5zM914 1433q0 -72 47 -104.5t150 -32.5q74 0 119 14.5t65 44.5t20 78q0 38 -11 64t-35.5 43t-63 25t-94.5 8
q-69 0 -112 -14t-64 -45t-21 -81zM1548 489l3 24q1 4 1.5 13t0.5 14q24 317 -159 495q-184 178 -543 178q-401 0 -599 -166q-177 -148 -177 -416v-66q0 -281 176 -431q197 -168 604 -168q313 0 494 134q147 109 188 293h-398q-16 -58 -85 -102q-81 -54 -208 -54
q-165 0 -256 78q-81 68 -86 174h1044zM505 727q2 24 10 49t25 53t41 51q88 83 254 83q157 0 236 -72q63 -58 75 -170v-3h-641v9z" />
    <glyph glyph-name="uni0452" unicode="&#x452;" horiz-adv-x="1824" 
d="M1645 879q35 -115 35 -287v-460q0 -270 -99 -401q-120 -158 -410 -158q-125 0 -238 23q-78 14 -148 42l37 252q34 -12 81 -21q58 -13 148 -13q128 0 170 70q19 31 24.5 77t5.5 120v458q0 159 -48 238q-67 110 -240 110q-42 0 -81 -8.5t-73 -24.5t-63.5 -37.5t-54.5 -48.5
q-24 -27 -43 -58t-32 -64t-20 -68t-7 -69v-551h-430v1254h-140v221h140v93h430v-93h287v-221h-287v-248q182 207 499 207q247 0 391 -98q119 -83 166 -236z" />
    <glyph glyph-name="uni0453" unicode="&#x453;" horiz-adv-x="1383" 
d="M843 1588l-249 -290h312l335 290h-398zM587 2v890h754v288h-1183v-1180z" />
    <glyph glyph-name="uni0454" unicode="&#x454;" horiz-adv-x="1630" 
d="M980 475v235h-499q26 97 116 157q95 62 238 62q283 0 345 -194h393q-39 211 -198 333q-189 145 -521 145q-397 0 -597 -166q-181 -151 -181 -414v-86q0 -264 180 -414q199 -167 597 -167q341 0 533 150q159 124 191 332h-398q-30 -100 -114 -149t-230 -49q-143 0 -237 63
q-93 61 -118 162h500z" />
    <glyph glyph-name="uni0455" unicode="&#x455;" horiz-adv-x="1524" 
d="M1455 366q0 100 -40.5 165t-123.5 105q-76 36 -189.5 58t-297.5 42q-152 17 -197 37q-18 7 -29 17t-15.5 22t-4.5 28q0 50 54 78q53 28 171 28q156 0 218 -48q35 -28 45 -83h369q-11 181 -166 284q-172 114 -489 114q-340 0 -498 -111q-134 -94 -134 -263
q0 -88 32.5 -151.5t103.5 -109.5q143 -92 479 -123q162 -15 208 -29q37 -12 55.5 -31t18.5 -51q0 -51 -59 -82q-71 -37 -211 -36q-152 0 -225 48q-60 39 -72 117h-368q28 -188 164 -292q171 -133 509 -133q347 0 532 122q81 54 120.5 125.5t39.5 152.5z" />
    <glyph glyph-name="uni0456" unicode="&#x456;" 
d="M126 1459q0 -75 57 -118q62 -48 189 -48q129 0 191 48q56 43 56 118v3q0 75 -56 118q-65 49 -191 49q-125 0 -189 -49q-57 -43 -57 -118v-3zM589 0v1180h-429v-1180h429z" />
    <glyph glyph-name="uni0457" unicode="&#x457;" 
d="M-112 1434q0 -72 47.5 -104.5t150.5 -32.5q74 0 118.5 14.5t64.5 44.5t20 78q0 75 -46.5 107.5t-156.5 32.5q-69 0 -112.5 -14t-64.5 -45t-21 -81zM451 1434q0 -72 47 -104.5t150 -32.5q110 0 157 32.5t47 104.5q0 75 -47 107.5t-157 32.5q-103 0 -150 -33t-47 -107z
M589 0v1180h-429v-1180h429z" />
    <glyph glyph-name="uni0458" unicode="&#x458;" horiz-adv-x="750" 
d="M133 1459q0 -75 57 -118q62 -48 190 -48q129 0 191 48q56 43 56 118v3q0 75 -56 118q-65 49 -191 49q-125 0 -190 -49q-57 -43 -57 -118v-3zM168 1180v-1059q0 -74 -5.5 -119t-24.5 -77q-42 -71 -170 -71q-60 0 -138 10q-46 6 -91 17l-37 -245q65 -26 148 -41
q113 -23 238 -23q290 0 410 158q99 131 99 400v1050h-429z" />
    <glyph glyph-name="uni0459" unicode="&#x459;" horiz-adv-x="2726" 
d="M273 1180v-636q0 -155 -46 -215q-55 -71 -203 -71v-292q374 0 529 143q77 71 112.5 183.5t35.5 274.5v314h614v-881h783q260 0 416 108q166 115 166 324v15q0 203 -152 307q-158 108 -488 108h-296v318h-1471zM2249 426q0 -71 -55 -107q-51 -35 -137 -35h-313v294h313
q92 0 144 -41q48 -38 48 -94v-17z" />
    <glyph glyph-name="uni045A" unicode="&#x45a;" horiz-adv-x="2667" 
d="M585 0v433h669v-433h783q260 0 416 108q165 115 165 324v15q0 203 -152 307q-158 108 -487 108h-295v318h-430v-449h-669v449h-429v-1180h429zM2187 426q0 -70 -54 -107q-50 -35 -136 -35h-313v294h311q93 0 145 -41q47 -37 47 -94v-17z" />
    <glyph glyph-name="uni045B" unicode="&#x45b;" horiz-adv-x="1869" 
d="M607 0v551q0 69 27 136.5t77 121.5q110 120 274 120q174 0 241 -111q49 -81 49 -238v-580h429v591q0 172 -35 287q-49 155 -167 237q-145 98 -393 98q-155 0 -283 -52.5t-219 -156.5v244h238v230h-238v90h-430v-90h-172v-230h172v-1248h430z" />
    <glyph glyph-name="uni045C" unicode="&#x45c;" horiz-adv-x="1697" 
d="M946 1556l-249 -290h312l335 290h-398zM159 1180v-1180h430v471h222l362 -471h504l-523 603l460 577h-487l-299 -415h-239v415h-430z" />
    <glyph glyph-name="uni045E" unicode="&#x45e;" horiz-adv-x="1581" 
d="M986 1587q-13 -72 -43 -104q-42 -45 -140 -45q-96 0 -141 47q-31 31 -46 102h-237q7 -139 90 -221q106 -104 334 -104q222 0 330 103q82 79 91 222h-238zM1143 1180l-356 -870l-348 870h-460l575 -1180h112l-16 -42q-58 -147 -217 -248l151 -204q115 37 217 132
q113 105 183 261l620 1281h-461z" />
    <glyph glyph-name="uni045F" unicode="&#x45f;" horiz-adv-x="1839" 
d="M152 0h552v-178h395v178h522v1180h-430v-896h-609v896h-430v-1180z" />
    <glyph glyph-name="uni0462" unicode="&#x462;" horiz-adv-x="1773" 
d="M1489 899q184 -106 184 -349v-105q0 -243 -185 -351q-162 -94 -472 -94h-830v1294h-171v221h857v-221h-246v-305h365q339 0 498 -90zM1268 480v27q0 90 -53 130t-186 40h-403v-363h417q117 0 171 40.5t54 125.5z" />
    <glyph glyph-name="uni0463" unicode="&#x463;" horiz-adv-x="1683" 
d="M886 1194v242h-323v124h-392v-124h-174v-242h174v-1194h778q281 0 428 93q156 100 156 299v71q0 207 -159 304q-147 90 -438 90h-373v337h323zM1141 410q0 -65 -61 -95q-51 -25 -140 -25h-377v277l375 1q96 0 148 -29q55 -31 55 -100v-29z" />
    <glyph glyph-name="uni0472" unicode="&#x472;" horiz-adv-x="2020" 
d="M73 684q0 -336 234 -522q245 -196 700 -196q456 0 701 198q235 190 235 520v144q0 163 -59.5 295.5t-175.5 226.5q-244 197 -700 197q-455 0 -700 -195q-235 -188 -235 -524v-144zM1007 1234q214 0 346 -98q143 -107 143 -303v-133l-877 397q67 68 167 102.5t221 34.5z
M1007 279q-214 0 -344 99q-143 109 -143 300l-1 107l855 -389q-135 -117 -367 -117z" />
    <glyph glyph-name="uni0473" unicode="&#x473;" horiz-adv-x="1689" 
d="M72 553q0 -269 176 -419q197 -168 599 -168q401 0 599 169q176 149 176 417v75q0 268 -176 418q-197 168 -599 168t-599 -167q-176 -150 -176 -418v-75zM847 929q149 0 240 -67q82 -61 101 -173l-650 93q84 147 309 147zM847 250q-146 0 -236 66q-83 60 -103 169l645 -92
q-83 -143 -306 -143z" />
    <glyph glyph-name="uni0474" unicode="&#x474;" horiz-adv-x="1933" 
d="M1489 1513l-503 -1219h-41l-502 1219h-456l689 -1513h580l689 1513h-456z" />
    <glyph glyph-name="uni0475" unicode="&#x475;" horiz-adv-x="1651" 
d="M1177 1180l-337 -904h-31l-336 904h-460l540 -1180h544l540 1180h-460z" />
    <glyph glyph-name="uni0490" unicode="&#x490;" horiz-adv-x="1544" 
d="M1486 1201v1h16v490h-389v-179h-925v-1513h440v1201h858z" />
    <glyph glyph-name="uni0491" unicode="&#x491;" horiz-adv-x="1500" 
d="M1441 905v95q0 65 1 98v99v167l-389 3v-170h-864v-1197h393v905h859z" />
    <glyph glyph-name="uni04D9" unicode="&#x4d9;" horiz-adv-x="1612" 
d="M76 690q0 -4 -0.5 -11.5t-1.5 -11.5t-1.5 -13.5t-0.5 -14.5q-24 -318 158 -494q184 -179 543 -179q401 0 599 166q177 147 177 416v66q0 282 -176 432q-195 167 -604 167q-213 0 -368 -63q-135 -56 -216 -158q-71 -91 -97 -206h397q16 57 85 103q82 53 208 53
q164 0 257 -78q80 -68 85 -174h-1044zM1120 452q-10 -91 -76 -152q-89 -84 -254 -84q-160 0 -237 71q-67 61 -75 170v4h642v-9z" />
    <glyph glyph-name="Wgrave" unicode="&#x1e80;" horiz-adv-x="2631" 
d="M795 1938l361 -290h303l-277 290h-387zM1635 0h539l454 1513h-455l-264 -1050l-16 -163h-13l-21 163l-314 1050h-458v-1l-1 1l-314 -1050l-21 -163h-14l-15 161l-265 1052h-454l454 -1513h533v1l6 -1l306 1020l11 68h6l11 -67z" />
    <glyph glyph-name="wgrave" unicode="&#x1e81;" horiz-adv-x="2479" 
d="M722 1600l361 -290h303l-277 290h-387zM389 0h592l254 868h8l255 -868h592l367 1180h-448l-213 -913h-35l-260 913h-523l-261 -913h-34l-213 913h-448z" />
    <glyph glyph-name="Wacute" unicode="&#x1e82;" horiz-adv-x="2631" 
d="M1409 1938l-249 -290h312l335 290h-398zM1635 0h539l454 1513h-455l-264 -1050l-16 -163h-13l-21 163l-314 1050h-458v-1l-1 1l-314 -1050l-21 -163h-14l-15 161l-265 1052h-454l454 -1513h533v1l6 -1l306 1020l11 68h6l11 -67z" />
    <glyph glyph-name="wacute" unicode="&#x1e83;" horiz-adv-x="2479" 
d="M1336 1599l-249 -290h312l335 290h-398zM389 0h592l254 868h8l255 -868h592l367 1180h-448l-213 -913h-35l-260 913h-523l-261 -913h-34l-213 913h-448z" />
    <glyph glyph-name="Wdieresis" unicode="&#x1e84;" horiz-adv-x="2631" 
d="M825 1787q0 -72 47.5 -104.5t150.5 -32.5q110 0 156.5 32.5t46.5 104.5q0 75 -46.5 107.5t-156.5 32.5q-104 0 -151 -33t-47 -107zM1388 1787q0 -72 47 -104.5t150 -32.5q110 0 157 32.5t47 104.5q0 75 -47 107.5t-157 32.5q-103 0 -150 -33t-47 -107zM1635 0h539
l454 1513h-455l-264 -1050l-16 -163h-13l-21 163l-314 1050h-458v-1l-1 1l-314 -1050l-21 -163h-14l-15 161l-265 1052h-454l454 -1513h533v1l6 -1l306 1020l11 68h6l11 -67z" />
    <glyph glyph-name="wdieresis" unicode="&#x1e85;" horiz-adv-x="2479" 
d="M753 1449q0 -72 47.5 -104.5t150.5 -32.5q110 0 156.5 32.5t46.5 104.5q0 75 -46.5 107.5t-156.5 32.5q-104 0 -151 -33t-47 -107zM1316 1449q0 -72 47 -104.5t150 -32.5q110 0 157 32.5t47 104.5q0 75 -47 107.5t-157 32.5q-69 0 -112 -14t-64 -45t-21 -81zM389 0h592
l254 868h8l255 -868h592l367 1180h-448l-213 -913h-35l-260 913h-523l-261 -913h-34l-213 913h-448z" />
    <glyph glyph-name="uni1E9E" unicode="&#x1e9e;" horiz-adv-x="1791" 
d="M867 687h75q162 -1 234 -47q63 -40 63 -131v-24q0 -98 -62 -142q-76 -52 -253 -52v-312q436 0 610 123q81 58 116 143t35 202v52q0 165 -92 260.5t-285 133.5l328 293v327h-722q-310 0 -479 -70q-153 -63 -216 -194q-51 -103 -51 -288v-961h438v886q0 57 3.5 97t15 77.5
t31.5 62.5q32 40 91.5 59.5t158.5 19.5h240l-279 -248v-267z" />
    <glyph glyph-name="Ygrave" unicode="&#x1ef2;" horiz-adv-x="1811" 
d="M388 1933l361 -290h303l-277 290h-387zM1853 1513h-501l-446 -660l-448 660h-501l728 -984v-529h441v529z" />
    <glyph glyph-name="ygrave" unicode="&#x1ef3;" horiz-adv-x="1652" 
d="M303 1598l361 -290h303l-277 290h-387zM1177 1180l-356 -870l-348 870h-460l575 -1180h112l-16 -42q-58 -147 -217 -248l151 -204q115 37 217 132q113 105 183 261l620 1281h-461z" />
    <glyph glyph-name="figuredash" unicode="&#x2012;" horiz-adv-x="1340" 
d="M1220 457v267h-1080v-267h1080z" />
    <glyph glyph-name="endash" unicode="&#x2013;" horiz-adv-x="1747" 
d="M1656 455v265h-1557v-265h1557z" />
    <glyph glyph-name="emdash" unicode="&#x2014;" horiz-adv-x="2687" 
d="M2497 455v267h-2321v-267h2321z" />
    <glyph glyph-name="quoteleft" unicode="&#x2018;" horiz-adv-x="635" 
d="M221 1600q-67 -131 -97 -229q-28 -87 -28 -146v-263h445v281h-65q-76 0 -64 106q9 83 68 224z" />
    <glyph glyph-name="quoteright" unicode="&#x2019;" horiz-adv-x="629" 
d="M420 877q124 247 124 376v260h-445v-278h65q77 0 65 -106q-9 -83 -68 -224z" />
    <glyph glyph-name="quotesinglbase" unicode="&#x201a;" 
d="M473 -339q124 241 124 375v260h-445v-278h66q77 0 65 -106q-9 -83 -68 -224z" />
    <glyph glyph-name="quotedblleft" unicode="&#x201c;" horiz-adv-x="1259" 
d="M831 1607q-125 -243 -125 -375v-264h445v282h-65q-77 0 -65 106q10 90 69 223zM249 1605q-67 -133 -97 -230q-28 -87 -28 -145v-262h445v280h-66q-76 0 -63 106q9 83 68 224z" />
    <glyph glyph-name="quotedblright" unicode="&#x201d;" horiz-adv-x="1217" 
d="M433 877q125 243 125 375v261h-445v-279h65q77 0 65 -106q-9 -81 -67 -224zM969 878q126 244 126 375v260h-445v-278h64q77 0 65 -106q-9 -83 -68 -224z" />
    <glyph glyph-name="quotedblbase" unicode="&#x201e;" horiz-adv-x="1287" 
d="M461 -339q124 247 124 375v260h-445v-278h66q76 0 64 -106q-9 -83 -68 -224zM1010 -339q124 247 124 375v260h-445v-278h66q76 0 64 -106q-9 -81 -67 -224z" />
    <glyph glyph-name="dagger" unicode="&#x2020;" horiz-adv-x="1517" 
d="M1411 779v295h-467v447h-395v-447h-468v-295h468v-1130h395v1130h467z" />
    <glyph glyph-name="daggerdbl" unicode="&#x2021;" horiz-adv-x="1517" 
d="M1412 779v295h-468v447h-395v-447h-469v-295h469v-342h-442v-298h442v-490h395v490h441v298h-441v342h468z" />
    <glyph glyph-name="bullet" unicode="&#x2022;" horiz-adv-x="834" 
d="M667 666q0 102 -69 169t-169 67t-169 -67q-71 -68 -71 -169q0 -96 71 -164q70 -68 169 -68t169 68q69 67 69 164z" />
    <glyph glyph-name="ellipsis" unicode="&#x2026;" horiz-adv-x="2394" 
d="M178 138q0 -83 58.5 -121.5t184.5 -38.5q131 0 191 39q57 37 57 121q0 85 -57 124q-58 39 -191 39q-126 0 -184.5 -39t-58.5 -124zM945 138q0 -83 58 -121.5t183 -38.5q132 0 192 39q57 37 57 121q0 86 -58 124.5t-191 38.5q-125 0 -183 -39t-58 -124zM1710 138
q0 -83 57.5 -121.5t183.5 -38.5q133 0 193 39q57 37 57 121q0 85 -57 124q-58 39 -193 39q-126 0 -183.5 -39t-57.5 -124z" />
    <glyph glyph-name="perthousand" unicode="&#x2030;" horiz-adv-x="4216" 
d="M97 977q0 -206 116 -327q138 -145 432 -145q293 0 431 141q113 117 113 331v89q0 219 -112 338q-135 141 -432 141q-299 0 -434 -141q-114 -119 -114 -338v-89zM2174 1522h-385l-974 -1522h384zM645 745q-117 0 -172 78q-45 61 -45 154v112q0 87 41 143q54 75 176 75
t174 -76q38 -56 38 -145v-118q0 -95 -43 -151q-55 -72 -169 -72zM1804 438q0 -205 116 -327q138 -145 432 -145q295 0 431 141q113 117 113 332v88q0 219 -112 338q-135 141 -432 141q-298 0 -434 -141q-114 -119 -114 -338v-89zM3027 438q0 -206 116 -327
q138 -145 432 -145q295 0 431 141q113 117 113 332v88q0 219 -112 338q-135 141 -432 141q-298 0 -434 -141q-114 -119 -114 -338v-89zM2352 206q-116 0 -171 78q-45 61 -45 154v112q0 87 41 143q54 75 175 75q120 0 174 -75q38 -54 38 -146v-118q0 -95 -43 -151
q-55 -72 -169 -72zM3575 206q-116 0 -171 78q-45 61 -45 154v112q0 87 41 143q54 75 175 75q120 0 174 -75q38 -54 38 -146v-118q0 -95 -43 -151q-55 -72 -169 -72z" />
    <glyph glyph-name="guilsinglleft" unicode="&#x2039;" horiz-adv-x="973" 
d="M869 187l-400 403l400 404h-398l-388 -404l388 -403h398z" />
    <glyph glyph-name="guilsinglright" unicode="&#x203a;" horiz-adv-x="905" 
d="M480 187l386 403l-386 404h-399l399 -404l-399 -403h399z" />
    <glyph glyph-name="fraction" unicode="&#x2044;" horiz-adv-x="923" 
d="M1161 1477l-272 163l-1064 -1527l282 -163z" />
    <glyph glyph-name="uni2070" unicode="&#x2070;" horiz-adv-x="1379" 
d="M144 1277q0 -206 117 -327q138 -145 432 -145q293 0 431 141q113 117 113 331v89q0 219 -112 338q-136 141 -432 141q-299 0 -435 -141q-114 -119 -114 -338v-89zM693 1045q-117 0 -172 78q-45 61 -45 154v112q0 86 43 143q56 75 174 75q116 0 171 -76q41 -58 41 -145
v-118q0 -92 -45 -151q-57 -72 -167 -72z" />
    <glyph glyph-name="uni2074" unicode="&#x2074;" horiz-adv-x="1265" 
d="M395 1822l-349 -672v-178h677v-144h346v144h151v259h-151v229h-346v-229h-280l305 591h-353z" />
    <glyph glyph-name="uni2075" unicode="&#x2075;" horiz-adv-x="1253" 
d="M1163 1163q0 38 -3.5 69.5t-12 62.5t-24 57.5t-38.5 48.5q-99 94 -352 94q-112 0 -180 -17q-55 -14 -106 -45l11 151h623v238h-950l-33 -594h347v13q23 23 65 35q55 16 127 16q107 0 149 -34q29 -25 29 -81q0 -70 -31 -99q-41 -38 -160 -38q-98 0 -142 23q-36 19 -36 55
v14h-348v-10q0 -159 118 -236q127 -86 408 -86q295 0 417 83q63 43 92.5 111.5t29.5 168.5z" />
    <glyph glyph-name="uni2076" unicode="&#x2076;" horiz-adv-x="1284" 
d="M90 1187q0 -116 35 -186q43 -92 154 -140q124 -56 351 -56q228 0 358 46q110 38 159 120q36 63 36 168v15q0 111 -20 165q-29 78 -116 118q-101 44 -293 44q-229 0 -317 -101v61q0 72 28 112q44 61 162 61q63 0 103 -8q35 -7 56 -20q26 -17 26 -58v-12h334v19
q0 97 -32 156q-40 73 -147 112q-120 42 -340 42q-215 0 -342 -66q-111 -57 -157 -161q-38 -83 -38 -198v-233zM646 1246q67 0 107 -8q36 -9 57 -23q26 -21 26 -69v-7q0 -50 -31 -70q-44 -27 -170 -27q-73 0 -112 10q-40 10 -59 25q-27 21 -27 61v19q2 41 40 63q49 26 169 26
z" />
    <glyph glyph-name="uni2077" unicode="&#x2077;" horiz-adv-x="1166" 
d="M1110 1589v233h-1053v-335h323v74h346l-473 -733h377z" />
    <glyph glyph-name="uni2078" unicode="&#x2078;" horiz-adv-x="1271" 
d="M122 1540q0 -65 22 -106q26 -55 87 -89q-73 -33 -104 -85q-25 -40 -25 -100v-38q0 -155 107 -229q126 -88 429 -88q304 0 428 87q105 74 105 231v36q0 60 -24 100q-34 55 -105 87q110 63 110 193v7q0 145 -100 215q-123 84 -414 84q-290 0 -413 -85q-103 -71 -103 -216
v-4zM638 1451q-65 0 -97 7q-38 8 -53 19q-26 17 -26 56v3q0 35 29 54q40 27 147 27q104 0 146 -25q29 -19 29 -55v-6q0 -16 -4 -28q-8 -30 -74 -44q-37 -8 -97 -8zM638 1237q118 0 164 -32q31 -22 31 -61v-9q0 -43 -37 -67q-47 -29 -158 -29q-108 0 -157 29q-39 23 -39 67v9
q0 38 31 60q47 33 165 33z" />
    <glyph glyph-name="uni2079" unicode="&#x2079;" horiz-adv-x="1280" 
d="M1180 1463q0 116 -35 187q-45 91 -155 140q-127 55 -351 55q-329 0 -456 -98q-55 -42 -76 -100.5t-21 -135.5v-15q0 -108 21 -164q29 -79 116 -117q99 -45 293 -45q228 0 316 100v-61q0 -72 -27 -111q-43 -62 -163 -62q-63 0 -103 8q-36 7 -55 20q-27 17 -27 58v12h-334
v-19q0 -96 32 -155q41 -75 147 -112q118 -43 340 -43q214 0 343 66q111 57 158 161q37 83 37 197v234zM623 1404q-70 0 -107 9q-36 7 -56 22q-27 21 -27 69v7q0 51 32 70q43 27 169 27q74 0 113 -10t59 -24q26 -21 26 -62v-12q0 -46 -35 -67q-49 -29 -174 -29z" />
    <glyph glyph-name="uni207D" unicode="&#x207d;" horiz-adv-x="778" 
d="M728 754v240h-76q-126 0 -194 71q-53 54 -53 136v249q0 80 39 131q57 76 206 76h78v239h-100q-234 0 -370 -72q-111 -60 -155 -176q-32 -85 -32 -218v-209q0 -138 37 -226q46 -114 159 -172q130 -69 362 -69h99z" />
    <glyph glyph-name="uni207E" unicode="&#x207e;" horiz-adv-x="770" 
d="M161 754q232 0 362 69q112 58 160 172q36 89 36 226v209q0 136 -31 218q-43 115 -156 176q-136 72 -370 72h-99v-239h77q149 0 207 -76q38 -51 38 -131v-249q0 -81 -52 -136q-66 -71 -194 -71h-76v-240h98z" />
    <glyph glyph-name="uni2080" unicode="&#x2080;" horiz-adv-x="1379" 
d="M144 72q0 -206 117 -327q138 -145 432 -145q293 0 431 141q113 117 113 331v89q0 219 -112 338q-136 141 -432 141q-299 0 -435 -141q-114 -119 -114 -338v-89zM693 -160q-117 0 -172 78q-45 61 -45 154v112q0 86 43 143q56 75 174 75q116 0 171 -76q41 -58 41 -145v-118
q0 -92 -45 -151q-57 -72 -167 -72z" />
    <glyph glyph-name="uni2081" unicode="&#x2081;" horiz-adv-x="878" 
d="M40 253q85 4 172 26q76 17 133 42v-698h334v994h-277q-73 -42 -155 -75q-109 -44 -207 -61v-228z" />
    <glyph glyph-name="uni2082" unicode="&#x2082;" horiz-adv-x="1266" 
d="M1147 -377v249h-608q10 15 40 33.5t59.5 32t86.5 38.5q193 84 279 143q143 100 143 222q0 143 -118 219q-129 82 -389 82q-284 0 -416 -85q-125 -81 -125 -245v-39h348v32q0 39 32 58q44 26 155 26q101 0 141 -23q34 -21 34 -61q0 -39 -111 -90q-65 -31 -246 -101
q-167 -67 -246 -114q-112 -68 -112 -130v-247h1053z" />
    <glyph glyph-name="uni2083" unicode="&#x2083;" horiz-adv-x="1229" 
d="M1129 -95q0 100 -73 162q-64 54 -179 65q110 6 170 55q65 52 65 145q0 154 -121 230q-126 78 -398 78q-291 0 -404 -82q-38 -27 -61 -64.5t-32.5 -81t-9.5 -100.5v-11l329 2v19q0 43 32 61q36 20 143 20q106 0 148 -24q33 -19 33 -61v-10q0 -48 -60 -65q-48 -15 -154 -15
h-89v-201h176q69 0 102 -16q40 -21 40 -67v-28q0 -44 -51 -60q-53 -17 -145 -17q-119 0 -162 29q-29 19 -29 62v19h-327v-19q0 -183 132 -261q120 -72 388 -72q254 0 393 76q144 79 144 232z" />
    <glyph glyph-name="uni2084" unicode="&#x2084;" horiz-adv-x="1265" 
d="M395 617l-349 -672v-178h677v-144h346v144h151v259h-151v229h-346v-229h-280l305 591h-353z" />
    <glyph glyph-name="uni2085" unicode="&#x2085;" horiz-adv-x="1253" 
d="M1163 -42q0 78 -17 137t-61 101q-99 94 -352 94q-112 0 -180 -17q-55 -14 -106 -45l11 151h623v238h-950l-33 -594h347v13q23 23 65 35q55 16 127 16q107 0 149 -34q29 -25 29 -81q0 -70 -31 -99q-41 -38 -160 -38q-98 0 -142 23q-36 19 -36 55v14h-348v-10
q0 -159 118 -236q127 -86 408 -86q295 0 417 83q63 43 92.5 111.5t29.5 168.5z" />
    <glyph glyph-name="uni2086" unicode="&#x2086;" horiz-adv-x="1290" 
d="M90 -16q0 -116 35 -186q43 -92 154 -140q124 -56 351 -56q228 0 358 46q110 38 159 120q36 63 36 168v15q0 111 -20 165q-29 78 -116 118q-101 44 -293 44q-229 0 -317 -101v61q0 72 28 112q44 61 162 61q63 0 103 -8q35 -7 56 -20q26 -17 26 -58v-12h334v19
q0 97 -32 156q-40 73 -147 112q-120 42 -340 42q-215 0 -342 -66q-111 -57 -157 -161q-38 -83 -38 -198v-233zM646 43q67 0 107 -8q36 -9 57 -23q26 -21 26 -69v-7q0 -51 -31 -70q-44 -27 -170 -27q-73 0 -112 10q-40 10 -59 25q-27 20 -27 61v19q2 41 40 63q49 26 169 26z
" />
    <glyph glyph-name="uni2087" unicode="&#x2087;" horiz-adv-x="1166" 
d="M1110 376v233h-1053v-335h323v74h346l-473 -733h377z" />
    <glyph glyph-name="uni2088" unicode="&#x2088;" horiz-adv-x="1278" 
d="M122 331q0 -65 22 -106q26 -55 87 -89q-73 -33 -104 -85q-25 -40 -25 -100v-38q0 -155 107 -229q126 -88 429 -88q304 0 428 87q105 74 105 231v36q0 60 -24 100q-34 55 -105 87q110 63 110 193v7q0 145 -100 215q-123 84 -414 84q-290 0 -413 -85q-103 -71 -103 -216v-4
zM638 242q-65 0 -97 7q-38 8 -53 19q-26 17 -26 56v3q0 35 29 54q40 27 147 27q104 0 146 -25q29 -19 29 -55v-6q0 -16 -4 -28q-8 -30 -74 -44q-37 -8 -97 -8zM638 28q118 0 164 -32q31 -22 31 -61v-9q0 -43 -37 -67q-47 -29 -158 -29q-108 0 -157 29q-39 23 -39 67v9
q0 38 31 60q47 33 165 33z" />
    <glyph glyph-name="uni2089" unicode="&#x2089;" horiz-adv-x="1290" 
d="M1180 258q0 116 -35 187q-45 91 -155 140q-127 55 -351 55q-329 0 -456 -98q-37 -29 -59.5 -68t-30 -78.5t-7.5 -89.5v-15q0 -108 21 -164q29 -79 116 -117q99 -45 293 -45q228 0 316 100v-61q0 -72 -27 -111q-43 -62 -163 -62q-63 0 -103 8q-36 7 -55 20q-27 17 -27 58
v12h-334v-19q0 -96 32 -155q41 -75 147 -112q118 -43 340 -43q214 0 343 66q111 57 158 161q37 83 37 197v234zM623 199q-70 0 -107 9q-36 7 -56 22q-27 21 -27 69v7q0 51 32 70q43 27 169 27q74 0 113 -10t59 -24q26 -21 26 -62v-12q0 -46 -35 -67q-49 -29 -174 -29z" />
    <glyph glyph-name="uni208D" unicode="&#x208d;" horiz-adv-x="769" 
d="M728 -451v240h-76q-126 0 -194 71q-53 54 -53 136v249q0 80 39 131q57 76 206 76h78v239h-100q-234 0 -370 -72q-111 -60 -155 -176q-32 -85 -32 -218v-209q0 -138 37 -226q46 -113 159 -172q130 -69 362 -69h99z" />
    <glyph glyph-name="uni208E" unicode="&#x208e;" horiz-adv-x="761" 
d="M161 -444q232 0 362 69q112 58 160 172q36 89 36 226v209q0 136 -31 218q-43 115 -156 176q-136 72 -370 72h-99v-239h77q149 0 207 -76q38 -51 38 -131v-249q0 -81 -52 -136q-66 -71 -194 -71h-76v-240h98z" />
    <glyph glyph-name="lira" unicode="&#x20a4;" horiz-adv-x="1559" 
d="M569 1083q0 74 67 114.5t204 40.5q139 0 209 -60q61 -54 56 -143l370 1q0 241 -134 366q-159 145 -523 146q-332 0 -507 -97q-185 -102 -185 -304q0 -127 49 -233h-97v-182h212q26 -37 51 -83h-263v-183h281q-18 -65 -75.5 -110.5t-163.5 -77.5v-282q20 2 60 4.5t59 3.5
q136 8 219 8q117 0 347 -22q220 -23 338 -23q210 0 382 105l-125 257q-77 -36 -149 -52q-71 -17 -161 -17q-64 0 -117 10l-110 18q-136 22 -231 1q109 66 144 177h340v183h-331q-12 43 -34 83h365v182h-488q-59 89 -59 169z" />
    <glyph glyph-name="Euro" unicode="&#x20ac;" horiz-adv-x="2033" 
d="M1391 360q109 76 146 213l436 -1q-18 -132 -80.5 -242.5t-167.5 -189.5q-230 -174 -616 -174q-454 0 -696 195q-175 140 -219 370h-165l29 175h122v92h-151l29 175h134q43 237 222 380q243 194 696 194q381 0 607 -167q216 -162 257 -446l-436 -1q-31 144 -147 223
q-115 78 -284 78q-211 0 -341 -100q-82 -62 -118 -161h538l-28 -175h-532l1 -92h559l-28 -175h-507q35 -94 118 -155q130 -97 336 -97q172 0 286 81z" />
    <glyph glyph-name="uni2116" unicode="&#x2116;" horiz-adv-x="3305" 
d="M2087 969q0 -205 117 -322q139 -141 433 -141q298 0 432 136q113 114 113 328v105q0 219 -112 334q-135 137 -433 137q-205 0 -333 -63q-114 -58 -169 -169q-48 -97 -48 -238v-107zM1860 0v1513h-440l9 -961h-6l-796 961h-441v-1513h441l-11 943h4l800 -943h440z
M2637 746q-118 0 -172 73q-45 59 -45 150v129q0 86 43 139q55 71 174 71t173 -71q41 -56 41 -141v-135q0 -92 -45 -148q-55 -67 -169 -67zM3211 156v267h-1132v-267h1132z" />
    <glyph glyph-name="trademark" unicode="&#x2122;" horiz-adv-x="2603" 
d="M1030 1273v240h-1033v-240h348v-693h337v693h348zM1661 706h308l188 463h33l-20 -590h329v933h-460l-219 -516h-13l-215 516h-461v-933h329l-21 589h34z" />
    <glyph glyph-name="uni2126" unicode="&#x2126;" horiz-adv-x="1804" 
d="M787 0v502q-144 37 -205 131q-49 74 -49 185v102q0 132 95 218q103 92 274 92q175 0 278 -95q92 -85 92 -215v-99q0 -100 -49 -179q-64 -103 -206 -140v-502h637v313l-299 -1l1 27q178 67 269.5 192.5t91.5 305.5v106q0 152 -90 286q-96 141 -271 224q-194 90 -453 90
q-262 0 -453 -89q-177 -82 -272 -223q-91 -133 -91 -288v-105q0 -365 360 -500l2 -26l-300 1v-313h638z" />
    <glyph glyph-name="partialdiff" unicode="&#x2202;" horiz-adv-x="1606" 
d="M687 1248q12 0 23 1q25 0 40 1q15 0 48 0.5t49 0.5q131 0 188 -71q46 -60 48 -187q-51 62 -147 95q-103 35 -268 35q-339 0 -479 -151q-113 -122 -113 -373v-93q0 -248 141 -376q168 -152 562 -152q290 0 456 83q144 70 203 199q46 100 46 242v458q0 206 -44 323
q-51 133 -179 196q-135 66 -387 66h-82h-51h-31q-8 -1 -22 -1zM761 825q136 0 221 -53q101 -64 101 -186v-67q0 -119 -60 -175q-72 -67 -244 -67q-175 0 -247 75q-54 55 -54 174v53q0 125 58 182q66 64 225 64z" />
    <glyph glyph-name="uni2206" unicode="&#x2206;" horiz-adv-x="1944" 
d="M1949 0l-694 1513h-567l-694 -1513h1955zM949 1204h46l376 -907h-800z" />
    <glyph glyph-name="product" unicode="&#x220f;" horiz-adv-x="1811" 
d="M609 -184v1386h592v-1386h439v1697h-1469v-1697h438z" />
    <glyph glyph-name="summation" unicode="&#x2211;" horiz-adv-x="1711" 
d="M1165 634l-511 568h905v311h-1402v-277l583 -660l-594 -663v-278h1435v312h-897l481 569v118z" />
    <glyph glyph-name="minus" unicode="&#x2212;" horiz-adv-x="1737" 
d="M1460 570v267h-1184v-267h1184z" />
    <glyph glyph-name="approxequal" unicode="&#x2248;" horiz-adv-x="1438" 
d="M1210 963q-62 -53 -115 -76t-116 -23q-41 0 -87 9.5t-68.5 16.5t-81.5 27q-75 26 -138 39.5t-141 13.5q-113 0 -203 -59q-71 -47 -172 -161l127 -123q58 55 118.5 77.5t135.5 22.5q42 0 84 -8q71 -15 149 -44q48 -17 79 -25q96 -28 197 -28q111 0 200 59q64 43 153 153z
M1210 496q-60 -51 -115 -75q-56 -24 -116 -24q-41 0 -86.5 9t-70.5 17t-80 28q-75 26 -138 39.5t-141 13.5q-113 0 -203 -59q-69 -45 -172 -162l127 -122q59 54 119.5 77t134.5 23q42 0 84 -8q71 -15 149 -44q48 -17 79 -25q96 -28 197 -28q111 0 200 59q65 42 153 153z" />
    <glyph glyph-name="notequal" unicode="&#x2260;" horiz-adv-x="1386" 
d="M1235 705h-319l-102 -186h421v-267h-568l-117 -212l-267 98l63 114h-198v267h345l102 186h-447v267h594l110 199l267 -97l-56 -102h172v-267z" />
    <glyph glyph-name="lessequal" unicode="&#x2264;" horiz-adv-x="1365" 
d="M1171 297v321l-565 227l565 228v321l-992 -425v-247zM1203 12v220h-1046v-220h1046z" />
    <glyph glyph-name="greaterequal" unicode="&#x2265;" horiz-adv-x="1364" 
d="M1181 722v247l-992 425v-321l566 -228l-566 -227v-321zM1203 12v220h-1046v-220h1046z" />
    <glyph glyph-name="uniF6C3" unicode="&#xf6c3;" horiz-adv-x="0" 
d="M-607 -189q0 -62 48.5 -91.5t149.5 -29.5q-10 -41 -32 -71q-25 -32 -81 -74l159 -61q79 54 118 111q57 83 57 191q0 49 -21.5 81.5t-70 50t-124.5 17.5q-105 0 -154 -28.5t-49 -95.5z" />
    <glyph glyph-name="uniF6C9" unicode="&#xf6c9;" horiz-adv-x="819" 
d="M80 684q0 -227 109 -388v-296h441v10q174 -44 379 -44q452 0 698 197q116 93 174.5 225.5t58.5 295.5v144q0 163 -59 296t-174 226q-246 197 -697 197q-212 0 -380 -44v10h-441v-296q-109 -161 -109 -389v-144zM1009 279q-119 0 -216.5 33t-162.5 99v692q65 65 163.5 98
t215.5 33q214 0 343 -97q142 -107 142 -303v-157q0 -193 -142 -299q-132 -99 -343 -99z" />
    <glyph glyph-name="uniF6E1" unicode="&#xf6e1;" horiz-adv-x="834" 
d="M167 -229q0 -161 232 -161q-11 -56 -36 -94q-29 -42 -94 -95l186 -78q86 59 140 149q65 107 65 246q0 94 -58 143q-61 52 -193 52q-124 0 -183 -39t-59 -123z" />
    <glyph glyph-name="uniF6E2" unicode="&#xf6e2;" horiz-adv-x="747" 
d="M124 974q0 -161 232 -161q-11 -55 -36 -94q-29 -42 -94 -95l186 -78q88 63 141 149q65 107 65 246q0 94 -58 143q-61 52 -193 52q-125 0 -184 -38.5t-59 -123.5z" />
    <glyph glyph-name="uniF6E5" unicode="&#xf6e5;" horiz-adv-x="1020" 
d="M950 1v224h-895v-224h895z" />
    <glyph glyph-name="uniF6E6" unicode="&#xf6e6;" horiz-adv-x="1005" 
d="M950 1211v224h-895v-224h895z" />
    <glyph glyph-name="uniF6E7" unicode="&#xf6e7;" horiz-adv-x="857" 
d="M178 -259q0 -83 58.5 -121.5t184.5 -38.5q131 0 191 39q57 37 57 121q0 86 -57 124q-58 39 -191 39q-84 0 -137.5 -17.5t-79.5 -53t-26 -92.5z" />
    <glyph glyph-name="uniF6E8" unicode="&#xf6e8;" horiz-adv-x="770" 
d="M135 964q0 -83 58.5 -121.5t184.5 -38.5q132 0 192 39q57 37 57 121q0 57 -25 92.5t-79.5 53t-144.5 17.5q-63 0 -108.5 -9.5t-75.5 -29.5t-44.5 -50.5t-14.5 -73.5z" />
    <glyph glyph-name="uniF6F9" unicode="&#xf6f9;" horiz-adv-x="1395" 
d="M160 1180v-485l-108 -49v-267l108 48v-427h1151v287h-722v294l115 51v267l-115 -51v332h-429z" />
    <glyph glyph-name="uniF6FA" unicode="&#xf6fa;" horiz-adv-x="2510" 
d="M2399 908h-786v-179q0 -2 0.5 -6.5t1.5 -6.5h566v-250h-566q-1 -3 -1.5 -8.5t-0.5 -7.5v-179h786v-271h-1209v7q-146 -41 -343 -41q-400 0 -597 168q-175 149 -175 419v75q0 269 175 418q197 167 597 167q195 0 343 -40v7h1209v-272zM1189 552v76q0 135 -83 215
q-89 86 -259 86q-169 0 -260 -86q-82 -78 -82 -214v-78q0 -134 84 -214q90 -87 258 -87q169 0 258 86q84 81 84 216z" />
    <glyph glyph-name="uniF6FD" unicode="&#xf6fd;" horiz-adv-x="1521" 
d="M341 1542l277 -247h384l280 247h-342l-129 -124l-129 124h-341zM1455 366q0 67 -19 118.5t-55.5 88t-92.5 63.5q-77 36 -191.5 58t-299.5 42q-156 17 -203 36q-56 21 -56 68q0 53 53 78q59 28 185 28q156 0 218 -48q35 -28 45 -83h369q-26 181 -172 282
q-168 116 -482 116q-341 0 -506 -111q-141 -95 -141 -263q0 -87 34.5 -151t108.5 -110q148 -92 486 -123q166 -15 212 -29q39 -12 58 -31t19 -51q0 -51 -59 -82q-71 -37 -211 -36q-152 0 -225 48q-60 39 -72 117h-368q28 -188 164 -292q171 -133 509 -133q347 0 532 122
q81 54 120.5 125.5t39.5 152.5z" />
    <glyph glyph-name="uniF6FF" unicode="&#xf6ff;" horiz-adv-x="1509" 
d="M310 1543l277 -247h384l280 247h-342l-129 -124l-129 124h-341zM1407 0v284h-828l818 645l4 251h-1263v-285h767l-816 -643v-252h1318z" />
    <glyph glyph-name="uniF730" unicode="&#xf730;" horiz-adv-x="1645" 
d="M72 539q0 -252 165 -400q193 -173 586 -173q392 0 585 173q165 148 165 400v102q0 252 -165 400q-194 172 -585 172q-392 0 -585 -172q-166 -148 -166 -400v-102zM503 643q0 128 77 205q83 81 243 81q161 0 246 -82q78 -77 78 -205v-103q0 -134 -82 -210
q-85 -79 -242 -79q-159 0 -242 83q-78 75 -78 205v105z" />
    <glyph glyph-name="uniF731" unicode="&#xf731;" horiz-adv-x="1286" 
d="M1003 0v1180h-367q-105 -69 -224 -112q-152 -54 -335 -71v-277q133 1 284 35q150 32 213 76v-831h429z" />
    <glyph glyph-name="uniF732" unicode="&#xf732;" horiz-adv-x="1603" 
d="M1493 0v278h-881q13 24 58 47q72 34 252 89q72 22 158 53q196 70 289 141q129 99 129 221q0 179 -157 278q-172 106 -516 106q-370 0 -545 -123q-153 -108 -153 -309v-32h392v17q0 76 51 111q70 47 255 47q141 0 197 -38q42 -30 42 -84q0 -28 -35 -54q-68 -47 -232 -96
l-160 -50q-208 -66 -319 -121q-158 -81 -199 -175v-306h1374z" />
    <glyph glyph-name="uniF733" unicode="&#xf733;" horiz-adv-x="1595" 
d="M1522 146q0 131 -79 211q-87 87 -273 122q169 26 246 90q90 74 90 220v10q0 204 -178.5 309t-529.5 105q-364 0 -536 -115q-162 -110 -162 -331v-36h399v22q0 75 79 114q77 38 216 38q122 0 191 -29q81 -34 81 -110q0 -49 -34 -82.5t-97 -50t-154 -16.5h-143v-294h144
q146 0 221 -33q80 -35 80 -106v-31q0 -84 -71.5 -118.5t-221.5 -34.5t-228 37q-79 36 -79 105v30h-398v-38q0 -220 185 -333q181 -110 520 -110q387 0 562 108q170 105 170 341v6z" />
    <glyph glyph-name="uniF734" unicode="&#xf734;" horiz-adv-x="1727" 
d="M548 1180l-453 -978v-202h896v-205h431v205h202v307h-202v269h-431v-269h-402l416 873h-457z" />
    <glyph glyph-name="uniF735" unicode="&#xf735;" horiz-adv-x="1589" 
d="M1524 236q0 470 -584 470q-126 0 -241 -15q-103 -13 -161 -41l18 228h859v301h-1279l-48 -853h397l1 16q28 32 116 46q75 12 209 12q154 0 218 -53q53 -45 53 -135v-17q0 -106 -81 -154q-72 -43 -217 -43q-151 0 -225.5 42.5t-74.5 134.5v17h-399v-50q0 -206 167 -323
q186 -130 556 -130q371 0 545 132q171 131 171 408v7z" />
    <glyph glyph-name="uniF736" unicode="&#xf736;" horiz-adv-x="1689" 
d="M89 515q2 -160 69 -274q76 -128 238 -197q176 -77 458 -77q280 0 450 67q156 61 225 173q61 98 61 239v58q0 132 -44 223q-54 110 -183 167q-150 66 -402 66q-304 0 -428 -143l-1 48q-5 145 73 227q84 89 260 89q160 0 229 -53q47 -36 47 -95v-3h397v26q0 118 -51 205
q-63 105 -203 163q-165 67 -428 67q-291 0 -471 -91q-161 -81 -233 -235q-63 -136 -63 -324v-326zM866 651q153 0 225 -52q59 -44 59 -118v-8q0 -86 -61 -135q-75 -62 -235 -62q-180 0 -256 57q-57 42 -57 110v24q0 82 70 129q82 55 255 55z" />
    <glyph glyph-name="uniF737" unicode="&#xf737;" horiz-adv-x="1630" 
d="M1554 933v246h-1472v-453h369v144h617l-729 -1148h453z" />
    <glyph glyph-name="uniF738" unicode="&#xf738;" horiz-adv-x="1554" 
d="M85 1071q0 -115 44 -186q49 -83 157 -129q-127 -47 -182 -132q-52 -79 -52 -200v-25q0 -187 162 -301q187 -131 561 -131q375 0 562 131q161 113 161 301v24q0 120 -54 198q-60 86 -189 134q112 46 165 131q46 74 46 184v11q0 113 -49 194q-62 100 -202 153
q-164 62 -440 62q-275 0 -440 -63q-142 -54 -201 -153q-49 -81 -49 -193v-10zM775 918q-130 0 -194 46q-56 38 -56 94q0 55 53 94q70 50 197 50t198 -50q53 -39 53 -94q0 -56 -55 -94q-66 -46 -196 -46zM775 603q147 0 223 -52q60 -41 60 -100v-27q0 -20 -14.5 -45
t-44.5 -47q-77 -56 -224 -56q-149 0 -224 56q-15 11 -27 24t-18.5 25t-10 23t-3.5 20v27q0 58 61 100q75 52 222 52z" />
    <glyph glyph-name="uniF739" unicode="&#xf739;" horiz-adv-x="1634" 
d="M1556 655q-2 158 -70 273q-76 129 -237 199q-179 76 -459 76q-282 0 -450 -67q-156 -61 -225 -173q-61 -100 -61 -240v-57q0 -133 44 -222q54 -111 183 -168q150 -66 402 -66q304 0 428 142l1 -47q5 -146 -73 -228q-84 -89 -259 -89q-162 0 -230 54q-47 37 -47 95v3h-397
v-27q0 -116 52 -204q63 -106 203 -163q163 -67 427 -67q290 0 472 91q161 80 233 236q63 134 63 323v326zM777 520q-154 0 -224 52q-59 44 -59 120v6q0 84 62 135q73 60 234 60q179 0 257 -57q55 -41 55 -110v-21q0 -84 -69 -130q-83 -55 -256 -55z" />
    <glyph glyph-name="uniF761" unicode="&#xf761;" horiz-adv-x="1628" 
d="M1083 1180h-538l-519 -1180h426l71 189h582l72 -189h426zM798 921h31l172 -457h-375z" />
    <glyph glyph-name="uniF762" unicode="&#xf762;" horiz-adv-x="1704" 
d="M141 0h886q282 0 423.5 81.5t141.5 236.5v20q0 92 -58 161q-53 62 -155 100q180 73 180 226v27q0 155 -136 240q-145 88 -416 88h-866v-1180zM1127 827q0 -55 -52 -85q-42 -24 -95 -24h-421v224h417q68 0 108 -23q43 -27 43 -84v-8zM1164 358q0 -55 -38.5 -86t-114.5 -31
h-452v243h432q89 0 131 -31t42 -95z" />
    <glyph glyph-name="uniF763" unicode="&#xf763;" horiz-adv-x="1640" 
d="M1572 735q-26 138 -101 236q-85 112 -231 174q-160 68 -388 68q-398 0 -596 -166q-181 -151 -181 -414v-86q0 -264 180 -414q199 -167 597 -167q340 0 533 150q159 124 191 332h-391q-31 -100 -112 -149t-226 -49q-164 0 -255 85q-87 79 -87 208v95q0 127 84 206
q92 85 258 85q145 0 230 -51q78 -47 108 -143h387z" />
    <glyph glyph-name="uniF764" unicode="&#xf764;" horiz-adv-x="1704" 
d="M890 0q267 0 437 75q155 69 229 195q67 114 67 270v83q0 170 -64 285q-72 131 -225 199q-168 73 -434 73h-759v-1180h749zM879 880q164 0 242 -70q73 -66 73 -197v-41q0 -129 -74 -199q-81 -75 -243 -75h-307v582h309z" />
    <glyph glyph-name="uniF765" unicode="&#xf765;" horiz-adv-x="1496" 
d="M1369 0v271h-786v195h568v250h-568v192h786v272h-1209v-1180h1209z" />
    <glyph glyph-name="uniF766" unicode="&#xf766;" horiz-adv-x="1396" 
d="M589 0v373h583v288h-583v231h740v288h-1170v-1180h430z" />
    <glyph glyph-name="uniF767" unicode="&#xf767;" horiz-adv-x="1634" 
d="M887 446h308q-27 -100 -115.5 -150.5t-233.5 -50.5q-165 0 -259 83q-91 79 -91 213v99q0 132 88 210q95 84 262 84q292 0 347 -199l377 1q-38 221 -192 340q-180 137 -527 137q-397 0 -596 -167q-181 -151 -181 -415v-82q0 -265 180 -415q198 -168 597 -168
q338 0 522 139q149 112 186 302q11 44 14 117q3 62 1 118h-687v-196z" />
    <glyph glyph-name="uniF768" unicode="&#xf768;" horiz-adv-x="1865" 
d="M585 0v433h668v-433h430v1180h-430v-449h-668v449h-430v-1180h430z" />
    <glyph glyph-name="uniF769" unicode="&#xf769;" 
d="M589 0v1180h-429v-1180h429z" />
    <glyph glyph-name="uniF76A" unicode="&#xf76a;" horiz-adv-x="1199" 
d="M42 61q77 -37 177 -63q119 -31 237 -31q249 0 395 76q124 66 177 192q41 99 41 254v15l1 399h1v277h-768v-277h337v-399q0 -116 -50 -177t-160 -61q-141 0 -285 57z" />
    <glyph glyph-name="uniF76B" unicode="&#xf76b;" horiz-adv-x="1698" 
d="M159 1180v-1180h430v471h230l362 -471h504l-523 603l460 577h-486l-300 -415h-247v415h-430z" />
    <glyph glyph-name="uniF76C" unicode="&#xf76c;" horiz-adv-x="1395" 
d="M160 1180v-1180h1151v287h-722v893h-429z" />
    <glyph glyph-name="uniF76D" unicode="&#xf76d;" horiz-adv-x="2205" 
d="M898 178h409l348 628l-15 -806h404v1180h-525l-410 -697h-14l-408 697h-527v-1180h404l-14 805z" />
    <glyph glyph-name="uniF76E" unicode="&#xf76e;" horiz-adv-x="1843" 
d="M582 0v688l666 -688h439v1180h-427v-701l-667 701h-439v-1180h428z" />
    <glyph glyph-name="uniF76F" unicode="&#xf76f;" horiz-adv-x="1694" 
d="M75 553q0 -270 175 -419q197 -168 597 -168q398 0 598 169q175 148 175 417v75q0 270 -175 419q-199 167 -598 167q-400 0 -597 -167q-175 -149 -175 -418v-75zM505 629q0 136 82 214q91 86 260 86q170 0 259 -86q83 -80 83 -215v-76q0 -135 -84 -216q-89 -86 -258 -86
q-168 0 -258 87q-84 80 -84 214v78z" />
    <glyph glyph-name="uniF770" unicode="&#xf770;" horiz-adv-x="1587" 
d="M590 0v340h347q286 0 436 91q156 95 156 290v51q0 214 -155 315q-143 93 -431 93h-782v-1180h429zM1137 756q0 -70 -45 -101t-140 -31h-362v270h364q81 0 128 -27q55 -32 55 -96v-15z" />
    <glyph glyph-name="uniF771" unicode="&#xf771;" horiz-adv-x="1694" 
d="M75 553q0 -238 137 -382q151 -161 460 -195v-208h357v208q306 36 456 197q135 144 135 379v75q0 270 -175 419q-199 167 -598 167q-400 0 -597 -167q-175 -149 -175 -418v-75zM505 629q0 136 82 214q91 86 260 86q170 0 259 -86q83 -80 83 -215v-76q0 -135 -84 -216
q-89 -86 -258 -86q-168 0 -258 87q-84 80 -84 214v78z" />
    <glyph glyph-name="uniF772" unicode="&#xf772;" horiz-adv-x="1630" 
d="M697 361q54 -3 79 -4.5t60.5 -7t60.5 -13.5q80 -28 112 -117l25 -70q28 -74 39 -96q17 -36 36 -53h449q-65 73 -88 156l-24 90q-23 81 -53 128q-27 40 -85 70q99 47 157 118q65 80 65 181v47q0 198 -151 298q-140 92 -389 92h-829v-1180h422v361h114zM1100 766
q0 -64 -46.5 -99.5t-131.5 -35.5h-339v277h344q76 0 123 -34q50 -37 50 -101v-7z" />
    </font>
</defs>
</svg>
