<?xml version="1.0" standalone="no"?>
<!DOCTYPE svg PUBLIC "-//W3C//DTD SVG 1.1//EN" "http://www.w3.org/Graphics/SVG/1.1/DTD/svg11.dtd" >
<svg xmlns="http://www.w3.org/2000/svg" xmlns:xlink="http://www.w3.org/1999/xlink" version="1.1">
<metadata>
Created by FontForge 20170731 at Sat Mar 31 17:45:59 2018
 By Aleksey,,,
Copyright (c) 2018 by Studio Kmzero &#38; Zetafonts. All rights reserved.
</metadata>
<defs>
<font id="HeadingProWide-Bold" horiz-adv-x="1662" >
  <font-face 
    font-family="Heading Pro Wide"
    font-weight="600"
    font-stretch="normal"
    units-per-em="2048"
    panose-1="0 0 7 0 0 0 0 0 0 0"
    ascent="1638"
    descent="-410"
    x-height="1177"
    cap-height="1513"
    bbox="-586 -628 3873 2055"
    underline-thickness="102"
    underline-position="-409"
    unicode-range="U+000D-FB06"
  />
<missing-glyph horiz-adv-x="2352" 
 />
    <glyph glyph-name="ff" unicode="ff" horiz-adv-x="2013" 
d="M31 948h229v-948h351v948h651v-948h351v948h384v229h-383q5 112 37 154q36 49 134 49q64 0 122 -7q49 -6 88 -16l34 197q-93 27 -130 34q-105 20 -221 20q-228 0 -322 -118q-43 -54 -63.5 -131t-27.5 -182h-653q5 112 37 154q36 49 134 49q64 0 122 -7q49 -6 88 -16
l34 197q-93 27 -130 34q-105 20 -221 20q-228 0 -322 -118q-43 -54 -63.5 -131t-27.5 -182h-232v-229z" />
    <glyph glyph-name="fi" unicode="fi" horiz-adv-x="1687" 
d="M22 948h229v-948h351v948h571v-948h351v1177h-921q5 112 37 154q36 49 134 49q64 0 122 -7q49 -6 88 -16l35 197q-91 26 -131 34q-105 20 -221 20q-228 0 -322 -118q-43 -54 -63.5 -131t-27.5 -182h-232v-229z" />
    <glyph glyph-name="fl" unicode="fl" horiz-adv-x="1694" 
d="M28 948h230v-948h351v948h570v-948h352v1568h-352v-391h-569q5 112 37 154q36 49 134 49q64 0 122 -7q49 -6 88 -16l34 197q-93 27 -130 34q-105 20 -221 20q-228 0 -322 -118q-43 -54 -63.5 -131t-27.5 -182h-233v-229z" />
    <glyph glyph-name="ffi" unicode="ffi" horiz-adv-x="2705" 
d="M31 948h229v-948h351v948h651v-948h351v948h564v-948h352v1177h-915q5 112 37 154q36 49 134 49q64 0 122 -7q49 -6 88 -16l34 197q-93 27 -130 34q-105 20 -221 20q-228 0 -322 -118q-43 -54 -63.5 -131t-27.5 -182h-653q5 112 37 154q36 49 134 49q64 0 122 -7
q49 -6 88 -16l34 197q-93 27 -130 34q-105 20 -221 20q-228 0 -322 -118q-43 -54 -63.5 -131t-27.5 -182h-232v-229z" />
    <glyph glyph-name="ffl" unicode="ffl" horiz-adv-x="2713" 
d="M31 948h229v-948h351v948h660v-948h351v948h566v-948h351v1568h-351v-391h-565q5 112 37 154q36 49 134 49q64 0 122 -7q49 -6 88 -16l34 197q-93 27 -130 34q-105 20 -221 20q-228 0 -322 -118q-43 -54 -63.5 -131t-27.5 -182h-662q5 112 37 154q36 49 134 49
q64 0 122 -7q49 -6 88 -16l34 197q-93 27 -130 34q-105 20 -221 20q-228 0 -322 -118q-43 -54 -63.5 -131t-27.5 -182h-232v-229z" />
    <glyph glyph-name="f_t" unicode="ft" horiz-adv-x="1883" 
d="M1811 242l15 -202q-72 -31 -141 -48q-98 -24 -202 -24q-207 0 -317 70q-95 59 -133 187q-27 92 -27 270v453h-195h-202v-948h-351v948h-229v229h232q6 105 27 182t64 131q94 118 322 118q116 0 221 -20q37 -7 130 -34l-16 -94h348v-283h447v-229h-447v-480
q0 -120 33 -179q45 -84 165 -84q92 0 157 13q39 7 99 24zM1006 1177v267l-15 -87q-39 10 -88 16q-58 7 -122 7q-98 0 -134 -49q-32 -42 -37 -154h396z" />
    <glyph glyph-name="f_f_j" unicode="ffj" horiz-adv-x="2692" 
d="M31 948h229v-948h351v948h651v-948h351v948h552v-825q0 -87 -6 -139.5t-25 -88.5q-22 -41 -64 -61t-113 -20q-133 0 -234 30l-32 -203q60 -25 136 -40q110 -22 223 -22q184 0 293 71q96 64 138 192q34 105 34 279v1056h-901q5 112 37 154q36 49 134 49q64 0 122 -7
q49 -6 88 -16l34 197q-93 27 -130 34q-105 20 -221 20q-228 0 -322 -118q-43 -54 -63.5 -131t-27.5 -182h-653q5 112 37 154q36 49 134 49q64 0 122 -7q49 -6 88 -16l34 197q-93 27 -130 34q-105 20 -221 20q-228 0 -322 -118q-43 -54 -63.5 -131t-27.5 -182h-232v-229z" />
    <glyph glyph-name="f_j" unicode="fj" horiz-adv-x="1698" 
d="M1026 1554q-91 26 -131 34q-105 20 -220 20q-228 0 -322 -118q-43 -54 -63.5 -131t-27.5 -182h-233v-229h230v-948h351v948h571v-825q0 -87 -6 -139.5t-25 -88.5q-22 -41 -64 -61t-113 -20q-128 0 -234 30l-32 -203q60 -25 136 -40q110 -22 223 -22q184 0 293 71
q97 63 139 192q34 105 34 279v1056h-921q5 112 37 154q36 49 134 49q64 0 122 -7q48 -6 87 -16z" />
    <glyph glyph-name=".notdef" horiz-adv-x="2352" 
 />
    <glyph glyph-name=".null" horiz-adv-x="0" 
 />
    <glyph glyph-name="uni000D" unicode="&#xd;" horiz-adv-x="0" 
 />
    <glyph glyph-name="NULL" horiz-adv-x="0" 
 />
    <glyph glyph-name="NULL" horiz-adv-x="0" 
 />
    <glyph glyph-name="space" unicode=" " horiz-adv-x="900" 
 />
    <glyph glyph-name="exclam" unicode="!" horiz-adv-x="819" 
d="M550 405l45 1108h-374l47 -1108h282zM199 109q0 -70 50 -103.5t156 -33.5q111 0 160.5 33t49.5 104q0 72 -49.5 105.5t-160.5 33.5q-106 0 -156 -33.5t-50 -105.5z" />
    <glyph glyph-name="quotedbl" unicode="&#x22;" horiz-adv-x="993" 
d="M406 1082l23 431h-300l22 -431h255zM860 1082l23 431h-300l22 -431h255z" />
    <glyph glyph-name="numbersign" unicode="#" horiz-adv-x="1789" 
d="M1629 592h-274l87 349h276l33 207h-257l93 372h-276l-92 -372h-409l93 372h-277l-92 -372h-315l-32 -207h296l-87 -349h-300l-32 -208h281l-95 -384h274l95 384h411l-94 -384h272l95 384h293zM758 941h410l-86 -349h-411z" />
    <glyph glyph-name="dollar" unicode="$" horiz-adv-x="1723" 
d="M1511 712q125 -103 125 -283q0 -229 -196 -344q-146 -86 -391 -109v-168h-296v164q-291 22 -468 146q-99 68 -150 162t-51 202h343q2 -110 91 -179q115 -89 356 -89q206 0 308 59q91 51 91 144q0 80 -66.5 123t-208.5 67l-408 73q-159 28 -261.5 84t-151 140t-48.5 200
q0 120 66 213q76 107 227 163q142 52 331 62v170h296v-178q230 -29 373 -130q175 -125 193 -353h-321q-19 119 -105 176q-107 71 -332 71q-197 0 -290 -64q-73 -50 -73 -129q0 -77 61 -121q59 -42 199 -65l373 -63q265 -47 384 -144z" />
    <glyph glyph-name="percent" unicode="%" horiz-adv-x="2828" 
d="M102 978q0 -124 43 -217q50 -111 157 -171q119 -70 310 -70q193 0 312 68q105 60 154 172q41 93 41 225v89q0 137 -40 229q-49 112 -153 172q-120 68 -314 68q-283 0 -409 -144q-101 -116 -101 -324v-97zM2052 1522h-317l-990 -1522h318zM612 722q-130 0 -191 90
q-45 67 -45 172v110q0 100 40 161q56 87 196 87q139 0 194 -88q38 -61 38 -163v-121q0 -106 -44 -167q-57 -81 -188 -81zM1690 426q0 -193 105 -312q129 -146 406 -146q279 0 405 144q102 117 102 321v90q0 209 -100 325q-125 143 -407 143q-195 0 -315 -68
q-105 -59 -154 -172q-42 -97 -42 -228v-97zM2201 170q-130 0 -191 90q-45 67 -45 172v110q0 101 40 162q56 87 196 87q139 0 194 -88q38 -61 38 -164v-120q0 -107 -44 -168q-57 -81 -188 -81z" />
    <glyph glyph-name="ampersand" unicode="&#x26;" horiz-adv-x="1730" 
d="M1256 1512h-455q-352 0 -509 -98q-156 -98 -156 -315q0 -159 88 -244q82 -79 246 -98q-182 -11 -271 -99q-83 -82 -83 -215q0 -124 34.5 -212t111.5 -145q159 -117 544 -117q340 0 514 127q170 124 170 356v180h172v241h-172v137h-353v-137l-363 1q-121 0 -192 40
q-82 46 -82 136v22q0 98 66.5 140.5t215.5 42.5h474v257zM806 228q-186 0 -256 45q-37 24 -53.5 64t-16.5 104v25q0 88 77 129q68 36 176 36h404v-154q0 -125 -74 -185q-79 -64 -257 -64z" />
    <glyph glyph-name="quotesingle" unicode="'" horiz-adv-x="620" 
d="M437 1082l23 431h-300l21 -431h256z" />
    <glyph glyph-name="parenleft" unicode="(" horiz-adv-x="1044" 
d="M886 -107v231h-51q-163 0 -230 102q-59 87 -59 275v513q0 184 57 272q69 109 232 109h51v231h-75q-252 0 -398 -88q-126 -77 -177 -219q-41 -113 -41 -279v-561q0 -171 42 -282q52 -142 178 -217q144 -87 396 -87h75z" />
    <glyph glyph-name="parenright" unicode=")" horiz-adv-x="1024" 
d="M224 -107q251 0 397 87q124 75 178 217q41 111 41 282v561q0 165 -40 279q-52 142 -177 219q-147 88 -398 88h-76v-231h50q163 0 234 -109q57 -90 57 -272v-513q0 -188 -59 -275q-69 -102 -232 -102h-50v-231h75z" />
    <glyph glyph-name="asterisk" unicode="*" horiz-adv-x="1022" 
d="M736 757l146 145l-210 189l270 64l-56 198l-288 -113l19 277h-206l18 -276l-286 112l-56 -198l271 -65l-209 -188l146 -145l220 260z" />
    <glyph glyph-name="plus" unicode="+" horiz-adv-x="1133" 
d="M435 177h260v326h354v223h-354v325h-260v-325h-356v-223h356v-326z" />
    <glyph glyph-name="comma" unicode="," horiz-adv-x="803" 
d="M190 117q0 -137 201 -137q-11 -51 -33 -86q-24 -40 -82 -89l157 -65q77 60 120 132q56 94 56 217q0 81 -48 122q-55 45 -166 45q-105 0 -155 -33.5t-50 -105.5z" />
    <glyph glyph-name="hyphen" unicode="-" horiz-adv-x="1171" 
d="M1090 479v223h-1007v-223h1007z" />
    <glyph glyph-name="period" unicode="." horiz-adv-x="823" 
d="M199 112q0 -70 49 -103.5t157 -33.5q112 0 161 33t49 104q0 73 -49 106.5t-161 33.5q-108 0 -157 -33.5t-49 -106.5z" />
    <glyph glyph-name="slash" unicode="/" horiz-adv-x="1344" 
d="M1311 1589h-322l-956 -1669h322z" />
    <glyph glyph-name="zero" unicode="0" horiz-adv-x="1824" 
d="M81 659q0 -185 86 -336q93 -164 270 -254q194 -101 477 -101q281 0 476 100q178 91 270 254q85 151 85 338v193q0 187 -84 336q-92 163 -269 255q-199 101 -478 101q-413 0 -634 -208q-100 -93 -149.5 -217.5t-49.5 -266.5v-194zM914 1286q218 0 344 -115
q124 -113 124 -302v-226q0 -191 -132 -305q-128 -111 -336 -111q-221 0 -348 121q-59 56 -89.5 130.5t-30.5 159.5v225q0 195 124 308q126 115 344 115z" />
    <glyph glyph-name="one" unicode="1" horiz-adv-x="1067" 
d="M857 0v1514h-313q-102 -66 -229 -116q-157 -61 -320 -83v-258q146 15 292 59q130 39 212 83v-1199h358z" />
    <glyph glyph-name="two" unicode="2" horiz-adv-x="1642" 
d="M1545 0v257h-981q55 98 211 197q100 63 331 179q211 103 316 204q129 124 129 279q0 203 -183 316t-523 113q-369 0 -544 -141q-153 -124 -153 -346v-28h341v23q0 97 70 158q87 75 272 75q172 0 266 -53q90 -51 90 -143q0 -85 -103 -175q-84 -73 -265 -168
q-21 -11 -79 -41.5t-87 -46t-75 -41t-83 -48.5t-72 -46q-201 -136 -287 -298v-226h1409z" />
    <glyph glyph-name="three" unicode="3" horiz-adv-x="1648" 
d="M1530 442q0 142 -85 224q-91 88 -283 117q173 25 256 93q96 79 96 234v10q0 211 -175.5 318t-523.5 107q-362 0 -531 -121q-157 -112 -157 -332v-35h331v23q0 99 91 152.5t263 53.5q154 0 237 -39q101 -47 101 -154q0 -98 -91 -144q-86 -44 -255 -44h-183v-257h185
q171 0 260 -36q101 -41 101 -136v-40q0 -117 -91 -166q-81 -43 -267 -43q-177 0 -272.5 51t-95.5 140v35h-329v-37q0 -216 177 -331q179 -116 520 -116q392 0 559 113q56 38 92.5 90t53 117t16.5 146v7z" />
    <glyph glyph-name="four" unicode="4" horiz-adv-x="1710" 
d="M654 1513l-563 -1107v-174h931v-232h356v232h241v256h-241v350h-356v-350h-520l533 1025h-381z" />
    <glyph glyph-name="five" unicode="5" horiz-adv-x="1720" 
d="M1612 524q0 247 -158 366q-152 114 -453 114q-146 0 -269 -21q-117 -20 -174 -51l24 324h920v257h-1267l-52 -875h330l2 25q46 47 152 68q95 17 232 17q196 0 281 -77q65 -59 65 -166v-17q0 -143 -103 -206q-89 -55 -268 -55q-182 0 -273.5 58t-91.5 164v16h-331v-45
q0 -64 17.5 -120.5t55.5 -108t94 -91.5q187 -132 547 -132q374 0 550 138q170 133 170 411v7z" />
    <glyph glyph-name="six" unicode="6" horiz-adv-x="1695" 
d="M859 -32q277 0 447 71q153 64 223 183q60 105 60 249v45q0 139 -45 229q-57 114 -188 176q-151 70 -409 70q-340 0 -472 -175l-1 77q-5 176 81 277q100 116 312 116q207 0 289 -77q53 -51 53 -130v-3h329v22q0 112 -45 198q-61 113 -197 174q-168 75 -438 75
q-293 0 -473 -104q-152 -87 -222 -254q-56 -135 -56 -323v-341q2 -156 68 -272q76 -133 231 -203q178 -80 453 -80zM873 732q191 0 281 -73q71 -59 71 -154v-24q0 -107 -70 -170q-93 -84 -296 -84q-207 0 -303 77q-72 57 -74 144v47q0 98 87 162q102 75 304 75z" />
    <glyph glyph-name="seven" unicode="7" horiz-adv-x="1591" 
d="M1531 1305v208h-1457v-426h307v167h747l-786 -1254h376z" />
    <glyph glyph-name="eight" unicode="8" horiz-adv-x="1689" 
d="M177 1119q0 -117 49 -193q56 -89 187 -139q-147 -50 -213 -144q-59 -84 -59 -209v-26q0 -113 65 -205q77 -108 224 -166q176 -69 429 -69q254 0 430 69q149 58 225 166q64 90 64 205v28q0 120 -60 205q-69 95 -219 146q135 51 193 141q50 79 50 190v7q0 110 -45 190
q-61 106 -197 162q-164 68 -441 68q-274 0 -440 -68q-139 -56 -197 -161q-45 -81 -45 -191v-6zM860 918q-172 0 -253 61q-66 47 -66 120q0 74 64 123q84 64 254 64q173 0 256 -67q62 -50 62 -123q-2 -72 -66 -119q-81 -59 -251 -59zM859 659q192 0 284 -73q71 -56 71 -134
v-16q0 -41 -27 -83q-36 -54 -107 -86q-88 -40 -221 -40q-190 0 -286 81q-35 30 -51.5 64.5t-16.5 62.5v14q0 22 6.5 44.5t23 47.5t41.5 45q92 73 283 73z" />
    <glyph glyph-name="nine" unicode="9" horiz-adv-x="1695" 
d="M1576 991h-1q-5 163 -68 273q-76 132 -231 202q-175 79 -452 79q-275 0 -447 -70q-153 -63 -223 -183q-61 -104 -61 -249v-44q0 -138 45 -229q57 -115 189 -176q150 -71 409 -71q117 0 211 22.5t156.5 60.5t103.5 92l2 -77q5 -176 -81 -276q-99 -117 -312 -117
q-206 0 -288 78q-54 50 -54 129v3h-329v-22q0 -113 46 -197q59 -111 197 -174q163 -75 437 -75q294 0 474 103q153 88 222 255q55 131 55 322v341zM810 782q-192 0 -281 74q-71 58 -71 153v24q0 105 71 169q93 84 295 84q212 0 307 -76q68 -54 70 -144v-44q0 -101 -86 -164
q-103 -76 -305 -76z" />
    <glyph glyph-name="colon" unicode=":" horiz-adv-x="663" 
d="M121 1058q0 -70 49 -103.5t157 -33.5q112 0 161 33t49 104q0 73 -49 106.5t-161 33.5q-108 0 -157 -33.5t-49 -106.5zM121 112q0 -70 49 -103.5t157 -33.5q112 0 161 33t49 104q0 73 -49 106.5t-161 33.5q-108 0 -157 -33.5t-49 -106.5z" />
    <glyph glyph-name="semicolon" unicode=";" horiz-adv-x="668" 
d="M122 1057q0 -70 49 -103.5t157 -33.5q112 0 161 33t49 104q0 73 -49 106.5t-161 33.5q-108 0 -157 -33.5t-49 -106.5zM113 117q0 -137 201 -137q-11 -51 -33 -86q-25 -40 -82 -89l157 -65q77 60 120 132q56 94 56 217q0 81 -48 122q-55 45 -166 45q-105 0 -155 -33.5
t-50 -105.5z" />
    <glyph glyph-name="less" unicode="&#x3c;" horiz-adv-x="1246" 
d="M1046 115v267l-582 240l582 241v267l-935 -403v-208z" />
    <glyph glyph-name="equal" unicode="=" horiz-adv-x="1366" 
d="M1200 717v223h-1037v-223h1037zM1200 281v223h-1037v-223h1037z" />
    <glyph glyph-name="greater" unicode="&#x3e;" horiz-adv-x="1246" 
d="M1120 519v208l-935 403v-267l582 -241l-582 -240v-267z" />
    <glyph glyph-name="question" unicode="?" horiz-adv-x="1419" 
d="M1338 1144q0 205 -161 301t-490 96q-338 0 -492 -125q-131 -106 -131 -303l1 -44h323v28q0 86 65 132q75 51 234 51q155 0 223 -44q64 -41 64 -135q0 -39 -21 -74q-39 -64 -132 -128q-11 -8 -28 -19.5t-32.5 -22t-28.5 -19.5q-116 -80 -166 -141q-75 -90 -74 -197l1 -90
h324l1 62q2 44 24 81q41 66 143 142l95 71q122 92 178 161q80 102 80 217zM445 109q0 -47 21.5 -77t67.5 -45t117 -15q111 0 160.5 33t49.5 104q0 73 -49.5 106t-160.5 33q-107 0 -156.5 -33.5t-49.5 -105.5z" />
    <glyph glyph-name="at" unicode="@" horiz-adv-x="2217" 
d="M2039 160v798q0 164 -79 285q-89 137 -278 213q-215 84 -541 84q-505 0 -761 -201q-263 -207 -263 -612v-194q0 -397 248 -594q256 -204 785 -204h878v238h-773q-379 0 -571 113q-228 134 -228 447v197q0 265 154 409q172 162 534 162q292 0 430 -80q118 -69 125 -201
v-35q-47 71 -144 110q-114 44 -292 44q-239 0 -383 -91q-116 -73 -165 -201q-37 -93 -37 -200q0 -116 21 -193q38 -139 151 -221q146 -106 413 -106q186 0 292 43q92 38 144 117v-127h340zM1354 373q-132 0 -212 41q-67 34 -95 99q-23 53 -23 119q0 128 74 192q80 71 260 71
q200 0 280 -67q62 -52 62 -160v-56q0 -118 -66 -172q-83 -67 -280 -67z" />
    <glyph glyph-name="A" unicode="A" horiz-adv-x="1891" 
d="M372 0l155 354h837l155 -354h372l-712 1513h-467l-712 -1513h372zM922 1257h48l286 -656h-621z" />
    <glyph glyph-name="B" unicode="B" horiz-adv-x="1898" 
d="M1804 452q0 147 -109 240t-288 110q165 20 247.5 98.5t82.5 210.5v50q0 169 -141 262q-140 90 -389 90h-999v-1513h976q301 0 454 92q166 99 166 314v46zM1373 1082q0 -84 -64.5 -131.5t-197.5 -47.5h-543v378h570q127 0 189 -53q46 -42 46 -111v-35zM1439 454
q1 -123 -94 -168q-73 -34 -222 -34h-555v418h552q151 0 230 -44q88 -49 89 -144v-28z" />
    <glyph glyph-name="C" unicode="C" horiz-adv-x="1932" 
d="M1497 570q-38 -157 -159 -246q-134 -97 -340 -97q-245 0 -391 117q-152 122 -152 336l-1 149q0 107 39 193t112 145q148 119 394 119q204 0 336 -93q127 -91 162 -253h356q-42 276 -249 436q-223 169 -602 169q-451 0 -689 -203q-111 -95 -167 -227t-56 -291v-135
q0 -159 56 -291t167 -227q238 -203 688 -203q384 0 613 178q101 80 161 188.5t79 234.5z" />
    <glyph glyph-name="D" unicode="D" horiz-adv-x="2014" 
d="M208 0h883q424 0 643 201q192 176 192 473v163q0 144 -49.5 266.5t-149.5 212.5q-220 197 -636 197h-883v-1513zM568 1255h495q242 0 375 -125q124 -117 124 -306v-126q0 -212 -139 -329q-133 -112 -359 -112h-496v998z" />
    <glyph glyph-name="E" unicode="E" horiz-adv-x="1728" 
d="M1615 0v257h-1051v380h942v257h-942v361h1045v258h-1401v-1513h1407z" />
    <glyph glyph-name="F" unicode="F" horiz-adv-x="1633" 
d="M1599 1255v258h-1391v-1513h360v593h917v258h-917v404h1031z" />
    <glyph glyph-name="G" unicode="G" horiz-adv-x="1946" 
d="M970 584h555q-1 -3 -1 -10v-10q-20 -151 -141 -244q-139 -105 -384 -105q-251 0 -399 123q-151 124 -151 341v150q0 222 153 348q146 120 398 120q204 0 333 -85q131 -89 165 -248h350q-55 275 -267 426q-220 155 -579 155q-450 0 -689 -204q-111 -95 -167 -226.5
t-56 -290.5v-136q0 -325 220 -514q236 -206 691 -206q382 0 615 200q102 88 160 202t70 237q3 20 3 53l3 145h-882v-221z" />
    <glyph glyph-name="H" unicode="H" horiz-adv-x="2067" 
d="M568 0v626h931v-626h361v1513h-361v-622h-931v622h-360v-1513h360z" />
    <glyph glyph-name="I" unicode="I" horiz-adv-x="775" 
d="M568 0v1513h-360v-1513h360z" />
    <glyph glyph-name="J" unicode="J" horiz-adv-x="1407" 
d="M413 1255h488v-697q0 -164 -97.5 -247.5t-283.5 -83.5q-99 0 -222 27q-121 25 -174 47l-103 -221q71 -38 218 -73q167 -39 312 -39q340 0 522 145q188 148 188 436v964h-848v-258z" />
    <glyph glyph-name="K" unicode="K" horiz-adv-x="1872" 
d="M567 0v635h346l519 -635h413l-630 772l548 741h-402l-462 -607h-332v607h-360v-1513h360z" />
    <glyph glyph-name="L" unicode="L" horiz-adv-x="1575" 
d="M1500 0v257h-934v1256l-361 -1v-1512h1295z" />
    <glyph glyph-name="M" unicode="M" horiz-adv-x="2466" 
d="M1058 227h351l514 999h22l-9 -102l-16 -1124h338v1513h-492l-502 -907l-26 -85h-10l-25 83l-503 909h-492v-1513h339l-16 1125l-10 101h21z" />
    <glyph glyph-name="N" unicode="N" horiz-adv-x="2067" 
d="M1860 0v1513h-343l5 -1023l9 -86h-8l-959 1109h-356v-1513h343l-5 993l-11 96h9l950 -1089h366z" />
    <glyph glyph-name="O" unicode="O" horiz-adv-x="2004" 
d="M90 689q0 -159 56 -290.5t167 -226.5q239 -204 688 -204t690 206q112 95 167.5 226t55.5 289v134q0 158 -55.5 290t-166.5 227q-240 205 -690 205t-689 -204q-111 -95 -167 -227t-56 -291v-134zM1001 227q-247 0 -394 118q-152 122 -152 336l-1 147q0 218 152 340
q147 118 395 118q250 0 397 -117q152 -122 152 -341v-147q0 -214 -152 -336q-149 -118 -397 -118z" />
    <glyph glyph-name="P" unicode="P" horiz-adv-x="1834" 
d="M1771 1053q0 217 -165 339q-165 121 -463 121h-935v-1513h358v481h579q303 0 465 128q161 126 161 367v77zM1406 983q0 -122 -77 -183.5t-243 -61.5h-519v518h536q161 0 234 -58q69 -55 69 -168v-47z" />
    <glyph glyph-name="Q" unicode="Q" horiz-adv-x="2004" 
d="M90 689q0 -294 179 -477q188 -195 552 -234v-277h363v277q361 39 552 237q178 184 178 474v134q0 158 -55.5 290t-166.5 227q-240 205 -690 205t-689 -204q-111 -95 -167 -227t-56 -291v-134zM1001 227q-247 0 -394 118q-152 122 -152 336l-1 147q0 218 152 340
q147 118 395 118q250 0 397 -117q152 -122 152 -341v-147q0 -214 -152 -336q-149 -118 -397 -118z" />
    <glyph glyph-name="R" unicode="R" horiz-adv-x="1915" 
d="M1771 1046q0 226 -156 348q-154 119 -441 119h-966v-1513h358v556h441q118 -6 186.5 -46.5t94.5 -125.5l63 -201q33 -121 84 -183h382q-61 74 -103 217l-58 183q-30 96 -70 145q-45 56 -124 90q145 48 221 131q88 96 88 240v40zM1406 1032q0 -109 -82.5 -164t-234.5 -55
h-522v454h589q131 0 195 -62q55 -55 55 -154v-19z" />
    <glyph glyph-name="S" unicode="S" horiz-adv-x="1686" 
d="M1615 429q0 180 -125 283q-119 97 -384 144l-373 63q-140 23 -199 65q-61 44 -61 121q0 79 73 129q93 64 290 64q225 0 332 -71q86 -57 105 -176h321q-18 228 -193 353q-197 141 -568 141q-258 0 -432 -65q-151 -56 -227 -163q-66 -93 -66 -213q0 -174 111.5 -277.5
t349.5 -146.5l408 -73q142 -24 208.5 -67t66.5 -123q0 -93 -91 -144q-102 -59 -308 -59q-241 0 -356 89q-89 69 -91 179h-343q0 -108 51 -202t150 -162q213 -150 586 -150t569 117q196 115 196 344z" />
    <glyph glyph-name="T" unicode="T" horiz-adv-x="1611" 
d="M1614 1255v258h-1617v-258h629v-1255h360v1255h628z" />
    <glyph glyph-name="U" unicode="U" horiz-adv-x="1966" 
d="M1459 1513v-870q0 -188 -106 -294q-120 -122 -369 -122q-243 0 -366 120q-110 107 -110 294v872h-360v-872q0 -190 76 -333q82 -159 261 -245q195 -95 497 -95q433 0 649 203q187 176 187 471v871h-359z" />
    <glyph glyph-name="V" unicode="V" horiz-adv-x="1875" 
d="M1510 1513l-551 -1269h-44l-551 1269h-373l707 -1513h478l708 1513h-374z" />
    <glyph glyph-name="W" unicode="W" horiz-adv-x="2606" 
d="M490 0h442v1l6 -1l350 1106l10 60h10l10 -59l350 -1107h447l481 1513h-372l-319 -1118l-18 -146h-18l-21 145l-353 1119h-383v-1l-1 1l-353 -1118l-22 -146h-17l-17 144l-321 1120h-372z" />
    <glyph glyph-name="X" unicode="X" horiz-adv-x="1810" 
d="M48 1513l620 -742l-672 -771h417l491 581l493 -581h416l-670 772l617 741h-416l-437 -555l-442 555h-417z" />
    <glyph glyph-name="Y" unicode="Y" horiz-adv-x="1754" 
d="M1794 1513h-411l-506 -712l-507 712h-411l738 -980v-533h360v533z" />
    <glyph glyph-name="Z" unicode="Z" horiz-adv-x="1691" 
d="M1628 0v257h-1126l1085 1028v228h-1461v-258h1026l-1085 -1014v-241h1561z" />
    <glyph glyph-name="bracketleft" unicode="[" horiz-adv-x="986" 
d="M862 -107v231h-339v1271h339v231h-690v-1733h690z" />
    <glyph glyph-name="backslash" unicode="\" horiz-adv-x="1344" 
d="M990 -80h321l-955 1669h-323z" />
    <glyph glyph-name="bracketright" unicode="]" horiz-adv-x="998" 
d="M801 -107v1733h-689v-231h339v-1271h-339v-231h689z" />
    <glyph glyph-name="asciicircum" unicode="^" horiz-adv-x="2003" 
d="M1248 1509h-494l-565 -753h343l446 533h45l447 -533h344z" />
    <glyph glyph-name="underscore" unicode="_" horiz-adv-x="1529" 
d="M1493 -241v207h-1447v-207h1447z" />
    <glyph glyph-name="grave" unicode="`" horiz-adv-x="913" 
d="M146 1559l341 -278h257l-273 278h-325z" />
    <glyph glyph-name="a" unicode="a" horiz-adv-x="1682" 
d="M1523 0v633q0 163 -49 276q-61 141 -200 214q-164 86 -432 86q-257 0 -417 -70q-131 -58 -198 -162q-47 -72 -63 -179h334q15 79 76 124q84 60 254 60q193 0 277 -82q67 -68 67 -206v-46q-85 33 -189 56q-146 32 -283 32q-318 0 -463 -111q-122 -93 -122 -261
q0 -98 43 -177q53 -98 170 -153q136 -65 356 -65q169 0 304 69q136 68 184 174v-212h351zM786 197q-184 0 -264 66q-56 46 -56 116q0 65 50 109q71 62 247 62q108 0 241 -32q104 -25 168 -55v-37q-7 -28 -32 -66.5t-66 -71.5q-113 -91 -288 -91z" />
    <glyph glyph-name="b" unicode="b" horiz-adv-x="1720" 
d="M527 0v166q139 -198 471 -198q153 0 275.5 45.5t207.5 128.5q82 80 124.5 187.5t42.5 230.5v58q0 124 -42.5 231.5t-124.5 187.5q-56 54 -127.5 92t-162 59t-193.5 21q-332 0 -471 -200v559h-351v-1568h351zM913 972q184 0 289 -105q94 -97 94 -251v-56q0 -156 -97 -253
q-105 -103 -286 -103q-196 0 -295 104q-91 94 -91 258v58q5 154 91 244q97 104 295 104z" />
    <glyph glyph-name="c" unicode="c" horiz-adv-x="1609" 
d="M1532 744q-38 208 -194 326q-183 139 -506 139q-376 0 -572 -167q-179 -153 -179 -415v-76q0 -263 177 -415q194 -168 573 -168q332 0 516 143q156 121 189 326h-322q-33 -116 -120 -172q-95 -61 -266 -61q-192 0 -298 103q-98 95 -98 240v84q0 145 95 237
q106 104 301 104q173 0 268 -62q86 -57 118 -166h318z" />
    <glyph glyph-name="d" unicode="d" horiz-adv-x="1724" 
d="M1553 0v1568h-352v-557q-67 94 -176 144q-117 54 -288 54q-310 0 -488 -167q-41 -39 -73 -86t-53 -100t-31.5 -111.5t-10.5 -121.5v-69q0 -126 42.5 -233t125.5 -184q179 -169 488 -169q170 0 289 55q107 49 175 143v-166h352zM1201 565q0 -162 -91 -256
q-100 -105 -289 -105q-190 0 -294 104q-94 94 -94 253v54q0 156 95 252q103 105 293 105q187 0 286 -101q89 -92 94 -254v-52z" />
    <glyph glyph-name="e" unicode="e" horiz-adv-x="1587" 
d="M1515 504l3 25q1 8 1 28q18 304 -157 476q-182 176 -530 176q-382 0 -575 -166q-176 -151 -176 -417v-52q0 -283 174 -437q190 -169 582 -169q307 0 481 131q143 108 183 286l-326 1q-19 -74 -99 -128q-98 -65 -246 -65q-196 0 -301 97q-92 85 -97 214h1083zM432 710
q10 112 89 189q105 101 299 101q183 0 276 -85q81 -74 89 -212v-5h-753v12z" />
    <glyph glyph-name="f" unicode="f" horiz-adv-x="1029" 
d="M1027 1554q-93 27 -130 34q-105 20 -221 20q-228 0 -322 -118q-43 -54 -63.5 -131t-27.5 -182h-232v-229h229v-948h351v948h385v229h-384q5 112 37 154q36 49 134 49q64 0 122 -7q49 -6 88 -16z" />
    <glyph glyph-name="g" unicode="g" horiz-adv-x="1726" 
d="M77 589q0 -114 43 -217.5t125 -180.5q86 -82 208.5 -127.5t276.5 -45.5q173 0 294 59q108 52 174 148l1 -95v-6q0 -131 -92 -209q-106 -89 -309 -89q-119 0 -262 13q-146 12 -219 28l-29 -219q293 -50 554 -50q372 0 552 167q155 144 155 399v1014h-351v-176
q-71 100 -176 150q-122 57 -289 57q-215 0 -371 -86q-139 -76 -215 -215q-70 -125 -70 -282v-37zM430 619q0 69 23.5 132.5t68.5 111.5q104 109 290 109q191 0 293 -102q93 -94 93 -248v-10q0 -166 -97 -260q-102 -97 -289 -97q-180 0 -284 99q-98 92 -98 243v22z" />
    <glyph glyph-name="h" unicode="h" horiz-adv-x="1805" 
d="M527 0v551q0 74 30 149t85 135q59 64 139 101t177 37q141 0 223 -61q67 -50 94 -149q20 -74 20 -186v-577h351v585q0 172 -31 279q-46 157 -162 242q-144 103 -396 103q-178 0 -317 -72q-141 -73 -213 -206v637h-351v-1568h351z" />
    <glyph glyph-name="i" unicode="i" horiz-adv-x="705" 
d="M141 1460q0 -65 49 -102q55 -42 160 -42q106 0 162 41q48 35 48 102v3q0 65 -48 102q-55 42 -162 42q-105 0 -160 -42q-49 -37 -49 -102v-2zM528 0v1177h-352v-1177h352z" />
    <glyph glyph-name="j" unicode="j" horiz-adv-x="706" 
d="M151 1460q0 -65 49 -102q55 -42 161 -42q107 0 161 41q48 36 48 102v3q0 65 -48 102q-55 42 -162 42q-105 0 -160 -42q-49 -37 -49 -102v-2zM187 1177v-1054q0 -87 -6 -139.5t-25 -88.5q-22 -41 -64 -61t-113 -20q-128 0 -234 30l-32 -203q60 -25 136 -40
q110 -22 223 -22q184 0 293 71q97 63 139 192q34 105 34 279v1056h-351z" />
    <glyph glyph-name="k" unicode="k" horiz-adv-x="1644" 
d="M176 1568v-1568h351v490h277l401 -490h415l-538 600l471 577h-400l-335 -443h-291v834h-351z" />
    <glyph glyph-name="l" unicode="l" horiz-adv-x="704" 
d="M527 0v1568h-351v-1568h351z" />
    <glyph glyph-name="m" unicode="m" horiz-adv-x="2704" 
d="M527 0v565q2 49 13 97t32.5 94.5t52.5 84.5q107 132 281 132q125 0 191 -56q55 -47 75 -140q13 -62 13 -185v-592h351v563q5 159 90 271q104 139 296 139q155 0 219 -101q53 -83 53 -246v-626h350v601q0 173 -29 283q-40 150 -147 230q-127 95 -354 95q-175 0 -314 -84
q-134 -80 -195 -217q-41 137 -143 211q-126 90 -345 90q-165 0 -292 -65q-132 -68 -198 -183v216h-351v-1177h351z" />
    <glyph glyph-name="n" unicode="n" horiz-adv-x="1805" 
d="M527 0v551q0 76 30.5 151.5t86.5 135.5q59 63 139.5 99t176.5 36q189 0 269 -111q66 -91 66 -271v-591h351v596q0 174 -34 284q-46 150 -166 233q-143 96 -392 96q-176 0 -315 -72q-141 -74 -212 -205v245h-351v-1177h351z" />
    <glyph glyph-name="o" unicode="o" 
d="M81 556q0 -268 173 -419q193 -169 577 -169q385 0 577 170q173 153 173 418v65q0 268 -173 419q-193 169 -577 169q-383 0 -577 -168q-173 -151 -173 -419v-66zM432 624q0 150 93 243q105 105 306 105q200 0 305 -105q93 -93 93 -243v-70q0 -152 -94 -246
q-104 -104 -304 -104q-199 0 -304 105q-95 94 -95 245v70z" />
    <glyph glyph-name="p" unicode="p" horiz-adv-x="1729" 
d="M527 -366v536q63 -93 171 -145q119 -57 289 -57q313 0 493 174q83 80 125.5 186t42.5 227v58q0 78 -18 152t-54.5 141.5t-89.5 121.5q-179 181 -497 181q-167 0 -287 -57q-111 -53 -175 -151v176h-351v-1543h351zM1296 557q0 -153 -96 -249q-106 -104 -294 -104
q-182 0 -278 93q-101 96 -101 275v40q2 158 87 252q97 108 294 108q188 0 293 -105q95 -96 95 -249v-61z" />
    <glyph glyph-name="q" unicode="q" horiz-adv-x="1729" 
d="M1549 -366v1543h-351v-175q-71 101 -175 150q-120 57 -287 57q-162 0 -287 -47.5t-209 -133.5q-80 -81 -121.5 -188.5t-41.5 -226.5v-58q0 -121 43.5 -227t126.5 -186q179 -174 491 -174q169 0 288 57q106 50 172 144v-535h351zM430 618q0 153 95 249q105 105 292 105
q196 0 294 -108q82 -90 87 -252v-40q0 -178 -100 -275q-98 -93 -279 -93q-189 0 -293 104q-96 96 -96 249v61z" />
    <glyph glyph-name="r" unicode="r" horiz-adv-x="1220" 
d="M527 0v551q0 74 26.5 145.5t79.5 127.5q124 131 343 131q107 0 202 -19l3 258q-24 6 -66 11q-33 4 -96 4q-206 0 -337 -93q-107 -76 -155 -208v269h-351v-1177h351z" />
    <glyph glyph-name="s" unicode="s" horiz-adv-x="1478" 
d="M1406 356q0 68 -19.5 119t-56 86t-92.5 61q-74 34 -180.5 53t-291.5 40q-168 18 -225 46q-58 27 -58 88q0 67 69.5 102t206.5 35q173 0 250 -57q49 -37 60 -103h303q-13 169 -156 269q-165 114 -475 114q-323 0 -478 -106q-133 -91 -133 -256q0 -84 32 -145.5t101 -105.5
q133 -86 458 -116q54 -5 75.5 -7t59.5 -6.5t62.5 -9.5t45.5 -11q89 -28 89 -107q0 -68 -72 -108q-83 -47 -247 -46q-170 1 -253 59q-72 48 -87 138h-304q28 -181 163 -284q167 -129 488 -130q332 -1 507 115q79 52 118.5 122.5t39.5 150.5z" />
    <glyph glyph-name="t" unicode="t" horiz-adv-x="1141" 
d="M236 1460v-283h-195v-229h195v-453q0 -178 27 -270q38 -128 133 -187q110 -70 317 -70q104 0 202 24q70 17 141 48l-15 202q-60 -17 -99 -24q-65 -13 -157 -13q-120 0 -165 84q-33 59 -33 179v480h447v229h-447v283h-351z" />
    <glyph glyph-name="u" unicode="u" horiz-adv-x="1805" 
d="M1282 1177v-551q0 -77 -30 -152.5t-86 -134.5q-39 -41 -86 -70.5t-106.5 -47t-123.5 -17.5q-188 0 -268 111q-67 92 -67 271v591h-352v-596q0 -174 35 -284q47 -152 166 -232q142 -97 392 -97q175 0 314 72q141 73 212 202v-242h352v1177h-352z" />
    <glyph glyph-name="v" unicode="v" horiz-adv-x="1590" 
d="M1191 1177l-378 -947h-37l-378 947h-376l548 -1177h449l549 1177h-377z" />
    <glyph glyph-name="w" unicode="w" horiz-adv-x="2399" 
d="M2001 1177l-251 -953h-39l-294 953h-435l-293 -953h-40l-251 953h-366l381 -1177h489l289 920h17l290 -920h488l381 1177h-366z" />
    <glyph glyph-name="x" unicode="x" horiz-adv-x="1510" 
d="M1096 0h409l-537 610l479 567h-381l-304 -390l-304 390h-380l477 -567l-536 -610h409l334 419z" />
    <glyph glyph-name="y" unicode="y" horiz-adv-x="1586" 
d="M1189 1177l-401 -932l-392 932h-377l577 -1177h91l-23 -59q-63 -149 -223 -243l124 -171q108 36 199 118q109 99 175 241l627 1291h-377z" />
    <glyph glyph-name="z" unicode="z" horiz-adv-x="1473" 
d="M1372 0v236h-873l862 732l3 209h-1214v-236h806l-860 -731v-210h1276z" />
    <glyph glyph-name="braceleft" unicode="{" horiz-adv-x="1106" 
d="M46 875v-238q174 -10 232 -57q29 -24 41 -61t12 -94q0 -35 -13 -100t-13 -109q0 -181 164 -261q141 -69 426 -69h116v231h-114q-157 0 -208 45q-23 19 -30.5 46t-7.5 68q0 15 12 121q11 97 11 123q2 103 -73 161q-80 62 -240 75q158 10 236.5 71.5t76.5 165.5
q0 47 -11 122q-12 80 -12 118q0 43 7 70t29 47q51 45 211 45h113v231h-116q-285 0 -426 -69q-164 -80 -164 -262q0 -45 13 -108t13 -100q-1 -38 -5.5 -65.5t-16 -51t-31.5 -40.5q-59 -49 -232 -55z" />
    <glyph glyph-name="bar" unicode="|" horiz-adv-x="842" 
d="M589 -82v1686h-330v-1686h330z" />
    <glyph glyph-name="braceright" unicode="}" horiz-adv-x="1108" 
d="M1060 875q-173 6 -231 55q-20 17 -32 40.5t-16.5 51t-4.5 65.5q0 42 12 100q13 63 13 108q0 182 -163 262q-141 69 -426 69h-115v-231h112q158 0 211 -45q22 -20 29 -47.5t7 -69.5q0 -45 -11 -118q-12 -82 -12 -122q-2 -104 76 -165.5t236 -71.5q-317 -27 -312 -236
q0 -17 12 -123q11 -97 11 -121q0 -41 -7.5 -68t-30.5 -46q-53 -45 -209 -45h-112v-231h115q285 0 426 69q163 81 163 261q0 39 -12 109q-13 76 -13 100q0 57 12 94t41 61q58 47 231 57v238z" />
    <glyph glyph-name="asciitilde" unicode="~" horiz-adv-x="1026" 
d="M823 696q-65 -71 -136 -71q-24 0 -52.5 6.5t-44.5 12.5t-53 20q-104 38 -180 38q-93 0 -164 -63q-59 -53 -108 -145l127 -38q62 71 148 71q24 0 52.5 -6.5t43.5 -11.5t52 -19q97 -38 176 -38q96 0 166 63q51 46 101 146z" />
    <glyph glyph-name="uni00A0" unicode="&#xa0;" horiz-adv-x="423" 
 />
    <glyph glyph-name="exclamdown" unicode="&#xa1;" horiz-adv-x="821" 
d="M199 1075q0 -72 50 -106t156 -34q111 0 160.5 33.5t49.5 106.5q0 71 -49.5 104t-160.5 33q-71 0 -116.5 -15t-67.5 -45t-22 -77zM268 779l-47 -1108h374l-45 1108h-282z" />
    <glyph glyph-name="cent" unicode="&#xa2;" horiz-adv-x="1604" 
d="M1212 437h322q-33 -205 -189 -326q-131 -102 -341 -132v-171h-296v165q-290 23 -452 163q-177 152 -177 415v76q0 262 179 415q161 137 450 162v174h296v-181q204 -29 332 -127q156 -118 194 -326h-318q-32 109 -118 166q-95 62 -268 62q-195 0 -301 -104
q-95 -92 -95 -237v-84q0 -145 98 -240q106 -103 298 -103q171 0 266 61q87 56 120 172z" />
    <glyph glyph-name="sterling" unicode="&#xa3;" horiz-adv-x="1520" 
d="M501 1103q0 87 75 133q83 51 244 51q153 0 233 -67q67 -58 65 -152l304 1q-2 221 -131 337q-154 138 -490 138q-324 0 -490 -98q-173 -101 -173 -294q0 -115 45 -222q30 -72 91 -165h-186v-172h270q7 -33 7 -56q0 -103 -54 -174q-58 -77 -184 -130v-236l115 9
q130 10 208 10q104 0 330 -23q214 -24 321 -24q196 0 362 94l-98 214q-76 -32 -145 -48q-69 -17 -159 -17q-69 0 -132 12l-125 21q-153 24 -260 -4q83 57 126 141.5t43 190.5v10q-1 3 -1 10h400v172h-460q-26 44 -50 82q-26 39 -49 82q-52 95 -52 174z" />
    <glyph glyph-name="currency" unicode="&#xa4;" horiz-adv-x="1035" 
d="M47 370l135 -134l118 124q102 -49 230 -49q117 0 214 44l113 -119l137 134l-99 103q61 83 61 190q0 112 -65 196l103 108l-137 133l-118 -124q-97 41 -209 41q-123 0 -224 -48l-124 131l-135 -133l113 -120q-56 -79 -56 -185q0 -102 51 -178zM329 663q0 65 57 106t144 41
t143 -42q58 -44 58 -105q0 -64 -57 -105q-58 -42 -144 -42t-144 42q-57 41 -57 105z" />
    <glyph glyph-name="yen" unicode="&#xa5;" horiz-adv-x="1749" 
d="M1792 1513l-655 -871h337v-147h-419v-116h419v-148h-419v-231h-360v231h-419v148h419v116h-419v147h337l-656 871h411l507 -712l506 712h411z" />
    <glyph glyph-name="brokenbar" unicode="&#xa6;" horiz-adv-x="856" 
d="M598 822v782h-331v-782h331zM267 711v-793h331v793h-331z" />
    <glyph glyph-name="section" unicode="&#xa7;" horiz-adv-x="1470" 
d="M125 782q0 -157 139 -245q138 -87 440 -123q74 -9 135 -15q65 -8 103 -20q45 -13 67.5 -37t22.5 -64q0 -69 -70 -110q-83 -49 -241 -48q-160 1 -250 64q-72 49 -91 133l-274 -7q28 -172 154 -268q157 -119 465 -120q315 -1 484 109q75 49 112.5 115.5t37.5 142.5
q0 132 -82 202q87 88 87 210q0 182 -166 267q-75 39 -185 63t-265 41q-165 18 -226 48q-64 31 -64 91q0 65 71.5 103t208.5 38q119 0 199 -34q63 -28 95 -76q22 -34 30 -73l270 10q-22 163 -149 257q-156 114 -457 114q-309 0 -462 -100q-134 -87 -134 -242q0 -130 86 -203
q-91 -92 -91 -223zM745 626q-169 17 -238 57q-61 35 -61 104q0 65 54 105q87 -17 208 -31q67 -8 99 -12.5t75.5 -13t70.5 -19.5q45 -18 68 -47.5t23 -75.5q0 -63 -50 -99q-55 9 -249 32z" />
    <glyph glyph-name="dieresis" unicode="&#xa8;" horiz-adv-x="1086" 
d="M45 1419q0 -61 41 -90t130 -29q99 0 140 29q40 29 40 90q0 63 -40 92q-42 30 -140 30q-45 0 -77 -7t-53 -22.5t-31 -38t-10 -54.5zM575 1419q0 -41 18 -67t56 -39t98 -13q98 0 139 29q40 29 40 90q0 63 -40 92q-42 30 -139 30q-90 0 -131 -29.5t-41 -92.5z" />
    <glyph glyph-name="copyright" unicode="&#xa9;" horiz-adv-x="2423" 
d="M2322 757q0 391 -299 597q-292 200 -824 200t-821 -200q-297 -206 -297 -598v-34q0 -398 294 -605q286 -202 823 -202q540 0 828 201q296 207 296 603v38zM1198 1359q425 0 640 -155q206 -150 206 -444v-44q0 -300 -203 -450q-210 -155 -643 -155q-435 0 -640 157
q-200 150 -200 450v42q0 294 201 444q207 155 639 155zM1706 840q-29 150 -135 233q-128 100 -363 100q-267 0 -408 -120q-126 -107 -126 -282v-58q0 -174 126 -282q141 -121 408 -121q235 0 367 97q111 83 133 225l-238 11q-38 -158 -266 -158q-131 0 -203 67
q-66 61 -66 160v61q0 99 66 159q73 66 203 66q116 0 181.5 -41.5t84.5 -115.5z" />
    <glyph glyph-name="ordfeminine" unicode="&#xaa;" horiz-adv-x="1237" 
d="M1105 775v747h-287v-87q-101 108 -279 108q-236 0 -344 -108q-94 -94 -94 -266v-38q0 -179 97 -272q110 -105 347 -105q178 0 273 105v-84h287zM603 955q-70 0 -119 19.5t-74 57.5t-25 91v45q0 58 25 97t73.5 58t119.5 19q113 0 165 -49q45 -42 45 -113v-80
q0 -68 -54.5 -106.5t-155.5 -38.5zM146 483h961v199h-961v-199z" />
    <glyph glyph-name="guillemotleft" unicode="&#xab;" horiz-adv-x="1532" 
d="M804 187l-400 403l400 404h-330l-389 -404l389 -403h330zM1408 187l-399 403l399 404h-331l-388 -404l388 -403h331z" />
    <glyph glyph-name="logicalnot" unicode="&#xac;" horiz-adv-x="1656" 
d="M1174 369h289v446h-1340v-223h1051v-223z" />
    <glyph glyph-name="uni00AD" unicode="&#xad;" horiz-adv-x="1263" 
d="M1178 -113v223h-1007v-223h1007z" />
    <glyph glyph-name="registered" unicode="&#xae;" horiz-adv-x="2404" 
d="M2322 757q0 391 -299 597q-292 200 -824 200t-821 -200q-297 -206 -297 -598v-34q0 -398 294 -605q286 -202 823 -202q540 0 828 201q296 207 296 603v38zM1198 1359q425 0 640 -155q206 -150 206 -444v-44q0 -300 -203 -450q-210 -155 -643 -155q-435 0 -640 157
q-200 150 -200 450v42q0 294 201 444q207 155 639 155zM1178 629q84 0 129 -17q60 -23 77 -79l32 -112q20 -66 51 -106h229q-36 45 -63 127l-28 99q-17 53 -41 83q-27 33 -70 51q82 27 128 76q51 54 51 135v24q0 65 -24.5 115.5t-71 84t-115 50.5t-156.5 17h-537v-862h215
v314h194zM1455 899q0 -62 -48 -91q-44 -26 -128 -26h-295v243h312q84 0 121.5 -29t37.5 -87v-10z" />
    <glyph glyph-name="macron" unicode="&#xaf;" horiz-adv-x="1176" 
d="M999 1337v187h-823v-187h823z" />
    <glyph glyph-name="degree" unicode="&#xb0;" horiz-adv-x="779" 
d="M100 1467q0 -105 73 -153t220 -48q146 0 219.5 48.5t73.5 152.5q0 53 -19 91.5t-56 63t-91.5 36.5t-126.5 12q-146 0 -219.5 -49t-73.5 -154zM279 1467q0 40 27.5 56t86.5 16t87 -16t28 -56t-27.5 -55.5t-87.5 -15.5t-87 15.5t-27 55.5z" />
    <glyph glyph-name="plusminus" unicode="&#xb1;" horiz-adv-x="1391" 
d="M545 310h259v328h357v223h-357v327h-259v-327h-359v-223h359v-328zM1216 -14v223h-1059v-223h1059z" />
    <glyph glyph-name="uni00B2" unicode="&#xb2;" horiz-adv-x="1197" 
d="M1086 841v209h-627q9 24 41 49q59 42 179 96q74 34 111 53q131 65 203 130q91 83 91 179q0 138 -114 210q-123 77 -364 77q-264 0 -389 -81q-115 -76 -115 -230v-41h287v35q0 47 38 72q51 34 174 34q109 0 159 -28q44 -26 44 -77q0 -28 -30 -53q-55 -49 -194 -108
q-86 -36 -130 -55q-166 -71 -244 -121q-111 -73 -111 -142v-208h991z" />
    <glyph glyph-name="uni00B3" unicode="&#xb3;" horiz-adv-x="1175" 
d="M1072 1114q0 110 -70 169q-61 52 -177 63q108 8 168 56q64 51 64 143q0 151 -115 224q-117 74 -371 74q-273 0 -381 -83q-50 -39 -71 -96t-21 -137v-13l272 1v25q0 55 39 78q45 25 160 25q116 0 164 -28q41 -24 41 -79v-13q0 -51 -66 -76q-55 -20 -163 -20h-90v-170h158
q80 0 123 -20q52 -24 52 -83v-39q0 -54 -57 -73q-59 -21 -162 -21q-132 0 -181 37q-32 24 -32 72v22h-270v-20q0 -168 121 -243q114 -71 364 -71q237 0 363 69q138 74 138 227z" />
    <glyph glyph-name="acute" unicode="&#xb4;" horiz-adv-x="1148" 
d="M535 1559l-250 -278h263l322 278h-335z" />
    <glyph glyph-name="uni00B5" unicode="&#xb5;" horiz-adv-x="1801" 
d="M174 1177v-1543h351v589q87 -123 222 -188.5t305 -65.5q249 0 391 97q119 80 167 231q34 111 34 284v596h-351v-591q0 -179 -66 -270q-80 -111 -269 -111q-96 0 -176.5 36t-139.5 98q-56 60 -86.5 135.5t-30.5 151.5v551h-351z" />
    <glyph glyph-name="paragraph" unicode="&#xb6;" horiz-adv-x="1956" 
d="M1148 -369v1885h-331q-424 0 -600 -121q-58 -40 -94.5 -95.5t-52.5 -122.5t-16 -152q0 -123 42 -211.5t131 -146.5q177 -117 590 -123v-913h331zM1716 -369v1885h-332v-1885h332z" />
    <glyph glyph-name="periodcentered" unicode="&#xb7;" horiz-adv-x="796" 
d="M184 584q0 -47 21 -77t67 -45t118 -15q75 0 121.5 15t67.5 45t21 77q0 73 -49 106.5t-161 33.5q-108 0 -157 -33.5t-49 -106.5z" />
    <glyph glyph-name="cedilla" unicode="&#xb8;" horiz-adv-x="1091" 
d="M255 -363q79 -33 129 -46q78 -21 170 -21q153 0 236 49q86 49 86 151q0 76 -77 127q-78 52 -190 52h-38l1 95h-177l-1 -219q81 14 165 0q39 -7 62.5 -21.5t23.5 -33.5q0 -27 -29 -44q-29 -16 -99 -16q-55 0 -104.5 11.5t-115.5 35.5z" />
    <glyph glyph-name="uni00B9" unicode="&#xb9;" horiz-adv-x="849" 
d="M44 1489q168 15 315 82v-730h277v981h-231q-63 -40 -155 -78q-101 -42 -206 -64v-191z" />
    <glyph glyph-name="ordmasculine" unicode="&#xba;" horiz-adv-x="1235" 
d="M147 1174q0 -186 93 -291q118 -133 378 -133q183 0 293 62q96 54 140 158q36 85 36 211v19q0 131 -35 214q-44 105 -139 158q-109 61 -295 61q-270 0 -381 -131q-90 -104 -90 -301v-27zM618 938q-126 0 -177 82q-37 58 -37 159v41q0 96 35 150q51 77 179 77
q127 0 178 -79q34 -53 34 -151v-52q0 -102 -39 -156q-51 -71 -173 -71zM119 470h992v200h-992v-200z" />
    <glyph glyph-name="guillemotright" unicode="&#xbb;" horiz-adv-x="1532" 
d="M415 187l389 403l-389 404h-330l399 -404l-399 -403h330zM1019 187l389 403l-389 404h-330l399 -404l-399 -403h330z" />
    <glyph glyph-name="onehalf" unicode="&#xbd;" horiz-adv-x="2923" 
d="M90 1450q169 15 315 82v-730h277v981h-231q-63 -39 -155 -78q-101 -43 -206 -64v-191zM1873 1497l-224 136l-1101 -1543l233 -135zM2640 4v209h-627q9 24 41 49q59 42 179 96q74 34 111 53q131 65 203 130q91 83 91 179q0 138 -114 210q-123 77 -364 77q-264 0 -389 -81
q-115 -76 -115 -230v-41h287v35q0 47 38 72q51 34 174 34q109 0 159 -28q44 -26 44 -77q0 -28 -30 -53q-55 -49 -194 -108q-84 -35 -130 -55q-166 -71 -244 -121q-111 -73 -111 -142v-208h991z" />
    <glyph glyph-name="questiondown" unicode="&#xbf;" horiz-adv-x="1419" 
d="M956 1073q0 70 -50 103.5t-155 33.5q-74 0 -121 -15t-68.5 -45t-21.5 -77q0 -73 50 -106.5t161 -33.5q106 0 155.5 34t49.5 106zM63 38q0 -205 161 -301t490 -96q336 0 491 126q132 107 132 302l-1 44h-322v-29q0 -86 -65 -130q-76 -53 -235 -53q-156 0 -223 45
q-64 43 -64 135q0 40 21 75q36 59 133 126q11 7 41 28.5t48 33.5q28 19 46 32.5t41.5 32.5t43 37.5t35.5 38.5q74 93 73 197v90h-325l-1 -62q-2 -42 -24 -80q-42 -68 -142 -142l-95 -71q-124 -94 -178 -162q-81 -101 -81 -217z" />
    <glyph glyph-name="Agrave" unicode="&#xc0;" horiz-adv-x="1891" 
d="M472 1927l341 -278h257l-273 278h-325zM372 0l155 354h837l155 -354h372l-712 1513h-467l-712 -1513h372zM922 1257h48l286 -656h-621z" />
    <glyph glyph-name="Aacute" unicode="&#xc1;" horiz-adv-x="1891" 
d="M1065 1927l-250 -278h263l322 278h-335zM372 0l155 354h837l155 -354h372l-712 1513h-467l-712 -1513h372zM922 1257h48l286 -656h-621z" />
    <glyph glyph-name="Acircumflex" unicode="&#xc2;" horiz-adv-x="1891" 
d="M797 1648l147 137l147 -137h286l-273 243h-321l-273 -243h287zM372 0l155 354h837l155 -354h372l-712 1513h-467l-712 -1513h372zM922 1257h48l286 -656h-621z" />
    <glyph glyph-name="Atilde" unicode="&#xc3;" horiz-adv-x="1891" 
d="M1243 1912q-14 -19 -27.5 -33t-30 -26t-36 -18t-42.5 -6q-8 0 -16 1t-17 3t-15.5 3.5t-16.5 6t-15 6.5t-16.5 7.5t-15 7.5t-16.5 9t-16 9q-17 9 -30.5 16t-32 14.5t-35.5 12t-37 7.5t-41 3q-95 0 -167 -67q-56 -54 -100 -150l122 -47q33 41 66.5 62t81.5 21q24 0 52 -9.5
t41 -16t50 -26.5q31 -17 51.5 -26.5t54 -18t66.5 -8.5q98 0 166 66q54 51 94 149zM372 0l155 354h837l155 -354h372l-712 1513h-467l-712 -1513h372zM922 1257h48l286 -656h-621z" />
    <glyph glyph-name="Adieresis" unicode="&#xc4;" horiz-adv-x="1891" 
d="M500 1771q0 -61 41 -90t130 -29q99 0 140 29q40 29 40 90q0 63 -40 92q-42 30 -140 30q-89 0 -130 -29.5t-41 -92.5zM1030 1771q0 -61 41.5 -90t130.5 -29q98 0 139 29q40 29 40 90q0 63 -40 92q-42 30 -139 30q-90 0 -131 -29.5t-41 -92.5zM372 0l155 354h837l155 -354
h372l-712 1513h-467l-712 -1513h372zM922 1257h48l286 -656h-621z" />
    <glyph glyph-name="Aring" unicode="&#xc5;" horiz-adv-x="1891" 
d="M652 1852q0 -105 73 -153t220 -48q146 0 219.5 48.5t73.5 152.5t-73.5 153.5t-219.5 49.5t-219.5 -49t-73.5 -154zM831 1852q0 21 7 35t22 22t35.5 11.5t49.5 3.5q59 0 87 -16t28 -56t-27.5 -55.5t-87.5 -15.5t-87 15.5t-27 55.5zM372 0l155 354h837l155 -354h372
l-712 1513h-467l-712 -1513h372zM922 1257h48l286 -656h-621z" />
    <glyph glyph-name="AE" unicode="&#xc6;" horiz-adv-x="2649" 
d="M386 0l205 354h584v-354h1407v257h-1051v380h942v257h-942v361h1044v258h-1648l-927 -1513h386zM1114 1257h61v-656h-441z" />
    <glyph glyph-name="Ccedilla" unicode="&#xc7;" horiz-adv-x="1932" 
d="M1497 570l357 -1q-19 -126 -79 -234.5t-161 -188.5q-48 -37 -104 -67t-122 -53t-143.5 -37.5t-163.5 -18.5l-1 -59h38q112 0 190 -52q77 -51 77 -127q0 -102 -86 -151q-83 -49 -236 -49q-92 0 -170 21q-50 13 -129 46l42 120q66 -24 115.5 -35.5t104.5 -11.5q70 0 99 16
q29 17 29 44q0 13 -11.5 24t-30.5 18.5t-44 12.5q-84 14 -165 0l1 184q-380 20 -591 200q-111 95 -167 227t-56 291v135q0 159 56 291t167 227q238 203 689 203q379 0 602 -169q207 -160 249 -436h-356q-35 162 -162 253q-132 93 -336 93q-246 0 -394 -119
q-73 -59 -112 -145t-39 -193l1 -149q0 -214 152 -336q146 -117 391 -117q206 0 340 97q121 89 159 246z" />
    <glyph glyph-name="Egrave" unicode="&#xc8;" horiz-adv-x="1728" 
d="M473 1925l341 -278h257l-273 278h-325zM1615 0v257h-1051v380h942v257h-942v361h1045v258h-1401v-1513h1407z" />
    <glyph glyph-name="Eacute" unicode="&#xc9;" horiz-adv-x="1728" 
d="M1066 1925l-250 -278h263l322 278h-335zM1615 0v257h-1051v380h942v257h-942v361h1045v258h-1401v-1513h1407z" />
    <glyph glyph-name="Ecircumflex" unicode="&#xca;" horiz-adv-x="1728" 
d="M798 1647l147 137l147 -137h286l-273 243h-321l-273 -243h287zM1615 0v257h-1051v380h942v257h-942v361h1045v258h-1401v-1513h1407z" />
    <glyph glyph-name="Edieresis" unicode="&#xcb;" horiz-adv-x="1728" 
d="M501 1769q0 -61 41 -90t130 -29q99 0 140 29q40 29 40 90q0 63 -40 92q-42 30 -140 30q-60 0 -97.5 -13t-55.5 -40t-18 -69zM1031 1769q0 -61 41.5 -90t130.5 -29q98 0 139 29q40 29 40 90q0 63 -40 92q-42 30 -139 30q-90 0 -131 -29.5t-41 -92.5zM1615 0v257h-1051v380
h942v257h-942v361h1045v258h-1401v-1513h1407z" />
    <glyph glyph-name="Igrave" unicode="&#xcc;" horiz-adv-x="775" 
d="M-86 1925l341 -278h257l-273 278h-325zM568 0v1513h-360v-1513h360z" />
    <glyph glyph-name="Iacute" unicode="&#xcd;" horiz-adv-x="775" 
d="M508 1925l-250 -278h263l322 278h-335zM568 0v1513h-360v-1513h360z" />
    <glyph glyph-name="Icircumflex" unicode="&#xce;" horiz-adv-x="775" 
d="M239 1646l147 137l147 -137h286l-273 243h-321l-273 -243h287zM568 0v1513h-360v-1513h360z" />
    <glyph glyph-name="Idieresis" unicode="&#xcf;" horiz-adv-x="775" 
d="M-58 1769q0 -41 18 -67t55.5 -39t97.5 -13q99 0 140 29q40 29 40 90q0 63 -40 92q-42 30 -140 30q-45 0 -77 -7t-53 -22.5t-31 -38t-10 -54.5zM472 1769q0 -61 41.5 -90t130.5 -29q98 0 139 29q40 29 40 90q0 63 -40 92q-42 30 -139 30q-90 0 -131 -29.5t-41 -92.5z
M568 0v1513h-360v-1513h360z" />
    <glyph glyph-name="Eth" unicode="&#xd0;" horiz-adv-x="2010" 
d="M205 0h883q426 0 643 201q192 178 192 473v163q0 95 -21 180.5t-66 162t-112 136.5q-220 197 -636 197h-883v-637h-179v-223h179v-653zM761 653v223h-196v379h496q242 0 375 -125q123 -116 123 -306v-126q0 -212 -139 -329q-133 -112 -359 -112h-496v396h196z" />
    <glyph glyph-name="Ntilde" unicode="&#xd1;" horiz-adv-x="2067" 
d="M1302 1910q-30 -40 -61 -61.5t-75 -21.5q-8 0 -15.5 1t-14 2t-15 3.5t-14 4t-14 5.5t-13.5 6.5t-14.5 7.5t-14 7t-15 8t-14.5 8q-47 25 -87.5 39t-88.5 14q-95 0 -167 -67q-56 -54 -100 -150l122 -47q21 27 40.5 44t47 28t60.5 11q24 0 52 -9.5t41 -16t50 -26.5
q31 -17 51.5 -26.5t54 -18t66.5 -8.5q98 0 166 66q54 51 94 149zM1860 0v1513h-343l5 -1023l9 -86h-8l-959 1109h-356v-1513h343l-5 993l-11 96h9l950 -1089h366z" />
    <glyph glyph-name="Ograve" unicode="&#xd2;" horiz-adv-x="2004" 
d="M526 1923l341 -278h257l-273 278h-325zM90 689q0 -159 56 -290.5t167 -226.5q239 -204 688 -204t690 206q112 95 167.5 226t55.5 289v134q0 158 -55.5 290t-166.5 227q-240 205 -690 205t-689 -204q-111 -95 -167 -227t-56 -291v-134zM1001 227q-247 0 -394 118
q-152 122 -152 336l-1 147q0 218 152 340q147 118 395 118q250 0 397 -117q152 -122 152 -341v-147q0 -214 -152 -336q-149 -118 -397 -118z" />
    <glyph glyph-name="Oacute" unicode="&#xd3;" horiz-adv-x="2004" 
d="M1120 1923l-250 -278h263l322 278h-335zM90 689q0 -159 56 -290.5t167 -226.5q239 -204 688 -204t690 206q112 95 167.5 226t55.5 289v134q0 158 -55.5 290t-166.5 227q-240 205 -690 205t-689 -204q-111 -95 -167 -227t-56 -291v-134zM1001 227q-247 0 -394 118
q-152 122 -152 336l-1 147q0 218 152 340q147 118 395 118q250 0 397 -117q152 -122 152 -341v-147q0 -214 -152 -336q-149 -118 -397 -118z" />
    <glyph glyph-name="Ocircumflex" unicode="&#xd4;" horiz-adv-x="2004" 
d="M851 1645l147 137l147 -137h286l-273 243h-321l-273 -243h287zM90 689q0 -159 56 -290.5t167 -226.5q239 -204 688 -204t690 206q112 95 167.5 226t55.5 289v134q0 158 -55.5 290t-166.5 227q-240 205 -690 205t-689 -204q-111 -95 -167 -227t-56 -291v-134zM1001 227
q-247 0 -394 118q-152 122 -152 336l-1 147q0 218 152 340q147 118 395 118q250 0 397 -117q152 -122 152 -341v-147q0 -214 -152 -336q-149 -118 -397 -118z" />
    <glyph glyph-name="Otilde" unicode="&#xd5;" horiz-adv-x="2004" 
d="M1322 1908q-30 -40 -61 -61.5t-75 -21.5q-8 0 -16 0.5t-17 3t-15.5 4t-16.5 6t-15 6.5t-16.5 7.5t-15 7.5t-16.5 9t-16 9q-47 25 -87.5 39t-88.5 14q-95 0 -167 -67q-56 -54 -100 -150l122 -47q33 41 66.5 62t81.5 21q24 0 52 -9.5t41 -16t50 -26.5q22 -12 38 -19.5
t38.5 -16.5t46.5 -13t49 -4q98 0 166 66q54 51 94 149zM90 689q0 -105 24.5 -198.5t74.5 -174.5t124 -144q239 -204 688 -204t690 206q112 95 167.5 226t55.5 289v134q0 326 -222 517q-240 205 -690 205t-689 -204q-111 -95 -167 -227t-56 -291v-134zM1001 227
q-247 0 -394 118q-152 122 -152 336l-1 147q0 218 152 340q147 118 395 118q250 0 397 -117q152 -122 152 -341v-147q0 -214 -152 -336q-149 -118 -397 -118z" />
    <glyph glyph-name="Odieresis" unicode="&#xd6;" horiz-adv-x="2004" 
d="M554 1767q0 -61 41 -90t130 -29q99 0 140 29q40 29 40 90q0 63 -40 92q-42 30 -140 30q-89 0 -130 -29.5t-41 -92.5zM1084 1767q0 -61 41.5 -90t130.5 -29q98 0 139 29q40 29 40 90q0 63 -40 92q-42 30 -139 30q-90 0 -131 -29.5t-41 -92.5zM90 689q0 -159 56 -290.5
t167 -226.5q239 -204 688 -204t690 206q112 95 167.5 226t55.5 289v134q0 158 -55.5 290t-166.5 227q-240 205 -690 205t-689 -204q-111 -95 -167 -227t-56 -291v-134zM1001 227q-247 0 -394 118q-152 122 -152 336l-1 147q0 218 152 340q147 118 395 118q250 0 397 -117
q152 -122 152 -341v-147q0 -214 -152 -336q-149 -118 -397 -118z" />
    <glyph glyph-name="multiply" unicode="&#xd7;" horiz-adv-x="1069" 
d="M131 377l182 -183l221 222l222 -226l168 167l-222 225l229 231l-184 183l-229 -230l-224 221l-167 -167l224 -221z" />
    <glyph glyph-name="Oslash" unicode="&#xd8;" horiz-adv-x="2004" 
d="M90 689q0 -205 91 -360q94 -162 276 -252l-91 -157h322l40 71q129 -23 273 -23q449 0 690 206q112 95 167.5 226t55.5 289v134q0 208 -93 363q-98 161 -284 253l86 150h-323l-37 -65q-120 21 -261 21q-450 0 -689 -204q-111 -95 -167 -227t-56 -291v-134zM1001 227
q-247 0 -394 118q-152 122 -152 336l-1 147q0 218 152 340q147 118 395 118q250 0 397 -117q152 -122 152 -341v-147q0 -214 -152 -336q-149 -118 -397 -118z" />
    <glyph glyph-name="Ugrave" unicode="&#xd9;" horiz-adv-x="1966" 
d="M511 1928l341 -278h257l-273 278h-325zM1459 1513v-870q0 -188 -106 -294q-120 -122 -369 -122q-243 0 -366 120q-110 107 -110 294v872h-360v-872q0 -190 76 -333q83 -159 261 -245q195 -95 497 -95q433 0 649 203q187 176 187 471v871h-359z" />
    <glyph glyph-name="Uacute" unicode="&#xda;" horiz-adv-x="1966" 
d="M1105 1928l-250 -278h263l322 278h-335zM1459 1513v-870q0 -188 -106 -294q-120 -122 -369 -122q-243 0 -366 120q-110 107 -110 294v872h-360v-872q0 -190 76 -333q83 -159 261 -245q195 -95 497 -95q433 0 649 203q187 176 187 471v871h-359z" />
    <glyph glyph-name="Ucircumflex" unicode="&#xdb;" horiz-adv-x="1966" 
d="M837 1649l147 137l147 -137h286l-273 243h-321l-273 -243h287zM1459 1513v-870q0 -188 -106 -294q-120 -122 -369 -122q-243 0 -366 120q-110 107 -110 294v872h-360v-872q0 -190 76 -333q83 -159 261 -245q195 -95 497 -95q433 0 649 203q187 176 187 471v871h-359z" />
    <glyph glyph-name="Udieresis" unicode="&#xdc;" horiz-adv-x="1966" 
d="M539 1772q0 -61 41 -90t130 -29q99 0 140 29q40 29 40 90q0 63 -40 92q-42 30 -140 30q-89 0 -130 -29.5t-41 -92.5zM1069 1772q0 -41 18 -67t56 -39t98 -13q98 0 139 29q40 29 40 90q0 63 -40 92q-42 30 -139 30q-90 0 -131 -29.5t-41 -92.5zM1459 1513v-870
q0 -188 -106 -294q-120 -122 -369 -122q-243 0 -366 120q-110 107 -110 294v872h-360v-872q0 -190 76 -333q82 -159 261 -245q195 -95 497 -95q433 0 649 203q187 176 187 471v871h-359z" />
    <glyph glyph-name="Yacute" unicode="&#xdd;" horiz-adv-x="1754" 
d="M998 1923l-250 -278h263l322 278h-335zM1794 1513h-411l-506 -712l-507 712h-411l738 -980v-533h360v533z" />
    <glyph glyph-name="Thorn" unicode="&#xde;" horiz-adv-x="1575" 
d="M550 0v262h443q228 0 365 134q63 63 97 145.5t34 175.5v53q0 68 -15.5 130t-44.5 115t-71 95q-136 134 -361 134h-447v269h-351v-1513h351zM1167 744q0 -108 -63 -174q-69 -72 -191 -72h-363v508h367q108 0 177 -61q73 -65 73 -175v-26z" />
    <glyph glyph-name="germandbls" unicode="&#xdf;" horiz-adv-x="1755" 
d="M788 689h69q153 0 239 -38q68 -32 92 -89q15 -35 15 -97v-32q0 -112 -62 -164q-87 -74 -300 -59v-235q280 -17 447 41q147 51 214 164q54 93 54 236v30q0 125 -69 211q-76 95 -230 142q137 40 201 116.5t64 190.5v47q0 103 -56 187q-65 97 -202 152q-157 63 -399 63
q-343 0 -510 -165q-156 -153 -156 -441v-949h352v969q0 161 69 250q78 100 247 100q139 0 222 -50q84 -51 84 -139v-27q0 -101 -85 -146q-77 -40 -231 -40h-69v-228z" />
    <glyph glyph-name="agrave" unicode="&#xe0;" horiz-adv-x="1682" 
d="M406 1586l341 -278h257l-273 278h-325zM1523 0v633q0 163 -49 276q-61 141 -200 214q-164 86 -432 86q-257 0 -417 -70q-131 -58 -198 -162q-47 -72 -63 -179h334q15 79 76 124q84 60 254 60q193 0 277 -82q67 -68 67 -206v-46q-85 33 -189 56q-146 32 -283 32
q-318 0 -463 -111q-122 -93 -122 -261q0 -98 43 -177q53 -98 170 -153q137 -65 356 -65q169 0 304 69q136 68 184 174v-212h351zM786 197q-184 0 -264 66q-56 46 -56 116q0 65 50 109q71 62 247 62q108 0 241 -32q104 -25 168 -55v-37q-7 -28 -32 -66.5t-66 -71.5
q-113 -91 -288 -91z" />
    <glyph glyph-name="aacute" unicode="&#xe1;" horiz-adv-x="1682" 
d="M957 1586l-250 -278h263l322 278h-335zM1523 0v633q0 163 -49 276q-61 141 -200 214q-164 86 -432 86q-257 0 -417 -70q-131 -58 -198 -162q-47 -72 -63 -179h334q15 79 76 124q84 60 254 60q193 0 277 -82q67 -68 67 -206v-46q-85 33 -189 56q-146 32 -283 32
q-318 0 -463 -111q-122 -93 -122 -261q0 -98 43 -177q53 -98 170 -153q136 -65 356 -65q169 0 304 69q136 68 184 174v-212h351zM786 197q-184 0 -264 66q-56 46 -56 116q0 65 50 109q71 62 247 62q108 0 241 -32q104 -25 168 -55v-37q-7 -28 -32 -66.5t-66 -71.5
q-113 -91 -288 -91z" />
    <glyph glyph-name="acircumflex" unicode="&#xe2;" horiz-adv-x="1682" 
d="M688 1307l147 137l147 -137h286l-273 243h-321l-273 -243h287zM1523 0v633q0 163 -49 276q-61 141 -200 214q-164 86 -432 86q-257 0 -417 -70q-131 -58 -198 -162q-47 -72 -63 -179h334q15 79 76 124q84 60 254 60q193 0 277 -82q67 -68 67 -206v-46q-85 33 -189 56
q-146 32 -283 32q-318 0 -463 -111q-122 -93 -122 -261q0 -98 43 -177q53 -98 170 -153q136 -65 356 -65q169 0 304 69q136 68 184 174v-212h351zM786 197q-184 0 -264 66q-56 46 -56 116q0 65 50 109q71 62 247 62q108 0 241 -32q104 -25 168 -55v-37q-7 -28 -32 -66.5
t-66 -71.5q-113 -91 -288 -91z" />
    <glyph glyph-name="atilde" unicode="&#xe3;" horiz-adv-x="1682" 
d="M1161 1571q-20 -26 -37.5 -43t-43 -28.5t-55.5 -11.5q-8 0 -16 0.5t-17 3t-15.5 4t-16.5 6t-15 6t-16.5 7.5t-15 8t-16.5 9t-16 9q-47 25 -87.5 39t-88.5 14q-95 0 -167 -67q-56 -54 -100 -150l122 -47q21 27 40.5 44t47 28t60.5 11q24 0 52 -9.5t41 -16t50 -26.5
q31 -17 51.5 -26.5t54 -18t66.5 -8.5q98 0 166 66q54 51 94 149zM1523 0v633q0 163 -49 276q-62 141 -200 214q-164 86 -432 86q-257 0 -417 -70q-131 -58 -198 -162q-48 -72 -63 -179h334q15 79 76 124q84 60 254 60q193 0 277 -82q67 -68 67 -206v-46q-85 33 -189 56
q-146 32 -283 32q-318 0 -463 -111q-122 -93 -122 -261q0 -98 43 -177q53 -98 170 -153q136 -65 356 -65q169 0 304 69q136 68 184 174v-212h351zM786 197q-184 0 -264 66q-56 46 -56 116q0 65 50 109q71 62 247 62q108 0 241 -32q104 -25 168 -55v-37q-7 -28 -32 -66.5
t-66 -71.5q-113 -91 -288 -91z" />
    <glyph glyph-name="adieresis" unicode="&#xe4;" horiz-adv-x="1682" 
d="M413 1430q0 -61 41 -90t130 -29q99 0 140 29q40 29 40 90q0 63 -40 92q-42 30 -140 30q-89 0 -130 -29.5t-41 -92.5zM943 1430q0 -41 18 -67t56 -39t98 -13q98 0 139 29q40 29 40 90q0 63 -40 92q-42 30 -139 30q-90 0 -131 -29.5t-41 -92.5zM1523 0v633q0 163 -49 276
q-61 141 -200 214q-164 86 -432 86q-257 0 -417 -70q-131 -58 -198 -162q-47 -72 -63 -179h334q15 79 76 124q84 60 254 60q193 0 277 -82q67 -68 67 -206v-46q-85 33 -189 56q-146 32 -283 32q-318 0 -463 -111q-122 -93 -122 -261q0 -98 43 -177q53 -98 170 -153
q136 -65 356 -65q169 0 304 69q136 68 184 174v-212h351zM786 197q-184 0 -264 66q-56 46 -56 116q0 65 50 109q71 62 247 62q108 0 241 -32q104 -25 168 -55v-37q-7 -28 -32 -66.5t-66 -71.5q-113 -91 -288 -91z" />
    <glyph glyph-name="aring" unicode="&#xe5;" horiz-adv-x="1682" 
d="M565 1511q0 -105 73 -153t220 -48q97 0 161 20.5t98 65.5t34 115q0 42 -12 75t-36 57t-59.5 40t-81.5 23.5t-104 7.5q-146 0 -219.5 -49t-73.5 -154zM744 1511q0 40 27.5 56t86.5 16t87 -16t28 -56t-27.5 -55.5t-87.5 -15.5q-40 0 -64 6t-37 22t-13 43zM1523 0v633
q0 163 -49 276q-62 141 -200 214q-164 86 -432 86q-257 0 -417 -70q-131 -58 -198 -162q-48 -72 -63 -179h334q15 79 76 124q84 60 254 60q193 0 277 -82q67 -68 67 -206v-46q-85 33 -189 56q-146 32 -283 32q-318 0 -463 -111q-122 -93 -122 -261q0 -98 43 -177
q53 -98 170 -153q136 -65 356 -65q169 0 304 69q136 68 184 174v-212h351zM786 197q-184 0 -264 66q-56 46 -56 116q0 65 50 109q71 62 247 62q108 0 241 -32q104 -25 168 -55v-37q-7 -28 -32 -66.5t-66 -71.5q-113 -91 -288 -91z" />
    <glyph glyph-name="ae" unicode="&#xe6;" horiz-adv-x="2709" 
d="M2609 504q1 4 1.5 12.5t0.5 12.5q1 8 1 28q18 304 -157 476q-182 176 -529 176q-366 0 -558 -151q-84 74 -203 110q-136 41 -323 41q-257 0 -417 -70q-131 -58 -198 -162q-47 -72 -63 -179h334q15 79 76 124q84 60 254 60q193 0 277 -82q67 -68 67 -206v-46
q-85 33 -189 56q-146 32 -283 32q-318 0 -463 -111q-122 -93 -122 -261q0 -98 43 -177q53 -98 170 -153q137 -65 356 -65q166 0 308 61q138 59 215 166l26 24q8 7 24 23q16 -26 35 -49t41.5 -45t48.5 -40.5t56 -35.5t63 -31q171 -74 429 -74q307 0 481 131q142 107 184 286
l-327 1q-19 -74 -99 -128q-98 -65 -246 -65q-196 0 -301 97q-94 87 -96 214h1083zM1526 710q8 110 89 189q103 101 298 101q183 0 276 -85q78 -72 90 -212v-5h-753v12zM786 197q-184 0 -264 66q-56 46 -56 116q0 65 50 109q71 62 247 62q108 0 241 -32q104 -25 168 -55v-37
q-7 -28 -32 -66.5t-66 -71.5q-113 -91 -288 -91z" />
    <glyph glyph-name="ccedilla" unicode="&#xe7;" horiz-adv-x="1609" 
d="M1214 437h322q-33 -205 -189 -326q-171 -134 -474 -142l-1 -59h38q112 0 190 -52q77 -51 77 -127q0 -102 -86 -151q-83 -49 -236 -49q-93 0 -170 21q-50 13 -129 46l42 120q66 -24 115.5 -35.5t104.5 -11.5q70 0 99 16q29 17 29 44q0 19 -23.5 33.5t-62.5 21.5
q-84 14 -165 0l1 188q-282 26 -438 162q-177 152 -177 415v76q0 262 179 415q196 167 572 167q323 0 506 -139q156 -118 194 -326h-318q-32 109 -118 166q-95 62 -268 62q-195 0 -301 -104q-95 -92 -95 -237v-84q0 -145 98 -240q106 -103 298 -103q171 0 266 61
q87 56 120 172z" />
    <glyph glyph-name="egrave" unicode="&#xe8;" horiz-adv-x="1587" 
d="M358 1586l341 -278h257l-273 278h-325zM1515 504l3 25q1 8 1 28q18 304 -157 476q-182 176 -530 176q-382 0 -575 -166q-176 -151 -176 -417v-52q0 -283 174 -437q190 -169 582 -169q307 0 481 131q143 108 183 286l-326 1q-19 -74 -99 -128q-98 -65 -246 -65
q-196 0 -301 97q-92 85 -97 214h1083zM432 710q10 112 89 189q105 101 299 101q183 0 276 -85q81 -74 89 -212v-5h-753v12z" />
    <glyph glyph-name="eacute" unicode="&#xe9;" horiz-adv-x="1587" 
d="M951 1586l-250 -278h263l322 278h-335zM1515 504l3 25q1 8 1 28q18 304 -157 476q-182 176 -530 176q-382 0 -575 -166q-176 -151 -176 -417v-52q0 -283 174 -437q190 -169 582 -169q307 0 481 131q143 108 183 286l-326 1q-19 -74 -99 -128q-98 -65 -246 -65
q-196 0 -301 97q-92 85 -97 214h1083zM432 710q10 112 89 189q105 101 299 101q183 0 276 -85q81 -74 89 -212v-5h-753v12z" />
    <glyph glyph-name="ecircumflex" unicode="&#xea;" horiz-adv-x="1587" 
d="M683 1307l147 137l147 -137h286l-273 243h-321l-273 -243h287zM1515 504l3 25q1 8 1 28q18 304 -157 476q-182 176 -530 176q-382 0 -575 -166q-176 -151 -176 -417v-52q0 -283 174 -437q190 -169 582 -169q307 0 481 131q143 108 183 286l-326 1q-19 -74 -99 -128
q-98 -65 -246 -65q-196 0 -301 97q-92 85 -97 214h1083zM432 710q10 112 89 189q105 101 299 101q183 0 276 -85q81 -74 89 -212v-5h-753v12z" />
    <glyph glyph-name="edieresis" unicode="&#xeb;" horiz-adv-x="1587" 
d="M386 1430q0 -61 41 -90t130 -29q99 0 140 29q40 29 40 90q0 63 -40 92q-42 30 -140 30q-89 0 -130 -29.5t-41 -92.5zM916 1430q0 -61 41.5 -90t130.5 -29q98 0 139 29q40 29 40 90q0 63 -40 92q-42 30 -139 30q-90 0 -131 -29.5t-41 -92.5zM1515 504l3 25q1 8 1 28
q18 304 -157 476q-182 176 -530 176q-382 0 -575 -166q-176 -151 -176 -417v-52q0 -283 174 -437q190 -169 582 -169q307 0 481 131q143 108 183 286l-326 1q-19 -74 -99 -128q-98 -65 -246 -65q-196 0 -301 97q-92 85 -97 214h1083zM432 710q10 112 89 189q105 101 299 101
q183 0 276 -85q81 -74 89 -212v-5h-753v12z" />
    <glyph glyph-name="igrave" unicode="&#xec;" horiz-adv-x="705" 
d="M-123 1585l341 -278h257l-273 278h-325zM528 0v1177h-352v-1177h352z" />
    <glyph glyph-name="iacute" unicode="&#xed;" horiz-adv-x="705" 
d="M470 1585l-250 -278h263l322 278h-335zM528 0v1177h-352v-1177h352z" />
    <glyph glyph-name="icircumflex" unicode="&#xee;" horiz-adv-x="705" 
d="M202 1306l147 137l147 -137h286l-273 243h-321l-273 -243h287zM528 0v1177h-352v-1177h352z" />
    <glyph glyph-name="idieresis" unicode="&#xef;" horiz-adv-x="705" 
d="M-95 1429q0 -61 41 -90t130 -29q99 0 140 29q40 29 40 90q0 63 -40 92q-42 30 -140 30q-89 0 -130 -29.5t-41 -92.5zM435 1429q0 -61 41.5 -90t130.5 -29q98 0 139 29q40 29 40 90q0 63 -40 92q-42 30 -139 30q-60 0 -98 -13t-56 -40t-18 -69zM528 0v1177h-352v-1177h352
z" />
    <glyph glyph-name="eth" unicode="&#xf0;" horiz-adv-x="1654" 
d="M798 1255l147 -65l78 124q77 -44 132 -108q64 -76 92 -174q-201 114 -426 114q-253 0 -426 -81q-158 -75 -237 -205q-74 -121 -74 -269v-58q0 -116 42 -217.5t129 -177.5q195 -170 572 -170t573 171q87 76 129 177t42 217v58l-1 146q0 299 -134 505q-107 165 -293 262
l74 117l-146 67l-76 -120q-74 25 -156 40q-10 2 -98 15l-65 -207q11 -3 32 -6q41 -6 45 -7q59 -10 121 -27zM436 590q0 129 91 217q106 103 300 103t303 -104q31 -30 52 -67t30.5 -73.5t9.5 -74.5v-62q0 -138 -96 -227q-106 -98 -299 -98q-195 0 -299 101q-92 86 -92 223v62
z" />
    <glyph glyph-name="ntilde" unicode="&#xf1;" horiz-adv-x="1805" 
d="M1170 1570q-30 -40 -61 -61.5t-75 -21.5q-8 0 -16 0.5t-17 3t-15.5 4t-16.5 6t-15 6t-16.5 7.5t-15 8t-16.5 9t-16 9q-47 25 -87.5 39t-88.5 14q-95 0 -167 -67q-56 -54 -100 -150l122 -47q33 41 66.5 62t81.5 21q24 0 52 -9.5t41 -16t50 -26.5q23 -12 38.5 -19.5
t38 -16.5t46.5 -13t49 -4q98 0 166 66q54 51 94 149zM527 0v551q0 76 30.5 151.5t86.5 135.5q59 63 139.5 99t176.5 36q189 0 269 -111q66 -91 66 -271v-591h351v596q0 174 -34 284q-46 150 -166 233q-143 96 -392 96q-176 0 -315 -72q-141 -74 -212 -205v245h-351v-1177
h351z" />
    <glyph glyph-name="ograve" unicode="&#xf2;" 
d="M358 1586l341 -278h257l-273 278h-325zM81 556q0 -268 173 -419q193 -169 577 -169q385 0 577 170q173 153 173 418v65q0 268 -173 419q-193 169 -577 169q-383 0 -577 -168q-173 -151 -173 -419v-66zM432 624q0 150 93 243q105 105 306 105q200 0 305 -105
q93 -93 93 -243v-70q0 -152 -94 -246q-104 -104 -304 -104q-199 0 -304 105q-95 94 -95 245v70z" />
    <glyph glyph-name="oacute" unicode="&#xf3;" 
d="M951 1586l-250 -278h263l322 278h-335zM81 556q0 -268 173 -419q193 -169 577 -169q385 0 577 170q173 153 173 418v65q0 268 -173 419q-193 169 -577 169q-383 0 -577 -168q-173 -151 -173 -419v-66zM432 624q0 150 93 243q105 105 306 105q200 0 305 -105
q93 -93 93 -243v-70q0 -152 -94 -246q-104 -104 -304 -104q-199 0 -304 105q-95 94 -95 245v70z" />
    <glyph glyph-name="ocircumflex" unicode="&#xf4;" 
d="M683 1307l147 137l147 -137h286l-273 243h-321l-273 -243h287zM81 556q0 -268 173 -419q193 -169 577 -169q385 0 577 170q173 153 173 418v65q0 268 -173 419q-193 169 -577 169q-383 0 -577 -168q-173 -151 -173 -419v-66zM432 624q0 150 93 243q105 105 306 105
q200 0 305 -105q93 -93 93 -243v-70q0 -152 -94 -246q-104 -104 -304 -104q-199 0 -304 105q-95 94 -95 245v70z" />
    <glyph glyph-name="otilde" unicode="&#xf5;" 
d="M1129 1571q-30 -40 -61 -61.5t-75 -21.5q-8 0 -16 0.5t-17 3t-15.5 4t-16.5 6t-15 6t-16.5 7.5t-15 8t-16.5 9t-16 9q-47 25 -87.5 39t-88.5 14q-95 0 -167 -67q-56 -54 -100 -150l122 -47q21 27 40.5 44t47 28t60.5 11q24 0 52 -9.5t41 -16t50 -26.5q31 -17 51.5 -26.5
t54 -18t66.5 -8.5q98 0 166 66q54 51 94 149zM81 556q0 -268 173 -419q193 -169 577 -169t577 170q173 153 173 418v65q0 268 -173 419q-193 169 -577 169q-383 0 -577 -168q-173 -151 -173 -419v-66zM432 624q0 150 93 243q105 105 306 105q200 0 305 -105q93 -93 93 -243
v-70q0 -152 -94 -246q-104 -104 -304 -104q-199 0 -304 105q-95 93 -95 245v70z" />
    <glyph glyph-name="odieresis" unicode="&#xf6;" 
d="M386 1430q0 -61 41 -90t130 -29q99 0 140 29q40 29 40 90q0 63 -40 92q-42 30 -140 30q-89 0 -130 -29.5t-41 -92.5zM916 1430q0 -61 41.5 -90t130.5 -29q98 0 139 29q40 29 40 90q0 63 -40 92q-42 30 -139 30q-90 0 -131 -29.5t-41 -92.5zM81 556q0 -268 173 -419
q193 -169 577 -169q385 0 577 170q173 153 173 418v65q0 268 -173 419q-193 169 -577 169q-383 0 -577 -168q-173 -151 -173 -419v-66zM432 624q0 150 93 243q105 105 306 105q200 0 305 -105q93 -93 93 -243v-70q0 -152 -94 -246q-104 -104 -304 -104q-199 0 -304 105
q-95 94 -95 245v70z" />
    <glyph glyph-name="divide" unicode="&#xf7;" horiz-adv-x="1361" 
d="M471 977q0 -70 49 -103.5t154 -33.5q116 0 166 34q47 32 47 103q0 74 -47 106q-49 33 -166 33q-106 0 -154.5 -33t-48.5 -106zM1199 501v216h-1040v-216h1040zM471 206q0 -70 49 -103t154 -33q113 0 166 34q47 30 47 102q0 75 -47 107q-50 34 -166 34q-105 0 -154 -34
t-49 -107z" />
    <glyph glyph-name="oslash" unicode="&#xf8;" 
d="M81 556q0 -282 193 -436l-152 -196l357 -1l62 76q130 -31 290 -31q385 0 577 170q173 153 173 418v65q0 280 -190 433l155 206l-355 1l-69 -83q-130 31 -291 31q-383 0 -577 -168q-173 -151 -173 -419v-66zM432 624q0 150 93 243q105 105 306 105q200 0 305 -105
q93 -93 93 -243v-70q0 -152 -94 -246q-104 -104 -304 -104q-199 0 -304 105q-95 94 -95 245v70z" />
    <glyph glyph-name="ugrave" unicode="&#xf9;" horiz-adv-x="1805" 
d="M413 1587l341 -278h257l-273 278h-325zM1282 1177v-551q0 -77 -30 -152.5t-86 -134.5q-60 -63 -140.5 -99t-175.5 -36q-188 0 -268 111q-67 92 -67 271v591h-352v-596q0 -174 35 -284q47 -152 166 -232q142 -97 392 -97q175 0 314 72q141 73 212 202v-242h352v1177h-352z
" />
    <glyph glyph-name="uacute" unicode="&#xfa;" horiz-adv-x="1805" 
d="M1007 1587l-250 -278h263l322 278h-335zM1282 1177v-551q0 -77 -30 -152.5t-86 -134.5q-60 -63 -140.5 -99t-175.5 -36q-188 0 -268 111q-67 92 -67 271v591h-352v-596q0 -174 35 -284q47 -152 166 -232q142 -97 392 -97q175 0 314 72q141 73 212 202v-242h352v1177h-352
z" />
    <glyph glyph-name="ucircumflex" unicode="&#xfb;" horiz-adv-x="1805" 
d="M738 1308l147 137l147 -137h286l-273 243h-321l-273 -243h287zM1282 1177v-551q0 -77 -30 -152.5t-86 -134.5q-29 -31 -63 -55t-73.5 -42.5t-85.5 -28t-94 -9.5q-188 0 -268 111q-67 92 -67 271v591h-352v-596q0 -174 35 -284q47 -152 166 -232q142 -97 392 -97
q175 0 314 72q141 73 212 202v-242h352v1177h-352z" />
    <glyph glyph-name="udieresis" unicode="&#xfc;" horiz-adv-x="1805" 
d="M441 1431q0 -41 18 -67t55.5 -39t97.5 -13q99 0 140 29q40 29 40 90q0 63 -40 92q-42 30 -140 30q-89 0 -130 -29.5t-41 -92.5zM971 1431q0 -61 41.5 -90t130.5 -29q98 0 139 29q40 29 40 90q0 63 -40 92q-42 30 -139 30q-90 0 -131 -29.5t-41 -92.5zM1282 1177v-551
q0 -77 -30 -152.5t-86 -134.5q-39 -41 -86 -70.5t-106.5 -47t-123.5 -17.5q-188 0 -268 111q-67 92 -67 271v591h-352v-596q0 -174 35 -284q47 -152 166 -232q142 -97 392 -97q175 0 314 72q141 73 212 202v-242h352v1177h-352z" />
    <glyph glyph-name="yacute" unicode="&#xfd;" horiz-adv-x="1586" 
d="M905 1585l-250 -278h263l322 278h-335zM1189 1177l-401 -932l-392 932h-377l577 -1177h91l-23 -59q-63 -149 -223 -243l124 -171q108 36 199 118q109 99 175 241l627 1291h-377z" />
    <glyph glyph-name="thorn" unicode="&#xfe;" horiz-adv-x="1729" 
d="M525 -362v513q154 -183 449 -183q322 0 504 171q82 78 124.5 184t42.5 228v62q0 122 -42.5 228t-125.5 184q-181 170 -502 170q-294 0 -450 -185v546h-351v-1918h351zM525 631q5 142 97 230q103 98 282 98q193 0 296 -100q94 -91 94 -242v-69q0 -151 -96 -244
q-103 -100 -294 -100q-186 0 -286 102q-93 95 -93 242v83z" />
    <glyph glyph-name="ydieresis" unicode="&#xff;" horiz-adv-x="1586" 
d="M340 1429q0 -41 18 -67t55.5 -39t97.5 -13q99 0 140 29q40 29 40 90q0 63 -40 92q-42 30 -140 30q-89 0 -130 -29.5t-41 -92.5zM870 1429q0 -61 41.5 -90t130.5 -29q98 0 139 29q40 29 40 90q0 63 -40 92q-42 30 -139 30q-60 0 -98 -13t-56 -40t-18 -69zM1189 1177
l-401 -932l-392 932h-377l577 -1177h91l-23 -59q-63 -149 -223 -243l124 -171q108 36 199 118q109 99 175 241l627 1291h-377z" />
    <glyph glyph-name="Amacron" unicode="&#x100;" horiz-adv-x="1891" 
d="M1369 1653v187h-823v-187h823zM372 0l155 354h837l155 -354h372l-712 1513h-467l-712 -1513h372zM922 1257h48l286 -656h-621z" />
    <glyph glyph-name="amacron" unicode="&#x101;" horiz-adv-x="1682" 
d="M1287 1312v187h-823v-187h823zM1523 0v633q0 163 -49 276q-61 141 -200 214q-164 86 -432 86q-257 0 -417 -70q-131 -58 -198 -162q-47 -72 -63 -179h334q15 79 76 124q84 60 254 60q193 0 277 -82q67 -68 67 -206v-46q-85 33 -189 56q-146 32 -283 32q-318 0 -463 -111
q-122 -93 -122 -261q0 -98 43 -177q53 -98 170 -153q136 -65 356 -65q169 0 304 69q136 68 184 174v-212h351zM786 197q-184 0 -264 66q-56 46 -56 116q0 65 50 109q71 62 247 62q108 0 241 -32q104 -25 168 -55v-37q-7 -28 -32 -66.5t-66 -71.5q-113 -91 -288 -91z" />
    <glyph glyph-name="Abreve" unicode="&#x102;" horiz-adv-x="1891" 
d="M1135 1959q-13 -76 -46 -110q-47 -49 -149 -49q-101 0 -150 51q-34 35 -49 108h-200q9 -132 88 -210q99 -99 311 -99q209 0 307 98q76 76 89 211h-201zM372 0l155 354h837l155 -354h372l-712 1513h-467l-712 -1513h372zM922 1257h48l286 -656h-621z" />
    <glyph glyph-name="abreve" unicode="&#x103;" horiz-adv-x="1682" 
d="M1053 1618q-13 -76 -46 -110q-47 -49 -149 -49q-101 0 -150 51q-34 35 -49 108h-200q9 -132 88 -210q99 -99 311 -99q209 0 307 98q76 76 89 211h-201zM1523 0v633q0 163 -49 276q-61 141 -200 214q-164 86 -432 86q-257 0 -417 -70q-131 -58 -198 -162q-47 -72 -63 -179
h334q15 79 76 124q84 60 254 60q193 0 277 -82q67 -68 67 -206v-46q-85 33 -189 56q-146 32 -283 32q-318 0 -463 -111q-122 -93 -122 -261q0 -98 43 -177q53 -98 170 -153q137 -65 356 -65q169 0 304 69q136 68 184 174v-212h351zM786 197q-184 0 -264 66q-56 46 -56 116
q0 65 50 109q71 62 247 62q108 0 241 -32q104 -25 168 -55v-37q-7 -28 -32 -66.5t-66 -71.5q-113 -91 -288 -91z" />
    <glyph glyph-name="Aogonek" unicode="&#x104;" horiz-adv-x="1891" 
d="M1820 -269q22 4 70 19l1 -147q-101 -49 -252 -49q-135 0 -210 48q-78 50 -78 139q0 111 111 189q53 38 132 70h-75l-155 354h-837l-155 -354h-372l712 1513h467l712 -1513h-6l4 -1q-145 -56 -199 -92q-76 -51 -76 -112q0 -72 114 -72q54 0 92 8zM635 601h621l-286 656
h-48z" />
    <glyph glyph-name="aogonek" unicode="&#x105;" horiz-adv-x="1682" 
d="M1524 -249l1 -147q-101 -49 -252 -49q-135 0 -210 48q-78 50 -78 139q0 111 111 189q54 38 130 69h-54v212q-48 -106 -184 -174q-135 -69 -304 -69q-220 0 -356 65q-117 55 -170 153q-43 79 -43 177q0 168 122 261q145 111 463 111q137 0 283 -32q104 -23 189 -56v46
q0 138 -67 206q-84 82 -277 82q-170 0 -254 -60q-61 -45 -76 -124h-334q15 107 63 179q67 104 198 162q160 70 417 70q268 0 432 -86q138 -73 200 -214q49 -113 49 -276v-633q-145 -56 -199 -92q-76 -51 -76 -112q0 -72 114 -72q54 0 92 8q22 4 70 19zM1172 426v37
q-64 30 -168 55q-133 32 -241 32q-176 0 -247 -62q-50 -44 -50 -109q0 -70 56 -116q80 -66 264 -66q175 0 288 91q28 23 50 50.5t32.5 49t15.5 38.5z" />
    <glyph glyph-name="Cacute" unicode="&#x106;" horiz-adv-x="1932" 
d="M1120 1926l-250 -278h263l322 278h-335zM1497 570q-38 -157 -159 -246q-134 -97 -340 -97q-245 0 -391 117q-152 122 -152 336l-1 149q0 107 39 193t112 145q148 119 394 119q204 0 336 -93q127 -91 162 -253h356q-42 276 -249 436q-223 169 -602 169q-451 0 -689 -203
q-111 -95 -167 -227t-56 -291v-135q0 -159 56 -291t167 -227q238 -203 688 -203q384 0 613 178q101 80 161 188.5t79 234.5z" />
    <glyph glyph-name="cacute" unicode="&#x107;" horiz-adv-x="1609" 
d="M953 1586l-250 -278h263l322 278h-335zM1532 744q-38 208 -194 326q-183 139 -506 139q-376 0 -572 -167q-179 -153 -179 -415v-76q0 -263 177 -415q194 -168 573 -168q332 0 516 143q156 121 189 326h-322q-33 -116 -120 -172q-95 -61 -266 -61q-192 0 -298 103
q-98 95 -98 240v84q0 145 95 237q106 104 301 104q173 0 268 -62q86 -57 118 -166h318z" />
    <glyph glyph-name="Ccircumflex" unicode="&#x108;" horiz-adv-x="1932" 
d="M852 1647l147 137l147 -137h286l-273 243h-321l-273 -243h287zM1497 570q-38 -157 -159 -246q-134 -97 -340 -97q-245 0 -391 117q-152 122 -152 336l-1 149q0 107 39 193t112 145q148 119 394 119q204 0 336 -93q127 -91 162 -253h356q-42 276 -249 436
q-223 169 -602 169q-451 0 -689 -203q-111 -95 -167 -227t-56 -291v-135q0 -159 56 -291t167 -227q238 -203 688 -203q384 0 613 178q101 80 161 188.5t79 234.5z" />
    <glyph glyph-name="ccircumflex" unicode="&#x109;" horiz-adv-x="1609" 
d="M685 1307l147 137l147 -137h286l-273 243h-321l-273 -243h287zM1532 744q-38 208 -194 326q-183 139 -506 139q-376 0 -572 -167q-179 -153 -179 -415v-76q0 -263 177 -415q194 -168 573 -168q332 0 516 143q156 121 189 326h-322q-33 -116 -120 -172q-95 -61 -266 -61
q-192 0 -298 103q-98 95 -98 240v84q0 145 95 237q106 104 301 104q173 0 268 -62q86 -57 118 -166h318z" />
    <glyph glyph-name="Cdotaccent" unicode="&#x10a;" horiz-adv-x="1932" 
d="M792 1791q0 -70 49.5 -103.5t154.5 -33.5q117 0 167 34q48 32 48 103q0 72 -48 106q-49 33 -167 33q-71 0 -116 -15t-66.5 -45.5t-21.5 -78.5zM1497 570q-38 -157 -159 -246q-134 -97 -340 -97q-245 0 -391 117q-152 122 -152 336l-1 149q0 107 39 193t112 145
q148 119 394 119q204 0 336 -93q127 -91 162 -253h356q-42 276 -249 436q-223 169 -602 169q-451 0 -689 -203q-111 -95 -167 -227t-56 -291v-135q0 -159 56 -291t167 -227q238 -203 688 -203q384 0 613 178q101 80 161 188.5t79 234.5z" />
    <glyph glyph-name="cdotaccent" unicode="&#x10b;" horiz-adv-x="1609" 
d="M625 1451q0 -70 49.5 -103.5t154.5 -33.5q117 0 167 34q48 32 48 103q0 72 -48 106q-49 33 -167 33q-106 0 -155 -33.5t-49 -105.5zM1532 744q-38 208 -194 326q-183 139 -506 139q-376 0 -572 -167q-179 -153 -179 -415v-76q0 -263 177 -415q194 -168 573 -168
q332 0 516 143q156 121 189 326h-322q-33 -116 -120 -172q-95 -61 -266 -61q-192 0 -298 103q-98 95 -98 240v84q0 145 95 237q106 104 301 104q173 0 268 -62q86 -57 118 -166h318z" />
    <glyph glyph-name="Ccaron" unicode="&#x10c;" horiz-adv-x="1932" 
d="M566 1893l272 -243h322l273 243h-286l-147 -137l-148 137h-286zM1497 570q-38 -157 -159 -246q-134 -97 -340 -97q-245 0 -391 117q-152 122 -152 336l-1 149q0 107 39 193t112 145q148 119 394 119q204 0 336 -93q127 -91 162 -253h356q-42 276 -249 436
q-223 169 -602 169q-451 0 -689 -203q-111 -95 -167 -227t-56 -291v-135q0 -159 56 -291t167 -227q238 -203 688 -203q384 0 613 178q101 80 161 188.5t79 234.5z" />
    <glyph glyph-name="ccaron" unicode="&#x10d;" horiz-adv-x="1609" 
d="M399 1553l272 -243h322l273 243h-286l-147 -137l-148 137h-286zM1532 744q-38 208 -194 326q-183 139 -506 139q-376 0 -572 -167q-179 -153 -179 -415v-76q0 -263 177 -415q194 -168 573 -168q332 0 516 143q156 121 189 326h-322q-33 -116 -120 -172q-95 -61 -266 -61
q-192 0 -298 103q-98 95 -98 240v84q0 145 95 237q106 104 301 104q173 0 268 -62q86 -57 118 -166h318z" />
    <glyph glyph-name="Dcaron" unicode="&#x10e;" horiz-adv-x="2014" 
d="M443 1891l272 -243h322l273 243h-286l-147 -137l-148 137h-286zM208 0h883q424 0 643 201q192 176 192 473v163q0 144 -49.5 266.5t-149.5 212.5q-220 197 -636 197h-883v-1513zM568 1255h495q242 0 375 -125q124 -117 124 -306v-126q0 -212 -139 -329
q-133 -112 -359 -112h-496v998z" />
    <glyph glyph-name="dcaron" unicode="&#x10f;" horiz-adv-x="2051" 
d="M1924 1008q57 110 83 196t26 139v226h-383v-241h55q70 0 63 -93q-6 -80 -60 -202zM1553 0v1568h-352v-557q-67 94 -176 144q-117 54 -288 54q-310 0 -488 -167q-83 -78 -125.5 -185.5t-42.5 -233.5v-69q0 -126 42.5 -233t125.5 -184q179 -169 488 -169q170 0 289 55
q107 49 175 143v-166h352zM1201 565q0 -162 -91 -256q-100 -105 -289 -105q-190 0 -294 104q-94 94 -94 253v54q0 156 95 252q103 105 293 105q187 0 286 -101q89 -92 94 -254v-52z" />
    <glyph glyph-name="Dcroat" unicode="&#x110;" horiz-adv-x="2014" 
d="M1727 1316q50 -45 88 -99.5t62.5 -115.5t36.5 -127t12 -137v-163q0 -297 -192 -473q-219 -201 -643 -201h-883v655h-187v187h187v671h883q416 0 636 -197zM1562 698v126q0 189 -124 306q-133 125 -375 125h-495v-413h276v-187h-276v-398h496q226 0 359 112
q139 117 139 329z" />
    <glyph glyph-name="dcroat" unicode="&#x111;" horiz-adv-x="1724" 
d="M1680 1457v-164h-127v-1293h-352v166q-68 -94 -175 -143q-119 -55 -289 -55q-309 0 -488 169q-83 77 -125.5 184t-42.5 233v69q0 126 42.5 233.5t125.5 185.5q178 167 488 167q171 0 288 -54q109 -50 176 -144v282h-313v164h313v111h352v-111h127zM1201 565v52
q-5 162 -94 254q-99 101 -286 101q-190 0 -293 -105q-95 -96 -95 -252v-54q0 -159 94 -253q104 -104 294 -104q189 0 289 105q91 94 91 256z" />
    <glyph glyph-name="Emacron" unicode="&#x112;" horiz-adv-x="1728" 
d="M1370 1651v187h-823v-187h823zM1615 0v257h-1051v380h942v257h-942v361h1045v258h-1401v-1513h1407z" />
    <glyph glyph-name="emacron" unicode="&#x113;" horiz-adv-x="1587" 
d="M1255 1311v187h-823v-187h823zM1515 504l3 25q1 8 1 28q18 304 -157 476q-182 176 -530 176q-382 0 -575 -166q-176 -151 -176 -417v-52q0 -283 174 -437q190 -169 582 -169q307 0 481 131q143 108 183 286l-326 1q-19 -74 -99 -128q-98 -65 -246 -65q-196 0 -301 97
q-92 85 -97 214h1083zM432 710q10 112 89 189q105 101 299 101q183 0 276 -85q81 -74 89 -212v-5h-753v12z" />
    <glyph glyph-name="Ebreve" unicode="&#x114;" horiz-adv-x="1728" 
d="M1136 1957q-13 -76 -46 -110q-47 -49 -149 -49q-101 0 -150 51q-34 35 -49 108h-200q9 -132 88 -210q99 -99 311 -99q209 0 307 98q76 76 89 211h-201zM1615 0v257h-1051v380h942v257h-942v361h1045v258h-1401v-1513h1407z" />
    <glyph glyph-name="ebreve" unicode="&#x115;" horiz-adv-x="1587" 
d="M1020 1618q-13 -76 -46 -110q-47 -49 -149 -49q-101 0 -150 51q-34 35 -49 108h-200q9 -132 88 -210q99 -99 311 -99q209 0 307 98q76 76 89 211h-201zM1515 504l3 25q1 8 1 28q18 304 -157 476q-182 176 -530 176q-382 0 -575 -166q-176 -151 -176 -417v-52
q0 -283 174 -437q190 -169 582 -169q307 0 481 131q143 108 183 286l-326 1q-19 -74 -99 -128q-98 -65 -246 -65q-196 0 -301 97q-92 85 -97 214h1083zM432 710q10 112 89 189q105 101 299 101q183 0 276 -85q81 -74 89 -212v-5h-753v12z" />
    <glyph glyph-name="Edotaccent" unicode="&#x116;" horiz-adv-x="1728" 
d="M738 1791q0 -47 21.5 -77t66.5 -45t116 -15q117 0 167 34q48 32 48 103q0 72 -48 106q-49 33 -167 33q-106 0 -155 -33.5t-49 -105.5zM1615 0v257h-1051v380h942v257h-942v361h1045v258h-1401v-1513h1407z" />
    <glyph glyph-name="edotaccent" unicode="&#x117;" horiz-adv-x="1587" 
d="M623 1451q0 -70 49.5 -103.5t154.5 -33.5q117 0 167 34q48 32 48 103q0 72 -48 106q-49 33 -167 33q-106 0 -155 -33.5t-49 -105.5zM1515 504l3 25q1 8 1 28q18 304 -157 476q-182 176 -530 176q-382 0 -575 -166q-176 -151 -176 -417v-52q0 -283 174 -437
q190 -169 582 -169q307 0 481 131q143 108 183 286l-326 1q-19 -74 -99 -128q-98 -65 -246 -65q-196 0 -301 97q-92 85 -97 214h1083zM432 710q10 112 89 189q105 101 299 101q183 0 276 -85q81 -74 89 -212v-5h-753v12z" />
    <glyph glyph-name="Eogonek" unicode="&#x118;" horiz-adv-x="1728" 
d="M1615 -249l1 -147q-101 -49 -252 -49q-135 0 -210 48q-78 50 -78 139q0 111 111 189q54 38 130 69h-1109v1513h1401v-258h-1045v-361h942v-257h-942v-380h1051v-257h-1q-145 -56 -199 -92q-76 -51 -76 -112q0 -72 114 -72q54 0 92 8q22 4 70 19z" />
    <glyph glyph-name="eogonek" unicode="&#x119;" horiz-adv-x="1587" 
d="M1362 1033q175 -172 157 -476q0 -20 -1 -28l-3 -25h-1083q5 -129 97 -214q105 -97 301 -97q148 0 246 65q80 54 99 128l326 -1q-40 -178 -183 -286q-86 -66 -211 -99q-67 -48 -67 -106q0 -72 114 -72q54 0 92 8q22 4 70 19l1 -147q-101 -49 -252 -49q-135 0 -210 48
q-78 50 -78 139q0 72 45 128q-380 3 -567 169q-174 154 -174 437v52q0 266 176 417q193 166 575 166q348 0 530 -176zM1185 698v5q-8 138 -89 212q-93 85 -276 85q-195 0 -299 -101q-80 -77 -89 -189v-12h753z" />
    <glyph glyph-name="Ecaron" unicode="&#x11a;" horiz-adv-x="1728" 
d="M512 1892l272 -243h322l273 243h-286l-147 -137l-148 137h-286zM1615 0v257h-1051v380h942v257h-942v361h1045v258h-1401v-1513h1407z" />
    <glyph glyph-name="ecaron" unicode="&#x11b;" horiz-adv-x="1587" 
d="M397 1553l272 -243h322l273 243h-286l-147 -137l-148 137h-286zM1515 504l3 25q1 8 1 28q18 304 -157 476q-182 176 -530 176q-382 0 -575 -166q-176 -151 -176 -417v-52q0 -283 174 -437q190 -169 582 -169q307 0 481 131q143 108 183 286l-326 1q-19 -74 -99 -128
q-98 -65 -246 -65q-196 0 -301 97q-92 85 -97 214h1083zM432 710q10 112 89 189q105 101 299 101q183 0 276 -85q81 -74 89 -212v-5h-753v12z" />
    <glyph glyph-name="Gcircumflex" unicode="&#x11c;" horiz-adv-x="1946" 
d="M858 1645l147 137l147 -137h286l-273 243h-321l-273 -243h287zM970 584h555q-1 -3 -1 -10v-10q-20 -151 -141 -244q-139 -105 -384 -105q-251 0 -399 123q-151 124 -151 341v150q0 222 153 348q146 120 398 120q204 0 333 -85q131 -89 165 -248h350q-55 275 -267 426
q-220 155 -579 155q-450 0 -689 -204q-111 -95 -167 -226.5t-56 -290.5v-136q0 -325 220 -514q236 -206 691 -206q382 0 615 200q102 88 160 202t70 237q3 20 3 53l3 145h-882v-221z" />
    <glyph glyph-name="gcircumflex" unicode="&#x11d;" horiz-adv-x="1726" 
d="M738 1312l147 137l147 -137h286l-273 243h-321l-273 -243h287zM77 589q0 -114 43 -217.5t125 -180.5q86 -82 208.5 -127.5t276.5 -45.5q173 0 294 59q108 52 174 148l1 -95v-6q0 -131 -92 -209q-105 -89 -309 -89q-119 0 -262 13q-146 12 -219 28l-29 -219
q293 -50 554 -50q372 0 552 167q155 144 155 399v1014h-351v-176q-71 100 -176 150q-122 57 -289 57q-215 0 -371 -86q-139 -76 -215 -215q-70 -125 -70 -282v-37zM430 619q0 69 23.5 132.5t68.5 111.5q104 109 290 109q191 0 293 -102q93 -94 93 -248v-10q0 -166 -97 -260
q-102 -97 -289 -97q-180 0 -284 99q-98 92 -98 243v22z" />
    <glyph glyph-name="Gbreve" unicode="&#x11e;" horiz-adv-x="1946" 
d="M1196 1956q-13 -76 -46 -110q-47 -49 -149 -49q-101 0 -150 51q-34 35 -49 108h-200q9 -132 88 -210q99 -99 311 -99q209 0 307 98q76 76 89 211h-201zM970 584h555q-1 -3 -1 -10v-10q-20 -151 -141 -244q-139 -105 -384 -105q-251 0 -399 123q-151 124 -151 341v150
q0 222 153 348q146 120 398 120q204 0 333 -85q131 -89 165 -248h350q-55 275 -267 426q-220 155 -579 155q-450 0 -689 -204q-111 -95 -167 -226.5t-56 -290.5v-136q0 -325 220 -514q236 -206 691 -206q382 0 615 200q102 88 160 202t70 237q3 20 3 53l3 145h-882v-221z
" />
    <glyph glyph-name="gbreve" unicode="&#x11f;" horiz-adv-x="1726" 
d="M1065 1623q-13 -76 -46 -110q-47 -49 -149 -49q-101 0 -150 51q-34 35 -49 108h-200q9 -132 88 -210q99 -99 311 -99q209 0 307 98q76 76 89 211h-201zM77 589q0 -114 43 -217.5t125 -180.5q86 -82 208.5 -127.5t276.5 -45.5q173 0 294 59q108 52 174 148l1 -95v-6
q0 -131 -92 -209q-105 -89 -309 -89q-119 0 -262 13q-146 12 -219 28l-29 -219q293 -50 554 -50q372 0 552 167q155 144 155 399v1014h-351v-176q-71 100 -176 150q-122 57 -289 57q-215 0 -371 -86q-139 -76 -215 -215q-70 -125 -70 -282v-37zM430 619q0 69 23.5 132.5
t68.5 111.5q104 109 290 109q191 0 293 -102q93 -94 93 -248v-10q0 -166 -97 -260q-102 -97 -289 -97q-180 0 -284 99q-98 92 -98 243v22z" />
    <glyph glyph-name="Gdotaccent" unicode="&#x120;" horiz-adv-x="1946" 
d="M798 1789q0 -70 49.5 -103.5t154.5 -33.5q117 0 167 34q48 32 48 103q0 72 -48 106q-49 33 -167 33q-106 0 -155 -33.5t-49 -105.5zM970 584h555q-1 -3 -1 -10v-10q-20 -151 -141 -244q-139 -105 -384 -105q-251 0 -399 123q-151 124 -151 341v150q0 222 153 348
q146 120 398 120q204 0 333 -85q131 -89 165 -248h350q-55 275 -267 426q-220 155 -579 155q-450 0 -689 -204q-111 -95 -167 -226.5t-56 -290.5v-136q0 -325 220 -514q236 -206 691 -206q382 0 615 200q102 88 160 202t70 237q3 20 3 53l3 145h-882v-221z" />
    <glyph glyph-name="gdotaccent" unicode="&#x121;" horiz-adv-x="1726" 
d="M649 1456q0 -47 21.5 -77t66.5 -45t116 -15q117 0 167 34q48 32 48 103q0 72 -48 106q-49 33 -167 33q-106 0 -155 -33.5t-49 -105.5zM77 589q0 -114 43 -217.5t125 -180.5q56 -54 127 -92t162.5 -59.5t195.5 -21.5q173 0 294 59q108 52 174 148l1 -95v-6
q0 -131 -92 -209q-106 -89 -309 -89q-119 0 -262 13q-146 12 -219 28l-29 -219q293 -50 554 -50q372 0 552 167q155 144 155 399v1014h-351v-176q-71 100 -176 150q-122 57 -289 57q-215 0 -371 -86q-139 -76 -215 -215q-70 -125 -70 -282v-37zM430 619q0 45 10 88t31 83.5
t51 72.5q104 109 290 109q191 0 293 -102q93 -94 93 -248v-10q0 -166 -97 -260q-102 -97 -289 -97q-180 0 -284 99q-98 92 -98 243v22z" />
    <glyph glyph-name="Gcommaaccent" unicode="&#x122;" horiz-adv-x="1946" 
d="M970 584h555q-1 -3 -1 -10v-10q-20 -151 -141 -244q-139 -105 -384 -105q-251 0 -399 123q-151 124 -151 341v150q0 222 153 348q146 120 398 120q204 0 333 -85q131 -89 165 -248h350q-55 275 -267 426q-220 155 -579 155q-450 0 -689 -204q-111 -95 -167 -226.5
t-56 -290.5v-136q0 -325 220 -514q236 -206 691 -206q382 0 615 200q102 88 160 202t70 237q3 20 3 53l3 145h-882v-221zM826 -218q0 -37 19.5 -60t58 -34.5t98.5 -11.5q-12 -45 -30 -69q-21 -28 -72 -71l138 -52q66 47 103 103q51 75 51 173q0 64 -45 97.5t-145 33.5
q-91 0 -133.5 -25t-42.5 -84z" />
    <glyph glyph-name="gcommaaccent" unicode="&#x123;" horiz-adv-x="1726" 
d="M1004 1449q0 137 -201 137q11 51 33 87q25 40 82 88l-157 65q-75 -59 -119 -132q-57 -96 -57 -217q0 -81 49 -121q54 -46 165 -46q105 0 155 33.5t50 105.5zM77 589q0 -114 43 -217.5t125 -180.5q86 -82 208.5 -127.5t276.5 -45.5q173 0 294 59q108 52 174 148l1 -95v-6
q0 -131 -92 -209q-106 -89 -309 -89q-119 0 -262 13q-146 12 -219 28l-29 -219q293 -50 554 -50q372 0 552 167q155 144 155 399v1014h-351v-176q-71 100 -176 150q-122 57 -289 57q-215 0 -371 -86q-139 -76 -215 -215q-70 -125 -70 -282v-37zM430 619q0 45 10 88t31 83.5
t51 72.5q104 109 290 109q191 0 293 -102q93 -94 93 -248v-10q0 -166 -97 -260q-102 -97 -289 -97q-180 0 -284 99q-98 92 -98 243v22z" />
    <glyph glyph-name="Hcircumflex" unicode="&#x124;" horiz-adv-x="2067" 
d="M890 1630l147 137l147 -137h286l-273 243h-321l-273 -243h287zM568 0v626h931v-626h361v1513h-361v-622h-931v622h-360v-1513h360z" />
    <glyph glyph-name="hcircumflex" unicode="&#x125;" horiz-adv-x="1805" 
d="M203 1652l147 137l147 -137h286l-273 243h-321l-273 -243h287zM527 0v551q0 74 30 149t85 135q59 64 139 101t177 37q141 0 223 -61q67 -50 94 -149q20 -74 20 -186v-577h351v585q0 172 -31 279q-46 157 -162 242q-144 103 -396 103q-178 0 -317 -72q-141 -73 -213 -206
v637h-351v-1568h351z" />
    <glyph glyph-name="Hbar" unicode="&#x126;" horiz-adv-x="2067" 
d="M568 0v626h931v-626h361v1513h-361v-174h-931v174h-360v-1513h360zM568 1152h931v-261h-931v261z" />
    <glyph glyph-name="hbar" unicode="&#x127;" horiz-adv-x="1805" 
d="M1615 864q31 -107 31 -279v-585h-351v577q0 112 -20 186q-27 99 -94 149q-82 61 -223 61q-66 0 -125.5 -18t-106 -48t-84.5 -72q-55 -60 -85 -135t-30 -149v-551h-351v1276h-129v187h129v105h351v-105h311v-187h-311v-345q72 133 213 206q139 72 317 72q252 0 396 -103
q116 -85 162 -242z" />
    <glyph glyph-name="Itilde" unicode="&#x128;" horiz-adv-x="775" 
d="M686 1910q-30 -40 -61 -61.5t-75 -21.5q-8 0 -15.5 1t-14 2t-15 3.5t-14 4t-14 5.5t-13.5 6.5t-14.5 7.5t-14 7t-15 8t-14.5 8q-47 25 -87.5 39t-88.5 14q-95 0 -167 -67q-56 -54 -100 -150l122 -47q33 41 66.5 62t81.5 21q24 0 52 -9.5t41 -16t50 -26.5
q31 -17 51.5 -26.5t54 -18t66.5 -8.5q98 0 166 66q54 51 94 149zM568 0v1513h-360v-1513h360z" />
    <glyph glyph-name="itilde" unicode="&#x129;" horiz-adv-x="705" 
d="M648 1570q-30 -40 -61 -61.5t-75 -21.5q-22 0 -46.5 7.5t-40 15t-44.5 23.5q-3 2 -4.5 2.5t-4 2t-4.5 2.5q-30 16 -53 26t-56.5 18.5t-66.5 8.5q-95 0 -167 -67q-56 -54 -100 -150l122 -47q33 41 66.5 62t81.5 21q22 0 47 -7.5t41 -15.5t45 -24q2 -1 3.5 -1.5t3 -1.5
t3.5 -2q31 -17 51.5 -26.5t54 -18t66.5 -8.5q98 0 166 66q54 51 94 149zM528 0v1177h-352v-1177h352z" />
    <glyph glyph-name="Imacron" unicode="&#x12a;" horiz-adv-x="775" 
d="M811 1651v187h-823v-187h823zM568 0v1513h-360v-1513h360z" />
    <glyph glyph-name="imacron" unicode="&#x12b;" horiz-adv-x="705" 
d="M774 1311v187h-823v-187h823zM528 0v1177h-352v-1177h352z" />
    <glyph glyph-name="Ibreve" unicode="&#x12c;" horiz-adv-x="775" 
d="M577 1957q-13 -76 -46 -110q-47 -49 -149 -49q-101 0 -150 51q-34 35 -49 108h-200q9 -132 88 -210q99 -99 311 -99q209 0 307 98q76 76 89 211h-201zM568 0v1513h-360v-1513h360z" />
    <glyph glyph-name="ibreve" unicode="&#x12d;" horiz-adv-x="705" 
d="M540 1617q-13 -76 -46 -110q-47 -49 -149 -49q-101 0 -150 51q-34 35 -49 108h-200q9 -132 88 -210q99 -99 311 -99q209 0 307 98q76 76 89 211h-201zM528 0v1177h-352v-1177h352z" />
    <glyph glyph-name="Iogonek" unicode="&#x12e;" horiz-adv-x="775" 
d="M327 -89q-76 -51 -76 -112q0 -72 114 -72q54 0 92 8q22 4 70 19l1 -147q-101 -49 -252 -49q-135 0 -210 48q-78 50 -78 139q0 111 111 189q50 36 123 66h-14v1513h360v-1513h-50q-141 -55 -191 -89z" />
    <glyph glyph-name="iogonek" unicode="&#x12f;" horiz-adv-x="705" 
d="M512 1564q48 -37 48 -102v-3q0 -67 -48 -102q-56 -41 -162 -41q-105 0 -160 42q-49 37 -49 102v2q0 65 49 102q55 42 160 42q107 0 162 -42zM176 0v1177h352v-1177h-35q-145 -56 -199 -92q-76 -51 -76 -112q0 -72 114 -72q54 0 92 8q22 4 70 19l1 -147q-101 -49 -252 -49
q-135 0 -210 48q-78 50 -78 139q0 111 111 189q54 38 130 69h-20z" />
    <glyph glyph-name="Idotaccent" unicode="&#x130;" horiz-adv-x="775" 
d="M180 1790q0 -70 49.5 -103.5t154.5 -33.5q117 0 167 34q48 32 48 103q0 72 -48 106q-49 33 -167 33q-106 0 -155 -33.5t-49 -105.5zM568 0v1513h-360v-1513h360z" />
    <glyph glyph-name="dotlessi" unicode="&#x131;" horiz-adv-x="705" 
d="M528 0v1177h-352v-1177h352z" />
    <glyph glyph-name="IJ" unicode="&#x132;" horiz-adv-x="2187" 
d="M569 0v1513h-360v-1513h360zM1200 1255h488v-697q0 -164 -97.5 -247.5t-283.5 -83.5q-99 0 -222 27q-121 25 -174 47l-103 -221q71 -38 218 -73q167 -39 312 -39q340 0 522 145q188 148 188 436v964h-848v-258z" />
    <glyph glyph-name="ij" unicode="&#x133;" horiz-adv-x="1470" 
d="M175 1460q0 -65 49 -102q55 -42 160 -42q106 0 162 41q48 35 48 102v3q0 65 -48 102q-55 42 -162 42q-105 0 -160 -42q-49 -37 -49 -102v-2zM897 1460q0 -64 49 -102q55 -42 161 -42q107 0 161 41q48 36 48 102v3q0 65 -48 102q-55 42 -162 42q-105 0 -160 -42
q-49 -37 -49 -102v-2zM562 0v1177h-352v-1177h352zM933 1177v-1054q0 -87 -6 -139.5t-25 -88.5q-22 -41 -64 -61t-113 -20q-128 0 -234 30l-32 -203q60 -25 136 -40q110 -22 223 -22q184 0 293 71q97 63 139 192q34 105 34 279v1056h-351z" />
    <glyph glyph-name="Jcircumflex" unicode="&#x134;" horiz-adv-x="1407" 
d="M705 1634l147 137l147 -137h286l-273 243h-321l-273 -243h287zM413 1255h488v-697q0 -164 -97.5 -247.5t-283.5 -83.5q-99 0 -222 27q-121 25 -174 47l-103 -221q71 -38 218 -73q167 -39 312 -39q340 0 522 145q188 148 188 436v964h-848v-258z" />
    <glyph glyph-name="jcircumflex" unicode="&#x135;" horiz-adv-x="706" 
d="M211 1308l147 137l147 -137h286l-273 243h-321l-273 -243h287zM187 1177v-1054q0 -87 -6 -139.5t-25 -88.5q-22 -41 -64 -61t-113 -20q-128 0 -234 30l-32 -203q60 -25 136 -40q110 -22 223 -22q184 0 293 71q97 63 139 192q34 105 34 279v1056h-351z" />
    <glyph glyph-name="Kcommaaccent" unicode="&#x136;" horiz-adv-x="1872" 
d="M567 0v635h346l519 -635h413l-630 772l548 741h-402l-462 -607h-332v607h-360v-1513h360zM727 -192q0 -54 43 -80t133 -26q-12 -45 -30 -69q-21 -28 -72 -71l138 -52q66 47 103 103q51 75 51 173q0 64 -45 97.5t-145 33.5q-91 0 -133.5 -25t-42.5 -84z" />
    <glyph glyph-name="kcommaaccent" unicode="&#x137;" horiz-adv-x="1644" 
d="M176 1568v-1568h351v490h277l401 -490h415l-538 600l471 577h-400l-335 -443h-291v834h-351zM639 -177q0 -36 19.5 -59.5t58 -35t98.5 -11.5q-12 -45 -30 -69q-21 -28 -72 -71l138 -52q66 47 103 103q51 75 51 173q0 65 -45 98t-145 33q-91 0 -133.5 -25t-42.5 -84z" />
    <glyph glyph-name="kgreenlandic" unicode="&#x138;" horiz-adv-x="1644" 
d="M176 1177v-1177h351v490h277l401 -490h415l-538 600l471 577h-400l-335 -443h-291v443h-351z" />
    <glyph glyph-name="Lacute" unicode="&#x139;" horiz-adv-x="1575" 
d="M499 1926l-250 -278h263l322 278h-335zM1500 0v257h-934v1256l-361 -1v-1512h1295z" />
    <glyph glyph-name="lacute" unicode="&#x13a;" horiz-adv-x="704" 
d="M475 1928l-250 -278h263l322 278h-335zM527 0v1568h-351v-1568h351z" />
    <glyph glyph-name="Lcommaaccent" unicode="&#x13b;" horiz-adv-x="1575" 
d="M1500 0v257h-934v1256l-361 -1v-1512h1295zM605 -177q0 -54 43 -80t133 -26q-12 -45 -30 -69q-21 -28 -72 -71l138 -52q66 47 103 103q51 75 51 173q0 43 -18.5 71.5t-61.5 44t-110 15.5q-91 0 -133.5 -25t-42.5 -84z" />
    <glyph glyph-name="lcommaaccent" unicode="&#x13c;" horiz-adv-x="704" 
d="M527 0v1568h-351v-1568h351zM171 -198q0 -27 10.5 -47t32.5 -33t55 -19.5t78 -6.5q-12 -45 -30 -69q-21 -28 -72 -71l138 -52q66 47 103 103q51 75 51 173q0 32 -10.5 55.5t-33 41t-59 26t-87.5 8.5q-91 0 -133.5 -25t-42.5 -84z" />
    <glyph glyph-name="Lcaron" unicode="&#x13d;" horiz-adv-x="1575" 
d="M1320 956q57 111 83 196.5t26 138.5v226h-383v-241h55q70 0 63 -93q-6 -80 -60 -202zM1500 0v257h-934v1256l-361 -1v-1512h1295z" />
    <glyph glyph-name="lcaron" unicode="&#x13e;" horiz-adv-x="1054" 
d="M934 1008q57 110 83 196t26 139v226h-383v-241h55q70 0 63 -93q-6 -80 -60 -202zM527 0v1568h-351v-1568h351z" />
    <glyph glyph-name="Ldot" unicode="&#x13f;" horiz-adv-x="1575" 
d="M1500 0v257h-934v1256l-361 -1v-1512h1295zM921 800q0 -70 49 -103.5t157 -33.5q75 0 121.5 15t67.5 45t21 77q0 73 -49 106.5t-161 33.5q-73 0 -118 -15t-66.5 -45.5t-21.5 -79.5z" />
    <glyph glyph-name="ldot" unicode="&#x140;" horiz-adv-x="1046" 
d="M527 0v1568h-351v-1568h351zM665 756q0 -35 12 -60.5t37 -42.5t64 -25.5t93 -8.5q75 0 121.5 15t67.5 45t21 77q0 73 -49 106.5t-161 33.5q-73 0 -118 -15t-66.5 -45.5t-21.5 -79.5z" />
    <glyph glyph-name="Lslash" unicode="&#x141;" horiz-adv-x="1575" 
d="M1500 0v257h-934v477l201 97v222l-201 -97v557l-361 -1v-723l-189 -90v-222l189 90v-567h1295z" />
    <glyph glyph-name="lslash" unicode="&#x142;" horiz-adv-x="704" 
d="M665 1053v-222l-138 -89v-742h-351v516l-142 -92v222l142 92v830h351v-604z" />
    <glyph glyph-name="Nacute" unicode="&#x143;" horiz-adv-x="2067" 
d="M1124 1926l-250 -278h263l322 278h-335zM1860 0v1513h-343l5 -1023l9 -86h-8l-959 1109h-356v-1513h343l-5 993l-11 96h9l950 -1089h366z" />
    <glyph glyph-name="nacute" unicode="&#x144;" horiz-adv-x="1805" 
d="M992 1585l-250 -278h263l322 278h-335zM527 0v551q0 76 30.5 151.5t86.5 135.5q59 63 140 99t176 36q189 0 269 -111q66 -91 66 -271v-591h351v596q0 174 -34 284q-46 150 -166 233q-143 96 -392 96q-176 0 -315 -72q-141 -74 -212 -205v245h-351v-1177h351z" />
    <glyph glyph-name="Ncommaaccent" unicode="&#x145;" horiz-adv-x="2067" 
d="M1860 0v1513h-343l5 -1023l9 -86h-8l-959 1109h-356v-1513h343l-5 993l-11 96h9l950 -1089h366zM824 -177q0 -36 19.5 -59.5t58 -35t98.5 -11.5q-12 -45 -30 -69q-21 -28 -72 -71l138 -52q65 47 103 103q51 75 51 173q0 64 -45 97.5t-145 33.5q-91 0 -133.5 -25
t-42.5 -84z" />
    <glyph glyph-name="ncommaaccent" unicode="&#x146;" horiz-adv-x="1805" 
d="M527 0v551q0 76 30.5 151.5t86.5 135.5q59 63 139.5 99t176.5 36q189 0 269 -111q66 -91 66 -271v-591h351v596q0 174 -34 284q-46 150 -166 233q-143 96 -392 96q-176 0 -315 -72q-141 -74 -212 -205v245h-351v-1177h351zM720 -177q0 -54 43 -80t133 -26
q-12 -45 -30 -69q-21 -28 -72 -71l138 -52q65 47 103 103q51 75 51 173q0 64 -45 97.5t-145 33.5q-91 0 -133.5 -25t-42.5 -84z" />
    <glyph glyph-name="Ncaron" unicode="&#x147;" horiz-adv-x="2067" 
d="M570 1893l272 -243h322l273 243h-286l-147 -137l-148 137h-286zM1860 0v1513h-343l5 -1023l9 -86h-8l-959 1109h-356v-1513h343l-5 993l-11 96h9l950 -1089h366z" />
    <glyph glyph-name="ncaron" unicode="&#x148;" horiz-adv-x="1805" 
d="M438 1552l272 -243h322l273 243h-286l-147 -137l-148 137h-286zM527 0v551q0 76 30.5 151.5t86.5 135.5q59 63 139.5 99t176.5 36q189 0 269 -111q66 -91 66 -271v-591h351v596q0 174 -34 284q-46 150 -166 233q-143 96 -392 96q-176 0 -315 -72q-141 -74 -212 -205v245
h-351v-1177h351z" />
    <glyph glyph-name="napostrophe" unicode="&#x149;" horiz-adv-x="2078" 
d="M799 0v551q0 76 30.5 151.5t86.5 135.5q59 63 140 99t176 36q189 0 269 -111q66 -91 66 -271v-591h351v596q0 174 -34 284q-46 150 -166 233q-143 96 -392 96q-176 0 -315 -72q-141 -74 -212 -205v245h-351v-1177h351zM-36 1079q0 -55 43 -80.5t133 -25.5
q-12 -45 -30 -69q-21 -28 -72 -71l138 -52q66 47 103 103q51 75 51 173q0 43 -18.5 71.5t-61.5 44t-110 15.5q-91 0 -133.5 -25t-42.5 -84z" />
    <glyph glyph-name="Eng" unicode="&#x14a;" horiz-adv-x="2067" 
d="M551 0l-5 993l-11 96h9l946 -1085q-51 -228 -370 -228q-92 0 -222 27q-116 24 -174 48l-104 -221q75 -40 218 -73q168 -39 313 -39q342 0 522 140q188 146 188 433v193h-1v1229h-343l5 -1023l9 -86h-8l-959 1109h-356v-1513h343z" />
    <glyph glyph-name="eng" unicode="&#x14b;" horiz-adv-x="1805" 
d="M1646 97v499q0 174 -34 284q-46 150 -166 233q-143 96 -392 96q-176 0 -315 -72q-141 -74 -212 -205v245h-351v-1177h351v551q0 76 30.5 151.5t86.5 135.5q59 63 140 99t176 36q189 0 269 -111q66 -91 66 -271v-457q0 -87 -5.5 -139.5t-24.5 -88.5q-22 -41 -64 -61
t-113 -20q-54 0 -87 4q-66 7 -112 21l-35 10l-33 -208q68 -26 136 -40q110 -22 223 -22q186 0 293 62q98 57 139 175q34 98 34 270z" />
    <glyph glyph-name="Omacron" unicode="&#x14c;" horiz-adv-x="2004" 
d="M1423 1649v187h-823v-187h823zM90 689q0 -159 56 -290.5t167 -226.5q239 -204 688 -204t690 206q112 95 167.5 226t55.5 289v134q0 158 -55.5 290t-166.5 227q-240 205 -690 205t-689 -204q-111 -95 -167 -227t-56 -291v-134zM1001 227q-247 0 -394 118
q-152 122 -152 336l-1 147q0 218 152 340q147 118 395 118q250 0 397 -117q152 -122 152 -341v-147q0 -214 -152 -336q-149 -118 -397 -118z" />
    <glyph glyph-name="omacron" unicode="&#x14d;" 
d="M1255 1312v187h-823v-187h823zM81 556q0 -268 173 -419q193 -169 577 -169q385 0 577 170q173 153 173 418v65q0 268 -173 419q-193 169 -577 169q-383 0 -577 -168q-173 -151 -173 -419v-66zM432 624q0 150 93 243q105 105 306 105q200 0 305 -105q93 -93 93 -243v-70
q0 -152 -94 -246q-104 -104 -304 -104q-199 0 -304 105q-95 94 -95 245v70z" />
    <glyph glyph-name="Obreve" unicode="&#x14e;" horiz-adv-x="2004" 
d="M1189 1956q-13 -76 -46 -110q-47 -49 -149 -49q-101 0 -150 51q-34 35 -49 108h-200q9 -132 88 -210q99 -99 311 -99q209 0 307 98q76 76 89 211h-201zM90 689q0 -159 56 -290.5t167 -226.5q239 -204 688 -204t690 206q112 95 167.5 226t55.5 289v134q0 158 -55.5 290
t-166.5 227q-240 205 -690 205t-689 -204q-111 -95 -167 -227t-56 -291v-134zM1001 227q-247 0 -394 118q-152 122 -152 336l-1 147q0 218 152 340q147 118 395 118q250 0 397 -117q152 -122 152 -341v-147q0 -214 -152 -336q-149 -118 -397 -118z" />
    <glyph glyph-name="obreve" unicode="&#x14f;" 
d="M1021 1618q-13 -76 -46 -110q-47 -49 -149 -49q-101 0 -150 51q-34 35 -49 108h-200q9 -132 88 -210q99 -99 311 -99q209 0 307 98q76 76 89 211h-201zM81 556q0 -268 173 -419q193 -169 577 -169q385 0 577 170q173 153 173 418v65q0 268 -173 419q-193 169 -577 169
q-383 0 -577 -168q-173 -151 -173 -419v-66zM432 624q0 150 93 243q105 105 306 105q200 0 305 -105q93 -93 93 -243v-70q0 -152 -94 -246q-104 -104 -304 -104q-199 0 -304 105q-95 94 -95 245v70z" />
    <glyph glyph-name="Ohungarumlaut" unicode="&#x150;" horiz-adv-x="2004" 
d="M912 1925l-273 -278h257l319 278h-303zM1363 1925l-273 -278h251l334 278h-312zM90 689q0 -159 56 -290.5t167 -226.5q239 -204 688 -204t690 206q112 95 167.5 226t55.5 289v134q0 158 -55.5 290t-166.5 227q-240 205 -690 205t-689 -204q-111 -95 -167 -227t-56 -291
v-134zM1001 227q-247 0 -394 118q-152 122 -152 336l-1 147q0 218 152 340q147 118 395 118q250 0 397 -117q152 -122 152 -341v-147q0 -214 -152 -336q-149 -118 -397 -118z" />
    <glyph glyph-name="ohungarumlaut" unicode="&#x151;" 
d="M744 1588l-273 -278h257l319 278h-303zM1195 1588l-273 -278h251l334 278h-312zM81 556q0 -268 173 -419q193 -169 577 -169q385 0 577 170q173 153 173 418v65q0 268 -173 419q-193 169 -577 169q-383 0 -577 -168q-173 -151 -173 -419v-66zM432 624q0 150 93 243
q105 105 306 105q200 0 305 -105q93 -93 93 -243v-70q0 -152 -94 -246q-104 -104 -304 -104q-199 0 -304 105q-95 94 -95 245v70z" />
    <glyph glyph-name="OE" unicode="&#x152;" horiz-adv-x="2769" 
d="M2712 0v257h-1051v380h941v257h-941v361h1044v258h-1401v-1q-162 33 -302 33q-450 0 -689 -204q-111 -95 -167 -227t-56 -291v-134q0 -159 56 -290.5t167 -226.5q239 -204 688 -204q171 0 330 32h1381zM1001 227q-247 0 -394 118q-152 122 -152 336l-1 147q0 218 152 340
q147 118 395 118q190 0 303 -77v-901q-131 -81 -303 -81z" />
    <glyph glyph-name="oe" unicode="&#x153;" horiz-adv-x="2759" 
d="M2509 1033q175 -172 157 -476q0 -20 -1 -28l-3 -25h-1083q5 -129 97 -214q105 -97 301 -97q148 0 246 65q80 54 99 128l326 -1q-40 -178 -183 -286q-174 -131 -481 -131q-391 0 -581 168q-192 -168 -574 -168q-384 0 -577 169q-173 151 -173 419v66q0 268 173 419
q194 168 577 168q381 0 574 -167l1 1q193 166 575 166q348 0 530 -176zM2332 698v5q-8 138 -89 212q-93 85 -276 85q-195 0 -299 -101q-80 -77 -89 -189v-12h753zM1227 554v70q0 150 -93 243q-105 105 -305 105q-201 0 -306 -105q-93 -93 -93 -243v-70q0 -151 95 -245
q105 -105 304 -105q200 0 304 104q94 94 94 246z" />
    <glyph glyph-name="Racute" unicode="&#x154;" horiz-adv-x="1915" 
d="M988 1928l-250 -278h263l322 278h-335zM1771 1046q0 226 -156 348q-154 119 -441 119h-966v-1513h358v556h441q118 -6 186.5 -46.5t94.5 -125.5l63 -201q33 -121 84 -183h382q-61 74 -103 217l-58 183q-30 96 -70 145q-45 56 -124 90q145 48 221 131q88 96 88 240v40z
M1406 1032q0 -109 -82.5 -164t-234.5 -55h-522v454h589q131 0 195 -62q55 -55 55 -154v-19z" />
    <glyph glyph-name="racute" unicode="&#x155;" horiz-adv-x="1220" 
d="M720 1583l-250 -278h263l322 278h-335zM527 0v551q0 74 26.5 145.5t79.5 127.5q124 131 343 131q107 0 202 -19l3 258q-24 6 -66 11q-33 4 -96 4q-206 0 -337 -93q-107 -76 -155 -208v269h-351v-1177h351z" />
    <glyph glyph-name="Rcommaaccent" unicode="&#x156;" horiz-adv-x="1915" 
d="M1771 1046q0 226 -156 348q-154 119 -441 119h-966v-1513h358v556h441q118 -6 186.5 -46.5t94.5 -125.5l63 -201q33 -121 84 -183h382q-61 74 -103 217l-58 183q-30 96 -70 145q-45 56 -124 90q145 48 221 131q88 96 88 240v40zM1406 1032q0 -109 -82.5 -164t-234.5 -55
h-522v454h589q131 0 195 -62q55 -55 55 -154v-19zM746 -197q0 -54 43 -80t133 -26q-12 -45 -30 -69q-21 -28 -72 -71l138 -52q65 47 103 103q51 75 51 173q0 65 -45 98t-145 33q-91 0 -133.5 -25t-42.5 -84z" />
    <glyph glyph-name="rcommaaccent" unicode="&#x157;" horiz-adv-x="1220" 
d="M527 0v551q0 74 26.5 145.5t79.5 127.5q124 131 343 131q107 0 202 -19l3 258q-24 6 -66 11q-33 4 -96 4q-206 0 -337 -93q-107 -76 -155 -208v269h-351v-1177h351zM164 -202q0 -54 43 -80t133 -26q-12 -45 -30 -69q-21 -28 -72 -71l138 -52q66 47 103 103q51 75 51 173
q0 65 -45 98t-145 33q-91 0 -133.5 -25t-42.5 -84z" />
    <glyph glyph-name="Rcaron" unicode="&#x158;" horiz-adv-x="1915" 
d="M433 1895l272 -243h322l273 243h-286l-147 -137l-148 137h-286zM1771 1046q0 226 -156 348q-154 119 -441 119h-966v-1513h358v556h441q118 -6 186.5 -46.5t94.5 -125.5l63 -201q33 -121 84 -183h382q-61 74 -103 217l-58 183q-31 96 -70 145q-45 56 -124 90
q145 48 221 131q88 96 88 240v40zM1406 1032q0 -109 -82.5 -164t-234.5 -55h-522v454h589q131 0 195 -62q55 -55 55 -154v-19z" />
    <glyph glyph-name="rcaron" unicode="&#x159;" horiz-adv-x="1220" 
d="M166 1550l272 -243h322l273 243h-286l-147 -137l-148 137h-286zM527 0v551q0 74 26.5 145.5t79.5 127.5q124 131 343 131q107 0 202 -19l3 258q-24 6 -66 11q-33 4 -96 4q-206 0 -337 -93q-107 -76 -155 -208v269h-351v-1177h351z" />
    <glyph glyph-name="Sacute" unicode="&#x15a;" horiz-adv-x="1686" 
d="M954 1930l-250 -278h263l322 278h-335zM1615 429q0 180 -125 283q-119 97 -384 144l-373 63q-140 23 -199 65q-61 44 -61 121q0 79 73 129q93 64 290 64q226 0 332 -71q86 -57 105 -176h321q-18 228 -193 353q-197 141 -568 141q-258 0 -432 -65q-151 -56 -227 -163
q-66 -93 -66 -213q0 -174 111.5 -277.5t349.5 -146.5l408 -73q142 -24 208.5 -67t66.5 -123q0 -93 -91 -144q-102 -59 -308 -59q-241 0 -356 89q-89 69 -91 179h-343q0 -108 51 -202t150 -162q213 -150 586 -150t569 117q196 115 196 344z" />
    <glyph glyph-name="sacute" unicode="&#x15b;" horiz-adv-x="1478" 
d="M861 1587l-250 -278h263l322 278h-335zM1406 356q0 68 -19.5 119t-56 86t-92.5 61q-74 34 -180.5 53t-291.5 40q-168 18 -225 46q-58 27 -58 88q0 67 69.5 102t206.5 35q173 0 250 -57q49 -37 60 -103h303q-13 169 -156 269q-164 114 -475 114q-323 0 -478 -106
q-133 -91 -133 -256q0 -84 32 -145.5t101 -105.5q133 -86 458 -116q54 -5 75.5 -7t59.5 -6.5t62.5 -9.5t45.5 -11q89 -28 89 -107q0 -68 -72 -108q-83 -47 -247 -46q-170 1 -253 59q-72 48 -87 138h-304q28 -181 163 -284q167 -129 488 -130q332 -1 507 115
q79 52 118.5 122.5t39.5 150.5z" />
    <glyph glyph-name="Scircumflex" unicode="&#x15c;" horiz-adv-x="1686" 
d="M686 1651l147 137l147 -137h286l-273 243h-321l-273 -243h287zM1615 429q0 180 -125 283q-119 97 -384 144l-373 63q-140 23 -199 65q-61 44 -61 121q0 79 73 129q93 64 290 64q226 0 332 -71q86 -57 105 -176h321q-18 228 -193 353q-197 141 -568 141q-258 0 -432 -65
q-151 -56 -227 -163q-66 -93 -66 -213q0 -174 111.5 -277.5t349.5 -146.5l408 -73q142 -24 208.5 -67t66.5 -123q0 -93 -91 -144q-102 -59 -308 -59q-241 0 -356 89q-89 69 -91 179h-343q0 -108 51 -202t150 -162q213 -150 586 -150t569 117q196 115 196 344z" />
    <glyph glyph-name="scircumflex" unicode="&#x15d;" horiz-adv-x="1478" 
d="M593 1308l147 137l147 -137h286l-273 243h-321l-273 -243h287zM1406 356q0 100 -42 163.5t-126 102.5q-74 34 -180.5 53t-291.5 40q-168 18 -225 46q-58 27 -58 88q0 67 69.5 102t206.5 35q173 0 250 -57q49 -37 60 -103h303q-13 169 -156 269q-164 114 -475 114
q-323 0 -478 -106q-133 -91 -133 -256q0 -84 32 -145.5t101 -105.5q133 -86 458 -116q69 -6 99 -9t73.5 -10t70.5 -15q89 -28 89 -107q0 -68 -72 -108q-83 -47 -247 -46q-170 1 -253 59q-72 48 -87 138h-304q28 -181 163 -284q167 -129 488 -130q332 -1 507 115
q79 52 118.5 122.5t39.5 150.5z" />
    <glyph glyph-name="Scedilla" unicode="&#x15e;" horiz-adv-x="1686" 
d="M1490 712q125 -103 125 -283q0 -229 -196 -344q-171 -103 -481 -115l-1 -59h38q112 0 190 -52q77 -51 77 -127q0 -102 -86 -151q-83 -49 -236 -49q-93 0 -170 21q-50 13 -129 46l42 120q66 -24 115.5 -35.5t104.5 -11.5q70 0 99 16q29 17 29 44q0 19 -23.5 33.5
t-62.5 21.5q-84 14 -165 0l1 183q-312 17 -497 148q-99 68 -150 162t-51 202h343q2 -110 91 -179q115 -89 356 -89q206 0 308 59q91 51 91 144q0 80 -66.5 123t-208.5 67l-408 73q-238 42 -349.5 146t-111.5 278q0 120 66 213q76 107 227 163q174 65 432 65q371 0 568 -141
q175 -125 193 -353h-321q-19 119 -105 176q-107 71 -332 71q-197 0 -290 -64q-73 -50 -73 -129q0 -77 61 -121q59 -42 199 -65l373 -63q265 -47 384 -144z" />
    <glyph glyph-name="scedilla" unicode="&#x15f;" horiz-adv-x="1478" 
d="M1238 622q56 -26 92.5 -61t56 -86t19.5 -119q0 -53 -17 -101t-52.5 -92.5t-88.5 -79.5q-149 -100 -421 -113l-1 -60h38q112 0 190 -52q77 -51 77 -127q0 -102 -86 -151q-83 -49 -236 -49q-93 0 -170 21q-50 13 -129 46l42 120q66 -24 115.5 -35.5t104.5 -11.5q70 0 99 16
q29 17 29 44q0 19 -23.5 33.5t-62.5 21.5q-84 14 -165 0l1 185q-255 18 -397 127q-135 103 -163 284h304q15 -90 87 -138q83 -58 253 -59q164 -1 247 46q72 40 72 108q0 79 -89 107q-27 8 -70.5 15t-73.5 10t-99 9q-325 30 -458 116q-69 44 -101 105.5t-32 145.5
q0 165 133 256q155 106 478 106q310 0 475 -114q143 -100 156 -269h-303q-11 66 -60 103q-77 57 -250 57q-137 0 -206.5 -35t-69.5 -102q0 -61 58 -88q57 -28 225 -46q185 -21 291.5 -40t180.5 -53z" />
    <glyph glyph-name="Scaron" unicode="&#x160;" horiz-adv-x="1686" 
d="M400 1897l272 -243h322l273 243h-286l-147 -137l-148 137h-286zM1615 429q0 180 -125 283q-119 97 -384 144l-373 63q-140 23 -199 65q-61 44 -61 121q0 79 73 129q93 64 290 64q225 0 332 -71q86 -57 105 -176h321q-18 228 -193 353q-197 141 -568 141q-258 0 -432 -65
q-151 -56 -227 -163q-66 -93 -66 -213q0 -174 111.5 -277.5t349.5 -146.5l408 -73q142 -24 208.5 -67t66.5 -123q0 -93 -91 -144q-102 -59 -308 -59q-241 0 -356 89q-89 69 -91 179h-343q0 -108 51 -202t150 -162q213 -150 586 -150t569 117q196 115 196 344z" />
    <glyph glyph-name="scaron" unicode="&#x161;" horiz-adv-x="1478" 
d="M307 1554l272 -243h322l273 243h-286l-147 -137l-148 137h-286zM1406 356q0 68 -19.5 119t-56 86t-92.5 61q-74 34 -180.5 53t-291.5 40q-168 18 -225 46q-58 27 -58 88q0 67 69.5 102t206.5 35q173 0 250 -57q49 -37 60 -103h303q-13 169 -156 269q-165 114 -475 114
q-323 0 -478 -106q-133 -91 -133 -256q0 -84 32 -145.5t101 -105.5q133 -86 458 -116q54 -5 75.5 -7t59.5 -6.5t62.5 -9.5t45.5 -11q89 -28 89 -107q0 -68 -72 -108q-83 -47 -247 -46q-170 1 -253 59q-72 48 -87 138h-304q28 -181 163 -284q167 -129 488 -130
q332 -1 507 115q79 52 118.5 122.5t39.5 150.5z" />
    <glyph glyph-name="uni0162" unicode="&#x162;" horiz-adv-x="1611" 
d="M1614 1255v258h-1617v-258h629v-1255h360v1255h628zM642 -190q0 -54 43 -80t133 -26q-12 -45 -30 -69q-21 -28 -72 -71l138 -52q66 47 103 103q51 75 51 173q0 65 -45 98t-145 33q-91 0 -133.5 -25t-42.5 -84z" />
    <glyph glyph-name="uni0163" unicode="&#x163;" horiz-adv-x="1141" 
d="M236 1460v-283h-195v-229h195v-453q0 -178 27 -270q38 -128 133 -187q110 -70 317 -70q104 0 202 24q70 17 141 48l-15 202q-60 -17 -99 -24q-65 -13 -157 -13q-120 0 -165 84q-33 59 -33 179v480h447v229h-447v283h-351zM498 -238q0 -36 19.5 -59.5t58 -35t98.5 -11.5
q-12 -45 -30 -69q-21 -28 -72 -71l138 -52q66 47 103 103q51 75 51 173q0 65 -45 98t-145 33q-91 0 -133.5 -25t-42.5 -84z" />
    <glyph glyph-name="Tcaron" unicode="&#x164;" horiz-adv-x="1611" 
d="M373 1893l272 -243h322l273 243h-286l-147 -137l-148 137h-286zM1614 1255v258h-1617v-258h629v-1255h360v1255h628z" />
    <glyph glyph-name="tcaron" unicode="&#x165;" horiz-adv-x="1515" 
d="M1386 957q57 111 83 196.5t26 138.5v226h-383v-241h55q70 0 63 -93q-6 -80 -60 -202zM236 1460v-283h-195v-229h195v-453q0 -178 27 -270q38 -128 133 -187q110 -70 317 -70q104 0 202 24q70 17 141 48l-15 202q-60 -17 -99 -24q-65 -13 -157 -13q-120 0 -165 84
q-33 59 -33 179v480h447v229h-447v283h-351z" />
    <glyph glyph-name="Tbar" unicode="&#x166;" horiz-adv-x="1611" 
d="M1614 1255h-628v-546h235v-187h-235v-522h-360v522h-228v187h228v546h-629v258h1617v-258z" />
    <glyph glyph-name="tbar" unicode="&#x167;" horiz-adv-x="1141" 
d="M1041 242l15 -202q-72 -31 -141 -48q-98 -24 -202 -24q-207 0 -317 70q-95 59 -133 187q-27 92 -27 270v6h-169v187h169v260h-195v229h195v283h351v-283h447v-229h-447v-260h303v-187h-303v-33q0 -120 33 -179q45 -84 165 -84q92 0 157 13q39 7 99 24z" />
    <glyph glyph-name="Utilde" unicode="&#x168;" horiz-adv-x="1966" 
d="M1283 1912q-30 -40 -61 -61.5t-75 -21.5q-8 0 -16 1t-17 3t-15.5 3.5t-16.5 6t-15 6.5t-16 7.5l-15 7.5t-17 9t-16 9q-47 25 -87.5 39t-88.5 14q-95 0 -167 -67q-56 -54 -100 -150l122 -47q33 41 66.5 62t81.5 21q24 0 52 -9.5t41 -16t50 -26.5q31 -17 51.5 -26.5t54 -18
t66.5 -8.5q98 0 166 66q54 51 94 149zM1459 1513v-870q0 -188 -106 -294q-120 -122 -369 -122q-243 0 -366 120q-110 107 -110 294v872h-360v-872q0 -190 76 -333q82 -159 261 -245q195 -95 497 -95q433 0 649 203q187 176 187 471v871h-359z" />
    <glyph glyph-name="utilde" unicode="&#x169;" horiz-adv-x="1805" 
d="M1185 1572q-30 -40 -61 -61.5t-75 -21.5q-8 0 -16 0.5t-17 3t-15.5 4t-16.5 6t-15 6.5t-16.5 7.5t-15 7.5t-16.5 9t-16 9q-47 25 -87.5 39t-88.5 14q-95 0 -167 -67q-56 -54 -100 -150l122 -47q21 27 40.5 44t47 28t60.5 11q22 0 47 -7.5t41 -15.5t45 -24q7 -3 10 -5
q31 -17 51.5 -26.5t54 -18t66.5 -8.5q98 0 166 66q54 51 94 149zM1282 1177v-551q0 -77 -30 -152.5t-86 -134.5q-29 -31 -63 -55t-73.5 -42.5t-85.5 -28t-94 -9.5q-188 0 -268 111q-67 92 -67 271v591h-352v-596q0 -174 35 -284q47 -152 166 -232q142 -97 392 -97
q175 0 314 72q141 73 212 202v-242h352v1177h-352z" />
    <glyph glyph-name="Umacron" unicode="&#x16a;" horiz-adv-x="1966" 
d="M1409 1654v187h-823v-187h823zM1459 1513v-870q0 -188 -106 -294q-120 -122 -369 -122q-243 0 -366 120q-110 107 -110 294v872h-360v-872q0 -190 76 -333q82 -159 261 -245q195 -95 497 -95q433 0 649 203q187 176 187 471v871h-359z" />
    <glyph glyph-name="umacron" unicode="&#x16b;" horiz-adv-x="1805" 
d="M1310 1313v187h-823v-187h823zM1282 1177v-551q0 -77 -30 -152.5t-86 -134.5q-39 -41 -86 -70.5t-106.5 -47t-123.5 -17.5q-188 0 -268 111q-67 92 -67 271v591h-352v-596q0 -174 35 -284q47 -152 166 -232q142 -97 392 -97q175 0 314 72q141 73 212 202v-242h352v1177
h-352z" />
    <glyph glyph-name="Ubreve" unicode="&#x16c;" horiz-adv-x="1966" 
d="M1174 1960q-13 -76 -46 -110q-47 -49 -149 -49q-101 0 -150 51q-34 35 -49 108h-200q9 -132 88 -210q99 -99 311 -99q209 0 307 98q76 76 89 211h-201zM1459 1513v-870q0 -188 -106 -294q-120 -122 -369 -122q-243 0 -366 120q-110 107 -110 294v872h-360v-872
q0 -190 76 -333q83 -159 261 -245q195 -95 497 -95q433 0 649 203q187 176 187 471v871h-359z" />
    <glyph glyph-name="ubreve" unicode="&#x16d;" horiz-adv-x="1805" 
d="M1076 1619q-13 -76 -46 -110q-47 -49 -149 -49q-101 0 -150 51q-34 35 -49 108h-200q9 -132 88 -210q99 -99 311 -99q209 0 307 98q76 76 89 211h-201zM1282 1177v-551q0 -77 -30 -152.5t-86 -134.5q-39 -41 -86 -70.5t-106.5 -47t-123.5 -17.5q-188 0 -268 111
q-67 92 -67 271v591h-352v-596q0 -174 35 -284q47 -152 166 -232q142 -97 392 -97q175 0 314 72q141 73 212 202v-242h352v1177h-352z" />
    <glyph glyph-name="Uring" unicode="&#x16e;" horiz-adv-x="1966" 
d="M691 1852q0 -105 73 -153t220 -48q146 0 219.5 48.5t73.5 152.5t-73.5 153.5t-219.5 49.5t-219.5 -49t-73.5 -154zM870 1852q0 21 7 35t22 22t35.5 11.5t49.5 3.5q59 0 87 -16t28 -56q0 -27 -13.5 -43t-37.5 -22t-64 -6t-64 6t-37 22t-13 43zM1459 1513v-870
q0 -188 -106 -294q-120 -122 -369 -122q-243 0 -366 120q-110 107 -110 294v872h-360v-872q0 -190 76 -333q82 -159 261 -245q195 -95 497 -95q433 0 649 203q187 176 187 471v871h-359z" />
    <glyph glyph-name="uring" unicode="&#x16f;" horiz-adv-x="1805" 
d="M593 1512q0 -105 73 -153t220 -48q97 0 161 20.5t98 65.5t34 115q0 104 -73.5 153.5t-219.5 49.5t-219.5 -49t-73.5 -154zM772 1512q0 40 27.5 56t86.5 16t87 -16t28 -56t-27.5 -55.5t-87.5 -15.5q-40 0 -64 6t-37 22t-13 43zM1282 1177v-551q0 -77 -30 -152.5
t-86 -134.5q-39 -41 -86 -70.5t-106.5 -47t-123.5 -17.5q-188 0 -268 111q-67 92 -67 271v591h-352v-596q0 -174 35 -284q47 -152 166 -232q142 -97 392 -97q175 0 314 72q141 73 212 202v-242h352v1177h-352z" />
    <glyph glyph-name="Uhungarumlaut" unicode="&#x170;" horiz-adv-x="1966" 
d="M898 1929l-273 -278h257l319 278h-303zM1349 1929l-273 -278h251l334 278h-312zM1459 1513v-870q0 -188 -106 -294q-120 -122 -369 -122q-243 0 -366 120q-110 107 -110 294v872h-360v-872q0 -190 76 -333q82 -159 261 -245q195 -95 497 -95q433 0 649 203
q187 176 187 471v871h-359z" />
    <glyph glyph-name="uhungarumlaut" unicode="&#x171;" horiz-adv-x="1805" 
d="M799 1589l-273 -278h257l319 278h-303zM1250 1589l-273 -278h251l334 278h-312zM1282 1177v-551q0 -77 -30 -152.5t-86 -134.5q-39 -41 -86 -70.5t-106.5 -47t-123.5 -17.5q-188 0 -268 111q-67 92 -67 271v591h-352v-596q0 -174 35 -284q47 -152 166 -232
q142 -97 392 -97q175 0 314 72q141 73 212 202v-242h352v1177h-352z" />
    <glyph glyph-name="Uogonek" unicode="&#x172;" horiz-adv-x="1966" 
d="M1459 1513h359v-871q0 -295 -187 -471q-68 -63 -157 -107l7 -2q-145 -56 -199 -92q-76 -51 -76 -112q0 -72 114 -72q54 0 92 8q22 4 70 19l1 -147q-101 -49 -252 -49q-135 0 -210 48q-78 50 -78 139q0 95 80 164h-41q-302 0 -497 95q-179 86 -261 245q-76 143 -76 333
v872h360v-872q0 -187 110 -294q123 -120 366 -120q249 0 369 122q106 106 106 294v870z" />
    <glyph glyph-name="uogonek" unicode="&#x173;" horiz-adv-x="1805" 
d="M1634 -249l1 -147q-101 -49 -252 -49q-135 0 -210 48q-78 50 -78 139q0 111 111 189q54 38 130 69h-54v242q-71 -129 -212 -202q-139 -72 -314 -72q-250 0 -392 97q-119 80 -166 232q-35 110 -35 284v596h352v-591q0 -179 67 -271q80 -111 268 -111q95 0 175.5 36
t140.5 99q56 59 86 134.5t30 152.5v551h352v-1177h-1q-145 -56 -199 -92q-76 -51 -76 -112q0 -72 114 -72q54 0 92 8q22 4 70 19z" />
    <glyph glyph-name="Wcircumflex" unicode="&#x174;" horiz-adv-x="2606" 
d="M1153 1649l147 137l147 -137h286l-273 243h-321l-273 -243h287zM490 0h442v1l6 -1l350 1106l10 60h10l10 -59l350 -1107h447l481 1513h-372l-319 -1118l-18 -146h-18l-21 145l-353 1119h-383v-1l-1 1l-353 -1118l-22 -146h-17l-17 144l-321 1120h-372z" />
    <glyph glyph-name="wcircumflex" unicode="&#x175;" horiz-adv-x="2399" 
d="M1053 1307l147 137l147 -137h286l-273 243h-321l-273 -243h287zM2001 1177l-251 -953h-39l-294 953h-435l-293 -953h-40l-251 953h-366l381 -1177h489l289 920h17l290 -920h488l381 1177h-366z" />
    <glyph glyph-name="Ycircumflex" unicode="&#x176;" horiz-adv-x="1754" 
d="M730 1645l147 137l147 -137h286l-273 243h-321l-273 -243h287zM1794 1513h-411l-506 -712l-507 712h-411l738 -980v-533h360v533z" />
    <glyph glyph-name="ycircumflex" unicode="&#x177;" horiz-adv-x="1586" 
d="M637 1306l147 137l147 -137h286l-273 243h-321l-273 -243h287zM1189 1177l-401 -932l-392 932h-377l577 -1177h91l-23 -59q-63 -149 -223 -243l124 -171q108 36 199 118q109 99 175 241l627 1291h-377z" />
    <glyph glyph-name="Ydieresis" unicode="&#x178;" horiz-adv-x="1754" 
d="M433 1767q0 -20 4.5 -37t13.5 -30t23 -23t33 -16.5t43 -9.5t54 -3q99 0 140 29q40 29 40 90q0 63 -40 92q-42 30 -140 30q-89 0 -130 -29.5t-41 -92.5zM963 1767q0 -41 18 -67t56 -39t98 -13q98 0 139 29q40 29 40 90q0 63 -40 92q-42 30 -139 30q-60 0 -98 -13t-56 -40
t-18 -69zM1794 1513h-411l-506 -712l-507 712h-411l738 -980v-533h360v533z" />
    <glyph glyph-name="Zacute" unicode="&#x179;" horiz-adv-x="1691" 
d="M968 1927l-250 -278h263l322 278h-335zM1628 0v257h-1126l1085 1028v228h-1461v-258h1026l-1085 -1014v-241h1561z" />
    <glyph glyph-name="zacute" unicode="&#x17a;" horiz-adv-x="1473" 
d="M874 1589l-250 -278h263l322 278h-335zM1372 0v236h-873l862 732l3 209h-1214v-236h806l-860 -731v-210h1276z" />
    <glyph glyph-name="Zdotaccent" unicode="&#x17b;" horiz-adv-x="1691" 
d="M640 1792q0 -70 49.5 -103.5t154.5 -33.5q117 0 167 34q48 32 48 103q0 72 -48 106q-49 33 -167 33q-106 0 -155 -33.5t-49 -105.5zM1628 0v257h-1126l1085 1028v228h-1461v-258h1026l-1085 -1014v-241h1561z" />
    <glyph glyph-name="zdotaccent" unicode="&#x17c;" horiz-adv-x="1473" 
d="M546 1454q0 -70 49.5 -103.5t154.5 -33.5q117 0 167 34q48 32 48 103q0 72 -48 106q-49 33 -167 33q-106 0 -155 -33.5t-49 -105.5zM1372 0v236h-873l862 732l3 209h-1214v-236h806l-860 -731v-210h1276z" />
    <glyph glyph-name="Zcaron" unicode="&#x17d;" horiz-adv-x="1691" 
d="M414 1893l272 -243h322l273 243h-286l-147 -137l-148 137h-286zM1628 0v257h-1126l1085 1028v228h-1461v-258h1026l-1085 -1014v-241h1561z" />
    <glyph glyph-name="zcaron" unicode="&#x17e;" horiz-adv-x="1473" 
d="M320 1556l272 -243h322l273 243h-286l-147 -137l-148 137h-286zM1372 0v236h-873l862 732l3 209h-1214v-236h806l-860 -731v-210h1276z" />
    <glyph glyph-name="AEacute" unicode="&#x1fc;" horiz-adv-x="2649" 
d="M1736 1926l-250 -278h263l322 278h-335zM386 0l205 354h584v-354h1407v257h-1051v380h942v257h-942v361h1044v258h-1648l-927 -1513h386zM1114 1257h61v-656h-441z" />
    <glyph glyph-name="aeacute" unicode="&#x1fd;" horiz-adv-x="2714" 
d="M1450 1600l-250 -278h263l322 278h-335zM2609 504q1 4 1.5 12.5t0.5 12.5q1 8 1 28q18 304 -157 476q-182 176 -529 176q-366 0 -558 -151q-84 74 -203 110q-136 41 -323 41q-257 0 -417 -70q-131 -58 -198 -162q-47 -72 -63 -179h334q15 79 76 124q84 60 254 60
q193 0 277 -82q67 -68 67 -206v-46q-85 33 -189 56q-146 32 -283 32q-318 0 -463 -111q-122 -93 -122 -261q0 -98 43 -177q53 -98 170 -153q137 -65 356 -65q166 0 308 61q138 59 215 166l26 24q8 7 24 23q16 -26 35 -49t41.5 -45t48.5 -40.5t56 -35.5t63 -31
q171 -74 429 -74q307 0 481 131q142 107 184 286l-327 1q-19 -74 -99 -128q-98 -65 -246 -65q-196 0 -301 97q-94 87 -96 214h1083zM1526 710q8 110 89 189q103 101 298 101q183 0 276 -85q78 -72 90 -212v-5h-753v12zM786 197q-184 0 -264 66q-56 46 -56 116q0 65 50 109
q71 62 247 62q108 0 241 -32q104 -25 168 -55v-37q-7 -28 -32 -66.5t-66 -71.5q-113 -91 -288 -91z" />
    <glyph glyph-name="Oslashacute" unicode="&#x1fe;" horiz-adv-x="2004" 
d="M1277 1932l-250 -278h263l322 278h-335zM90 689q0 -205 91 -360q94 -162 276 -252l-91 -157h322l40 71q129 -23 273 -23q449 0 690 206q112 95 167.5 226t55.5 289v134q0 208 -93 363q-98 161 -284 253l86 150h-323l-37 -65q-120 21 -261 21q-450 0 -689 -204
q-111 -95 -167 -227t-56 -291v-134zM1001 227q-247 0 -394 118q-152 122 -152 336l-1 147q0 218 152 340q147 118 395 118q250 0 397 -117q152 -122 152 -341v-147q0 -214 -152 -336q-149 -118 -397 -118z" />
    <glyph glyph-name="oslashacute" unicode="&#x1ff;" 
d="M943 1570l-250 -278h263l322 278h-335zM81 556q0 -282 193 -436l-152 -196l357 -1l62 76q130 -31 290 -31q385 0 577 170q173 153 173 418v65q0 280 -190 433l155 206l-355 1l-69 -83q-130 31 -291 31q-383 0 -577 -168q-173 -151 -173 -419v-66zM432 624q0 150 93 243
q105 105 306 105q200 0 305 -105q93 -93 93 -243v-70q0 -152 -94 -246q-104 -104 -304 -104q-199 0 -304 105q-95 94 -95 245v70z" />
    <glyph glyph-name="Scommaaccent" unicode="&#x218;" horiz-adv-x="1686" 
d="M1615 429q0 180 -125 283q-119 97 -384 144l-373 63q-140 23 -199 65q-61 44 -61 121q0 79 73 129q93 64 290 64q225 0 332 -71q86 -57 105 -176h321q-18 228 -193 353q-197 141 -568 141q-258 0 -432 -65q-151 -56 -227 -163q-66 -93 -66 -213q0 -174 111.5 -277.5
t349.5 -146.5l408 -73q142 -24 208.5 -67t66.5 -123q0 -93 -91 -144q-102 -59 -308 -59q-241 0 -356 89q-89 69 -91 179h-343q0 -108 51 -202t150 -162q213 -150 586 -150t569 117q196 115 196 344zM638 -244q0 -137 201 -137q-11 -51 -33 -86q-24 -40 -82 -89l157 -65
q77 60 120 132q56 94 56 217q0 81 -48 122q-55 45 -166 45q-70 0 -115 -14.5t-67.5 -45.5t-22.5 -79z" />
    <glyph glyph-name="scommaaccent" unicode="&#x219;" horiz-adv-x="1478" 
d="M1406 356q0 68 -19.5 119t-56 86t-92.5 61q-74 34 -180.5 53t-291.5 40q-168 18 -225 46q-58 27 -58 88q0 67 69.5 102t206.5 35q173 0 250 -57q49 -37 60 -103h303q-13 169 -156 269q-165 114 -475 114q-323 0 -478 -106q-133 -91 -133 -256q0 -84 32 -145.5t101 -105.5
q133 -86 458 -116q54 -5 75.5 -7t59.5 -6.5t62.5 -9.5t45.5 -11q89 -28 89 -107q0 -68 -72 -108q-83 -47 -247 -46q-170 1 -253 59q-72 48 -87 138h-304q28 -181 163 -284q167 -129 488 -130q332 -1 507 115q79 52 118.5 122.5t39.5 150.5zM600 -227q0 -55 43 -80.5
t133 -25.5q-12 -45 -30 -69q-21 -28 -72 -71l138 -52q66 47 103 103q51 75 51 173q0 64 -45 97.5t-145 33.5q-91 0 -133.5 -25t-42.5 -84z" />
    <glyph glyph-name="uni021A" unicode="&#x21a;" horiz-adv-x="1607" 
d="M1612 1255v258h-1617v-258h629v-1255h360v1255h628zM609 -182q0 -55 43 -80.5t133 -25.5q-12 -45 -30 -69q-21 -28 -72 -71l138 -52q66 47 103 103q51 75 51 173q0 64 -45 97.5t-145 33.5q-91 0 -133.5 -25t-42.5 -84z" />
    <glyph glyph-name="uni021B" unicode="&#x21b;" horiz-adv-x="1141" 
d="M236 1460v-283h-195v-229h195v-453q0 -178 27 -270q38 -128 133 -187q110 -70 317 -70q104 0 202 24q70 17 141 48l-15 202q-60 -17 -99 -24q-65 -13 -157 -13q-120 0 -165 84q-33 59 -33 179v480h447v229h-447v283h-351zM466 -231q0 -54 43 -80t133 -26q-12 -45 -30 -69
q-21 -28 -72 -71l138 -52q66 47 103 103q51 75 51 173q0 64 -45 97.5t-145 33.5q-91 0 -133.5 -25t-42.5 -84z" />
    <glyph glyph-name="uni0237" unicode="&#x237;" horiz-adv-x="706" 
d="M187 1177v-1054q0 -87 -6 -139.5t-25 -88.5q-22 -41 -64 -61t-113 -20q-128 0 -234 30l-32 -203q60 -25 136 -40q110 -22 223 -22q184 0 293 71q97 63 139 192q34 105 34 279v1056h-351z" />
    <glyph glyph-name="circumflex" unicode="&#x2c6;" horiz-adv-x="1398" 
d="M457 1281l147 137l147 -137h286l-273 243h-321l-273 -243h287z" />
    <glyph glyph-name="caron" unicode="&#x2c7;" horiz-adv-x="1398" 
d="M261 1524l272 -243h322l273 243h-286l-147 -137l-148 137h-286z" />
    <glyph glyph-name="breve" unicode="&#x2d8;" horiz-adv-x="1356" 
d="M841 1581q-13 -76 -46 -110q-47 -49 -149 -49q-101 0 -150 51q-34 35 -49 108h-200q9 -132 88 -210q99 -99 311 -99q209 0 307 98q76 76 89 211h-201z" />
    <glyph glyph-name="dotaccent" unicode="&#x2d9;" horiz-adv-x="1028" 
d="M184 1408q0 -35 12 -60.5t37 -42.5t63.5 -25.5t91.5 -8.5q117 0 167 34q48 32 48 103q0 72 -48 106q-49 33 -167 33q-106 0 -155 -33.5t-49 -105.5z" />
    <glyph glyph-name="ring" unicode="&#x2da;" horiz-adv-x="779" 
d="M75 1467q0 -105 73 -153t220 -48q146 0 219.5 48.5t73.5 152.5q0 53 -19 91.5t-56 63t-91.5 36.5t-126.5 12q-146 0 -219.5 -49t-73.5 -154zM254 1467q0 40 27.5 56t86.5 16t87 -16t28 -56t-27.5 -55.5t-87.5 -15.5t-87 15.5t-27 55.5z" />
    <glyph glyph-name="ogonek" unicode="&#x2db;" horiz-adv-x="1136" 
d="M705 -249q-48 -15 -70 -19q-38 -8 -92 -8q-114 0 -114 72q0 61 76 112q54 36 199 92l-167 45q-168 -49 -260 -114q-111 -78 -111 -189q0 -89 78 -139q75 -48 210 -48q151 0 252 49z" />
    <glyph glyph-name="tilde" unicode="&#x2dc;" horiz-adv-x="1189" 
d="M844 1542q-30 -40 -61 -61.5t-75 -21.5q-8 0 -16 0.5t-17 3t-15.5 4t-16.5 6t-15 6t-16.5 7.5t-15 8t-16.5 9t-16 9q-47 25 -87.5 39t-88.5 14q-95 0 -167 -67q-56 -54 -100 -150l122 -47q33 41 66.5 62t81.5 21q24 0 52 -9.5t41 -16t50 -26.5q18 -10 30 -16t30.5 -14
t34.5 -12.5t36 -7.5t41 -3q98 0 166 66q54 51 94 149z" />
    <glyph glyph-name="hungarumlaut" unicode="&#x2dd;" horiz-adv-x="848" 
d="M192 1559l-273 -278h257l319 278h-303zM643 1559l-273 -278h251l334 278h-312z" />
    <glyph glyph-name="tonos" unicode="&#x384;" horiz-adv-x="1149" 
d="M776 1559l29 -313h218l36 313h-283z" />
    <glyph glyph-name="dieresistonos" unicode="&#x385;" horiz-adv-x="1084" 
d="M439 1720l28 -313h209l37 313h-274zM41 1419q0 -61 41.5 -90t130.5 -29q99 0 140 29q39 28 39 90q0 64 -39 92q-42 30 -140 30q-90 0 -131 -29.5t-41 -92.5zM749 1419q0 -61 41 -90t130 -29q98 0 139 29q39 28 39 90q0 64 -39 92q-42 30 -139 30q-60 0 -97.5 -13
t-55.5 -40t-18 -69z" />
    <glyph glyph-name="Alphatonos" unicode="&#x386;" horiz-adv-x="1891" 
d="M58 1518l29 -313h218l36 313h-283zM372 0l155 354h837l155 -354h372l-712 1513h-467l-712 -1513h372zM922 1257h48l286 -656h-621z" />
    <glyph glyph-name="Epsilontonos" unicode="&#x388;" horiz-adv-x="1946" 
d="M1833 0v257h-1051v380h942v257h-942v361h1045v258h-1401v-1513h1407zM2 1511l29 -313h218l36 313h-283z" />
    <glyph glyph-name="Etatonos" unicode="&#x389;" horiz-adv-x="2280" 
d="M-3 1515l29 -313h218l36 313h-283zM780 0v626h931v-626h361v1513h-361v-622h-931v622h-360v-1513h360z" />
    <glyph glyph-name="Iotatonos" unicode="&#x38a;" horiz-adv-x="775" 
d="M-194 1513l29 -313h218l36 313h-283zM568 0v1513h-360v-1513h360z" />
    <glyph glyph-name="Omicrontonos" unicode="&#x38c;" horiz-adv-x="2231" 
d="M316 689q0 -159 56 -290.5t167 -226.5q239 -204 688 -204t690 206q112 95 167.5 226t55.5 289v134q0 158 -55.5 290t-166.5 227q-240 205 -690 205t-689 -204q-74 -63 -124 -144.5t-74.5 -175t-24.5 -198.5v-134zM22 1510l29 -313h218l36 313h-283zM1227 227
q-247 0 -394 118q-152 122 -152 336l-1 147q0 218 152 340q147 118 395 118q250 0 397 -117q152 -122 152 -341v-147q0 -214 -152 -336q-149 -118 -397 -118z" />
    <glyph glyph-name="Upsilontonos" unicode="&#x38e;" horiz-adv-x="2142" 
d="M-4 1513l29 -313h218l36 313h-283zM2186 1513h-411l-506 -712l-507 712h-411l738 -980v-533h360v533z" />
    <glyph glyph-name="Omegatonos" unicode="&#x38f;" horiz-adv-x="2010" 
d="M977 0v450q-167 38 -244 152q-61 89 -61 212v103q0 73 28.5 139t82.5 116q120 110 327 110q212 0 332 -113q35 -34 59.5 -75.5t36 -85.5t11.5 -91v-99q0 -114 -59 -207q-79 -125 -247 -161v-450h606v259l-326 -1l2 53q191 66 292 206q96 132 96 314v104q0 153 -85 285
q-93 145 -264 228q-191 93 -453 93q-264 0 -453 -92q-172 -83 -265 -227q-86 -133 -86 -287v-103q0 -185 98 -318.5t290 -201.5l3 -54l-327 1v-259h606zM12 1515l29 -313h218l36 313h-283z" />
    <glyph glyph-name="iotadieresistonos" unicode="&#x390;" horiz-adv-x="705" 
d="M222 1721l28 -313h209l37 313h-274zM-176 1420q0 -61 41.5 -90t130.5 -29q99 0 140 29q39 28 39 90q0 64 -39 92q-42 30 -140 30q-45 0 -77.5 -7t-53.5 -22.5t-31 -38t-10 -54.5zM532 1420q0 -61 41 -90t130 -29q98 0 139 29q39 28 39 90q0 64 -39 92q-42 30 -139 30
q-60 0 -97.5 -13t-55.5 -40t-18 -69zM528 0v1177h-352v-1177h352z" />
    <glyph glyph-name="Alpha" unicode="&#x391;" horiz-adv-x="1891" 
d="M372 0l155 354h837l155 -354h372l-712 1513h-467l-712 -1513h372zM922 1257h48l286 -656h-621z" />
    <glyph glyph-name="Beta" unicode="&#x392;" horiz-adv-x="1898" 
d="M1804 452q0 147 -109 240t-288 110q165 20 247.5 98.5t82.5 210.5v50q0 169 -141 262q-140 90 -389 90h-999v-1513h976q301 0 454 92q166 99 166 314v46zM1373 1082q0 -84 -64.5 -131.5t-197.5 -47.5h-543v378h570q127 0 189 -53q46 -42 46 -111v-35zM1439 454
q1 -123 -94 -168q-73 -34 -222 -34h-555v418h552q151 0 230 -44q88 -49 89 -144v-28z" />
    <glyph glyph-name="Gamma" unicode="&#x393;" horiz-adv-x="1499" 
d="M1441 1255v258h-1233v-1513h360v1255h873z" />
    <glyph glyph-name="uni0394" unicode="&#x394;" horiz-adv-x="1891" 
d="M1891 0l-712 1513h-467l-712 -1513h1891zM921 1257h49l441 -1011h-932z" />
    <glyph glyph-name="Epsilon" unicode="&#x395;" horiz-adv-x="1728" 
d="M1615 0v257h-1051v380h942v257h-942v361h1045v258h-1401v-1513h1407z" />
    <glyph glyph-name="Zeta" unicode="&#x396;" horiz-adv-x="1691" 
d="M1628 0v257h-1126l1085 1028v228h-1461v-258h1026l-1085 -1014v-241h1561z" />
    <glyph glyph-name="Eta" unicode="&#x397;" horiz-adv-x="2067" 
d="M568 0v626h931v-626h361v1513h-361v-622h-931v622h-360v-1513h360z" />
    <glyph glyph-name="Theta" unicode="&#x398;" horiz-adv-x="2004" 
d="M90 689q0 -159 56 -290.5t167 -226.5q239 -204 688 -204t690 206q112 95 167.5 226t55.5 289v134q0 158 -55.5 290t-166.5 227q-240 205 -690 205t-689 -204q-111 -95 -167 -227t-56 -291v-134zM1001 227q-247 0 -394 118q-152 122 -152 336l-1 147q0 218 152 340
q147 118 395 118q250 0 397 -117q152 -122 152 -341v-147q0 -214 -152 -336q-149 -118 -397 -118zM641 636h722v248h-722v-248z" />
    <glyph glyph-name="Iota" unicode="&#x399;" horiz-adv-x="775" 
d="M568 0v1513h-360v-1513h360z" />
    <glyph glyph-name="Kappa" unicode="&#x39a;" horiz-adv-x="1872" 
d="M567 0v635h346l519 -635h413l-630 772l548 741h-402l-462 -607h-332v607h-360v-1513h360z" />
    <glyph glyph-name="Lambda" unicode="&#x39b;" horiz-adv-x="1876" 
d="M359 0l546 1258h53l547 -1258h374l-708 1513h-478l-708 -1513h374z" />
    <glyph glyph-name="Mu" unicode="&#x39c;" horiz-adv-x="2466" 
d="M1058 227h351l514 999h22l-9 -102l-16 -1124h338v1513h-492l-502 -907l-26 -85h-10l-25 83l-503 909h-492v-1513h339l-16 1125l-10 101h21z" />
    <glyph glyph-name="Nu" unicode="&#x39d;" horiz-adv-x="2067" 
d="M1860 0v1513h-343l5 -1023l9 -86h-8l-959 1109h-356v-1513h343l-5 993l-11 96h9l950 -1089h366z" />
    <glyph glyph-name="Xi" unicode="&#x39e;" horiz-adv-x="1587" 
d="M108 1258h1360v255h-1360v-255zM252 641h1069v256h-1069v-256zM106 0h1362v254h-1362v-254z" />
    <glyph glyph-name="Omicron" unicode="&#x39f;" horiz-adv-x="2004" 
d="M90 689q0 -159 56 -290.5t167 -226.5q239 -204 688 -204t690 206q112 95 167.5 226t55.5 289v134q0 158 -55.5 290t-166.5 227q-240 205 -690 205t-689 -204q-111 -95 -167 -227t-56 -291v-134zM1001 227q-247 0 -394 118q-152 122 -152 336l-1 147q0 218 152 340
q147 118 395 118q250 0 397 -117q152 -122 152 -341v-147q0 -214 -152 -336q-149 -118 -397 -118z" />
    <glyph glyph-name="Pi" unicode="&#x3a0;" horiz-adv-x="2018" 
d="M565 0v1264h904v-1264h361v1513h-1625v-1513h360z" />
    <glyph glyph-name="Rho" unicode="&#x3a1;" horiz-adv-x="1829" 
d="M1771 1053q0 217 -165 339q-165 121 -463 121h-935v-1513h358v481h579q303 0 465 128q161 126 161 367v77zM1406 983q0 -122 -77 -183.5t-243 -61.5h-519v518h536q161 0 234 -58q69 -55 69 -168v-47z" />
    <glyph glyph-name="Sigma" unicode="&#x3a3;" horiz-adv-x="1670" 
d="M1113 804l-550 451h962v258h-1372v-231l596 -526l-604 -526v-230h1402v257h-958l524 451v96z" />
    <glyph glyph-name="Tau" unicode="&#x3a4;" horiz-adv-x="1611" 
d="M1614 1255v258h-1617v-258h629v-1255h360v1255h628z" />
    <glyph glyph-name="Upsilon" unicode="&#x3a5;" horiz-adv-x="1754" 
d="M1794 1513h-411l-506 -712l-507 712h-411l738 -980v-533h360v533z" />
    <glyph glyph-name="Phi" unicode="&#x3a6;" horiz-adv-x="2029" 
d="M1195 0v107q378 17 583 198q60 53 100 118.5t58.5 134t18.5 141.5v117q0 109 -44 211.5t-133 182.5q-205 185 -583 203v104h-359v-107q-381 -17 -585 -201q-88 -80 -132 -182.5t-44 -211.5v-117q0 -109 43.5 -210.5t132.5 -181.5q203 -183 585 -201v-105h359zM1591 713
q0 -155 -100 -245q-106 -95 -296 -102v785q190 -10 294 -105q102 -93 102 -245v-88zM440 801q0 150 98 242q106 100 298 107v-785q-191 12 -296 107q-100 90 -100 241v88z" />
    <glyph glyph-name="Chi" unicode="&#x3a7;" horiz-adv-x="1810" 
d="M48 1513l620 -742l-672 -771h417l491 581l493 -581h416l-670 772l617 741h-416l-437 -555l-442 555h-417z" />
    <glyph glyph-name="Psi" unicode="&#x3a8;" horiz-adv-x="2109" 
d="M1238 0v413q269 13 448 107q156 82 229 222q64 121 64 284v487h-360v-479q0 -162 -83 -251q-96 -102 -298 -109v839h-359v-839q-204 6 -298 108q-82 87 -82 253v478h-361v-487q0 -161 63 -283q72 -141 228 -223q177 -93 450 -106v-414h359z" />
    <glyph glyph-name="uni03A9" unicode="&#x3a9;" horiz-adv-x="1800" 
d="M767 0v450q-167 38 -244 152q-61 89 -61 212v103q0 29 4.5 57t13.5 55t22.5 52t31 48t39.5 43q120 110 327 110q212 0 332 -113q35 -34 59.5 -75.5t36 -85.5t11.5 -91v-99q0 -114 -59 -207q-79 -125 -247 -161v-450h606v259l-326 -1l2 53q191 66 292 206q96 132 96 314
v104q0 153 -85 285q-93 145 -264 228q-191 93 -453 93q-264 0 -453 -92q-172 -83 -265 -227q-86 -133 -86 -287v-103q0 -185 97.5 -318.5t290.5 -201.5l3 -54l-327 1v-259h606z" />
    <glyph glyph-name="Iotadieresis" unicode="&#x3aa;" horiz-adv-x="775" 
d="M-47 1739q0 -61 41 -90t130 -29q99 0 140 29q40 29 40 90q0 63 -40 92q-42 30 -140 30q-89 0 -130 -29.5t-41 -92.5zM483 1739q0 -61 41.5 -90t130.5 -29q98 0 139 29q40 29 40 90q0 63 -40 92q-42 30 -139 30q-90 0 -131 -29.5t-41 -92.5zM568 0v1513h-360v-1513h360z
" />
    <glyph glyph-name="Upsilondieresis" unicode="&#x3ab;" horiz-adv-x="1754" 
d="M435 1721q0 -61 41 -90t130 -29q99 0 140 29q40 29 40 90q0 63 -40 92q-42 30 -140 30q-89 0 -130 -29.5t-41 -92.5zM965 1721q0 -41 18 -67t56 -39t98 -13q98 0 139 29q40 29 40 90q0 63 -40 92q-42 30 -139 30q-60 0 -98 -13t-56 -40t-18 -69zM1794 1513h-411
l-506 -712l-507 712h-411l738 -980v-533h360v533z" />
    <glyph glyph-name="alphatonos" unicode="&#x3ac;" horiz-adv-x="1725" 
d="M694 1618l29 -313h218l36 313h-283zM1553 0v1177h-352v-166q-63 90 -171 142q-122 56 -293 56q-318 0 -497 -181q-79 -80 -119 -184t-40 -217v-80q0 -112 40.5 -215.5t120.5 -182.5q85 -85 210 -133t288 -48q173 0 290 56q107 50 171 141v-165h352zM433 613q0 156 92 251
q103 108 301 108q179 0 276 -94q99 -97 99 -277v-26q0 -181 -99 -277q-97 -94 -273 -94q-197 0 -302 105q-94 94 -94 247v57z" />
    <glyph glyph-name="epsilontonos" unicode="&#x3ad;" horiz-adv-x="1512" 
d="M660 1608l29 -313h218l36 313h-283zM932 695h-180q-134 0 -206 31q-76 31 -76 94v10q0 73 61 109q76 45 256 45q154 0 234.5 -39.5t93.5 -127.5l294 2l-2 22q-26 368 -623 368q-365 0 -526 -93q-146 -84 -140 -255v-19q0 -92 92 -165q81 -66 191 -86q-129 -18 -212 -103
q-72 -73 -72 -162v-12q0 -167 147 -251q165 -95 520 -95q319 0 478 112q138 96 146 261l1 19l-294 3l-1 -10q-7 -67 -74 -108q-84 -52 -255 -52q-180 0 -252 43q-63 36 -63 110v5q0 63 54 100q69 47 228 47h180v197z" />
    <glyph glyph-name="etatonos" unicode="&#x3ae;" horiz-adv-x="1805" 
d="M831 1627l29 -313h218l36 313h-283zM527 0v551q0 76 30.5 151.5t86.5 135.5q59 63 140 99t176 36q189 0 269 -111q66 -91 66 -271v-957h351v962q0 174 -34 284q-46 150 -166 233q-143 96 -392 96q-176 0 -315 -72q-141 -74 -212 -205v245h-351v-1177h351z" />
    <glyph glyph-name="iotatonos" unicode="&#x3af;" horiz-adv-x="705" 
d="M217 1612l29 -313h218l36 313h-283zM528 0v1177h-352v-1177h352z" />
    <glyph glyph-name="upsilondieresistonos" unicode="&#x3b0;" horiz-adv-x="1700" 
d="M744 1681l28 -313h209l37 313h-274zM346 1380q0 -41 18 -67t56 -39t98 -13q99 0 140 29q39 28 39 90q0 64 -39 92q-42 30 -140 30q-45 0 -77.5 -7t-53.5 -22.5t-31 -38t-10 -54.5zM1054 1380q0 -61 41 -90t130 -29q98 0 139 29q39 28 39 90q0 64 -39 92q-42 30 -139 30
q-90 0 -130.5 -29.5t-40.5 -92.5zM140 1177v-619q0 -277 149 -421q175 -169 562 -169t562 169q148 144 148 421v619h-351v-593q0 -192 -74 -278q-87 -99 -285 -99q-197 0 -282 97q-78 88 -78 280v593h-351z" />
    <glyph glyph-name="alpha" unicode="&#x3b1;" horiz-adv-x="1725" 
d="M1553 0v1177h-352v-166q-63 90 -171 142q-122 56 -293 56q-318 0 -497 -181q-79 -80 -119 -184t-40 -217v-80q0 -112 40.5 -215.5t120.5 -182.5q85 -85 210 -133t288 -48q173 0 290 56q107 50 171 141v-165h352zM433 613q0 156 92 251q103 108 301 108q179 0 276 -94
q99 -97 99 -277v-26q0 -181 -99 -277q-97 -94 -273 -94q-197 0 -302 105q-94 94 -94 247v57z" />
    <glyph glyph-name="beta" unicode="&#x3b2;" horiz-adv-x="1641" 
d="M523 -366v412q195 -76 374 -76q339 0 497 132q134 112 134 314v64q0 119 -70 199t-222 122q134 42 196.5 116.5t62.5 182.5v32q0 108 -56 196q-66 103 -202 161q-160 66 -399 66q-356 0 -523 -175q-143 -151 -143 -430v-1316h351zM760 685h59q157 0 242 -37
q70 -31 97 -86q18 -37 18 -101v-28q0 -105 -66 -161q-77 -66 -247 -66q-91 0 -188 29q-69 19 -152 60v663q0 163 71 255q82 106 247 106q143 0 222 -52q83 -56 83 -156v-16q0 -100 -91 -143q-77 -38 -236 -38h-59v-229z" />
    <glyph glyph-name="gamma" unicode="&#x3b3;" horiz-adv-x="1611" 
d="M977 -366v366h65l536 1177h-376l-383 -954h-29l-382 954h-376l537 -1177h56v-366h352z" />
    <glyph glyph-name="delta" unicode="&#x3b4;" 
d="M81 556q0 -268 173 -419q193 -169 577 -169q385 0 577 170q173 153 173 418v65q0 178 -79 308q-84 137 -256 209l-58 32q-44 23 -83 45q-30 17 -92 51q-78 43 -85 47l-62 35l-6 3l-18 11v1l677 -2v207h-1120v-203q18 -9 53.5 -26.5t53.5 -26.5t56 -27.5t50 -24.5
q90 -44 115 -55q-331 -23 -496 -186q-150 -150 -150 -397v-66zM432 624q0 150 93 243q105 105 306 105q200 0 305 -105q93 -93 93 -243v-70q0 -152 -94 -246q-104 -104 -304 -104q-199 0 -304 105q-95 94 -95 245v70z" />
    <glyph glyph-name="epsilon" unicode="&#x3b5;" horiz-adv-x="1512" 
d="M932 695h-180q-134 0 -206 31q-76 31 -76 94v10q0 73 61 109q75 45 256 45q154 0 234.5 -39.5t93.5 -127.5l294 2l-2 22q-26 368 -623 368q-365 0 -526 -93q-146 -84 -140 -255v-19q0 -92 92 -165q81 -66 191 -86q-129 -18 -212 -103q-72 -73 -72 -162v-12
q0 -167 147 -251q165 -95 520 -95q319 0 478 112q138 96 146 261l1 19l-294 3l-1 -10q-7 -67 -74 -108q-84 -52 -255 -52q-180 0 -252 43q-63 36 -63 110v5q0 63 54 100q69 47 228 47h180v197z" />
    <glyph glyph-name="zeta" unicode="&#x3b6;" horiz-adv-x="1363" 
d="M161 1332h702l-567 -550q-180 -158 -180 -386q0 -186 135 -288q73 -56 189 -88t278 -38q146 -4 191 -48q41 -39 20 -133l-38 -167h309l29 162q18 96 4.5 174.5t-61.5 129.5q-103 108 -382 115q-148 0 -234 51q-88 50 -88 148q0 59 20 109q26 63 93 129l693 680v237h-1113
v-237z" />
    <glyph glyph-name="eta" unicode="&#x3b7;" horiz-adv-x="1805" 
d="M527 0v551q0 76 30.5 151.5t86.5 135.5q59 63 139.5 99t176.5 36q189 0 269 -111q66 -91 66 -271v-957h351v962q0 174 -34 284q-46 150 -166 233q-143 96 -392 96q-176 0 -315 -72q-141 -74 -212 -205v245h-351v-1177h351z" />
    <glyph glyph-name="theta" unicode="&#x3b8;" 
d="M72 629q0 -301 165 -470q185 -191 565 -191q381 0 567 192q164 170 164 469v268q0 301 -165 470q-186 191 -566 191t-565 -191q-165 -169 -165 -469v-269zM424 919q0 180 77 280q94 122 301 122q209 0 304 -123q78 -102 78 -280v-14h-760v15zM802 204q-203 0 -299 123
q-79 101 -79 281v48h760v-46q0 -183 -82 -286q-97 -120 -300 -120z" />
    <glyph glyph-name="iota" unicode="&#x3b9;" horiz-adv-x="705" 
d="M528 0v1177h-352v-1177h352z" />
    <glyph glyph-name="kappa" unicode="&#x3ba;" horiz-adv-x="1634" 
d="M177 1177v-1177h351v490h277l401 -490h415l-538 600l471 577h-400l-335 -443h-291v443h-351z" />
    <glyph glyph-name="lambda" unicode="&#x3bb;" horiz-adv-x="1611" 
d="M416 0l387 954h26l383 -954h377l-523 1156q-40 90 -78.5 156t-87.5 119q-112 122 -300 181l-112 -178q103 -38 165 -110q50 -58 87 -147h-159l-537 -1177h372z" />
    <glyph glyph-name="uni03BC" unicode="&#x3bc;" horiz-adv-x="1699" 
d="M176 1177v-1543h351v589q87 -123 222 -188.5t305 -65.5q249 0 391 97q119 80 167 231q34 110 34 284v596h-351v-591q0 -179 -66 -270q-80 -111 -269 -111q-96 0 -176.5 36t-139.5 98q-56 60 -86.5 135.5t-30.5 151.5v551h-351z" />
    <glyph glyph-name="nu" unicode="&#x3bd;" horiz-adv-x="1590" 
d="M1191 1177l-378 -947h-37l-378 947h-376l548 -1177h449l549 1177h-377z" />
    <glyph glyph-name="xi" unicode="&#x3be;" horiz-adv-x="1404" 
d="M1272 -359l42 193q25 114 6 188q-22 88 -111 134q-98 51 -288 57q-226 0 -322 50q-34 18 -55 41.5t-31.5 55t-10.5 71.5v15q0 110 101 175q94 61 240 61l197 -1v235l-192 1q-142 0 -224 48q-86 48 -86 138v19q0 90 63 145q75 64 234 68h415v233h-1212v-233l249 5
q-101 -97 -101 -234q0 -124 80 -205q84 -85 241 -97q-179 -33 -272 -144q-86 -102 -86 -256q0 -108 34.5 -184t109.5 -125q147 -97 512 -107l46 -1q141 -1 179 -51q28 -36 8 -117l-43 -178h277z" />
    <glyph glyph-name="omicron" unicode="&#x3bf;" 
d="M81 556q0 -268 173 -419q193 -169 577 -169q385 0 577 170q173 153 173 418v65q0 268 -173 419q-193 169 -577 169q-383 0 -577 -168q-173 -151 -173 -419v-66zM432 624q0 150 93 243q105 105 306 105q200 0 305 -105q93 -93 93 -243v-70q0 -152 -94 -246
q-104 -104 -304 -104q-199 0 -304 105q-95 94 -95 245v70z" />
    <glyph glyph-name="pi" unicode="&#x3c0;" horiz-adv-x="1956" 
d="M1902 940v237h-1850v-237h235v-940h350v940h675v-940h351v940h239z" />
    <glyph glyph-name="rho" unicode="&#x3c1;" horiz-adv-x="1715" 
d="M488 -366l-1 399q170 -65 400 -65q380 0 576 170q174 152 174 419v63q0 266 -174 420q-193 169 -576 169q-382 0 -575 -169q-175 -152 -175 -420v-986h351zM488 625q0 150 95 244q105 103 304 103t305 -104q93 -93 93 -244v-69q0 -153 -95 -248q-105 -103 -303 -103
q-199 0 -303 104q-96 95 -96 246v71z" />
    <glyph glyph-name="uni03C2" unicode="&#x3c2;" horiz-adv-x="1607" 
d="M1339 -369l62 224q47 182 -49 266q-99 87 -379 87h-143q-191 0 -299 98q-100 91 -100 233v100q0 143 97 234q107 99 299 99q169 0 272 -66q92 -59 119 -170l313 14q-40 210 -190 324q-179 135 -510 135q-376 0 -572 -164q-180 -152 -180 -419v-76q0 -266 180 -417
q193 -162 571 -162h18q20 0 31 1h32h18q77 0 116 -13q40 -14 54 -35q24 -34 -4 -110l-63 -182z" />
    <glyph glyph-name="sigma" unicode="&#x3c3;" 
d="M78 556q0 -267 175 -419q193 -169 580 -169t581 170q174 154 174 418v65q0 192 -93 327l152 -15v245h-520q-132 31 -294 31q-385 0 -580 -169q-175 -152 -175 -419v-65zM430 624q0 150 94 243q107 105 309 105t309 -105q94 -95 94 -244v-68q0 -152 -96 -247
q-106 -104 -307 -104t-308 105q-95 94 -95 245v70z" />
    <glyph glyph-name="tau" unicode="&#x3c4;" horiz-adv-x="1370" 
d="M1353 940v237h-1336v-237h492v-941h351v941h493z" />
    <glyph glyph-name="upsilon" unicode="&#x3c5;" horiz-adv-x="1700" 
d="M140 1177v-619q0 -277 149 -421q175 -169 562 -169t562 169q148 144 148 421v619h-351v-593q0 -192 -74 -278q-87 -99 -285 -99q-197 0 -282 97q-78 88 -78 280v593h-351z" />
    <glyph glyph-name="phi" unicode="&#x3c6;" horiz-adv-x="2295" 
d="M1305 -363v343l283 41q290 38 441 140q124 84 166 216q25 81 25 230v38q0 142 -32 238q-50 147 -169 227q-155 101 -417 101q-277 0 -446 -128q-177 -134 -177 -379v-491l-279 43q-176 27 -248 114q-62 75 -62 213v69q0 76 13 130.5t48 94.5q83 91 299 91v243
q-366 -1 -530 -143q-156 -134 -156 -415v-41q0 -152 27 -237q40 -133 168 -219q154 -105 439 -139l281 -40v-340h326zM1305 683q1 34 9.5 68t26.5 67t43 59q88 91 241 91q126 0 195 -62q52 -48 68 -131q7 -40 7 -116v-75q0 -139 -66 -215q-74 -87 -245 -111l-279 -42v467z
" />
    <glyph glyph-name="chi" unicode="&#x3c7;" horiz-adv-x="1510" 
d="M1096 0h409l-537 610l479 567h-381l-304 -390l-304 390h-380l477 -567l-536 -610h409l334 419z" />
    <glyph glyph-name="psi" unicode="&#x3c8;" horiz-adv-x="1954" 
d="M138 1177v-657q0 -152 59 -264q67 -128 207 -200q158 -81 402 -87v-335h344v335q355 11 524 177q142 139 142 374v657h-350v-619q0 -151 -71 -238q-81 -99 -245 -110v1358h-344v-1359q-168 11 -246 107q-71 85 -71 242v619h-351z" />
    <glyph glyph-name="omega" unicode="&#x3c9;" horiz-adv-x="2436" 
d="M1045 788v-265q0 -160 -65 -235q-72 -83 -241 -83q-166 0 -241 108q-61 87 -61 243v97q0 154 73 228q88 88 288 84l-2 236q-198 -2 -333 -35t-218 -100q-82 -66 -120 -169t-39 -250v-111q-2 -151 48 -267q59 -138 191 -213q155 -88 397 -88q165 0 296 54q113 47 193 133
q79 -84 197 -132q134 -55 311 -55q243 0 396 88q131 75 190 214q49 114 49 267v110q0 147 -38 250t-121 169q-162 131 -551 135l-1 -236q223 4 300 -79q35 -38 47.5 -94t12.5 -139v-97q0 -164 -59 -248q-72 -103 -242 -103q-171 0 -243 84q-64 75 -64 234v265h-350z" />
    <glyph glyph-name="iotadieresis" unicode="&#x3ca;" horiz-adv-x="705" 
d="M-82 1426q0 -41 18 -67t55.5 -39t97.5 -13q99 0 140 29q40 29 40 90q0 63 -40 92q-42 30 -140 30q-89 0 -130 -29.5t-41 -92.5zM448 1426q0 -61 41.5 -90t130.5 -29q98 0 139 29q40 29 40 90q0 63 -40 92q-42 30 -139 30q-60 0 -98 -13t-56 -40t-18 -69zM528 0v1177h-352
v-1177h352z" />
    <glyph glyph-name="upsilondieresis" unicode="&#x3cb;" horiz-adv-x="1700" 
d="M441 1414q0 -61 41 -90t130 -29q99 0 140 29q40 29 40 90q0 63 -40 92q-42 30 -140 30q-89 0 -130 -29.5t-41 -92.5zM971 1414q0 -61 41.5 -90t130.5 -29q98 0 139 29q40 29 40 90q0 63 -40 92q-42 30 -139 30q-60 0 -98 -13t-56 -40t-18 -69zM140 1177v-619
q0 -277 149 -421q175 -169 562 -169t562 169q148 144 148 421v619h-351v-593q0 -192 -74 -278q-87 -99 -285 -99q-197 0 -282 97q-78 88 -78 280v593h-351z" />
    <glyph glyph-name="omicrontonos" unicode="&#x3cc;" 
d="M693 1613l29 -313h218l36 313h-283zM81 556q0 -268 173 -419q193 -169 577 -169q385 0 577 170q173 153 173 418v65q0 268 -173 419q-193 169 -577 169q-383 0 -577 -168q-173 -151 -173 -419v-66zM432 624q0 150 93 243q105 105 306 105q200 0 305 -105q93 -93 93 -243
v-70q0 -152 -94 -246q-104 -104 -304 -104q-199 0 -304 105q-95 94 -95 245v70z" />
    <glyph glyph-name="upsilontonos" unicode="&#x3cd;" horiz-adv-x="1700" 
d="M734 1566l29 -313h218l36 313h-283zM140 1177v-619q0 -277 149 -421q175 -169 562 -169t562 169q148 144 148 421v619h-351v-593q0 -192 -74 -278q-87 -99 -285 -99q-197 0 -282 97q-78 88 -78 280v593h-351z" />
    <glyph glyph-name="omegatonos" unicode="&#x3ce;" horiz-adv-x="2436" 
d="M1075 1572l29 -313h218l36 313h-283zM1045 788v-265q0 -160 -65 -235q-72 -83 -241 -83q-166 0 -241 108q-61 87 -61 243v97q0 154 73 228q88 88 288 84l-2 236q-132 -1 -235 -16t-182 -44.5t-134 -74.5q-82 -66 -120 -169t-39 -250v-111q-2 -151 48 -267
q59 -138 191 -213q155 -88 397 -88q165 0 296 54q113 47 193 133q79 -84 197 -132q134 -55 311 -55q243 0 396 88q131 75 190 214q49 114 49 267v110q0 97 -16.5 174t-51.5 138.5t-91 106.5q-162 131 -551 135l-1 -236q223 4 300 -79q35 -38 47.5 -94t12.5 -139v-97
q0 -164 -59 -248q-72 -103 -242 -103q-171 0 -243 84q-64 75 -64 234v265h-350z" />
    <glyph glyph-name="uni0401" unicode="&#x401;" horiz-adv-x="1728" 
d="M502 1751q0 -61 41 -90t130 -29q99 0 140 29q40 29 40 90q0 63 -40 92q-42 30 -140 30q-60 0 -97.5 -13t-55.5 -40t-18 -69zM1032 1751q0 -61 41.5 -90t130.5 -29q98 0 139 29q40 29 40 90q0 63 -40 92q-42 30 -139 30q-60 0 -98 -13t-56 -40t-18 -69zM1615 0v257h-1051
v380h942v257h-942v361h1045v258h-1401v-1513h1407z" />
    <glyph glyph-name="uni0402" unicode="&#x402;" horiz-adv-x="2139" 
d="M1496 1265v247h-1503v-247h571v-1265h361v527q9 151 85 225q95 90 305 90q146 0 228 -73q83 -75 83 -205v-64q0 -135 -74 -199q-81 -70 -257 -70l2 -258q262 -10 424 63q144 65 210 195q56 112 56 270v92q0 111 -50 215q-60 126 -186 199q-153 88 -379 88
q-150 0 -268 -43q-103 -39 -179 -110v323h571z" />
    <glyph glyph-name="uni0403" unicode="&#x403;" horiz-adv-x="1499" 
d="M1441 1255v258h-1233v-1513h360v1255h873z" />
    <glyph glyph-name="uni0404" unicode="&#x404;" horiz-adv-x="1932" 
d="M1170 891h-723q22 186 170 293q143 102 372 102q204 0 336 -93q127 -91 162 -253h357q-42 276 -250 436q-223 169 -601 169q-451 0 -690 -203q-112 -95 -167.5 -227t-55.5 -291v-135q0 -159 56 -291t167 -227q238 -203 689 -203q383 0 612 178q101 80 161 188.5t79 234.5
l-357 1q-38 -157 -159 -246q-134 -97 -340 -97q-235 0 -378 107q-151 112 -164 309h724v248z" />
    <glyph glyph-name="uni0405" unicode="&#x405;" horiz-adv-x="1728" 
d="M1638 429q0 180 -125 283q-119 97 -384 144l-373 63q-140 23 -199 65q-61 44 -61 121q0 79 73 129q93 64 290 64q226 0 332 -71q86 -57 105 -176h321q-18 228 -193 353q-197 141 -568 141q-258 0 -432 -65q-151 -56 -227 -163q-66 -93 -66 -213q0 -174 111.5 -277.5
t349.5 -146.5l408 -73q142 -24 208.5 -67t66.5 -123q0 -93 -91 -144q-102 -59 -308 -59q-241 0 -356 89q-89 69 -91 179h-343q0 -108 51 -202t150 -162q213 -150 586 -150t569 117q196 115 196 344z" />
    <glyph glyph-name="uni0406" unicode="&#x406;" horiz-adv-x="775" 
d="M568 0v1513h-360v-1513h360z" />
    <glyph glyph-name="uni0407" unicode="&#x407;" horiz-adv-x="775" 
d="M-54 1743q0 -61 41 -90t130 -29q99 0 140 29q40 29 40 90q0 63 -40 92q-42 30 -140 30q-89 0 -130 -29.5t-41 -92.5zM476 1743q0 -31 10 -53t31 -37t53.5 -22t77.5 -7q98 0 139 29q40 29 40 90q0 63 -40 92q-42 30 -139 30q-90 0 -131 -29.5t-41 -92.5zM568 0v1513h-360
v-1513h360z" />
    <glyph glyph-name="uni0408" unicode="&#x408;" horiz-adv-x="1407" 
d="M413 1255h488v-697q0 -164 -97.5 -247.5t-283.5 -83.5q-99 0 -222 27q-121 25 -174 47l-103 -221q71 -38 218 -73q167 -39 312 -39q340 0 522 145q188 148 188 436v964h-848v-258z" />
    <glyph glyph-name="uni0409" unicode="&#x409;" horiz-adv-x="2900" 
d="M2852 529q0 240 -172 344q-155 93 -488 93h-348v547h-1501v-968q0 -95 -11.5 -153t-42.5 -93q-34 -37 -98 -53.5t-171 -16.5v-259q199 0 329.5 29.5t208.5 92.5q77 62 110.5 162t33.5 248v751h782v-1253h738q302 0 458 98q172 106 172 343v88zM2521 469q0 -103 -60 -153
q-68 -56 -217 -56h-400v449h379q168 0 236 -53q62 -49 62 -162v-25z" />
    <glyph glyph-name="uni040A" unicode="&#x40a;" horiz-adv-x="2784" 
d="M565 0v644h799v-644h738q303 0 459 98q172 106 172 343v88q0 240 -172 344q-157 93 -489 93h-348v547h-360v-611h-799v611h-359v-1513h359zM2401 469q0 -103 -60 -153q-67 -56 -216 -56h-401v449h380q167 0 235 -53q62 -49 62 -162v-25z" />
    <glyph glyph-name="uni040B" unicode="&#x40b;" horiz-adv-x="2226" 
d="M1596 1255v258h-1617v-258h628v-1255h361v450q0 79 35 155q39 88 124 143q95 63 242 63q181 0 273 -100q84 -93 84 -261v-450h358v496q0 131 -36 233q-53 148 -176 234q-155 107 -416 107q-147 0 -282 -52q-124 -49 -206 -132v369h628z" />
    <glyph glyph-name="uni040C" unicode="&#x40c;" horiz-adv-x="1872" 
d="M1046 1879l-250 -278h263l322 278h-335zM567 0v635h346l519 -635h413l-630 772l548 741h-402l-462 -607h-332v607h-360v-1513h360z" />
    <glyph glyph-name="uni040E" unicode="&#x40e;" horiz-adv-x="1693" 
d="M1062 1896q-13 -76 -46 -110q-47 -49 -149 -49q-101 0 -150 51q-34 35 -49 108h-200q9 -132 88 -210q99 -99 311 -99q209 0 307 98q76 76 89 211h-201zM1681 1512h-383l-459 -693l-409 693h-424l627 -1010l-316 -502h383z" />
    <glyph glyph-name="uni040F" unicode="&#x40f;" horiz-adv-x="2051" 
d="M1834 0v1513h-360v-1254h-894v1254h-353v-1513h685v-182h324v182h598z" />
    <glyph glyph-name="uni0410" unicode="&#x410;" horiz-adv-x="1891" 
d="M372 0l155 354h837l155 -354h372l-712 1513h-467l-712 -1513h372zM922 1257h48l286 -656h-621z" />
    <glyph glyph-name="uni0411" unicode="&#x411;" horiz-adv-x="1898" 
d="M1632 534q0 218 -174 326q-155 96 -423 96h-468v303h891v254h-1250v-1513h847q248 0 402 101q175 114 175 339v94zM1300 464q0 -101 -71 -154q-67 -50 -172 -50h-490v438h470q122 0 190 -47q73 -52 73 -152v-35z" />
    <glyph glyph-name="uni0412" unicode="&#x412;" horiz-adv-x="1898" 
d="M1804 452q0 147 -109 240t-288 110q165 20 247.5 98.5t82.5 210.5v50q0 169 -141 262q-140 90 -389 90h-999v-1513h976q301 0 454 92q166 99 166 314v46zM1373 1082q0 -84 -64.5 -131.5t-197.5 -47.5h-543v378h570q127 0 189 -53q46 -42 46 -111v-35zM1439 454
q1 -123 -94 -168q-73 -34 -222 -34h-555v418h552q151 0 230 -44q88 -49 89 -144v-28z" />
    <glyph glyph-name="uni0413" unicode="&#x413;" horiz-adv-x="1499" 
d="M1441 1255v258h-1233v-1513h360v1255h873z" />
    <glyph glyph-name="uni0414" unicode="&#x414;" horiz-adv-x="2043" 
d="M1487 1513h-1007v-533q0 -152 -29 -300q-35 -180 -112 -290q-92 -130 -235 -130v-1h-50v-464h360v205h1208v-205h360v464h-201v1254l-294 -1v1zM840 1253h581v-994h-825q125 117 190 326q54 174 54 401v267z" />
    <glyph glyph-name="uni0415" unicode="&#x415;" horiz-adv-x="1728" 
d="M1615 0v257h-1051v380h942v257h-942v361h1045v258h-1401v-1513h1407z" />
    <glyph glyph-name="uni0416" unicode="&#x416;" horiz-adv-x="2688" 
d="M1512 0v635h197l520 -635h413l-630 772l548 741h-403l-461 -607h-184v607h-360v-607h-182l-461 607h-403l548 -741l-630 -772h413l519 635h196v-635h360z" />
    <glyph glyph-name="uni0417" unicode="&#x417;" horiz-adv-x="1665" 
d="M1524 442q0 142 -85 224q-91 88 -283 117q173 25 256 93q96 79 96 234v10q0 211 -175.5 318t-523.5 107q-362 0 -531 -121q-157 -112 -157 -332v-35h331v23q0 99 91 152.5t263 53.5q154 0 237 -39q101 -47 101 -154q0 -98 -91 -144q-87 -44 -255 -44h-183v-257h185
q171 0 260 -36q101 -41 101 -136v-40q0 -117 -91 -166q-81 -43 -267 -43q-177 0 -272.5 51t-95.5 140v35h-329v-37q0 -216 177 -331q179 -116 520 -116q392 0 559 113q56 38 92.5 90t53 117t16.5 146v7z" />
    <glyph glyph-name="uni0418" unicode="&#x418;" horiz-adv-x="2067" 
d="M1860 1513h-356l-959 -1109h-9l10 86l5 1023h-343v-1513h366l950 1089h8l-10 -96l-5 -993h343v1513z" />
    <glyph glyph-name="uni0419" unicode="&#x419;" horiz-adv-x="2067" 
d="M1214 1907q-13 -76 -46 -110q-47 -49 -149 -49q-101 0 -150 51q-34 35 -49 108h-200q9 -132 88 -210q99 -99 311 -99q209 0 307 98q76 76 89 211h-201zM1860 1513h-356l-959 -1109h-9l10 86l5 1023h-343v-1513h366l950 1089h8l-10 -96l-5 -993h343v1513z" />
    <glyph glyph-name="uni041A" unicode="&#x41a;" horiz-adv-x="1872" 
d="M567 0v635h346l519 -635h413l-630 772l548 741h-402l-462 -607h-332v607h-360v-1513h360z" />
    <glyph glyph-name="uni041B" unicode="&#x41b;" horiz-adv-x="2064" 
d="M1880 0v1513h-1538v-1003q0 -86 -11 -137.5t-43 -83.5q-23 -23 -58.5 -37t-87.5 -21t-124 -7v-259q199 0 330 28.5t209 89.5q77 60 111 156t34 238v788h817v-1265h361z" />
    <glyph glyph-name="uni041C" unicode="&#x41c;" horiz-adv-x="2466" 
d="M1058 227h351l514 999h22l-9 -102l-16 -1124h338v1513h-492l-502 -907l-26 -85h-10l-25 83l-503 909h-492v-1513h339l-16 1125l-10 101h21z" />
    <glyph glyph-name="uni041D" unicode="&#x41d;" horiz-adv-x="2067" 
d="M568 0v626h931v-626h361v1513h-361v-622h-931v622h-360v-1513h360z" />
    <glyph glyph-name="uni041E" unicode="&#x41e;" horiz-adv-x="2004" 
d="M90 689q0 -159 56 -290.5t167 -226.5q239 -204 688 -204t690 206q112 95 167.5 226t55.5 289v134q0 158 -55.5 290t-166.5 227q-240 205 -690 205t-689 -204q-111 -95 -167 -227t-56 -291v-134zM1001 227q-247 0 -394 118q-152 122 -152 336l-1 147q0 218 152 340
q147 118 395 118q250 0 397 -117q152 -122 152 -341v-147q0 -214 -152 -336q-149 -118 -397 -118z" />
    <glyph glyph-name="uni041F" unicode="&#x41f;" horiz-adv-x="2031" 
d="M565 0v1264h904v-1264h361v1513h-1625v-1513h360z" />
    <glyph glyph-name="uni0420" unicode="&#x420;" horiz-adv-x="1829" 
d="M1771 1053q0 217 -165 339q-165 121 -463 121h-935v-1513h358v481h579q303 0 465 128q161 126 161 367v77zM1406 983q0 -122 -77 -183.5t-243 -61.5h-519v518h536q161 0 234 -58q69 -55 69 -168v-47z" />
    <glyph glyph-name="uni0421" unicode="&#x421;" horiz-adv-x="1932" 
d="M1497 570q-38 -157 -159 -246q-134 -97 -340 -97q-245 0 -391 117q-152 122 -152 336l-1 149q0 107 39 193t112 145q148 119 394 119q204 0 336 -93q127 -91 162 -253h356q-42 276 -249 436q-223 169 -602 169q-451 0 -689 -203q-111 -95 -167 -227t-56 -291v-135
q0 -159 56 -291t167 -227q238 -203 688 -203q384 0 613 178q101 80 161 188.5t79 234.5z" />
    <glyph glyph-name="uni0422" unicode="&#x422;" horiz-adv-x="1611" 
d="M1614 1255v258h-1617v-258h629v-1255h360v1255h628z" />
    <glyph glyph-name="uni0423" unicode="&#x423;" horiz-adv-x="1693" 
d="M1681 1512h-383l-459 -693l-409 693h-424l627 -1010l-316 -502h383z" />
    <glyph glyph-name="uni0424" unicode="&#x424;" horiz-adv-x="2014" 
d="M1195 0v107q378 17 583 198q60 53 100 118.5t58.5 134t18.5 141.5v117q0 109 -44 211.5t-133 182.5q-205 185 -583 203v104h-359v-107q-381 -17 -585 -201q-88 -80 -132 -182.5t-44 -211.5v-117q0 -109 43.5 -210.5t132.5 -181.5q203 -183 585 -201v-105h359zM1591 713
q0 -155 -100 -245q-106 -95 -296 -102v785q190 -10 294 -105q102 -93 102 -245v-88zM440 801q0 150 98 242q106 100 298 107v-785q-191 12 -296 107q-100 90 -100 241v88z" />
    <glyph glyph-name="uni0425" unicode="&#x425;" horiz-adv-x="1810" 
d="M48 1513l620 -742l-672 -771h417l491 581l493 -581h416l-670 772l617 741h-416l-437 -555l-442 555h-417z" />
    <glyph glyph-name="uni0426" unicode="&#x426;" horiz-adv-x="2039" 
d="M1384 1513v-1265h-825v1265h-360v-1513h1445v-175h332v423h-232v1265h-360z" />
    <glyph glyph-name="uni0427" unicode="&#x427;" horiz-adv-x="1828" 
d="M1282 1513v-433q-5 -176 -98 -276q-106 -114 -317 -114q-212 0 -307 118q-79 96 -79 283v422h-357v-467q0 -173 56 -300q64 -147 199 -226q152 -90 391 -90q178 0 311 54q122 49 201 138v-622h357v1513h-357z" />
    <glyph glyph-name="uni0428" unicode="&#x428;" horiz-adv-x="2458" 
d="M1901 1513v-1253h-482v1253h-359v-1253h-495v1253h-360v-1513h2055v1513h-359z" />
    <glyph glyph-name="uni0429" unicode="&#x429;" horiz-adv-x="2492" 
d="M1901 1513v-1253h-482v1253h-359v-1253h-495v1253h-360v-1513h1902v-205h321v465h-168v1253h-359z" />
    <glyph glyph-name="uni042A" unicode="&#x42a;" horiz-adv-x="1801" 
d="M10 1254h311v-1254h793q301 0 459 98q173 106 173 343v88q0 240 -172 344q-157 93 -489 93h-404v547h-671v-259zM1414 469q0 -103 -60 -153q-68 -56 -217 -56h-456v449h435q168 0 236 -53q62 -49 62 -162v-25z" />
    <glyph glyph-name="uni042B" unicode="&#x42b;" horiz-adv-x="2461" 
d="M1603 529q0 240 -172 344q-155 93 -488 93h-405v547h-360v-1513h794q303 0 459 98q172 106 172 343v88zM2261 0v1513h-360v-1513h360zM1271 469q0 -103 -60 -153q-67 -56 -216 -56h-457v449h437q168 0 234 -53q62 -50 62 -162v-25z" />
    <glyph glyph-name="uni042C" unicode="&#x42c;" horiz-adv-x="1734" 
d="M1630 529q0 240 -172 344q-155 93 -488 93h-405v547h-360v-1513h794q303 0 459 98q172 106 172 343v88zM1298 469q0 -103 -60 -153q-67 -56 -216 -56h-457v449h437q168 0 234 -53q62 -50 62 -162v-25z" />
    <glyph glyph-name="uni042D" unicode="&#x42d;" horiz-adv-x="1932" 
d="M770 643h723q-13 -197 -163 -309q-145 -107 -379 -107q-207 0 -339 97q-122 88 -160 246l-357 -1q19 -126 79 -235t162 -188q227 -178 612 -178q451 0 689 203q111 95 166.5 227t55.5 291v135q0 105 -24 198.5t-74 175t-124 144.5q-238 203 -690 203q-378 0 -601 -169
q-208 -159 -250 -436h356q35 163 163 253q130 93 335 93q230 0 373 -102q146 -106 168 -293h-721v-248z" />
    <glyph glyph-name="uni042E" unicode="&#x42e;" horiz-adv-x="2777" 
d="M565 0v626h287q10 -146 72 -266.5t175 -206.5q241 -185 670 -185q452 0 695 206q56 48 98.5 105.5t70 122.5t41.5 137t14 150v133q0 158 -56 290t-168 227q-243 205 -694 205q-431 0 -671 -184q-223 -172 -247 -474h-287v627h-359v-1513h359zM1769 227q-251 0 -400 118
q-74 59 -114 144.5t-40 192.5v144q0 218 154 342q147 118 400 118q254 0 401 -118q154 -124 154 -342v-143q0 -214 -154 -337q-150 -119 -401 -119z" />
    <glyph glyph-name="uni042F" unicode="&#x42f;" horiz-adv-x="1915" 
d="M168 1006q0 -146 89 -241q76 -83 221 -130q-79 -34 -124 -90q-41 -51 -71 -145l-57 -183q-48 -150 -103 -217h382q52 63 83 183l64 201q17 58 54.5 95t92.5 55t133 22h441v-556h359v1513h-966q-287 0 -441 -119q-157 -123 -157 -348v-40zM533 1051q0 99 56 154
q62 62 194 62h590v-454h-522q-153 0 -235.5 55t-82.5 164v19z" />
    <glyph glyph-name="uni0430" unicode="&#x430;" horiz-adv-x="1682" 
d="M1523 0v633q0 163 -49 276q-61 141 -200 214q-164 86 -432 86q-257 0 -417 -70q-131 -58 -198 -162q-47 -72 -63 -179h334q15 79 76 124q84 60 254 60q193 0 277 -82q67 -68 67 -206v-46q-85 33 -189 56q-146 32 -283 32q-318 0 -463 -111q-122 -93 -122 -261
q0 -98 43 -177q53 -98 170 -153q136 -65 356 -65q169 0 304 69q136 68 184 174v-212h351zM786 197q-184 0 -264 66q-56 46 -56 116q0 65 50 109q71 62 247 62q108 0 241 -32q104 -25 168 -55v-37q-7 -28 -32 -66.5t-66 -71.5q-113 -91 -288 -91z" />
    <glyph glyph-name="uni0431" unicode="&#x431;" horiz-adv-x="1659" 
d="M79 543q0 -120 43.5 -223.5t131.5 -179.5q197 -172 576 -172q378 0 576 172q88 77 131 180t43 223v92q0 237 -171 376q-188 153 -551 153q-210 0 -412 -102q37 114 131 175q108 68 304 68q247 0 360 20q120 21 178 78q50 49 90 164h-353q-10 -13 -29 -20q-18 -7 -62 -10
q-73 -7 -294 -8q-368 -4 -537 -203q-155 -183 -155 -540v-243zM431 584q0 149 95 241q105 102 304 102q201 0 306 -97q95 -88 95 -237v-60q0 -150 -99 -236q-107 -93 -302 -93q-200 0 -303 95q-96 87 -96 232v53z" />
    <glyph glyph-name="uni0432" unicode="&#x432;" horiz-adv-x="1673" 
d="M177 0h861q273 0 408 89q123 80 123 224v21q0 98 -63 167q-59 64 -170 101q198 71 198 231v25q0 149 -121 231q-132 88 -396 88h-840v-1177zM1180 835q0 -72 -70 -108q-54 -27 -118 -27h-472v278h465q91 0 138 -27q57 -33 57 -106v-10zM1218 345q0 -33 -11.5 -59.5
t-35 -45t-61 -28.5t-87.5 -10h-503v302h473q118 0 171.5 -38.5t53.5 -120.5z" />
    <glyph glyph-name="uni0433" unicode="&#x433;" horiz-adv-x="1336" 
d="M525 2v936h770v239h-1121v-1177z" />
    <glyph glyph-name="uni0434" unicode="&#x434;" horiz-adv-x="1792" 
d="M1289 1180h-848v-273q0 -317 -88 -490q-92 -181 -263 -181h-53v-413h350v177h976v-177h377v413h-175v944l-276 -1v1zM791 942h425v-706h-629q112 96 162 266q42 146 42 377v63z" />
    <glyph glyph-name="uni0435" unicode="&#x435;" horiz-adv-x="1587" 
d="M1515 504l3 25q1 8 1 28q18 304 -157 476q-182 176 -530 176q-382 0 -575 -166q-176 -151 -176 -417v-52q0 -283 174 -437q190 -169 582 -169q307 0 481 131q143 108 183 286l-326 1q-19 -74 -99 -128q-98 -65 -246 -65q-196 0 -301 97q-92 85 -97 214h1083zM432 710
q10 112 89 189q105 101 299 101q183 0 276 -85q81 -74 89 -212v-5h-753v12z" />
    <glyph glyph-name="uni0436" unicode="&#x436;" horiz-adv-x="2298" 
d="M971 1180v-446h-151l-335 443h-401l472 -577l-537 -600h415l400 490h137v-490h351v490h135l401 -490h415l-537 600l472 577h-401l-336 -443h-149v446h-351z" />
    <glyph glyph-name="uni0437" unicode="&#x437;" horiz-adv-x="1512" 
d="M568 498h179q160 0 229 -47q54 -37 54 -100v-5q0 -74 -63 -110q-74 -43 -253 -43q-170 0 -254 52q-68 42 -75 108l-1 10l-293 -3l1 -19q7 -164 146 -261q159 -112 478 -112q355 0 520 95q146 84 146 251v12q0 88 -72 163q-78 81 -212 103q110 20 192 85q91 72 91 165
l1 19q6 171 -140 255q-161 93 -526 93q-598 0 -624 -368l-1 -22l293 -2q13 88 93.5 127.5t235.5 39.5q182 0 256 -45q60 -37 60 -109v-10q0 -63 -75 -94q-72 -31 -206 -31h-181v-124z" />
    <glyph glyph-name="uni0438" unicode="&#x438;" horiz-adv-x="1840" 
d="M1652 1177h-366l-763 -795v795h-350v-1177h369l761 781v-781h349v1177z" />
    <glyph glyph-name="uni0439" unicode="&#x439;" horiz-adv-x="1840" 
d="M1126 1565q-13 -76 -46 -110q-47 -49 -149 -49q-101 0 -150 51q-34 35 -49 108h-200q9 -132 88 -210q99 -99 311 -99q209 0 307 98q76 76 89 211h-201zM1652 1177h-366l-763 -795v795h-350v-1177h369l761 781v-781h349v1177z" />
    <glyph glyph-name="uni043A" unicode="&#x43a;" horiz-adv-x="1636" 
d="M176 1177v-1177h351v490h277l401 -490h415l-538 600l471 577h-400l-335 -443h-291v443h-351z" />
    <glyph glyph-name="uni043B" unicode="&#x43b;" horiz-adv-x="1899" 
d="M1701 0v1177h-1391v-640q0 -59 -3.5 -100.5t-14 -79.5t-29.5 -64q-30 -41 -83.5 -61t-141.5 -20v-242q180 0 300 34t192 106q69 69 99.5 178t30.5 267v375h690v-930h351z" />
    <glyph glyph-name="uni043C" unicode="&#x43c;" horiz-adv-x="2143" 
d="M899 187h344l403 695l-13 -882h332v1177h-438l-448 -737h-16l-448 737h-438v-1177h332l-12 878z" />
    <glyph glyph-name="uni043D" unicode="&#x43d;" horiz-adv-x="1817" 
d="M525 0v454h772v-454h351v1177h-351v-474h-772v474h-352v-1177h352z" />
    <glyph glyph-name="uni043E" unicode="&#x43e;" 
d="M81 556q0 -268 173 -419q193 -169 577 -169q385 0 577 170q173 153 173 418v65q0 268 -173 419q-193 169 -577 169q-383 0 -577 -168q-173 -151 -173 -419v-66zM432 624q0 150 93 243q105 105 306 105q200 0 305 -105q93 -93 93 -243v-70q0 -152 -94 -246
q-104 -104 -304 -104q-199 0 -304 105q-95 94 -95 245v70z" />
    <glyph glyph-name="uni043F" unicode="&#x43f;" horiz-adv-x="1840" 
d="M525 0v929h745v-929h351v1177h-1448v-1177h352z" />
    <glyph glyph-name="uni0440" unicode="&#x440;" horiz-adv-x="1729" 
d="M527 -366v536q63 -93 171 -145q119 -57 289 -57q313 0 493 174q83 80 125.5 186t42.5 227v58q0 78 -18 152t-54.5 141.5t-89.5 121.5q-179 181 -497 181q-167 0 -287 -57q-111 -53 -175 -151v176h-351v-1543h351zM1296 557q0 -153 -96 -249q-106 -104 -294 -104
q-182 0 -278 93q-101 96 -101 275v40q2 158 87 252q97 108 294 108q188 0 293 -105q95 -96 95 -249v-61z" />
    <glyph glyph-name="uni0441" unicode="&#x441;" horiz-adv-x="1609" 
d="M1532 744q-38 208 -194 326q-183 139 -506 139q-376 0 -572 -167q-179 -153 -179 -415v-76q0 -263 177 -415q194 -168 573 -168q332 0 516 143q156 121 189 326h-322q-33 -116 -120 -172q-95 -61 -266 -61q-192 0 -298 103q-98 95 -98 240v84q0 145 95 237
q106 104 301 104q173 0 268 -62q86 -57 118 -166h318z" />
    <glyph glyph-name="uni0442" unicode="&#x442;" horiz-adv-x="1300" 
d="M1309 948v229h-1318v-229h485v-949h350v949h483z" />
    <glyph glyph-name="uni0443" unicode="&#x443;" horiz-adv-x="1586" 
d="M1189 1177l-401 -932l-392 932h-377l577 -1177h91l-23 -59q-63 -149 -223 -243l124 -171q108 36 199 118q109 99 175 241l627 1291h-377z" />
    <glyph glyph-name="uni0444" unicode="&#x444;" horiz-adv-x="2736" 
d="M79 530q0 -153 63 -272q68 -133 207 -207q153 -83 380 -83q161 0 282 54q109 49 182 136v-524h351v525q71 -88 182 -137q121 -54 283 -54q331 0 503 174q146 149 146 388v114q0 150 -60 270q-68 134 -204 210q-154 85 -382 85q-154 0 -272 -52.5t-196 -143.5v555h-351
v-555q-78 91 -196.5 143.5t-271.5 52.5q-227 0 -381 -85q-136 -75 -204 -210q-61 -122 -61 -270v-114zM431 634q0 151 87 238q98 100 298 100q175 0 281 -108q23 -24 41.5 -52.5t30.5 -59.5t18 -63.5t6 -65.5v-67q0 -163 -108 -260q-103 -92 -267 -92q-201 0 -299 96
q-88 87 -88 237v97zM2306 537q0 -150 -88 -237q-98 -96 -299 -96q-163 0 -266 92q-109 96 -109 260v80q2 65 28.5 126t73.5 107q105 103 274 103q200 0 300 -100q86 -87 86 -238v-97z" />
    <glyph glyph-name="uni0445" unicode="&#x445;" horiz-adv-x="1524" 
d="M1096 0h409l-537 610l479 567h-381l-304 -390l-304 390h-380l477 -567l-536 -610h409l334 419z" />
    <glyph glyph-name="uni0446" unicode="&#x446;" horiz-adv-x="1870" 
d="M177 1177v-1177h1286l-2 -203h326v450h-219v930h-350v-930h-690v930h-351z" />
    <glyph glyph-name="uni0447" unicode="&#x447;" horiz-adv-x="1791" 
d="M1248 1177v-227q-5 -107 -45 -198q-47 -105 -135 -166q-99 -70 -243 -70q-199 0 -282 128q-62 96 -62 268v265h-351v-270q0 -163 40 -279q53 -158 178 -244q150 -104 407 -104q150 0 277.5 54t215.5 154v-488h351v1177h-351z" />
    <glyph glyph-name="uni0448" unicode="&#x448;" horiz-adv-x="2369" 
d="M1826 1177v-947h-468v947h-354v-947h-475v947h-353v-1177h2003v1177h-353z" />
    <glyph glyph-name="uni0449" unicode="&#x449;" horiz-adv-x="2471" 
d="M1826 1177v-940h-462v940h-353v-940h-477v940h-353v-1177h1821v-184h351v421h-174v940h-353z" />
    <glyph glyph-name="uni044A" unicode="&#x44a;" horiz-adv-x="1684" 
d="M0 1177v-234h274v-943h792q249 0 398 104q157 108 157 309v20q0 195 -145 295q-153 105 -459 105h-393v344h-624zM1269 409q0 -91 -69 -134q-61 -39 -168 -39h-407v361h406q111 0 176 -47q62 -45 62 -120v-21z" />
    <glyph glyph-name="uni044B" unicode="&#x44b;" horiz-adv-x="2369" 
d="M1808 1196v-1196h326v1196h-326zM177 1177v-1177h792q250 0 398 104q156 108 156 309v20q0 196 -143 295q-151 105 -458 105h-394v344h-351zM1171 409q0 -91 -69 -134q-61 -39 -168 -39h-406v361h405q111 0 176 -47q62 -45 62 -120v-21z" />
    <glyph glyph-name="uni044C" unicode="&#x44c;" horiz-adv-x="1608" 
d="M177 1177v-1177h792q250 0 398 104q156 108 156 309v20q0 196 -143 295q-151 105 -458 105h-394v344h-351zM1171 409q0 -91 -69 -134q-61 -39 -168 -39h-406v361h405q111 0 176 -47q62 -45 62 -120v-21z" />
    <glyph glyph-name="uni044D" unicode="&#x44d;" horiz-adv-x="1609" 
d="M1210 493q-20 -126 -123 -204q-113 -85 -284 -85q-172 0 -268 61q-90 57 -123 172h-327q33 -205 189 -326q184 -143 515 -143q380 0 574 168q177 152 177 415v76q0 263 -178 415q-196 167 -573 167q-323 0 -506 -139q-81 -61 -128.5 -144.5t-65.5 -181.5h323
q32 110 121 166q98 62 270 62q174 0 285 -83q100 -76 121 -198h-562v-198h563z" />
    <glyph glyph-name="uni044E" unicode="&#x44e;" horiz-adv-x="2450" 
d="M528 0v473h319q27 -234 203 -362q196 -143 548 -143q386 0 580 170q174 154 174 418v65q0 267 -174 419q-195 169 -580 169q-357 0 -549 -143q-175 -130 -202 -363h-319v474h-351v-1177h351zM1195 624q0 150 94 243q107 105 309 105t309 -105q93 -94 93 -244v-68
q0 -153 -95 -247q-106 -104 -307 -104t-308 105q-95 94 -95 245v70z" />
    <glyph glyph-name="uni044F" unicode="&#x44f;" horiz-adv-x="1585" 
d="M1088 390v-390h344v1177h-774q-251 0 -383 -90q-142 -96 -142 -288v-42q0 -106 68 -185q62 -72 169 -117q-63 -29 -96 -75q-31 -43 -55 -128l-26 -97q-22 -85 -83 -155h368q14 16 20 25q12 18 31 69q3 8 9.5 25.5t9.5 26.5l27 82q29 96 118 129q64 24 212 33h183z
M485 786q0 87 69 129q59 36 151 36h383v-336h-375q-111 0 -169.5 40.5t-58.5 118.5v12z" />
    <glyph glyph-name="uni0451" unicode="&#x451;" horiz-adv-x="1587" 
d="M378 1424q0 -61 41 -90t130 -29q99 0 140 29q40 29 40 90q0 63 -40 92q-42 30 -140 30q-89 0 -130 -29.5t-41 -92.5zM908 1424q0 -61 41.5 -90t130.5 -29q98 0 139 29q40 29 40 90q0 63 -40 92q-42 30 -139 30q-60 0 -98 -13t-56 -40t-18 -69zM1515 504l3 25q1 8 1 28
q18 304 -157 476q-182 176 -530 176q-382 0 -575 -166q-176 -151 -176 -417v-52q0 -283 174 -437q190 -169 582 -169q307 0 481 131q143 108 183 286l-326 1q-19 -74 -99 -128q-98 -65 -246 -65q-196 0 -301 97q-92 85 -97 214h1083zM432 710q10 112 89 189q105 101 299 101
q183 0 276 -85q81 -74 89 -212v-5h-753v12z" />
    <glyph glyph-name="uni0452" unicode="&#x452;" horiz-adv-x="1805" 
d="M1615 864q31 -107 31 -279v-462q0 -175 -34 -280q-42 -129 -139 -192q-109 -71 -293 -71q-117 0 -223 23q-75 15 -137 39l33 209q39 -14 83 -22q69 -13 151 -13q134 0 177 80q19 36 25 89t6 140v452q0 112 -20 186q-27 99 -94 149q-82 61 -223 61q-66 0 -125.5 -18
t-106 -48t-84.5 -72q-55 -60 -85 -135t-30 -149v-551h-351v1271h-151v187h151v110h351v-110h321v-187h-321v-301q61 78 143 131.5t179.5 80.5t207.5 27q252 0 396 -103q116 -85 162 -242z" />
    <glyph glyph-name="uni0453" unicode="&#x453;" horiz-adv-x="1334" 
d="M851 1573l-250 -278h263l322 278h-335zM525 2v936h770v239h-1121v-1177z" />
    <glyph glyph-name="uni0454" unicode="&#x454;" horiz-adv-x="1595" 
d="M974 493v198h-563q21 122 122 198q111 83 285 83q172 0 271 -62q88 -56 120 -166h323q-38 208 -194 326q-183 139 -506 139q-376 0 -572 -167q-179 -153 -179 -415v-76q0 -263 177 -415q194 -168 574 -168q331 0 515 143q156 121 189 326h-327q-33 -115 -123 -172
q-96 -61 -268 -61q-173 0 -284 85q-104 78 -124 204h564z" />
    <glyph glyph-name="uni0455" unicode="&#x455;" horiz-adv-x="1482" 
d="M1406 356q0 68 -19.5 119t-56 86t-92.5 61q-74 34 -180.5 53t-291.5 40q-168 18 -225 46q-58 27 -58 88q0 67 69.5 102t206.5 35q173 0 250 -57q49 -37 60 -103h303q-13 169 -156 269q-165 114 -475 114q-323 0 -478 -106q-133 -91 -133 -256q0 -84 32 -145.5t101 -105.5
q133 -86 458 -116q54 -5 75.5 -7t59.5 -6.5t62.5 -9.5t45.5 -11q89 -28 89 -107q0 -68 -72 -108q-83 -47 -247 -46q-170 1 -253 59q-72 48 -87 138h-304q28 -181 163 -284q167 -129 488 -130q332 -1 507 115q79 52 118.5 122.5t39.5 150.5z" />
    <glyph glyph-name="uni0456" unicode="&#x456;" horiz-adv-x="705" 
d="M141 1460q0 -65 49 -102q55 -42 160 -42q106 0 162 41q48 35 48 102v3q0 65 -48 102q-55 42 -162 42q-105 0 -160 -42q-49 -37 -49 -102v-2zM528 0v1177h-352v-1177h352z" />
    <glyph glyph-name="uni0457" unicode="&#x457;" horiz-adv-x="705" 
d="M-93 1425q0 -61 41 -90t130 -29q99 0 140 29q40 29 40 90q0 63 -40 92q-42 30 -140 30q-60 0 -97.5 -13t-55.5 -40t-18 -69zM437 1425q0 -61 41.5 -90t130.5 -29q98 0 139 29q40 29 40 90q0 63 -40 92q-42 30 -139 30q-90 0 -131 -29.5t-41 -92.5zM528 0v1177h-352v-1177
h352z" />
    <glyph glyph-name="uni0458" unicode="&#x458;" horiz-adv-x="706" 
d="M151 1460q0 -65 49 -102q55 -42 161 -42q107 0 161 41q48 36 48 102v3q0 65 -48 102q-55 42 -162 42q-105 0 -160 -42q-49 -37 -49 -102v-2zM187 1177v-1054q0 -87 -6 -139.5t-25 -88.5q-22 -41 -64 -61t-113 -20q-128 0 -234 30l-32 -203q60 -25 136 -40
q110 -22 223 -22q184 0 293 71q97 63 139 192q34 105 34 279v1056h-351z" />
    <glyph glyph-name="uni0459" unicode="&#x459;" horiz-adv-x="2697" 
d="M296 1177v-640q0 -89 -10 -147.5t-37 -96.5q-57 -81 -225 -81v-242q180 0 300 34t192 106q69 69 99.5 178t30.5 267v374h706v-929h741q249 0 398 104q157 108 157 309v20q0 196 -143 295q-151 105 -458 105h-344v344h-1407zM2296 409q0 -91 -69 -134q-60 -39 -168 -39
h-356v361h355q111 0 176 -47q62 -45 62 -120v-21z" />
    <glyph glyph-name="uni045A" unicode="&#x45a;" horiz-adv-x="2649" 
d="M525 0v454h772v-454h742q250 0 398 104q156 108 156 309v20q0 196 -143 295q-151 105 -457 105h-344v344h-352v-474h-772v474h-351v-1177h351zM2241 409q0 -90 -68 -134q-59 -39 -168 -39h-356v361h354q111 0 177 -47q61 -44 61 -120v-21z" />
    <glyph glyph-name="uni045B" unicode="&#x45b;" horiz-adv-x="1863" 
d="M553 0v550q0 74 30.5 149.5t85.5 135.5q59 64 140.5 101t179.5 37q206 0 285 -128q55 -89 55 -269v-576h351v583q0 172 -31 279q-48 159 -164 243q-143 104 -398 104q-166 0 -303.5 -62t-230.5 -179v301h272v194h-272v105h-351v-105h-192v-194h192v-1269h351z" />
    <glyph glyph-name="uni045C" unicode="&#x45c;" horiz-adv-x="1657" 
d="M944 1540l-250 -278h263l322 278h-335zM176 1177v-1177h351v490h277l401 -490h415l-538 600l471 577h-400l-335 -443h-291v443h-351z" />
    <glyph glyph-name="uni045E" unicode="&#x45e;" horiz-adv-x="1519" 
d="M967 1568q-13 -76 -46 -110q-47 -49 -149 -49q-101 0 -150 51q-34 35 -49 108h-200q9 -132 88 -210q99 -99 311 -99q209 0 307 98q76 76 89 211h-201zM1155 1177l-401 -932l-392 932h-377l577 -1177h91l-23 -59q-63 -149 -223 -243l124 -171q108 36 199 118
q109 99 175 241l627 1291h-377z" />
    <glyph glyph-name="uni045F" unicode="&#x45f;" horiz-adv-x="1801" 
d="M169 0h560v-184h325v184h521v1177h-352v-940h-703v940h-351v-1177z" />
    <glyph glyph-name="uni0462" unicode="&#x462;" horiz-adv-x="1736" 
d="M1456 873q172 -104 172 -344v-88q0 -237 -172 -343q-156 -98 -459 -98h-794v1327h-186v187h823v-187h-277v-361h405q333 0 488 -93zM1296 469v25q0 112 -62 162q-66 53 -234 53h-437v-449h457q149 0 216 56q60 50 60 153z" />
    <glyph glyph-name="uni0463" unicode="&#x463;" horiz-adv-x="1639" 
d="M844 1225v204h-326v133h-322v-133h-206v-204h206v-1225h730q271 0 414 91q145 93 145 283v72q0 195 -148 290q-141 90 -428 90h-391v399h326zM1163 388q0 -84 -76 -119q-61 -28 -166 -28h-403v344l400 1q245 0 245 -158v-40z" />
    <glyph glyph-name="uni0472" unicode="&#x472;" horiz-adv-x="2004" 
d="M80 689q0 -159 56.5 -290.5t168.5 -226.5q241 -204 694 -204q452 0 695 206q75 63 125 144t74.5 174t24.5 197v133q0 104 -24.5 197t-74.5 174.5t-125 145.5q-243 205 -695 205q-453 0 -694 -204q-112 -95 -168.5 -227t-56.5 -291v-133zM999 1286q253 0 401 -118
q154 -123 154 -342v-143v-11q0 -8 -1 -12l-1030 428q70 97 192 147.5t284 50.5zM999 227q-251 0 -400 118q-49 39 -83 89.5t-52.5 113t-18.5 134.5l-1 144v6l1018 -424q-72 -89 -190.5 -135t-272.5 -46z" />
    <glyph glyph-name="uni0473" unicode="&#x473;" horiz-adv-x="1654" 
d="M76 556q0 -267 175 -419q193 -169 580 -169t581 170q174 154 174 418v65q0 267 -175 419q-195 169 -580 169t-580 -169q-175 -152 -175 -419v-65zM831 972q193 0 299 -96q95 -88 103 -227l-777 121q39 93 129 145q98 57 246 57zM831 204q-191 0 -297 95q-97 87 -105 224
l775 -119q-42 -93 -130 -143q-97 -57 -243 -57z" />
    <glyph glyph-name="uni0474" unicode="&#x474;" horiz-adv-x="1871" 
d="M1508 1513l-551 -1269h-44l-551 1269h-373l707 -1513h478l708 1513h-374z" />
    <glyph glyph-name="uni0475" unicode="&#x475;" horiz-adv-x="1585" 
d="M1189 1177l-378 -947h-37l-378 947h-376l548 -1177h449l549 1177h-377z" />
    <glyph glyph-name="uni0490" unicode="&#x490;" horiz-adv-x="1511" 
d="M1458 1255v435h-319v-177h-933v-1513h360v1255h892z" />
    <glyph glyph-name="uni0491" unicode="&#x491;" horiz-adv-x="1452" 
d="M1383 949q0 81 1 121v121h-1q0 56 1 84v85l-317 2v-171h-868v-1191h324v949h860z" />
    <glyph glyph-name="uni04D9" unicode="&#x4d9;" horiz-adv-x="1587" 
d="M84 672q0 -4 -1 -12.5t-1.5 -12.5t-1 -13.5t-0.5 -14.5q-17 -304 159 -475q179 -176 528 -176q381 0 576 166q176 150 176 416v53q0 283 -173 437q-191 169 -583 169q-306 0 -481 -132q-142 -107 -184 -286h327q19 75 99 128q97 64 246 64q195 0 301 -96q91 -82 96 -215
h-1083zM1167 467q-7 -110 -88 -189q-104 -101 -299 -101q-182 0 -275 85q-83 76 -91 212v5h753v-12z" />
    <glyph glyph-name="Wgrave" unicode="&#x1e80;" horiz-adv-x="2606" 
d="M828 1928l341 -278h257l-273 278h-325zM490 0h442v1l6 -1l350 1106l10 60h10l10 -59l350 -1107h447l481 1513h-372l-319 -1118l-18 -146h-18l-21 145l-353 1119h-383v-1l-1 1l-353 -1118l-22 -146h-17l-17 144l-321 1120h-372z" />
    <glyph glyph-name="wgrave" unicode="&#x1e81;" horiz-adv-x="2399" 
d="M728 1586l341 -278h257l-273 278h-325zM2001 1177l-251 -953h-39l-294 953h-435l-293 -953h-40l-251 953h-366l381 -1177h489l289 920h17l290 -920h488l381 1177h-366z" />
    <glyph glyph-name="Wacute" unicode="&#x1e82;" horiz-adv-x="2606" 
d="M1422 1928l-250 -278h263l322 278h-335zM490 0h442v1l6 -1l350 1106l10 60h10l10 -59l350 -1107h447l481 1513h-372l-319 -1118l-18 -146h-18l-21 145l-353 1119h-383v-1l-1 1l-353 -1118l-22 -146h-17l-17 144l-321 1120h-372z" />
    <glyph glyph-name="wacute" unicode="&#x1e83;" horiz-adv-x="2399" 
d="M1322 1586l-250 -278h263l322 278h-335zM2001 1177l-251 -953h-39l-294 953h-435l-293 -953h-40l-251 953h-366l381 -1177h489l289 920h17l290 -920h488l381 1177h-366z" />
    <glyph glyph-name="Wdieresis" unicode="&#x1e84;" horiz-adv-x="2606" 
d="M856 1772q0 -61 41 -90t130 -29q99 0 140 29q40 29 40 90q0 63 -40 92q-42 30 -140 30q-60 0 -97.5 -13t-55.5 -40t-18 -69zM1386 1772q0 -61 41.5 -90t130.5 -29q98 0 139 29q40 29 40 90q0 63 -40 92q-42 30 -139 30q-90 0 -131 -29.5t-41 -92.5zM490 0h442v1l6 -1
l350 1106l10 60h10l10 -59l350 -1107h447l481 1513h-372l-319 -1118l-18 -146h-18l-21 145l-353 1119h-383v-1l-1 1l-353 -1118l-22 -146h-17l-17 144l-321 1120h-372z" />
    <glyph glyph-name="wdieresis" unicode="&#x1e85;" horiz-adv-x="2399" 
d="M756 1430q0 -41 18 -67t55.5 -39t97.5 -13q99 0 140 29q40 29 40 90q0 63 -40 92q-42 30 -140 30q-89 0 -130 -29.5t-41 -92.5zM1286 1430q0 -61 41.5 -90t130.5 -29q98 0 139 29q40 29 40 90q0 63 -40 92q-42 30 -139 30q-90 0 -131 -29.5t-41 -92.5zM2001 1177
l-251 -953h-39l-294 953h-435l-293 -953h-40l-251 953h-366l381 -1177h489l289 920h17l290 -920h488l381 1177h-366z" />
    <glyph glyph-name="uni1E9E" unicode="&#x1e9e;" horiz-adv-x="1760" 
d="M849 726h62q201 0 289 -57q78 -52 78 -164v-23q0 -120 -76 -177q-88 -66 -291 -66v-258q417 0 589 131q77 59 110 144t33 196v45q0 172 -101 270q-104 100 -324 136l377 340v270h-699q-305 0 -469 -75q-144 -66 -201 -197q-43 -100 -43 -276v-965h358v905q0 94 10 154
t42 102q24 31 61 51.5t95.5 32t139.5 11.5h301l-341 -308v-222z" />
    <glyph glyph-name="Ygrave" unicode="&#x1ef2;" horiz-adv-x="1754" 
d="M404 1923l341 -278h257l-273 278h-325zM1794 1513h-411l-506 -712l-507 712h-411l738 -980v-533h360v533z" />
    <glyph glyph-name="ygrave" unicode="&#x1ef3;" horiz-adv-x="1586" 
d="M311 1585l341 -278h257l-273 278h-325zM1189 1177l-401 -932l-392 932h-377l577 -1177h91l-23 -59q-63 -149 -223 -243l124 -171q108 36 199 118q109 99 175 241l627 1291h-377z" />
    <glyph glyph-name="figuredash" unicode="&#x2012;" horiz-adv-x="1263" 
d="M1147 479v223h-1007v-223h1007z" />
    <glyph glyph-name="endash" unicode="&#x2013;" horiz-adv-x="1676" 
d="M1594 477v222h-1505v-222h1505z" />
    <glyph glyph-name="emdash" unicode="&#x2014;" horiz-adv-x="2624" 
d="M2438 477v223h-2259v-223h2259z" />
    <glyph glyph-name="quoteleft" unicode="&#x2018;" horiz-adv-x="567" 
d="M204 1591q-30 -57 -52 -110t-34.5 -94.5t-18 -73.5t-5.5 -56v-229h382v244h-55q-70 0 -62 93q6 76 61 201z" />
    <glyph glyph-name="quoteright" unicode="&#x2019;" horiz-adv-x="560" 
d="M369 952q39 76 64.5 144t35 113t9.5 78v226h-383v-241h55q70 0 63 -93q-6 -80 -60 -202z" />
    <glyph glyph-name="quotesinglbase" unicode="&#x201a;" horiz-adv-x="690" 
d="M432 -305q108 207 108 334v226h-381v-241h55q70 0 63 -93q-6 -77 -61 -202z" />
    <glyph glyph-name="quotedblleft" unicode="&#x201c;" horiz-adv-x="1116" 
d="M736 1597q-39 -76 -64.5 -144t-34.5 -112.5t-9 -77.5v-229h381v243h-55q-70 0 -63 93q5 74 62 201zM231 1595q-110 -211 -110 -334v-227h382v241h-55q-70 0 -62 93q6 77 61 202z" />
    <glyph glyph-name="quotedblright" unicode="&#x201d;" horiz-adv-x="1098" 
d="M393 952q39 75 64.5 143t35 113t9.5 78v227h-382v-242h55q70 0 63 -92q-6 -79 -60 -203zM865 953q110 211 110 334v226h-382v-241h54q71 0 64 -93q-7 -78 -62 -202z" />
    <glyph glyph-name="quotedblbase" unicode="&#x201e;" horiz-adv-x="1165" 
d="M417 -305q108 207 108 334v226h-382v-241h56q70 0 63 -93q-7 -78 -62 -202zM902 -305q108 208 108 334v226h-382v-241h55q70 0 63 -93q-6 -80 -60 -202z" />
    <glyph glyph-name="dagger" unicode="&#x2020;" horiz-adv-x="1487" 
d="M1374 825v245h-482v448h-324v-448h-482v-245h482v-1171h324v1171h482z" />
    <glyph glyph-name="daggerdbl" unicode="&#x2021;" horiz-adv-x="1486" 
d="M1374 825v245h-482v448h-324v-448h-483v-245h483v-388h-445v-248h445v-534h324v534h445v248h-445v388h482z" />
    <glyph glyph-name="bullet" unicode="&#x2022;" horiz-adv-x="795" 
d="M624 684q0 89 -61 148q-62 59 -152 59q-87 0 -151 -59q-63 -60 -63 -148q0 -87 63 -145q63 -60 151 -60q90 0 152 60q61 58 61 145z" />
    <glyph glyph-name="ellipsis" unicode="&#x2026;" horiz-adv-x="2254" 
d="M199 117q0 -47 21.5 -77t66.5 -45t116 -15q115 0 165 34q47 32 47 103q0 73 -48.5 106t-163.5 33q-53 0 -91.5 -8t-63.5 -25.5t-37 -43.5t-12 -62zM915 117q0 -70 49 -103.5t154 -33.5q115 0 165 34q47 32 47 103q0 73 -48.5 106t-163.5 33q-71 0 -115.5 -15t-66 -45.5
t-21.5 -78.5zM1628 117q0 -70 49 -103.5t154 -33.5q116 0 166 34q47 32 47 103q0 73 -47 105q-50 34 -166 34q-71 0 -115.5 -15t-66 -45.5t-21.5 -78.5z" />
    <glyph glyph-name="perthousand" unicode="&#x2030;" horiz-adv-x="3979" 
d="M102 978q0 -124 43 -217q50 -111 157 -171q119 -70 310 -70q193 0 312 68q105 60 154 172q41 93 41 225v89q0 137 -40 229q-49 112 -153 172q-120 68 -314 68q-283 0 -409 -144q-101 -116 -101 -324v-97zM2052 1522h-317l-990 -1522h318zM612 722q-130 0 -191 90
q-45 67 -45 172v110q0 100 40 161q56 87 196 87q139 0 194 -88q38 -61 38 -163v-121q0 -106 -44 -167q-57 -81 -188 -81zM1690 426q0 -193 105 -312q129 -146 406 -146q279 0 405 144q102 117 102 321v90q0 209 -100 325q-125 143 -407 143q-195 0 -315 -68
q-105 -59 -154 -172q-42 -97 -42 -228v-97zM2856 426q0 -124 43 -217q50 -111 157 -171q119 -70 310 -70q193 0 312 68q105 60 154 172q41 93 41 225v90q0 209 -100 325q-125 143 -407 143q-283 0 -409 -144q-101 -116 -101 -324v-97zM2201 170q-130 0 -191 90
q-45 67 -45 172v110q0 101 40 162q56 87 196 87q139 0 194 -88q38 -61 38 -164v-120q0 -107 -44 -168q-57 -81 -188 -81zM3366 170q-130 0 -191 90q-45 67 -45 172v110q0 102 40 162q56 87 196 87q138 0 195 -88q38 -60 38 -164v-120q0 -107 -44 -168q-57 -81 -189 -81z" />
    <glyph glyph-name="guilsinglleft" unicode="&#x2039;" horiz-adv-x="934" 
d="M815 187l-400 403l400 404h-330l-389 -404l389 -403h330z" />
    <glyph glyph-name="guilsinglright" unicode="&#x203a;" horiz-adv-x="855" 
d="M422 187l388 403l-388 404h-330l399 -404l-399 -403h330z" />
    <glyph glyph-name="fraction" unicode="&#x2044;" horiz-adv-x="923" 
d="M1148 1491l-224 136l-1101 -1543l233 -135z" />
    <glyph glyph-name="uni2070" unicode="&#x2070;" horiz-adv-x="1318" 
d="M151 1278q0 -124 43 -217q50 -111 157 -171q119 -70 310 -70q193 0 312 68q106 60 154 172q41 93 41 225v89q0 210 -99 325q-126 144 -408 144q-283 0 -409 -144q-101 -116 -101 -324v-97zM661 1022q-129 0 -190 90q-45 67 -45 172v110q0 98 43 161q59 87 192 87
q134 0 191 -88q42 -65 42 -163v-121q0 -104 -47 -167q-59 -81 -186 -81z" />
    <glyph glyph-name="uni2074" unicode="&#x2074;" horiz-adv-x="1183" 
d="M411 1822l-362 -681v-151h655v-149h285v149h152v216h-152v257h-285v-257h-326l326 616h-293z" />
    <glyph glyph-name="uni2075" unicode="&#x2075;" horiz-adv-x="1194" 
d="M1107 1174q0 158 -80 233q-97 91 -337 91q-112 0 -183 -19q-63 -17 -108 -48l13 190h618v201h-888l-33 -575h287v15q25 28 81.5 45.5t139.5 17.5q118 0 165 -39q37 -32 37 -101q0 -29 -2.5 -49t-11 -40t-23.5 -33q-48 -45 -183 -45q-111 0 -161 29q-41 24 -41 70v18h-288
v-10q0 -153 111 -228q119 -81 379 -81q279 0 394 82q40 28 65 67.5t37 91t12 117.5z" />
    <glyph glyph-name="uni2076" unicode="&#x2076;" horiz-adv-x="1229" 
d="M104 1195q0 -107 30 -176q40 -93 141 -140q121 -58 330 -58q211 0 335 45q107 39 149 117q33 60 33 161v17q0 105 -19 159q-28 78 -111 117q-98 45 -284 45q-234 0 -317 -104v70q0 85 31 130q50 71 181 71q78 0 118 -10q42 -11 63 -27q13 -10 19.5 -24t7.5 -23.5t1 -25.5
v-17h278v22q0 91 -28 146q-39 72 -137 110q-115 43 -322 43q-200 0 -322 -66q-102 -57 -144 -159q-33 -80 -33 -190v-233zM625 1285q133 0 182 -42q18 -17 23 -38.5t5 -52.5v-9q0 -31 -7.5 -52t-28.5 -36q-49 -35 -188 -35q-138 0 -188 45q-32 26 -32 76v16q0 59 40 88
q53 40 194 40z" />
    <glyph glyph-name="uni2077" unicode="&#x2077;" horiz-adv-x="1104" 
d="M1045 1628v194h-978v-301h267v83h392l-479 -763h313z" />
    <glyph glyph-name="uni2078" unicode="&#x2078;" horiz-adv-x="1205" 
d="M121 1552q0 -64 23 -110q28 -55 93 -90q-78 -33 -110 -89q-25 -41 -25 -105v-33q0 -147 98 -218q121 -87 403 -87q283 0 401 86q53 39 75 93t22 127v34q0 61 -25 104q-33 56 -111 89q66 35 93 88q24 47 24 107v10q0 136 -93 204q-114 81 -387 81q-268 0 -384 -82
q-97 -69 -97 -205v-4zM603 1443q-74 0 -112 10q-41 9 -60 24q-29 22 -29 69v4q0 41 33 65q47 35 168 35q118 0 165 -32q34 -24 34 -68v-7q0 -18 -4 -33q-8 -40 -83 -57q-39 -10 -112 -10zM603 1262q136 0 185 -39q33 -27 33 -76v-10q0 -56 -42 -85q-52 -35 -176 -35
q-120 0 -175 35q-44 28 -44 84v11q0 48 33 75q50 40 186 40z" />
    <glyph glyph-name="uni2079" unicode="&#x2079;" horiz-adv-x="1223" 
d="M1117 1469q0 107 -30 177q-40 91 -142 140q-122 57 -331 57q-211 0 -333 -45q-104 -38 -149 -116q-34 -60 -34 -162v-17q0 -105 19 -158q28 -79 112 -117q98 -46 284 -46q234 0 316 103v-70q0 -85 -31 -129q-50 -71 -181 -71q-74 0 -118 11q-43 11 -62 27
q-8 6 -13.5 13.5t-8.5 14t-4.5 15t-2 14.5t-0.5 15v17h-278v-22q0 -92 29 -145q37 -73 136 -110q113 -44 322 -44q203 0 324 67q101 55 143 157q33 80 33 190v234zM594 1379q-135 0 -180 42q-19 17 -24 38.5t-5 52.5v9q0 31 7.5 52.5t28.5 36.5q48 34 188 34q136 0 188 -45
q31 -28 31 -76v-16q0 -59 -39 -88q-55 -40 -195 -40z" />
    <glyph glyph-name="uni207D" unicode="&#x207d;" horiz-adv-x="749" 
d="M699 765v201h-73q-143 0 -213 73q-59 60 -59 152v279q0 88 43 143q64 83 228 83h74v200h-92q-224 0 -352 -72q-107 -60 -147 -169q-30 -78 -30 -200v-248q0 -131 37 -214q47 -109 154 -163q125 -65 339 -65h91z" />
    <glyph glyph-name="uni207E" unicode="&#x207e;" horiz-adv-x="743" 
d="M157 765q215 0 339 65q105 54 154 163q36 84 36 214v248q0 121 -29 200q-42 110 -147 169q-128 72 -353 72h-91v-200h74q163 0 228 -83q42 -55 42 -143v-279q0 -93 -58 -152q-70 -73 -213 -73h-73v-201h91z" />
    <glyph glyph-name="uni2080" unicode="&#x2080;" horiz-adv-x="1318" 
d="M151 53q0 -124 43 -217q50 -111 157 -171q119 -70 310 -70q193 0 312 68q106 61 154 172q41 93 41 225v89q0 210 -99 325q-126 144 -408 144q-283 0 -409 -144q-101 -116 -101 -324v-97zM661 -203q-129 0 -190 90q-45 67 -45 172v110q0 98 43 161q59 87 192 87
q134 0 191 -88q42 -65 42 -163v-121q0 -104 -47 -167q-59 -81 -186 -81z" />
    <glyph glyph-name="uni2081" unicode="&#x2081;" horiz-adv-x="851" 
d="M44 264q169 15 315 82v-730h277v981h-231q-63 -39 -155 -78q-101 -42 -206 -64v-191z" />
    <glyph glyph-name="uni2082" unicode="&#x2082;" horiz-adv-x="1197" 
d="M1086 -384v209h-627q9 24 41 49q59 42 179 96q74 34 111 53q131 65 203 130q91 83 91 179q0 138 -114 210q-123 77 -364 77q-264 0 -389 -81q-115 -76 -115 -230v-41h287v35q0 47 38 72q51 34 174 34q109 0 159 -28q44 -26 44 -77q0 -28 -30 -53q-55 -49 -194 -108
q-86 -36 -130 -55q-166 -71 -244 -121q-111 -73 -111 -142v-208h991z" />
    <glyph glyph-name="uni2083" unicode="&#x2083;" horiz-adv-x="1175" 
d="M1072 -111q0 110 -70 169q-61 52 -177 63q108 8 168 56q64 51 64 143q0 151 -115 224q-117 74 -371 74q-273 0 -381 -83q-50 -39 -71 -96t-21 -137v-13l272 1v25q0 55 39 78q45 25 160 25q116 0 164 -28q41 -24 41 -79v-13q0 -51 -66 -76q-55 -20 -163 -20h-90v-170h158
q80 0 123 -20q52 -24 52 -83v-39q0 -54 -57 -73q-59 -21 -162 -21q-132 0 -181 37q-32 24 -32 72v22h-270v-20q0 -168 121 -243q114 -71 364 -71q237 0 363 69q138 74 138 227z" />
    <glyph glyph-name="uni2084" unicode="&#x2084;" horiz-adv-x="1183" 
d="M411 597l-362 -681v-151h655v-149h285v149h152v216h-152v257h-285v-257h-326l326 616h-293z" />
    <glyph glyph-name="uni2085" unicode="&#x2085;" horiz-adv-x="1194" 
d="M1107 -51q0 158 -80 233q-97 91 -337 91q-112 0 -183 -19q-63 -17 -108 -48l13 190h618v201h-888l-33 -575h287v15q25 28 81.5 45.5t139.5 17.5q118 0 165 -39q37 -32 37 -101q0 -29 -2.5 -49t-11 -40t-23.5 -33q-48 -45 -183 -45q-111 0 -161 29q-41 24 -41 70v18h-288
v-10q0 -153 111 -228q119 -81 379 -81q279 0 394 82q59 42 86.5 109t27.5 167z" />
    <glyph glyph-name="uni2086" unicode="&#x2086;" horiz-adv-x="1239" 
d="M104 -29q0 -107 30 -176q40 -93 141 -140q121 -58 330 -58q211 0 335 45q107 39 149 117q33 60 33 161v17q0 105 -19 159q-28 78 -111 117q-98 45 -284 45q-234 0 -317 -104v70q0 85 31 130q50 71 181 71q78 0 118 -10q42 -11 63 -27q18 -15 23 -32t5 -41v-17h278v22
q0 91 -28 146q-39 72 -137 110q-115 43 -322 43q-200 0 -322 -66q-102 -57 -144 -159q-33 -81 -33 -190v-233zM625 61q133 0 182 -42q18 -17 23 -38.5t5 -52.5v-9q0 -31 -7.5 -52t-28.5 -36q-49 -35 -188 -35q-138 0 -188 45q-32 26 -32 76v16q0 59 40 88q53 40 194 40z" />
    <glyph glyph-name="uni2087" unicode="&#x2087;" horiz-adv-x="1104" 
d="M1045 396v194h-978v-301h267v83h392l-479 -763h313z" />
    <glyph glyph-name="uni2088" unicode="&#x2088;" horiz-adv-x="1215" 
d="M121 324q0 -64 23 -110q28 -55 93 -90q-78 -33 -110 -89q-25 -41 -25 -105v-33q0 -147 98 -218q121 -87 403 -87q283 0 401 86q53 39 75 93t22 127v34q0 62 -25 104q-33 56 -111 89q66 35 93 88q24 47 24 107v10q0 136 -93 204q-114 81 -387 81q-268 0 -384 -82
q-97 -69 -97 -205v-4zM602.5 215q-73.5 0 -111.5 10q-41 9 -60 24q-29 22 -29 69v4q0 41 33 65q47 35 168 35q118 0 165 -32q34 -24 34 -68v-7q0 -18 -4 -33q-8 -40 -83 -57q-39 -10 -112.5 -10zM603 34q136 0 185 -39q33 -27 33 -76v-10q0 -56 -42 -85q-53 -35 -176 -35
q-120 0 -175 35q-44 28 -44 84v11q0 48 33 75q50 40 186 40z" />
    <glyph glyph-name="uni2089" unicode="&#x2089;" horiz-adv-x="1239" 
d="M1117 244q0 107 -30 177q-40 91 -142 140q-122 57 -331 57q-211 0 -333 -45q-104 -38 -149 -116q-34 -60 -34 -162v-17q0 -105 19 -158q28 -79 112 -117q98 -46 284 -46q234 0 316 103v-70q0 -85 -31 -129q-50 -71 -181 -71q-74 0 -118 11q-43 11 -62 27q-10 8 -16.5 17
t-9 19t-3 17.5t-0.5 18.5v17h-278v-22q0 -92 29 -145q37 -73 136 -110q113 -44 322 -44q203 0 324 67q101 55 143 157q33 81 33 190v234zM594 154q-135 0 -180 42q-13 12 -20 28.5t-8 29t-1 33.5v9q0 31 7.5 52.5t28.5 36.5q48 34 188 34q136 0 188 -45q31 -28 31 -76v-16
q0 -59 -39 -88q-55 -40 -195 -40z" />
    <glyph glyph-name="uni208D" unicode="&#x208d;" horiz-adv-x="737" 
d="M699 -460v201h-73q-143 0 -213 73q-59 60 -59 152v279q0 88 43 143q64 83 228 83h74v200h-92q-224 0 -352 -72q-107 -60 -147 -169q-30 -78 -30 -200v-248q0 -131 37 -214q47 -109 154 -163q125 -65 339 -65h91z" />
    <glyph glyph-name="uni208E" unicode="&#x208e;" horiz-adv-x="731" 
d="M157 -456q215 0 339 65q105 54 154 163q36 84 36 214v248q0 121 -29 200q-42 110 -147 169q-128 72 -353 72h-91v-200h74q163 0 228 -83q42 -55 42 -143v-279q0 -93 -58 -152q-70 -73 -213 -73h-73v-201h91z" />
    <glyph glyph-name="lira" unicode="&#x20a4;" horiz-adv-x="1520" 
d="M501 1103q0 87 75 133q83 51 244 51q153 0 233 -67q67 -58 65 -152l304 1q-2 221 -131 337q-154 138 -490 138q-324 0 -490 -98q-173 -101 -173 -294q0 -131 58 -252h-108v-156h200q33 -52 56 -105h-256v-157h273q-13 -82 -69 -142t-165 -107v-236l115 9q130 10 208 10
q104 0 330 -23q214 -24 321 -24q196 0 362 94l-98 214q-76 -32 -145 -48q-69 -17 -159 -17q-69 0 -132 12l-125 21q-153 24 -260 -4q129 88 160 241h383v157h-382q-13 51 -42 105h424v156h-518q-68 112 -68 203z" />
    <glyph glyph-name="Euro" unicode="&#x20ac;" horiz-adv-x="2003" 
d="M1575 570l357 -1q-19 -126 -79 -234.5t-161 -188.5q-229 -178 -613 -178q-450 0 -688 203q-170 145 -210 373h-159l26 151h120v117h-146l26 151h132q40 233 211 379q238 203 689 203q379 0 602 -169q207 -160 249 -436h-356q-35 162 -162 253q-132 93 -336 93
q-246 0 -394 -119q-99 -80 -133 -204h612l-25 -151h-605l1 -117h629l-25 -151h-586q36 -122 134 -200q146 -117 391 -117q206 0 340 97q121 89 159 246z" />
    <glyph glyph-name="uni2116" unicode="&#x2116;" horiz-adv-x="3196" 
d="M2050 968q0 -193 106 -307q130 -140 407 -140q282 0 407 138q101 112 101 315v114q0 135 -40 226q-49 108 -154 166q-122 64 -314 64q-285 0 -411 -138q-102 -111 -102 -317v-121zM1802 0v1513h-359l8 -1066h-8l-867 1066h-373v-1513h360l-9 1051h6l873 -1051h369z
M2563 723q-131 0 -192 85q-46 61 -46 165v134q0 94 44 156q59 81 194 81q133 0 192 -82q42 -58 42 -157v-144q0 -104 -47 -163q-58 -75 -187 -75zM3104 200v223h-1065v-223h1065z" />
    <glyph glyph-name="trademark" unicode="&#x2122;" horiz-adv-x="2542" 
d="M1005 1311v202h-1011v-202h366v-726h279v726h366zM1640 717h261l229 511h41l-18 -643h273v927h-386l-257 -553h-28l-254 553h-387v-927h274l-20 643h42z" />
    <glyph glyph-name="uni2126" unicode="&#x2126;" horiz-adv-x="1796" 
d="M765 0v450q-167 38 -244 152q-61 89 -61 212v103q0 29 4.5 57t13.5 55t22.5 52t31 48t39.5 43q120 110 327 110q212 0 332 -113q53 -51 80 -116t27 -136v-99q0 -114 -59 -207q-79 -125 -247 -161v-450h606v259l-326 -1l2 53q191 66 292 206q96 132 96 314v104
q0 153 -85 285q-93 145 -264 228q-191 93 -453 93q-264 0 -453 -92q-172 -83 -265 -227q-86 -133 -86 -287v-103q0 -185 97.5 -318.5t290.5 -201.5l3 -54l-327 1v-259h606z" />
    <glyph glyph-name="partialdiff" unicode="&#x2202;" horiz-adv-x="1585" 
d="M680 1296q11 0 22 1q9 0 35.5 0.5t42.5 0.5h42q173 0 242 -86q55 -72 55 -225v-10q-53 75 -153 116q-116 45 -289 45q-233 0 -372 -75q-119 -66 -172 -194q-42 -102 -42 -260v-96q0 -156 53 -263q62 -128 203 -194q158 -76 422 -76q277 0 441 86q139 72 195 202
q43 100 43 240v455q0 202 -39 309q-51 134 -175 200q-134 71 -390 71h-68h-45h-29q-7 -1 -20 -1zM748 891q153 0 253 -65q118 -76 118 -229v-74q0 -152 -74 -220q-82 -76 -276 -76q-203 0 -285 92q-63 69 -63 209v65q0 152 69 221q77 77 258 77z" />
    <glyph glyph-name="uni2206" unicode="&#x2206;" horiz-adv-x="1886" 
d="M1889 0l-712 1513h-467l-712 -1513h1891zM919 1257h49l441 -1011h-932z" />
    <glyph glyph-name="product" unicode="&#x220f;" horiz-adv-x="1774" 
d="M546 -184v1439h682v-1439h359v1697h-1400v-1697h359z" />
    <glyph glyph-name="summation" unicode="&#x2211;" horiz-adv-x="1665" 
d="M1110 622l-550 633h962v258h-1371v-231l610 -708l-618 -709v-231h1401v258h-959l525 633v97z" />
    <glyph glyph-name="minus" unicode="&#x2212;" horiz-adv-x="1719" 
d="M1423 592v223h-1128v-223h1128z" />
    <glyph glyph-name="approxequal" unicode="&#x2248;" horiz-adv-x="1390" 
d="M1177 920q-62 -50 -114 -72t-109 -22q-18 0 -34.5 1t-37 5.5t-30.5 6t-36 9t-30.5 9t-35.5 12t-32 10.5q-49 16 -83 25.5t-86.5 18t-103.5 8.5q-97 0 -180 -50q-66 -39 -170 -143l107 -107q60 52 119 74t129 22q41 0 83 -8q71 -15 149 -44q47 -17 78 -25q96 -28 194 -28
q94 0 175 50q63 40 151 136zM1177 475q-62 -50 -114 -72t-109 -22q-40 0 -85 9t-69.5 17t-81.5 27q-74 25 -136.5 39t-136.5 14q-94 0 -180 -50q-63 -37 -170 -144l107 -106q59 52 119 74t129 22q41 0 83 -8q71 -15 149 -44q47 -17 78 -25q96 -28 194 -28q94 0 175 50
q63 39 151 136z" />
    <glyph glyph-name="notequal" unicode="&#x2260;" horiz-adv-x="1366" 
d="M1200 717h-311l-125 -213h436v-223h-566l-120 -206l-221 84l71 122h-201v223h331l124 213h-455v223h585l113 193l222 -83l-64 -110h181v-223z" />
    <glyph glyph-name="lessequal" unicode="&#x2264;" horiz-adv-x="1292" 
d="M1105 294v267l-582 240l582 240v268l-935 -404v-208zM1148 18v185h-997v-185h997z" />
    <glyph glyph-name="greaterequal" unicode="&#x2265;" horiz-adv-x="1292" 
d="M1128 697v208l-935 404v-268l583 -240l-583 -240v-267zM1148 18v185h-997v-185h997z" />
    <glyph glyph-name="uniF6C3" unicode="&#xf6c3;" horiz-adv-x="0" 
d="M-586 -177q0 -36 19.5 -59.5t58 -35t98.5 -11.5q-12 -45 -30 -69q-21 -28 -72 -71l138 -52q66 47 103 103q51 75 51 173q0 65 -45 98t-145 33q-91 0 -133.5 -25t-42.5 -84z" />
    <glyph glyph-name="uniF6C9" unicode="&#xf6c9;" horiz-adv-x="775" 
d="M90 689q0 -236 118 -403v-286h360v31q191 -63 433 -63q449 0 690 206q112 95 167.5 226t55.5 289v134q0 158 -55.5 290t-166.5 227q-240 205 -690 205q-245 0 -434 -64v32h-360v-287q-118 -167 -118 -403v-134zM1001 227q-140 0 -250.5 39t-182.5 114v753q48 50 113.5 84
t146 51.5t173.5 17.5q250 0 397 -117q152 -122 152 -341v-147q0 -214 -152 -336q-149 -118 -397 -118z" />
    <glyph glyph-name="uniF6E1" unicode="&#xf6e1;" horiz-adv-x="803" 
d="M190 -252q0 -137 201 -137q-11 -51 -33 -86q-25 -40 -82 -88l157 -65q77 60 120 132q56 94 56 217q0 81 -48 122q-55 45 -166 45q-105 0 -155 -34t-50 -106z" />
    <glyph glyph-name="uniF6E2" unicode="&#xf6e2;" horiz-adv-x="712" 
d="M145 963q0 -137 200 -137q-11 -51 -33 -86q-24 -40 -82 -89l158 -65q78 61 119 133q57 100 57 216q0 81 -49 122q-56 45 -166 45q-105 0 -154.5 -33.5t-49.5 -105.5z" />
    <glyph glyph-name="uniF6E5" unicode="&#xf6e5;" horiz-adv-x="960" 
d="M901 2v190h-854v-190h854z" />
    <glyph glyph-name="uniF6E6" unicode="&#xf6e6;" horiz-adv-x="948" 
d="M901 1231v190h-854v-190h854z" />
    <glyph glyph-name="uniF6E7" unicode="&#xf6e7;" horiz-adv-x="823" 
d="M199 -287q0 -70 49.5 -103.5t154.5 -33.5q115 0 165 34q47 32 47 103q0 73 -48.5 106.5t-163.5 33.5q-71 0 -116 -15t-66.5 -46t-21.5 -79z" />
    <glyph glyph-name="uniF6E8" unicode="&#xf6e8;" horiz-adv-x="731" 
d="M153 955q0 -70 49.5 -103.5t154.5 -33.5q78 0 125 15t67.5 44.5t20.5 77.5q0 73 -49 106t-164 33q-106 0 -155 -33.5t-49 -105.5z" />
    <glyph glyph-name="uniF6F9" unicode="&#xf6f9;" horiz-adv-x="1360" 
d="M177 1177v-501l-125 -59v-224l125 60v-453h1095v239h-744v342l130 61v223l-130 -61v373h-351z" />
    <glyph glyph-name="uniF6FA" unicode="&#xf6fa;" horiz-adv-x="2495" 
d="M2381 951h-806v-236q2 -14 2 -20h605v-208h-604l-3 -25v-236h806v-226h-1152v32q-166 -64 -398 -64q-384 0 -577 169q-173 151 -173 419v66q0 268 173 419q194 168 577 168q233 0 398 -64v32h1152v-226zM1135 308q94 94 94 246v70q0 150 -93 243q-105 105 -305 105
q-201 0 -306 -105q-93 -93 -93 -243v-70q0 -151 95 -245q105 -105 304 -105q200 0 304 104z" />
    <glyph glyph-name="uniF6FD" unicode="&#xf6fd;" horiz-adv-x="1478" 
d="M361 1532l272 -243h322l273 243h-286l-147 -137l-148 137h-286zM1406 356q0 100 -42.5 163.5t-128.5 102.5q-75 34 -182 53t-292 40q-171 18 -231 45q-63 28 -63 89q-1 67 68 102q70 35 218 35q173 0 251 -57q48 -37 59 -103h304q-25 169 -162 267q-163 116 -469 116
q-323 0 -483 -106q-139 -92 -139 -256q0 -84 33.5 -145.5t105.5 -105.5q137 -86 463 -116q187 -17 245 -34q92 -28 92 -107q0 -68 -72 -108q-83 -47 -247 -46q-170 1 -253 59q-72 48 -87 138h-304q28 -181 163 -284q167 -129 488 -130q332 -1 507 115q79 52 118.5 122.5
t39.5 150.5z" />
    <glyph glyph-name="uniF6FF" unicode="&#xf6ff;" horiz-adv-x="1473" 
d="M334 1538l272 -243h322l273 243h-286l-147 -137l-148 137h-286zM1372 0v236h-873l862 732l3 209h-1214v-236h806l-860 -731v-210h1276z" />
    <glyph glyph-name="uniF730" unicode="&#xf730;" horiz-adv-x="1620" 
d="M77 543q0 -254 166 -403q190 -172 567 -172q376 0 568 172q165 149 165 403v92q0 253 -166 403q-189 171 -567 171t-567 -171q-166 -150 -166 -403v-92zM429 637q0 147 89 236q101 99 292 99q192 0 295 -101q89 -88 89 -235v-93q0 -152 -93 -241q-103 -98 -291 -98
q-191 0 -291 100q-90 90 -90 238v95z" />
    <glyph glyph-name="uniF731" unicode="&#xf731;" horiz-adv-x="1257" 
d="M935 0v1177h-307q-90 -66 -223 -115q-153 -56 -328 -73v-230q148 8 288 43q153 39 219 87v-889h351z" />
    <glyph glyph-name="uniF732" unicode="&#xf732;" horiz-adv-x="1575" 
d="M1454 0v231h-917q11 32 54 60q77 48 257 110q69 23 165 59q204 77 302 149q135 99 135 225q0 177 -147 272q-159 103 -489 103q-359 0 -525 -120q-144 -105 -144 -300v-32h322v22q0 90 58 132q80 58 289 58q159 0 228 -47q54 -38 54 -109q0 -36 -37 -66
q-69 -57 -242 -115q-31 -11 -90.5 -31.5t-75.5 -26.5q-218 -76 -326 -135q-158 -86 -190 -188v-251h1319z" />
    <glyph glyph-name="uniF733" unicode="&#xf733;" horiz-adv-x="1544" 
d="M1467 147q0 136 -82 215q-88 85 -273 114q168 25 246 90q93 76 93 224v9q0 410 -678 410q-348 0 -514 -116q-153 -109 -153 -321v-34h328v22q0 94 86.5 144t250.5 50q145 0 224 -36q97 -44 97 -145q0 -182 -330 -182h-145v-244h147q164 0 248 -36q96 -42 96 -131v-38
q0 -109 -86 -155q-78 -41 -255 -41q-169 0 -259 47.5t-90 132.5v33h-326v-36q0 -210 172.5 -321t502.5 -111q377 0 542 109q82 55 120 138.5t38 201.5v7z" />
    <glyph glyph-name="uniF734" unicode="&#xf734;" horiz-adv-x="1649" 
d="M563 1177l-483 -1006v-171h898v-225h352v225h230v254h-230v336h-352v-336h-493l454 923h-376z" />
    <glyph glyph-name="uniF735" unicode="&#xf735;" horiz-adv-x="1564" 
d="M1495 226q0 238 -152 355q-147 112 -437 112q-144 0 -256 -19.5t-170 -53.5l23 308h885v249h-1228l-49 -843h326l1 23q33 46 139 67q92 17 227 17q188 0 267 -72q62 -57 62 -163v-16q0 -133 -98 -193q-86 -53 -255 -53q-172 0 -259 55t-87 155v15h-328v-43
q0 -195 162 -309q179 -128 531 -128q362 0 532 132q164 129 164 398v7z" />
    <glyph glyph-name="uniF736" unicode="&#xf736;" horiz-adv-x="1640" 
d="M835 -31q267 0 433 68q147 60 216 176q59 97 59 239v46q0 129 -44 220q-54 112 -181 170q-147 67 -396 67q-327 0 -453 -167l-1 72q-5 165 78 262q94 110 297 110q134 0 216 -36q62 -27 91 -78q18 -35 18 -79v-3h326v21q0 110 -45 192q-59 108 -191 168q-159 72 -423 72
q-286 0 -458 -99q-150 -86 -216 -245q-55 -130 -55 -312v-328q2 -150 66 -263q72 -129 224 -196q170 -77 439 -77zM848 699q181 0 267 -69q68 -55 68 -149v-8q0 -106 -67 -168q-88 -81 -281 -81q-200 0 -290 73q-70 56 -70 139v29q0 100 83 162q97 72 290 72z" />
    <glyph glyph-name="uniF737" unicode="&#xf737;" horiz-adv-x="1551" 
d="M1484 972v205h-1412v-415h303v159h712l-757 -1202h372z" />
    <glyph glyph-name="uniF738" unicode="&#xf738;" horiz-adv-x="1516" 
d="M95 1078q0 -111 47 -186q56 -88 176 -134q-140 -48 -202 -137q-56 -81 -56 -202v-25q0 -109 63 -199q71 -103 218 -160q166 -66 416 -66q363 0 546 137q39 30 68.5 65t47 72.5t26 75t8.5 76.5v25q0 115 -57 198q-63 89 -208 140q125 46 183 135q48 75 48 184v7
q0 109 -44 184q-59 100 -191 155q-159 65 -427 65q-267 0 -426 -65q-133 -54 -192 -155q-44 -75 -44 -184v-6zM757 893q-157 0 -238 58q-64 46 -64 115q0 70 60 119q78 64 242 64q162 0 241 -65q31 -26 46 -57t15 -59q0 -70 -61 -116q-77 -59 -241 -59zM757 632
q180 0 269 -68q68 -53 68 -124v-26q0 -35 -26 -73q-36 -50 -102 -79q-84 -37 -209 -37q-179 0 -271 75q-34 27 -50 58.5t-16 55.5v26q0 71 68 124q89 68 269 68z" />
    <glyph glyph-name="uniF739" unicode="&#xf739;" horiz-adv-x="1578" 
d="M1500 659h-1q-2 149 -66 264q-72 127 -224 195q-173 77 -439 77q-267 0 -433 -68q-147 -60 -216 -176q-59 -99 -59 -240v-45q0 -131 44 -220q54 -111 181 -169q149 -68 396 -68q326 0 453 165l1 -70q5 -167 -77 -263q-94 -110 -297 -110q-134 0 -216 36q-64 28 -91 79
q-19 33 -19 79v3h-325v-22q0 -110 45 -192q59 -109 191 -167q159 -72 423 -72q284 0 458 100q150 86 217 244q54 131 54 312v328zM757 465q-181 0 -267 69q-68 55 -68 151v6q0 105 68 168q89 80 280 80q199 0 290 -72q69 -55 69 -141v-26q0 -103 -81 -163q-95 -72 -291 -72z
" />
    <glyph glyph-name="uniF761" unicode="&#xf761;" horiz-adv-x="1566" 
d="M560 1177l-532 -1177h350l87 218h635l89 -218h350l-534 1177h-445zM764 961h36l208 -514h-451z" />
    <glyph glyph-name="uniF762" unicode="&#xf762;" horiz-adv-x="1673" 
d="M149 0h861q273 0 408 89q123 80 123 224v21q0 98 -63 167q-59 64 -170 101q198 71 198 231v25q0 149 -121 231q-132 88 -396 88h-840v-1177zM1152 835q0 -72 -70 -108q-54 -27 -118 -27h-472v278h465q91 0 138 -27q57 -33 57 -106v-10zM1190 345q0 -68 -48 -105.5
t-147 -37.5h-503v302h473q118 0 171.5 -38.5t53.5 -120.5z" />
    <glyph glyph-name="uniF763" unicode="&#xf763;" horiz-adv-x="1609" 
d="M1532 744q-38 208 -194 326q-183 139 -506 139q-376 0 -572 -167q-179 -153 -179 -415v-76q0 -263 177 -415q194 -168 573 -168q332 0 516 143q156 121 189 326h-322q-33 -116 -120 -172q-95 -61 -266 -61q-192 0 -298 103q-98 95 -98 240v84q0 145 95 237
q106 104 301 104q173 0 268 -62q86 -57 118 -166h318z" />
    <glyph glyph-name="uniF764" unicode="&#xf764;" horiz-adv-x="1673" 
d="M857 0q260 0 429 75q153 69 229 195q67 114 67 270v83q0 257 -153 395q-180 159 -562 159h-718v-1177h708zM852 929q379 0 379 -313v-51q0 -152 -93 -233q-99 -85 -291 -85h-347v682h352z" />
    <glyph glyph-name="uniF765" unicode="&#xf765;" horiz-adv-x="1457" 
d="M1329 0v226h-806v261h607v208h-607v256h806v226h-1152v-1177h1152z" />
    <glyph glyph-name="uniF766" unicode="&#xf766;" horiz-adv-x="1356" 
d="M527 0v408h619v240h-619v291h765v238h-1116v-1177h351z" />
    <glyph glyph-name="uniF767" unicode="&#xf767;" horiz-adv-x="1607" 
d="M866 462h357v-12q-1 -4 -1 -12q-28 -115 -126.5 -176.5t-269.5 -61.5q-192 0 -300 102q-101 94 -101 245v85q0 147 99 242q108 103 302 103q173 0 273 -64q91 -58 121 -170l310 1q-38 218 -189 332q-178 133 -510 133q-376 0 -573 -168q-45 -39 -79.5 -86.5t-56 -100.5
t-32.5 -111t-11 -120v-69q0 -265 177 -417q195 -169 574 -169q327 0 507 135q148 110 184 302q8 46 13 111q4 52 2 113h-670v-167z" />
    <glyph glyph-name="uniF768" unicode="&#xf768;" horiz-adv-x="1840" 
d="M525 0v454h772v-454h351v1177h-351v-474h-772v474h-352v-1177h352z" />
    <glyph glyph-name="uniF769" unicode="&#xf769;" horiz-adv-x="705" 
d="M528 0v1177h-352v-1177h352z" />
    <glyph glyph-name="uniF76A" unicode="&#xf76a;" horiz-adv-x="1163" 
d="M41 64q88 -41 170 -64q115 -32 233 -32q330 0 468 154q108 121 108 358v467h1v230h-714v-230h362v-465q-3 -135 -63 -200.5t-183 -65.5q-87 0 -170 22q-65 17 -124 44z" />
    <glyph glyph-name="uniF76B" unicode="&#xf76b;" horiz-adv-x="1644" 
d="M176 1177v-1177h351v490h289l401 -490h415l-538 600l472 577h-401l-335 -443h-303v443h-351z" />
    </font>
</defs>
</svg>
