<?xml version="1.0" standalone="no"?>
<!DOCTYPE svg PUBLIC "-//W3C//DTD SVG 1.1//EN" "http://www.w3.org/Graphics/SVG/1.1/DTD/svg11.dtd" >
<svg xmlns="http://www.w3.org/2000/svg" xmlns:xlink="http://www.w3.org/1999/xlink" version="1.1">
<metadata>
Created by FontForge 20170731 at Wed Apr  4 15:06:31 2018
 By Aleksey,,,
Copyright (c) 2017 by Studio Kmzero &#38; Zetafonts. All rights reserved.
</metadata>
<defs>
<font id="HeadingProCompressed-Regular" horiz-adv-x="371" >
  <font-face 
    font-family="Heading Pro Compressed"
    font-weight="500"
    font-stretch="normal"
    units-per-em="2048"
    panose-1="0 0 6 0 0 0 0 0 0 0"
    ascent="1638"
    descent="-410"
    x-height="1202"
    cap-height="1521"
    bbox="-255 -889 1758 1958"
    underline-thickness="102"
    underline-position="-409"
    unicode-range="U+000D-FB06"
  />
<missing-glyph horiz-adv-x="1107" 
 />
    <glyph glyph-name="ff" unicode="ff" horiz-adv-x="1011" 
d="M794 0v1029h199v174h-199v8q0 131 14 173q9 26 26 37.5t46 11.5q69 0 131 -39l12 157q-76 59 -170 59q-142 0 -196 -107q-43 -87 -43 -292v-8h-322v8q0 131 14 173q6 18 15.5 28.5t23 15.5t33.5 5q71 0 131 -39l12 157q-76 59 -170 59q-142 0 -196 -107q-43 -87 -43 -292
v-8h-110v-174h110v-1029h180v1029h322v-1029h180z" />
    <glyph glyph-name="fi" unicode="fi" horiz-adv-x="851" 
d="M6 1029h109v-1029h181v1029h274v-1029h180v1203h-454v8q0 131 14 173q9 26 26 37.5t46 11.5q71 0 122 -32l12 157q-67 52 -161 52q-143 0 -197 -107q-43 -87 -43 -292v-8h-109v-174zM552 1478q0 -95 107 -95q56 0 82 23t26 72q0 50 -26 74t-82 24q-107 0 -107 -98z" />
    <glyph glyph-name="fl" unicode="fl" horiz-adv-x="869" 
d="M773 0v1545q-34 26 -125 52q-109 31 -205 31q-199 0 -272 -116q-32 -51 -44 -124.5t-12 -176.5v-8h-109v-174h109v-1029h181v1029h198v174h-198v8q0 138 24 186q16 32 49 47t89 15q59 0 136 -18v-1441h179z" />
    <glyph glyph-name="ffi" unicode="ffi" horiz-adv-x="1378" 
d="M2 1029h110v-1029h180v1029h322v-1029h180v1029h307v-1029h179v1202h-166v1h-320v8q0 131 14 173q9 26 26 37.5t46 11.5q69 0 131 -39l12 157q-76 59 -170 59q-142 0 -196 -107q-43 -87 -43 -292v-8h-322v8q0 131 14 173q6 18 15.5 28.5t23 15.5t33.5 5q71 0 131 -39
l12 157q-76 59 -170 59q-142 0 -196 -107q-43 -87 -43 -292v-8h-110v-174zM1083 1478q0 -95 107 -95q56 0 82 23t26 72q0 50 -26 74t-82 24q-107 0 -107 -98z" />
    <glyph glyph-name="ffl" unicode="ffl" horiz-adv-x="1387" 
d="M1106 1568h178v-1568h-178v1029h-312v-1029h-180v1029h-322v-1029h-180v1029h-110v174h110v8q0 205 43 292q53 107 196 107q93 0 170 -59l-12 -157q-60 39 -131 39q-29 0 -46 -11.5t-26 -37.5q-14 -42 -14 -173v-8h322v8q0 205 43 292q53 107 196 107q93 0 170 -59
l-12 -157q-62 39 -131 39q-29 0 -46 -11.5t-26 -37.5q-14 -42 -14 -173v-8h312v365z" />
    <glyph glyph-name="f_t" unicode="ft" horiz-adv-x="1042" 
d="M2 1029h110v-1029h180v1029h329v-649q0 -205 43 -292q53 -107 197 -107q93 0 169 59l-13 157q-58 -38 -130 -38q-29 0 -46 11.5t-26 37.5q-14 41 -14 172v649h199v174h-199v388h-180v-388h-329v8q0 131 14 173q6 18 15.5 28.5t23 15.5t33.5 5q71 0 131 -39l12 157
q-76 59 -170 59q-142 0 -196 -107q-43 -87 -43 -292v-8h-110v-174z" />
    <glyph glyph-name="f_f_j" unicode="ffj" horiz-adv-x="1380" 
d="M2 1029h110v-1029h180v1029h322v-1029h180v1029h307v-1038q0 -131 -14 -172q-9 -27 -26 -38.5t-46 -11.5q-70 0 -130 39l-12 -157q72 -59 169 -59q145 0 198 107q42 85 42 292v1211h-164v1h-324v8q0 131 14 173q9 26 26 37.5t46 11.5q69 0 131 -39l12 157q-76 59 -170 59
q-142 0 -196 -107q-43 -87 -43 -292v-8h-322v8q0 131 14 173q6 18 15.5 28.5t23 15.5t33.5 5q71 0 131 -39l12 157q-76 59 -170 59q-142 0 -196 -107q-43 -87 -43 -292v-8h-110v-174zM1083 1478q0 -48 26 -71.5t80 -23.5q57 0 83 23t26 72q0 25 -6 43t-19.5 30.5t-34 18.5
t-49.5 6q-106 0 -106 -98z" />
    <glyph glyph-name="f_j" unicode="fj" horiz-adv-x="877" 
d="M2 1029h110v-1029h180v1029h308v-1038q0 -128 -15 -172q-6 -18 -15.5 -29t-23 -16t-33.5 -5q-68 0 -130 39l-12 -157q72 -59 169 -59q145 0 198 107q42 85 42 292v1211h-141v1h-347v8q0 131 14 173q6 18 15.5 28.5t23 15.5t33.5 5q71 0 131 -39l12 157q-76 59 -170 59
q-142 0 -196 -107q-43 -87 -43 -292v-8h-110v-174zM581 1478q0 -95 106 -95q57 0 83 23t26 72q0 50 -26 74t-83 24q-106 0 -106 -98z" />
    <glyph glyph-name=".notdef" horiz-adv-x="1107" 
 />
    <glyph glyph-name=".null" horiz-adv-x="0" 
 />
    <glyph glyph-name="uni000D" unicode="&#xd;" horiz-adv-x="319" 
 />
    <glyph glyph-name="NULL" horiz-adv-x="0" 
 />
    <glyph glyph-name="NULL" horiz-adv-x="0" 
 />
    <glyph glyph-name="space" unicode=" " horiz-adv-x="319" 
 />
    <glyph glyph-name="exclam" unicode="!" horiz-adv-x="392" 
d="M274 389l25 1132h-207l28 -1132h154zM87 89q0 -55 25.5 -81t81.5 -26q58 0 84 26t26 81q0 58 -25.5 84.5t-84.5 26.5q-56 0 -81.5 -27t-25.5 -84z" />
    <glyph glyph-name="quotedbl" unicode="&#x22;" horiz-adv-x="562" 
d="M220 1113l15 408h-166l12 -408h139zM474 1113l13 408h-166l14 -408h139z" />
    <glyph glyph-name="numbersign" unicode="#" horiz-adv-x="740" 
d="M666 588h-101l40 389h105l6 129h-98l43 417h-152l-42 -417h-130l43 417h-152l-42 -417h-101l-6 -129h94l-38 -389h-101l-6 -129h94l-46 -459h149l46 459h132l-46 -459h149l46 459h107zM324 977h130l-38 -389h-132z" />
    <glyph glyph-name="dollar" unicode="$" horiz-adv-x="739" 
d="M673 410q-14 154 -50 237q-47 106 -153 180l-113 78q-100 68 -105 220l-1 32q-5 88 24 142q31 58 94 58q59 0 90 -50q26 -42 26 -123l1 -101l183 -1v83q0 318 -214 366v107h-182v-110q-205 -56 -205 -358v-24q0 -154 38 -237q21 -47 58 -89t98 -88l123 -89
q61 -43 84 -104q22 -58 22 -157v-11q0 -98 -27 -147q-32 -59 -100 -59q-73 0 -101 54q-24 46 -24 164v61h-182v-65q0 -168 45 -259q50 -105 171 -129v-108h182v109q116 26 171 122.5t48 256.5z" />
    <glyph glyph-name="percent" unicode="%" horiz-adv-x="1317" 
d="M69 902q0 -149 47 -216q54 -77 181 -77q134 0 186 91q41 74 41 245v257q0 171 -40 244q-51 90 -187 90q-137 0 -187 -91q-41 -72 -41 -243v-300zM936 1521h-174l-379 -1521h174zM297 762q-44 0 -59 49q-12 37 -12 131v263q0 97 10 131q14 48 61 48q45 0 59 -48
q11 -39 11 -132v-305q0 -72 -16 -104.5t-54 -32.5zM794 270q0 -74 11 -127t37 -89q54 -77 181 -77q134 0 186 91q41 74 41 245v256q0 170 -41 244q-51 90 -186 90q-137 0 -188 -90q-41 -72 -41 -244v-299zM1023 129q-45 0 -60 49q-12 37 -12 132v262q0 97 11 131q8 24 22 36
t39 12q44 0 58 -48q11 -39 11 -132v-304q0 -73 -15.5 -105.5t-53.5 -32.5z" />
    <glyph glyph-name="ampersand" unicode="&#x26;" horiz-adv-x="787" 
d="M694 996h-182v-116h-108q-67 0 -95.5 46t-27.5 145l1 94q0 84 26 128q31 52 92 52h171l-1 176h-176q-150 0 -223 -85t-73 -257v-92q0 -121 29.5 -192.5t94.5 -94.5q-64 -19 -101.5 -92.5t-37.5 -183.5v-134q0 -189 62 -289q74 -119 243 -119q170 0 245 120q61 98 61 287
v319h59v172h-59v116zM266 524q2 80 33 129q34 53 95 53h118v-304q0 -111 -20 -163q-29 -74 -105 -74q-72 0 -99 66q-22 54 -22 172v121z" />
    <glyph glyph-name="quotesingle" unicode="'" horiz-adv-x="304" 
d="M220 1113l15 408h-166l12 -408h139z" />
    <glyph glyph-name="parenleft" unicode="(" horiz-adv-x="463" 
d="M396 -98v170h-16q-66 0 -91 68q-20 50 -20 143v948q0 45 4 77q7 59 28 94q27 46 79 46h16v169h-16q-130 0 -203 -75q-55 -58 -75 -161q-11 -57 -11 -152v-938q0 -112 14 -173q21 -99 78 -151q70 -65 197 -65h16z" />
    <glyph glyph-name="parenright" unicode=")" horiz-adv-x="458" 
d="M79 -98q126 0 198 65q55 51 78 151q13 62 13 173v938q0 95 -11 152q-20 103 -75 161q-73 75 -203 75h-16v-169h16q52 0 79 -46q21 -35 28 -94q4 -32 4 -77v-948q0 -92 -19 -143q-27 -68 -92 -68h-16v-170h16z" />
    <glyph glyph-name="asterisk" unicode="*" horiz-adv-x="736" 
d="M438 1521h-143l15 -285l-223 100l-44 -143l235 -74l-155 -224l114 -88l129 233l130 -234l114 90l-156 223l235 74l-44 144l-224 -101z" />
    <glyph glyph-name="plus" unicode="+" horiz-adv-x="710" 
d="M276 382h159v237h197v168h-197v237h-159v-237h-198v-168h198v-237z" />
    <glyph glyph-name="comma" unicode="," horiz-adv-x="359" 
d="M74 89q0 -107 102 -107q-7 -51 -16 -77q-15 -39 -41 -80l82 -48q41 50 63 112q29 82 29 179q0 61 -27.5 96.5t-84.5 35.5q-36 0 -59.5 -12t-35.5 -36.5t-12 -62.5z" />
    <glyph glyph-name="hyphen" unicode="-" horiz-adv-x="524" 
d="M482 507v167h-449v-167h449z" />
    <glyph glyph-name="period" unicode="." horiz-adv-x="369" 
d="M74 89q0 -107 107 -107q59 0 85 26t26 81q0 39 -11 63t-35.5 36t-64.5 12q-107 0 -107 -111z" />
    <glyph glyph-name="slash" unicode="/" horiz-adv-x="598" 
d="M576 1599h-177l-378 -1679h177z" />
    <glyph glyph-name="zero" unicode="0" horiz-adv-x="734" 
d="M73 394q0 -196 52 -289q68 -123 243 -123q173 0 241 119q53 93 53 290v741q0 195 -53 288q-68 120 -241 120q-174 0 -242 -122q-53 -95 -53 -287v-737zM368 1357q76 0 98 -61q14 -39 14 -160v-750q0 -121 -15 -162q-22 -59 -97 -59q-76 0 -98 63q-14 39 -14 161v741
q0 120 16 166q22 61 96 61z" />
    <glyph glyph-name="one" unicode="1" horiz-adv-x="468" 
d="M373 0v1523h-148q-44 -71 -90 -114q-60 -56 -134 -78v-181q56 15 108 44q59 34 86 77v-1271h178z" />
    <glyph glyph-name="two" unicode="2" horiz-adv-x="727" 
d="M660 0v183h-373q18 87 54 170q54 125 163 321q46 84 80 162q82 188 82 354q0 187 -73 272q-70 80 -220 80q-156 0 -228 -90q-68 -84 -68 -254v-143h183v127q0 88 19 126q25 49 91 49q61 0 87.5 -40t26.5 -130q0 -88 -27 -173q-46 -146 -159 -335q-55 -93 -95 -168
q-110 -201 -129 -346v-165h586z" />
    <glyph glyph-name="three" unicode="3" horiz-adv-x="725" 
d="M660 405q0 167 -29 257q-33 102 -108 123q70 27 98 102q30 86 30 273q0 155 -45 247q-38 76 -109 109q-54 24 -135 24q-157 0 -228 -92q-67 -87 -67 -273v-104h184v107q0 97 24 138t86 41q64 0 86 -44q21 -43 21 -174v-54q0 -119 -30 -170q-27 -43 -83 -43l-78 -2v-176
l71 -1q64 0 94 -33q36 -41 36 -146v-124q0 -138 -27 -183q-10 -16 -23.5 -25.5t-29.5 -13t-39 -3.5q-58 0 -85 34q-31 39 -31 137v114h-181v-110q0 -192 75 -278q67 -80 212 -80q85 0 143 20.5t95 67.5q73 92 73 335z" />
    <glyph glyph-name="four" unicode="4" horiz-adv-x="750" 
d="M262 1521l-208 -1131v-135h367v-255h178v255h92v184h-92v397h-178v-397h-172l200 1082h-187z" />
    <glyph glyph-name="five" unicode="5" horiz-adv-x="744" 
d="M672 521q0 95 -4 164t-14.5 124.5t-27.5 92.5q-26 56 -71.5 81t-119.5 25q-51 0 -96 -19q-53 -22 -76 -67l13 415h353v184h-533l-18 -847h182v20q0 41 11.5 70.5t37.5 47.5t64 18q64 0 89 -48q25 -50 25 -183v-219q0 -112 -16 -154q-25 -61 -97 -61q-58 0 -85.5 36.5
t-27.5 116.5v132h-183v-128q0 -166 70 -251q74 -89 229 -89q79 0 132 18t88 64q75 99 75 368v89z" />
    <glyph glyph-name="six" unicode="6" horiz-adv-x="724" 
d="M70 385q0 -194 51 -285q66 -118 244 -118q176 0 243 114q20 34 31.5 81t15.5 94t4 110v222q0 98 -7 164.5t-29 113.5q-53 111 -207 111q-121 -1 -163 -109v255q0 122 16 164q21 55 92 55q69 0 91 -53q14 -36 14 -123v-97h182v96q0 164 -49 247q-66 113 -236 113
q-173 0 -241 -118q-52 -90 -52 -288v-749zM373 808q71 0 92 -62q12 -40 12 -156v-196q0 -126 -14 -166q-22 -63 -98 -63q-79 0 -100 72q-6 20 -9 51t-3 47.5v62.5v165q0 125 19 177q25 68 101 68z" />
    <glyph glyph-name="seven" unicode="7" horiz-adv-x="697" 
d="M657 1374v147h-613v-369h170v185h248l-296 -1337h192z" />
    <glyph glyph-name="eight" unicode="8" horiz-adv-x="712" 
d="M72 1064q0 -103 21.5 -171t74.5 -106q-59 -39 -83 -115q-22 -72 -22 -194v-119q0 -185 57 -272q67 -105 237 -105q168 0 237 104q57 85 57 274v135q0 107 -25 179.5t-86 111.5q57 40 82 114q21 66 21 161v109q0 182 -50 265q-65 105 -236 105q-169 0 -234 -105
q-51 -81 -51 -264v-107zM357 881q-68 0 -90 48q-13 29 -13 116v118q0 108 13 142q18 52 90 52q71 0 91 -53q12 -34 12 -142v-118q0 -84 -13 -115q-22 -48 -90 -48zM357 697q73 0 97 -56q16 -37 16 -140v-133q0 -114 -19 -153q-24 -50 -94 -50q-75 0 -97 61q-14 38 -14 151
v123q0 103 16 141q24 56 95 56z" />
    <glyph glyph-name="nine" unicode="9" horiz-adv-x="704" 
d="M644 1128q0 199 -51 291q-68 122 -244 122q-174 0 -242 -121q-53 -96 -53 -293v-182q0 -98 7.5 -168.5t30.5 -122.5q52 -123 207 -123q64 0 103 28.5t60 84.5v-257q0 -126 -16 -164q-23 -57 -96 -57q-67 0 -88 53q-14 34 -14 122v98h-182v-92q0 -166 48 -249
q67 -115 236 -115q175 0 243 118q29 51 40 121t11 167v739zM342 714q-71 0 -90 68q-14 45 -14 161v186q0 44 0.5 66.5t4 51.5t10.5 48q12 32 34 47.5t62 15.5q80 0 101 -69q6 -20 9 -50.5t3 -46.5v-62v-208q-2 -109 -23 -153q-26 -55 -97 -55z" />
    <glyph glyph-name="colon" unicode=":" horiz-adv-x="327" 
d="M53 1106q0 -107 107 -107q40 0 64.5 12t35.5 35t11 60q0 58 -26 84.5t-85 26.5q-107 0 -107 -111zM53 89q0 -107 107 -107q40 0 64.5 12t35.5 35t11 60q0 58 -26 84.5t-85 26.5q-107 0 -107 -111z" />
    <glyph glyph-name="semicolon" unicode=";" horiz-adv-x="328" 
d="M54 1106q0 -107 107 -107q59 0 85 26t26 81q0 58 -26 84.5t-85 26.5q-107 0 -107 -111zM54 89q0 -107 102 -107q-7 -51 -16 -77q-15 -39 -41 -80l82 -48q41 50 63 112q29 82 29 179q0 61 -27.5 96.5t-84.5 35.5q-36 0 -59.5 -12t-35.5 -36.5t-12 -62.5z" />
    <glyph glyph-name="less" unicode="&#x3c;" horiz-adv-x="597" 
d="M519 247v208l-286 247l286 248v208l-475 -381v-149z" />
    <glyph glyph-name="equal" unicode="=" horiz-adv-x="710" 
d="M632 817v168h-554v-168h554zM632 423v168h-554v-168h554z" />
    <glyph glyph-name="greater" unicode="&#x3e;" horiz-adv-x="597" 
d="M555 628v149l-475 381v-208l285 -248l-285 -247v-208z" />
    <glyph glyph-name="question" unicode="?" horiz-adv-x="725" 
d="M646 1150q0 204 -78 299q-72 88 -215 88q-153 0 -224 -103q-61 -90 -59 -259l1 -82h175l5 121q5 68 27 100q25 38 78 38q59 0 83 -48.5t24 -151.5q0 -61 -14 -115q-23 -81 -84 -199q-24 -47 -46 -103q-50 -125 -49 -256l1 -90h156l1 88q2 58 18 107q25 75 92 197
q25 43 52 106q56 129 56 263zM239 89q0 -107 107 -107q59 0 85.5 26t26.5 81q0 58 -26.5 84.5t-85.5 26.5q-107 0 -107 -111z" />
    <glyph glyph-name="at" unicode="@" horiz-adv-x="1040" 
d="M926 131v895q0 221 -85 357q-99 157 -298 157q-216 0 -327 -146q-124 -163 -124 -525v-449q0 -342 139 -509q129 -156 378 -156h315v164h-315q-90 0 -163 41q-87 48 -136 152q-56 120 -56 309v447q0 269 69 388q68 118 220 118q107 0 164 -90q56 -89 58 -245v-5
q-39 113 -134 113q-129 0 -181 -115q-37 -82 -37 -260v-284q0 -175 38 -258q52 -117 181 -117q95 0 133 111v-93h161zM670 276q-62 0 -82 65q-12 39 -12 145v286q0 105 14 147q19 63 80 63q56 0 78 -64q15 -44 17 -139v-266q0 -109 -14 -160q-22 -77 -81 -77z" />
    <glyph glyph-name="A" unicode="A" horiz-adv-x="717" 
d="M191 0l40 307h257l40 -307h184l-227 1521h-251l-228 -1521h185zM359 1299l106 -818h-212z" />
    <glyph glyph-name="B" unicode="B" horiz-adv-x="789" 
d="M719 514q-1 125 -48 200q-39 61 -106 81q67 18 104 108q35 84 35 205v52q0 91 -17.5 158t-54.5 112.5t-95 68t-138 22.5h-295v-1520h307q160 0 233 87q75 90 75 299v127zM521 1088q0 -109 -19 -152q-26 -56 -102 -56h-113v465h111q66 0 94 -38q28 -41 28 -136zM537 392
q1 -122 -33 -169q-29 -39 -94 -39h-123v522h101q86 0 118 -51q30 -48 30 -162z" />
    <glyph glyph-name="C" unicode="C" horiz-adv-x="750" 
d="M504 466v-110q0 -106 -22 -148q-28 -53 -101 -53q-80 0 -105 61q-20 46 -20 160v768q0 114 21 158q26 55 103 55q76 0 103 -55q21 -44 21 -147v-99h184v102q0 178 -58 268q-73 114 -250 114t-248 -114q-59 -93 -59 -283v-770q0 -189 58 -279q72 -112 250 -112
q175 0 248 110q59 88 59 263v111h-184z" />
    <glyph glyph-name="D" unicode="D" horiz-adv-x="781" 
d="M103 1520v-1520h300q176 0 247 112q59 93 59 286v727q0 192 -59 284q-71 111 -246 111h-301zM401 1336q72 0 99 -42q27 -45 27 -169v-724q0 -125 -27 -172q-28 -46 -99 -46h-116v1153h116z" />
    <glyph glyph-name="E" unicode="E" horiz-adv-x="709" 
d="M637 0v183h-352v502h294v184h-294v467l352 1v184l-534 -1v-1520h534z" />
    <glyph glyph-name="F" unicode="F" horiz-adv-x="680" 
d="M635 1336v184h-531v-1520h182v643h288v184h-288v509h349z" />
    <glyph glyph-name="G" unicode="G" horiz-adv-x="758" 
d="M373 613h131v-250q0 -107 -22 -147q-28 -51 -102 -51q-80 0 -105 57q-19 40 -19 155v786q0 102 24 146q27 48 100 48q77 0 103 -54q21 -43 21 -146v-101h183v104q0 176 -58 266q-73 114 -249 114q-177 0 -249 -112q-58 -90 -58 -284v-768q0 -190 58 -281
q70 -113 249 -113q175 0 248 112q59 89 59 265v436h-314v-182z" />
    <glyph glyph-name="H" unicode="H" horiz-adv-x="834" 
d="M287 0v674h261v-674h183v1521h-183v-662h-261v662h-183v-1521h183z" />
    <glyph glyph-name="I" unicode="I" horiz-adv-x="392" 
d="M288 0v1521h-183v-1521h183z" />
    <glyph glyph-name="J" unicode="J" horiz-adv-x="557" 
d="M101 1336h179v-953q0 -124 -24 -171q-23 -45 -90 -45q-39 0 -61.5 7.5t-45.5 24.5l-53 -161q30 -29 68 -41.5t92 -12.5q170 0 239 109q56 90 56 282v1145h-360v-184z" />
    <glyph glyph-name="K" unicode="K" horiz-adv-x="783" 
d="M287 0v674h88l214 -674h196l-248 773l230 747h-196l-202 -661h-82v662h-183v-1521h183z" />
    <glyph glyph-name="L" unicode="L" horiz-adv-x="634" 
d="M624 0v182h-339v1339h-182v-1521h521z" />
    <glyph glyph-name="M" unicode="M" horiz-adv-x="1059" 
d="M449 209h161l200 1079l-15 -250l-11 -1038h169v1521h-240l-166 -831l-18 -153l-17 152l-166 832h-241v-1521h168l-11 1037l-15 263z" />
    <glyph glyph-name="N" unicode="N" horiz-adv-x="834" 
d="M277 0l-8 1048l-14 134l301 -1182h211v1521h-173l9 -1041l23 -211l-296 1252h-226v-1521h173z" />
    <glyph glyph-name="O" unicode="O" horiz-adv-x="760" 
d="M72 380q0 -190 58 -282q71 -116 250 -116q177 0 249 114q59 93 59 284v762q0 190 -58 283q-73 115 -250 115t-249 -114q-59 -93 -59 -285v-761zM380 1357q79 0 105 -58q20 -45 20 -158v-760q0 -115 -21 -160q-26 -56 -104 -56q-80 0 -105 59q-20 45 -20 157v759
q0 115 21 161q26 56 104 56z" />
    <glyph glyph-name="P" unicode="P" horiz-adv-x="755" 
d="M702 1151q0 199 -80 288q-74 82 -227 82h-290v-1521h183v555h96q163 0 237 82q81 90 81 300v214zM520 992q0 -133 -16 -179q-26 -75 -112 -75h-104v599h97q82 0 110 -48q25 -42 25 -163v-134z" />
    <glyph glyph-name="Q" unicode="Q" horiz-adv-x="760" 
d="M306 -133h162v124q124 24 178 134q42 89 42 255v762q0 190 -58 283q-73 115 -250 115t-249 -114q-59 -93 -59 -285v-761q0 -169 45 -259q54 -111 189 -133v-121zM380 1357q79 0 105 -58q20 -45 20 -158v-760q0 -116 -21 -160q-26 -56 -104 -56q-80 0 -105 59
q-20 45 -20 157v759q0 115 21 161q26 56 104 56z" />
    <glyph glyph-name="R" unicode="R" horiz-adv-x="792" 
d="M287 0v608h82q51 0 85 -48q42 -62 51 -172l16 -215q1 -20 7 -54q8 -43 24 -90l9 -29h190q-41 101 -46 178l-17 214q-11 117 -33 171q-23 56 -77 98q65 44 101.5 119t36.5 175v183q0 207 -75 297q-72 85 -234 85h-303v-1520h183zM533 979q0 -81 -25 -131q-28 -56 -88 -56
h-133v544h114q67 0 96 -35q36 -45 36 -169v-153z" />
    <glyph glyph-name="S" unicode="S" horiz-adv-x="734" 
d="M667 387q-5 301 -204 440l-112 78q-51 35 -78 98q-26 61 -28 130l-1 44q-6 180 120 180q115 0 117 -160v-141h183v127q0 357 -298 357q-101 0 -167.5 -37t-101.5 -114.5t-35 -197.5v-23q0 -158 37 -249q40 -100 157 -187l123 -89q105 -76 105 -290v-11q0 -91 -28.5 -134
t-97.5 -43q-73 0 -101 52q-24 44 -24 160v89h-182v-88q0 -198 62 -288q74 -108 247 -108q157 0 232.5 92.5t74.5 274.5v38z" />
    <glyph glyph-name="T" unicode="T" horiz-adv-x="633" 
d="M627 1336v184h-617v-184h217v-1336h183v1336h217z" />
    <glyph glyph-name="U" unicode="U" horiz-adv-x="793" 
d="M529 1520v-1142q0 -111 -21 -154q-29 -59 -108 -59q-80 0 -110 59q-24 47 -24 154v1142h-182v-1147q0 -190 64 -282q76 -109 252 -109q175 0 249 109q62 91 62 282v1147h-182z" />
    <glyph glyph-name="V" unicode="V" horiz-adv-x="722" 
d="M537 1521l-162 -1153l-15 -186l-14 188l-163 1151h-179l231 -1521h250l232 1521h-180z" />
    <glyph glyph-name="W" unicode="W" horiz-adv-x="1136" 
d="M701 0h225l178 1521h-185l-104 -1043l-15 -213l-16 213l-110 1043h-215l-109 -1043l-18 -218l-14 218l-105 1043h-185l178 -1521h226l121 957l13 162l14 -161z" />
    <glyph glyph-name="X" unicode="X" horiz-adv-x="750" 
d="M747 0l-252 788l233 733h-199l-152 -538l-152 538h-200l227 -731l-248 -790h203l164 594l172 -594h204z" />
    <glyph glyph-name="Y" unicode="Y" horiz-adv-x="705" 
d="M702 1520h-181l-163 -677l-155 677h-200l262 -944v-576h182v576z" />
    <glyph glyph-name="Z" unicode="Z" horiz-adv-x="659" 
d="M617 0v183h-372l372 1176v161h-554v-184h347l-365 -1165v-171h572z" />
    <glyph glyph-name="bracketleft" unicode="[" horiz-adv-x="458" 
d="M396 -98v170h-127v1376h127v169h-305v-1715h305z" />
    <glyph glyph-name="backslash" unicode="\" horiz-adv-x="598" 
d="M399 -80h177l-378 1679h-177z" />
    <glyph glyph-name="bracketright" unicode="]" horiz-adv-x="458" 
d="M368 -98v1715h-305v-169h127v-1376h-127v-170h305z" />
    <glyph glyph-name="asciicircum" unicode="^" horiz-adv-x="862" 
d="M565 1599h-269l-217 -747h186l154 576h24l153 -576h187z" />
    <glyph glyph-name="underscore" unicode="_" horiz-adv-x="712" 
d="M690 -192v156h-666v-156h666z" />
    <glyph glyph-name="grave" unicode="`" horiz-adv-x="377" 
d="M51 1546l143 -263h129l-111 263h-161z" />
    <glyph glyph-name="a" unicode="a" horiz-adv-x="764" 
d="M671 0v861q0 174 -60 261q-71 100 -238 100q-171 0 -238 -101q-54 -82 -54 -246v-68h178v70q0 87 19 121q25 44 96 44q76 0 100 -55q18 -41 18 -160v-167q-73 32 -165 32q-154 0 -212 -98q-44 -75 -44 -243q0 -174 51 -262q63 -108 207 -108q67 0 105.5 27t58.5 92v-100
h178zM370 161q-71 0 -98 52q-22 41 -22 130q0 87 18 129q27 63 99 63q79 0 125 -38v-127q0 -106 -19 -150q-27 -59 -103 -59z" />
    <glyph glyph-name="b" unicode="b" horiz-adv-x="770" 
d="M282 0v93q41 -111 160 -111q154 0 212 118q43 90 43 289v426q0 191 -44 283q-59 123 -213 123q-117 0 -158 -112v459h-179v-1568h179zM400 1042q78 0 101 -60q16 -42 16 -159v-441q0 -120 -17 -162q-25 -58 -100 -58q-78 0 -102 68q-16 46 -16 167v439q0 102 22 149
q25 57 96 57z" />
    <glyph glyph-name="c" unicode="c" horiz-adv-x="730" 
d="M488 358q0 -99 -18 -138q-26 -58 -100 -58q-32 0 -53 9q-43 18 -55 68q-12 42 -10 148v97v338q0 123 17 162q25 58 101 58q75 0 102 -60q16 -38 16 -135v-40h179v38q0 172 -53 260q-71 117 -244 117q-168 0 -236 -93q-59 -79 -61 -253q-1 -19 -1 -62v-63v-368
q0 -196 54 -284q69 -117 246 -117q173 0 243 115q52 85 52 262v36h-179v-37z" />
    <glyph glyph-name="d" unicode="d" horiz-adv-x="770" 
d="M663 0v1568h-178v-460q-14 36 -33.5 60t-51 38.5t-74.5 14.5q-154 0 -213 -123q-44 -92 -44 -283v-426q0 -200 44 -289q57 -118 211 -118q63 0 101.5 29t59.5 85v-96h178zM367 162q-77 0 -100 58q-18 42 -18 162v441q0 118 17 159q23 60 101 60q74 0 100 -66
q17 -46 17 -170v-409q0 -121 -16 -167q-24 -68 -101 -68z" />
    <glyph glyph-name="e" unicode="e" horiz-adv-x="736" 
d="M488 406v-37q0 -106 -18 -148q-26 -59 -101 -59q-78 0 -103 58q-17 39 -17 157v125l417 88v244q0 181 -52 270q-69 118 -245 118q-175 0 -244 -111q-54 -87 -54 -282v-451q0 -194 54 -281q69 -115 246 -115q175 0 243 117q52 88 52 271v36h-178zM369 1042q77 0 103 -61
q16 -40 16 -145v-117l-239 -54v166q0 119 18 158q24 53 102 53z" />
    <glyph glyph-name="f" unicode="f" horiz-adv-x="477" 
d="M500 1571q-73 39 -146 39q-142 0 -196 -107q-43 -87 -43 -292v-8h-102v-174h102v-1029h180v1029h142v174h-142v8q0 131 14 172q9 26 26 38t46 12q46 0 87 -18z" />
    <glyph glyph-name="g" unicode="g" horiz-adv-x="754" 
d="M475 1202v-91q-44 110 -158 110q-154 0 -212 -120q-44 -91 -44 -292v-416q0 -197 44 -289q58 -123 213 -123q61 0 98.5 28.5t58.5 83.5v-102q0 -121 -26 -172q-25 -50 -84 -50q-62 0 -112 7q-62 9 -88 23l-13 -158q81 -49 240 -49q146 0 209 108q54 92 54 291v1211h-180z
M358 161q-78 0 -101 60q-16 42 -16 159v441q0 120 18 162q24 58 99 58q63 0 91 -53q21 -40 26 -130v-517q-5 -90 -26 -129q-27 -51 -91 -51z" />
    <glyph glyph-name="h" unicode="h" horiz-adv-x="777" 
d="M689 0v810q0 196 -44 288q-59 122 -207 122q-65 0 -104 -25.5t-59 -82.5v456h-179v-1568h179v820q0 116 21 163q24 58 97 58q77 0 101 -58q16 -39 16 -156v-827h179z" />
    <glyph glyph-name="i" unicode="i" 
d="M80 1478q0 -48 25.5 -71.5t79.5 -23.5q57 0 83 23.5t26 71.5q0 49 -26.5 73.5t-82.5 24.5q-54 0 -79.5 -24.5t-25.5 -73.5zM276 0v1202h-179v-1202h179z" />
    <glyph glyph-name="j" unicode="j" horiz-adv-x="374" 
d="M77 1478q0 -95 107 -95q56 0 82 23t26 72t-26 73.5t-82 24.5q-107 0 -107 -98zM96 1202v-1211q0 -131 -14 -172q-9 -27 -26 -38.5t-46 -11.5q-71 0 -131 39l-12 -157q76 -59 170 -59q144 0 197 107q42 85 42 292v1211h-180z" />
    <glyph glyph-name="k" unicode="k" horiz-adv-x="735" 
d="M95 1568v-1568h179v512h72l187 -512h199l-246 601l217 601h-183l-172 -507h-74v873h-179z" />
    <glyph glyph-name="l" unicode="l" 
d="M274 0v1568h-178v-1568h178z" />
    <glyph glyph-name="m" unicode="m" horiz-adv-x="1194" 
d="M689 0l-4 539l5 271q0 119 21 168q25 63 103 63q79 0 99 -61q12 -37 12 -148v-13v-819h178v800q0 204 -36 293q-53 127 -197 127q-152 0 -218 -137q-47 137 -187 137q-124 0 -190 -116v98h-179v-1202h179v845q2 101 23 144q24 52 97 52q75 0 98 -58q17 -43 17 -158v-825
h179z" />
    <glyph glyph-name="n" unicode="n" horiz-adv-x="777" 
d="M689 0v810q0 196 -44 288q-59 122 -207 122q-129 0 -163 -108v90h-179v-1202h179v820q0 118 20 163q24 58 98 58q77 0 101 -58q16 -39 16 -156v-827h179z" />
    <glyph glyph-name="o" unicode="o" horiz-adv-x="737" 
d="M70 380q0 -192 54 -282q69 -116 246 -116q176 0 243 115q52 88 52 284v442q0 194 -53 283q-69 116 -244 116t-244 -115q-54 -90 -54 -285v-442zM368 1042q78 0 101 -58q16 -41 16 -159v-445q0 -120 -17 -161q-25 -57 -100 -57q-77 0 -101 59q-17 39 -17 158v445
q0 120 18 162q23 56 100 56z" />
    <glyph glyph-name="p" unicode="p" horiz-adv-x="765" 
d="M270 -366v448q13 -33 33 -54.5t52 -33.5t75 -12q153 0 212 121q43 91 43 291v411q0 199 -44 292q-59 125 -213 125q-63 0 -100.5 -25.5t-57.5 -75.5v81h-179v-1568h179zM388 1042q78 0 101 -59q16 -41 16 -160v-441q0 -123 -16 -162q-25 -58 -101 -58q-73 0 -97 47
q-21 38 -21 129v518q0 98 22 139q24 47 96 47z" />
    <glyph glyph-name="q" unicode="q" horiz-adv-x="761" 
d="M493 -366v448q-13 -33 -33 -54.5t-52 -33.5t-75 -12q-154 0 -211 121q-44 90 -44 291v411q0 199 44 292q59 125 213 125q63 0 100.5 -25.5t57.5 -75.5v81h179v-1568h-179zM375 1042q-78 0 -101 -59q-16 -41 -16 -160v-441q0 -123 17 -162q24 -58 100 -58q72 0 98 47
q20 39 20 129v518q0 97 -21 139q-26 47 -97 47z" />
    <glyph glyph-name="r" unicode="r" horiz-adv-x="508" 
d="M502 1205q-27 16 -63 16l-1 -1v1q-118 0 -163 -126v107h-179v-1202h179v805q2 113 33 170q34 62 110 62h1q17 0 31 -3q27 -7 41 -17q9 -5 11 -6v194z" />
    <glyph glyph-name="s" unicode="s" horiz-adv-x="675" 
d="M627 299q0 64 -17 118q-33 99 -107 172q-46 44 -146 125q-39 31 -63 59q-62 67 -62 140q0 59 26.5 94t79.5 35q62 0 86 -46q20 -41 20 -143l175 -1q0 212 -65 294q-33 41 -85.5 58.5t-130.5 17.5q-165 0 -233 -89q-54 -72 -54 -222q0 -63 17 -114q31 -94 106 -165
q42 -40 143 -121q34 -28 63 -60q60 -70 60 -151q0 -69 -25.5 -103.5t-81.5 -34.5q-70 0 -94 53q-20 44 -20 158h-179q0 -200 58 -288q66 -103 237 -103q158 0 227 79q65 73 65 238z" />
    <glyph glyph-name="t" unicode="t" horiz-adv-x="555" 
d="M129 1476v-273h-106v-174h106v-649q0 -205 43 -292q53 -107 197 -107q93 0 169 59l-13 157q-58 -38 -130 -38q-29 0 -46 11.5t-26 37.5q-14 41 -14 172v649h180v174h-180v273h-180z" />
    <glyph glyph-name="u" unicode="u" horiz-adv-x="781" 
d="M505 1202v-851q-2 -101 -21 -140q-25 -50 -95 -50q-79 0 -102 60q-16 42 -16 159v822h-179v-809q0 -199 43 -289q59 -122 213 -122q114 0 157 107v-89h180v1202h-180z" />
    <glyph glyph-name="v" unicode="v" horiz-adv-x="678" 
d="M485 1203l-147 -1014l-147 1014h-184l206 -1203h251l207 1203h-186z" />
    <glyph glyph-name="w" unicode="w" horiz-adv-x="1120" 
d="M169 0h281l112 1002l112 -1002h281l155 1203h-185l-113 -1024h-4l-114 1024h-264l-114 -1024h-4l-113 1024h-185z" />
    <glyph glyph-name="x" unicode="x" horiz-adv-x="668" 
d="M664 0l-218 625l206 577h-175l-140 -414l-132 414h-188l206 -577l-219 -625h177l150 451l146 -451h187z" />
    <glyph glyph-name="y" unicode="y" horiz-adv-x="669" 
d="M8 1203l186 -1203h114l-3 -24q-17 -109 -58 -177q-35 -59 -91 -94l80 -130q189 98 238 408l62 401q84 535 126 819h-184l-124 -901l-20 -134l-142 1035h-184z" />
    <glyph glyph-name="z" unicode="z" horiz-adv-x="636" 
d="M585 0v178h-347l348 865v159h-524v-173h325l-350 -869v-160h548z" />
    <glyph glyph-name="braceleft" unicode="{" horiz-adv-x="499" 
d="M25 850v-181q38 -5 61 -19t35 -40q21 -47 21 -179v-187q0 -184 79 -270q64 -72 177 -72h49v170h-28q-60 0 -80 41q-17 35 -17 116l-4 291q-2 113 -28.5 169.5t-85.5 70.5q40 9 64.5 39t36 78.5t13.5 122.5l3 261q2 105 15 138q18 49 83 49h28v169h-49q-113 0 -179 -71
q-78 -85 -77 -270v-187q-2 -133 -22 -179q-12 -27 -34.5 -41t-60.5 -19z" />
    <glyph glyph-name="bar" unicode="|" horiz-adv-x="443" 
d="M309 -82v1685h-182v-1685h182z" />
    <glyph glyph-name="braceright" unicode="}" horiz-adv-x="500" 
d="M475 850q-38 5 -61 19t-35 41q-22 47 -22 179l1 187q0 185 -78 270q-66 71 -179 71h-49v-169h28q64 0 84 -49q12 -33 14 -138l3 -261q2 -110 28.5 -168t85.5 -72q-60 -14 -86.5 -71t-27.5 -169l-4 -291q0 -81 -17 -116q-20 -41 -80 -41h-28v-170h49q114 0 179 72
q78 84 78 270l-1 187q0 132 22 179q8 18 21.5 30t31.5 18.5t43 10.5v181z" />
    <glyph glyph-name="asciitilde" unicode="~" horiz-adv-x="710" 
d="M622 805q-37 -63 -115 -63q-37 0 -125 47q-90 46 -140 46q-116 0 -164 -106l38 -123q36 63 117 63q16 0 36.5 -6.5t34.5 -13.5t40 -21q6 -3 9 -5q84 -47 142 -47q114 0 165 105z" />
    <glyph glyph-name="exclamdown" unicode="&#xa1;" horiz-adv-x="415" 
d="M310 1127q0 108 -107 108q-59 0 -85 -26.5t-26 -81.5q0 -57 26 -83.5t85 -26.5q107 0 107 110zM122 828l-25 -1132h207l-27 1132h-155z" />
    <glyph glyph-name="cent" unicode="&#xa2;" horiz-adv-x="763" 
d="M499 358q0 -99 -18 -138q-26 -58 -100 -58q-32 0 -53 9q-43 18 -55 68q-10 40 -10 148v97v338q0 120 18 162q24 58 100 58q75 0 102 -60q16 -38 16 -135v-40h179v38q0 150 -39 234q-52 109 -178 135v163h-161v-161q-120 -21 -171 -111q-45 -79 -45 -229v-493
q0 -171 39 -257q51 -113 177 -136v-158h161v157q125 23 178 133q39 83 39 237v36h-179v-37z" />
    <glyph glyph-name="sterling" unicode="&#xa3;" horiz-adv-x="729" 
d="M68 570h134q5 -45 5 -77q0 -108 -33 -190q-38 -94 -108 -127v-182q10 2 29.5 4.5t28.5 3.5q72 9 100 9q48 0 152 -12q113 -13 147 -13q98 0 158 57l-60 157q-30 -22 -56.5 -28.5t-65.5 -6.5q-25 0 -48 4q-9 2 -26.5 4.5t-25.5 3.5q-69 8 -104 -1q37 45 63 138
q27 98 27 182q0 41 -4 74h188v171h-217q-9 38 -29 117q-11 40 -29 113q-31 133 -31 207q0 98 25.5 143.5t89.5 45.5q83 0 109 -89q3 -11 5.5 -22.5t4 -26t2.5 -25t1.5 -29t0.5 -26.5t0.5 -29t0.5 -27l171 2q6 227 -53 332q-68 121 -242 121q-160 0 -233 -92
q-65 -82 -65 -240q0 -59 9 -117q15 -97 52 -239q16 -58 30 -119h-103v-171z" />
    <glyph glyph-name="currency" unicode="&#xa4;" horiz-adv-x="673" 
d="M112 700q0 -59 22 -110l-69 -76l113 -118l64 72q43 -24 95 -24q51 0 95 25l65 -74l113 119l-70 79q21 53 21 107q0 59 -22 110l71 81l-113 117l-67 -76q-45 24 -93 24q-49 0 -92 -22l-67 74l-113 -118l69 -79q-22 -51 -22 -111zM244 700q0 48 28 83q27 34 65 34
q37 0 66 -34q26 -34 26 -83q0 -48 -26 -82q-28 -34 -66 -34q-39 0 -65 34q-28 35 -28 82z" />
    <glyph glyph-name="yen" unicode="&#xa5;" horiz-adv-x="757" 
d="M724 1520h-182l-163 -677l-155 677h-200l231 -833h-152v-114h183v-135h-183v-114h183v-324h182v324h188v114h-188v135h188v114h-158z" />
    <glyph glyph-name="brokenbar" unicode="&#xa6;" horiz-adv-x="439" 
d="M309 827v776h-182v-776h182zM127 705v-787h182v787h-182z" />
    <glyph glyph-name="section" unicode="&#xa7;" horiz-adv-x="719" 
d="M64 616q0 -86 30 -145q51 -105 168 -182q63 -42 95 -68q50 -38 76.5 -77.5t26.5 -90.5q0 -59 -26 -100q-28 -44 -81 -44q-58 0 -82 57q-20 44 -20 132l-180 1q0 -199 76 -289q67 -81 206 -81q155 0 223 91q65 85 65 254q0 99 -47 178q-35 56 -110 115q168 55 168 291
q0 63 -17 114q-31 90 -108 157q-34 28 -146 107q-36 24 -64 52q-62 60 -62 132q0 58 26 101q28 44 81 44q59 0 83 -57q19 -44 19 -132l179 -1q0 199 -75 290q-68 80 -206 80q-154 0 -223 -90q-65 -87 -65 -256q0 -102 47 -178q32 -54 109 -114q-166 -57 -166 -291zM251 638
q0 70 26.5 110t80.5 40q24 0 39 -7q67 -65 67 -145q0 -70 -27 -110.5t-81 -40.5q-23 0 -38 7q-67 65 -67 146z" />
    <glyph glyph-name="dieresis" unicode="&#xa8;" horiz-adv-x="425" 
d="M1 1414q0 -96 87 -96q47 0 67.5 23.5t20.5 72.5q0 52 -20.5 75.5t-67.5 23.5q-45 0 -66 -24t-21 -75zM215 1414q0 -96 86 -96q47 0 68 23.5t21 72.5q0 52 -21 75.5t-68 23.5q-86 0 -86 -99z" />
    <glyph glyph-name="copyright" unicode="&#xa9;" horiz-adv-x="1243" 
d="M1168 899q0 353 -152 518q-136 147 -395 147q-262 0 -397 -145q-151 -164 -151 -515v-447q0 -356 151 -520q134 -147 397 -147q259 0 395 147q152 165 152 516v446zM620 1415q199 0 295 -118q101 -124 101 -395v-452q0 -137 -25 -233t-75 -158q-97 -119 -296 -119
q-201 0 -296 119q-99 124 -99 396v452q0 268 100 390q96 118 295 118zM734 478h157v-15q0 -169 -46 -255q-63 -118 -223 -118t-224 131q-48 99 -48 286v283v52q-2 25 0 51q2 168 55 256q64 106 215 106q161 0 225 -120q46 -86 46 -252v-16h-157v17q0 99 -16 142
q-25 68 -98 68q-72 0 -96 -76q-17 -50 -17 -179v-256q0 -125 3 -184q5 -68 27 -103q26 -44 83 -44q71 0 97 66q17 44 17 145v15z" />
    <glyph glyph-name="ordfeminine" unicode="&#xaa;" horiz-adv-x="632" 
d="M545 779v742h-158v-89q-37 108 -114 108q-125 0 -168 -90q-36 -72 -36 -244v-153q0 -150 39 -215q47 -78 165 -78q78 0 114 114v-95h158zM307 914q-45 0 -63 43.5t-18 132.5v123q0 90 17.5 132.5t63.5 42.5q44 0 61 -43.5t17 -132.5v-167q0 -70 -19.5 -100.5t-58.5 -30.5
zM103 549h437v150h-437v-150z" />
    <glyph glyph-name="guillemotleft" unicode="&#xab;" horiz-adv-x="733" 
d="M367 188l-157 402l157 404h-180l-151 -404l151 -402h180zM695 188l-157 402l157 404h-180l-151 -404l151 -402h180z" />
    <glyph glyph-name="logicalnot" unicode="&#xac;" horiz-adv-x="710" 
d="M474 382h158v405h-554v-168h396v-237z" />
    <glyph glyph-name="uni00AD" unicode="&#xad;" horiz-adv-x="573" 
d="M522 -112v167h-449v-167h449z" />
    <glyph glyph-name="registered" unicode="&#xae;" horiz-adv-x="1243" 
d="M1168 899q0 353 -152 519q-135 146 -396 146t-396 -145q-151 -164 -151 -515v-447q0 -355 151 -519q135 -148 396 -148t396 146q152 165 152 517v446zM620 1415q199 0 295 -118q101 -124 101 -395v-452q0 -269 -100 -391q-97 -119 -295 -119q-201 0 -296 119
q-100 126 -100 396v452q0 268 100 390q96 118 295 118zM357 116v1131h262q142 0 208.5 -79.5t66.5 -241.5v-45q0 -89 -35 -159.5t-95 -115.5q58 -41 80 -88q28 -58 29 -164l4 -238h-158l-6 228q-4 111 -42 160q-30 37 -80 46h-74v-434h-160zM735 928q0 87 -30 124
q-28 34 -87 34h-101v-375h99q117 0 119 170v47z" />
    <glyph glyph-name="macron" unicode="&#xaf;" horiz-adv-x="430" 
d="M412 1361v146h-393v-146h393z" />
    <glyph glyph-name="degree" unicode="&#xb0;" horiz-adv-x="421" 
d="M397 1314q0 95 -50 159q-54 67 -138 67q-85 0 -137 -67q-50 -64 -50 -159q0 -94 50 -157q52 -66 137 -66t138 66q50 63 50 157zM289 1314q0 -50 -21 -81.5t-59 -31.5q-36 0 -57.5 32t-21.5 81t21.5 80t57.5 31q38 0 59 -30.5t21 -80.5z" />
    <glyph glyph-name="plusminus" unicode="&#xb1;" horiz-adv-x="710" 
d="M276 545h159v237h197v168h-197v237h-159v-237h-198v-168h198v-237zM632 266v168h-554v-168h554z" />
    <glyph glyph-name="uni00B2" unicode="&#xb2;" horiz-adv-x="580" 
d="M516 858v157h-266q6 44 29 84q35 60 116 154q31 37 61 84q65 105 65 216q0 288 -225 288q-119 0 -176 -77q-54 -72 -54 -200v-51h157v35q0 58 13 91q17 42 57 42q72 0 72 -129q0 -43 -20 -85q-35 -70 -118 -164q-35 -39 -70 -87q-79 -105 -93 -202v-156h452z" />
    <glyph glyph-name="uni00B3" unicode="&#xb3;" horiz-adv-x="581" 
d="M521 1119q0 126 -29 182q-22 42 -73 55q95 20 95 198q0 148 -52.5 217t-168.5 69q-119 0 -175 -76q-51 -69 -51 -214v-27l157 1v41q0 62 15 92.5t52 30.5q27 0 43 -18t21 -46.5t5 -74.5v-10q0 -38 -8.5 -64t-25.5 -40t-40 -14l-58 -1v-133l53 -1q42 0 62 -27
q24 -34 24 -113v-41q0 -62 -20 -87.5t-56 -25.5q-42 0 -61 45q-14 30 -14 83v30h-156v-34q0 -146 63 -215q57 -63 168 -63q114 0 169 59q61 67 61 222z" />
    <glyph glyph-name="acute" unicode="&#xb4;" horiz-adv-x="460" 
d="M201 1546l-110 -263h134l148 263h-172z" />
    <glyph glyph-name="paragraph" unicode="&#xb6;" horiz-adv-x="930" 
d="M563 -369v1890h-162q-182 0 -265 -115q-80 -109 -80 -333q0 -204 84 -310q87 -111 261 -117v-1015h162zM843 -369v1890h-162v-1890h162z" />
    <glyph glyph-name="periodcentered" unicode="&#xb7;" horiz-adv-x="362" 
d="M70 587q0 -107 107 -107q59 0 85 26t26 81q0 58 -26 84.5t-85 26.5q-107 0 -107 -111z" />
    <glyph glyph-name="cedilla" unicode="&#xb8;" horiz-adv-x="509" 
d="M71 -305q16 -20 39.5 -35.5t55 -24.5t66.5 -9q93 0 147 41q58 45 58 127q0 61 -34 101q-35 40 -88 40q-8 0 -32 -3l-14 -3v102h-94l-1 -198q38 13 80 2q48 -12 48 -48q0 -31 -20.5 -47.5t-53.5 -16.5q-43 0 -74 13q-23 9 -53 32z" />
    <glyph glyph-name="uni00B9" unicode="&#xb9;" horiz-adv-x="391" 
d="M29 1523q80 32 118 93v-758h157v963h-131q-49 -81 -144 -144v-154z" />
    <glyph glyph-name="ordmasculine" unicode="&#xba;" horiz-adv-x="592" 
d="M68 1055q0 -149 48 -216q54 -77 181 -77q136 0 185 91q41 76 41 245v104q0 171 -40 244q-51 90 -186 90q-136 0 -188 -91q-41 -72 -41 -243v-147zM297 913q-45 0 -60 47q-12 37 -12 131v118q0 98 11 131q8 24 22 35t39 11q45 0 59 -47q10 -39 10 -131v-161
q0 -72 -15.5 -103t-53.5 -31zM77 549h438v150h-438v-150z" />
    <glyph glyph-name="guillemotright" unicode="&#xbb;" horiz-adv-x="717" 
d="M219 188l151 402l-151 404h-179l157 -404l-157 -402h179zM546 188l151 402l-151 404h-180l157 -404l-157 -402h180z" />
    <glyph glyph-name="onehalf" unicode="&#xbd;" horiz-adv-x="1291" 
d="M39 1466q80 32 118 93v-758h157v963h-131q-49 -81 -144 -144v-154zM806 1522l-152 32l-408 -1563l157 -32zM1210 -3v157h-266q6 44 29 84q34 60 116 154q31 37 61 84q65 105 65 216q0 288 -225 288q-119 0 -176 -77q-54 -72 -54 -200v-51h157v35q0 59 13 91q17 42 57 42
q72 0 72 -129q0 -44 -20 -85q-35 -70 -118 -164q-35 -39 -70 -87q-79 -105 -93 -202v-156h452z" />
    <glyph glyph-name="questiondown" unicode="&#xbf;" horiz-adv-x="741" 
d="M499 1118q0 36 -11.5 59.5t-35.5 35.5t-61 12q-58 0 -84.5 -26t-26.5 -81q0 -58 26 -84.5t85 -26.5q56 0 82 27t26 84zM92 57q0 -201 78 -298q72 -89 214 -89q154 0 224 104q61 88 59 258l-1 82h-175l-5 -121q-7 -138 -104 -138q-60 0 -84 48.5t-24 151.5q0 62 15 115
q22 81 84 200q21 39 47 102q49 127 48 256l-1 90h-156l-1 -88q-2 -61 -17 -107q-23 -71 -93 -197q-26 -46 -52 -105q-56 -130 -56 -264z" />
    <glyph glyph-name="Agrave" unicode="&#xc0;" horiz-adv-x="717" 
d="M157 1865l143 -263h129l-111 263h-161zM191 0l40 307h257l40 -307h184l-227 1521h-251l-228 -1521h185zM359 1299l106 -818h-212z" />
    <glyph glyph-name="Aacute" unicode="&#xc1;" horiz-adv-x="717" 
d="M405 1865l-110 -263h134l148 263h-172zM191 0l40 307h257l40 -307h184l-227 1521h-251l-228 -1521h185zM359 1299l106 -818h-212z" />
    <glyph glyph-name="Acircumflex" unicode="&#xc2;" horiz-adv-x="717" 
d="M310 1602l54 133l54 -133h149l-117 236h-172l-117 -236h149zM191 0l40 307h257l40 -307h184l-227 1521h-251l-228 -1521h185zM359 1299l106 -818h-212z" />
    <glyph glyph-name="Atilde" unicode="&#xc3;" horiz-adv-x="717" 
d="M522 1850q-8 -18 -15.5 -30.5t-17 -20.5t-19.5 -12t-22 -4q-6 0 -13 1.5t-11.5 3.5t-13 6.5t-12 6.5t-13.5 8.5t-13 8.5q-14 8 -21.5 12.5t-21 10.5t-27 8.5t-27.5 2.5q-65 0 -105 -48q-37 -44 -61 -123l90 -39q27 67 77 67q23 0 71 -30l6 -4q54 -34 94 -34q63 0 107 49
q37 41 58 123zM191 0l40 307h257l40 -307h184l-227 1521h-251l-228 -1521h185zM359 1299l106 -818h-212z" />
    <glyph glyph-name="Adieresis" unicode="&#xc4;" horiz-adv-x="717" 
d="M166 1733q0 -96 87 -96q47 0 67.5 23.5t20.5 72.5q0 52 -20.5 75.5t-67.5 23.5q-45 0 -66 -24t-21 -75zM380 1733q0 -96 86 -96q47 0 68 23.5t21 72.5q0 52 -21 75.5t-68 23.5q-86 0 -86 -99zM191 0l40 307h257l40 -307h184l-227 1521h-251l-228 -1521h185zM359 1299
l106 -818h-212z" />
    <glyph glyph-name="Aring" unicode="&#xc5;" horiz-adv-x="717" 
d="M190 1777q0 -175 167 -175q91 0 132 44t41 131q0 46 -9.5 79.5t-30 56.5t-53.5 34t-80 11q-58 0 -95 -20t-54.5 -60t-17.5 -101zM307 1779q0 61 51 61q30 0 42 -15t12 -46q0 -61 -54 -61q-51 0 -51 61zM191 0l40 307h257l40 -307h184l-227 1521h-251l-228 -1521h185z
M359 1299l106 -818h-212z" />
    <glyph glyph-name="AE" unicode="&#xc6;" horiz-adv-x="955" 
d="M192 0l64 307h206v-307h456v183h-273v502h214v184h-214v467l273 1v184l-567 -1l-341 -1520h182zM292 481l170 817v-817h-170z" />
    <glyph glyph-name="Ccedilla" unicode="&#xc7;" horiz-adv-x="750" 
d="M688 1056h-184v99q0 103 -21 147q-27 55 -103 55q-77 0 -103 -55q-21 -44 -21 -158v-768q0 -114 20 -160q25 -61 105 -61q73 0 101 53q22 42 22 148v110h184v-111q0 -175 -59 -263q-63 -95 -202 -108v-55l14 3q24 3 32 3q53 0 88 -40q34 -40 34 -101q0 -82 -58 -127
q-54 -41 -147 -41q-52 0 -94.5 19t-66.5 50l30 73q30 -23 53 -32q31 -13 74 -13q34 0 54 16.5t20 47.5q0 36 -48 48q-42 11 -80 -2l1 151q-141 14 -202 110q-58 90 -58 279v770q0 190 59 283q71 114 248 114t250 -114q58 -90 58 -268v-102z" />
    <glyph glyph-name="Egrave" unicode="&#xc8;" horiz-adv-x="709" 
d="M163 1865l143 -263h129l-111 263h-161zM637 0v183h-352v502h294v184h-294v467l352 1v184l-534 -1v-1520h534z" />
    <glyph glyph-name="Eacute" unicode="&#xc9;" horiz-adv-x="709" 
d="M403 1865l-110 -263h134l148 263h-172zM637 0v183h-352v502h294v184h-294v467l352 1v184l-534 -1v-1520h534z" />
    <glyph glyph-name="Ecircumflex" unicode="&#xca;" horiz-adv-x="709" 
d="M313 1602l54 133l54 -133h149l-117 236h-172l-117 -236h149zM637 0v183h-352v502h294v184h-294v467l352 1v184l-534 -1v-1520h534z" />
    <glyph glyph-name="Edieresis" unicode="&#xcb;" horiz-adv-x="709" 
d="M169 1733q0 -96 87 -96q47 0 67.5 23.5t20.5 72.5q0 26 -5 44.5t-15.5 30.5t-27 18t-40.5 6q-45 0 -66 -24t-21 -75zM383 1733q0 -96 86 -96q47 0 68 23.5t21 72.5q0 52 -21 75.5t-68 23.5q-86 0 -86 -99zM637 0v183h-352v502h294v184h-294v467l352 1v184l-534 -1v-1520
h534z" />
    <glyph glyph-name="Igrave" unicode="&#xcc;" horiz-adv-x="392" 
d="M-14 1865l143 -263h129l-111 263h-161zM288 0v1521h-183v-1521h183z" />
    <glyph glyph-name="Iacute" unicode="&#xcd;" horiz-adv-x="392" 
d="M239 1865l-110 -263h134l148 263h-172zM288 0v1521h-183v-1521h183z" />
    <glyph glyph-name="Icircumflex" unicode="&#xce;" horiz-adv-x="392" 
d="M142 1602l54 133l54 -133h149l-117 236h-172l-117 -236h149zM288 0v1521h-183v-1521h183z" />
    <glyph glyph-name="Idieresis" unicode="&#xcf;" horiz-adv-x="392" 
d="M1 1733q0 -96 87 -96q47 0 67.5 23.5t20.5 72.5q0 52 -20.5 75.5t-67.5 23.5q-30 0 -49 -10.5t-28.5 -32.5t-9.5 -56zM215 1733q0 -96 86 -96q47 0 68 23.5t21 72.5q0 52 -21 75.5t-68 23.5q-86 0 -86 -99zM288 0v1521h-183v-1521h183z" />
    <glyph glyph-name="Eth" unicode="&#xd0;" horiz-adv-x="786" 
d="M13 619h79v-619h299q177 0 248 112q59 93 59 286v727q0 192 -59 284q-71 111 -246 111h-301v-733h-79v-168zM390 1336q72 0 99 -42q27 -45 27 -169v-724q0 -125 -26 -170q-27 -47 -93 -48h-123v436h110v168h-110v549h116z" />
    <glyph glyph-name="Ntilde" unicode="&#xd1;" horiz-adv-x="834" 
d="M603 1850q-15 -35 -32.5 -51t-41.5 -16q-6 0 -13 1.5t-11.5 3.5t-13 6.5t-12 6.5t-13.5 8.5t-13 8.5q-14 8 -21.5 12.5t-21 10.5t-27 8.5t-27.5 2.5q-65 0 -105 -48q-37 -44 -61 -123l90 -39q27 67 77 67q12 0 27 -6t22 -10.5t28 -17.5q54 -34 94 -34q63 0 107 49
q37 41 58 123zM277 0l-8 1048l-14 134l301 -1182h211v1521h-173l9 -1041l23 -211l-296 1252h-226v-1521h173z" />
    <glyph glyph-name="Ograve" unicode="&#xd2;" horiz-adv-x="760" 
d="M176 1865l143 -263h129l-111 263h-161zM72 380q0 -190 58 -282q71 -116 250 -116q177 0 249 114q59 93 59 284v762q0 190 -58 283q-73 115 -250 115t-249 -114q-59 -93 -59 -285v-761zM380 1357q79 0 105 -58q20 -45 20 -158v-760q0 -115 -21 -160q-26 -56 -104 -56
q-80 0 -105 59q-20 45 -20 157v759q0 115 21 161q26 56 104 56z" />
    <glyph glyph-name="Oacute" unicode="&#xd3;" horiz-adv-x="760" 
d="M415 1865l-110 -263h134l148 263h-172zM72 380q0 -190 58 -282q71 -116 250 -116q177 0 249 114q59 93 59 284v762q0 190 -58 283q-73 115 -250 115t-249 -114q-59 -93 -59 -285v-761zM380 1357q79 0 105 -58q20 -45 20 -158v-760q0 -115 -21 -160q-26 -56 -104 -56
q-80 0 -105 59q-20 45 -20 157v759q0 115 21 161q26 56 104 56z" />
    <glyph glyph-name="Ocircumflex" unicode="&#xd4;" horiz-adv-x="760" 
d="M325 1602l54 133l54 -133h149l-117 236h-172l-117 -236h149zM72 380q0 -190 58 -282q71 -116 250 -116q177 0 249 114q59 93 59 284v762q0 190 -58 283q-73 115 -250 115t-249 -114q-59 -93 -59 -285v-761zM380 1357q79 0 105 -58q20 -45 20 -158v-760q0 -115 -21 -160
q-26 -56 -104 -56q-80 0 -105 59q-20 45 -20 157v759q0 115 21 161q26 56 104 56z" />
    <glyph glyph-name="Otilde" unicode="&#xd5;" horiz-adv-x="760" 
d="M540 1850q-15 -35 -32.5 -51t-41.5 -16q-5 0 -10.5 1t-11 3t-10 4t-11 6t-10.5 6.5t-11.5 7.5t-11.5 7q-19 11 -29.5 16.5t-29.5 11.5t-38 6q-65 0 -105 -48q-37 -44 -61 -123l90 -39q27 67 77 67q12 0 27 -6t22 -10.5t28 -17.5q54 -34 94 -34q63 0 107 49q37 41 58 123z
M72 380q0 -190 58 -282q71 -116 250 -116q177 0 249 114q59 93 59 284v762q0 190 -58 283q-73 115 -250 115t-249 -114q-59 -93 -59 -285v-761zM380 1357q79 0 105 -58q20 -45 20 -158v-760q0 -115 -21 -160q-26 -56 -104 -56q-80 0 -105 59q-20 45 -20 157v759
q0 115 21 161q26 56 104 56z" />
    <glyph glyph-name="Odieresis" unicode="&#xd6;" horiz-adv-x="760" 
d="M185 1733q0 -96 87 -96q47 0 67.5 23.5t20.5 72.5q0 35 -8.5 56.5t-28 32t-51.5 10.5q-45 0 -66 -24t-21 -75zM399 1733q0 -96 86 -96q47 0 68 23.5t21 72.5q0 26 -5 44.5t-15.5 30.5t-27.5 18t-41 6q-86 0 -86 -99zM72 380q0 -190 58 -282q71 -116 250 -116
q177 0 249 114q59 93 59 284v762q0 190 -58 283q-73 115 -250 115t-249 -114q-59 -93 -59 -285v-761zM380 1357q79 0 105 -58q20 -45 20 -158v-760q0 -115 -21 -160q-26 -56 -104 -56q-80 0 -105 59q-20 45 -20 157v759q0 115 21 161q26 56 104 56z" />
    <glyph glyph-name="multiply" unicode="&#xd7;" horiz-adv-x="711" 
d="M93 523l113 -118l149 172l150 -171l114 118l-155 178l154 178l-113 117l-149 -171l-150 173l-113 -119l155 -179z" />
    <glyph glyph-name="Oslash" unicode="&#xd8;" horiz-adv-x="760" 
d="M305 -128l26 115q35 -5 70 -5v1l1 -1q177 0 249 114q59 93 59 284v762q0 206 -69 298l37 159l-163 47l-29 -114q-43 8 -84 8l-1 -1v1q-177 0 -248 -114q-59 -93 -59 -285v-761q0 -219 77 -310l-36 -162zM402 1357q79 0 105 -58q19 -45 19 -158v-760q0 -115 -20 -160
q-26 -56 -104 -56h-1q-79 0 -104 59q-20 45 -20 157v759q0 115 21 161q26 56 103 56h1z" />
    <glyph glyph-name="Ugrave" unicode="&#xd9;" horiz-adv-x="793" 
d="M183 1865l143 -263h129l-111 263h-161zM529 1520v-1142q0 -111 -21 -154q-29 -59 -108 -59q-80 0 -110 59q-24 47 -24 154v1142h-182v-1147q0 -190 64 -282q76 -109 252 -109q175 0 249 109q62 91 62 282v1147h-182z" />
    <glyph glyph-name="Uacute" unicode="&#xda;" horiz-adv-x="793" 
d="M431 1865l-110 -263h134l148 263h-172zM529 1520v-1142q0 -111 -21 -154q-29 -59 -108 -59q-80 0 -110 59q-24 47 -24 154v1142h-182v-1147q0 -190 64 -282q76 -109 252 -109q175 0 249 109q62 91 62 282v1147h-182z" />
    <glyph glyph-name="Ucircumflex" unicode="&#xdb;" horiz-adv-x="793" 
d="M336 1602l54 133l54 -133h149l-117 236h-172l-117 -236h149zM529 1520v-1142q0 -111 -21 -154q-29 -59 -108 -59q-80 0 -110 59q-24 47 -24 154v1142h-182v-1147q0 -190 64 -282q76 -109 252 -109q175 0 249 109q62 91 62 282v1147h-182z" />
    <glyph glyph-name="Udieresis" unicode="&#xdc;" horiz-adv-x="793" 
d="M195 1733q0 -96 87 -96q47 0 67.5 23.5t20.5 72.5q0 52 -20.5 75.5t-67.5 23.5q-45 0 -66 -24t-21 -75zM409 1733q0 -96 86 -96q47 0 68 23.5t21 72.5q0 26 -5 44.5t-15.5 30.5t-27.5 18t-41 6q-86 0 -86 -99zM529 1520v-1142q0 -111 -21 -154q-29 -59 -108 -59
q-80 0 -110 59q-24 47 -24 154v1142h-182v-1147q0 -190 64 -282q76 -109 252 -109q175 0 249 109q62 91 62 282v1147h-182z" />
    <glyph glyph-name="Yacute" unicode="&#xdd;" horiz-adv-x="705" 
d="M405 1865l-110 -263h134l148 263h-172zM702 1520h-181l-163 -677l-155 677h-200l262 -944v-576h182v576z" />
    <glyph glyph-name="Thorn" unicode="&#xde;" horiz-adv-x="777" 
d="M97 1521v-1521h182v283h102q158 0 231 77q83 86 83 295v192q0 196 -84 285q-76 80 -224 80h-108v309h-182zM511 655q0 -105 -29 -147q-30 -42 -103 -42h-100v562h108q67 0 95.5 -44.5t28.5 -136.5v-192z" />
    <glyph glyph-name="germandbls" unicode="&#xdf;" horiz-adv-x="747" 
d="M347 799h29q80 0 106 -60q21 -49 21 -175v-149q0 -129 -22 -178q-28 -63 -105 -63v-178q177 0 249 117q58 95 58 287v162q0 243 -140 325q66 38 100 112q30 66 30 154v68q0 160 -55 244q-72 110 -242 110q-179 0 -247 -118q-58 -98 -58 -326v-1131l182 1v1153
q0 140 20 187q13 29 37 42.5t66 13.5q71 0 98 -50q19 -36 19 -103v-93q0 -81 -19 -119q-27 -54 -91 -55h-36v-178z" />
    <glyph glyph-name="agrave" unicode="&#xe0;" horiz-adv-x="764" 
d="M170 1546l143 -263h129l-111 263h-161zM671 0v861q0 174 -60 261q-71 100 -238 100q-171 0 -238 -101q-54 -82 -54 -246v-68h178v70q0 87 19 121q25 44 96 44q76 0 100 -55q18 -41 18 -160v-167q-73 32 -165 32q-154 0 -212 -98q-44 -75 -44 -243q0 -174 51 -262
q63 -108 207 -108q67 0 105.5 27t58.5 92v-100h178zM370 161q-71 0 -98 52q-22 41 -22 130q0 87 18 129q27 63 99 63q79 0 125 -38v-127q0 -106 -19 -150q-27 -59 -103 -59z" />
    <glyph glyph-name="aacute" unicode="&#xe1;" horiz-adv-x="764" 
d="M416 1546l-110 -263h134l148 263h-172zM671 0v861q0 174 -60 261q-71 100 -238 100q-171 0 -238 -101q-54 -82 -54 -246v-68h178v70q0 87 19 121q25 44 96 44q76 0 100 -55q18 -41 18 -160v-167q-73 32 -165 32q-154 0 -212 -98q-44 -75 -44 -243q0 -174 51 -262
q63 -108 207 -108q67 0 105.5 27t58.5 92v-100h178zM370 161q-71 0 -98 52q-22 41 -22 130q0 87 18 129q27 63 99 63q79 0 125 -38v-127q0 -106 -19 -150q-27 -59 -103 -59z" />
    <glyph glyph-name="acircumflex" unicode="&#xe2;" horiz-adv-x="764" 
d="M331 1283l54 133l54 -133h149l-117 236h-172l-117 -236h149zM671 0v861q0 174 -60 261q-71 100 -238 100q-171 0 -238 -101q-54 -82 -54 -246v-68h178v70q0 87 19 121q25 44 96 44q76 0 100 -55q18 -41 18 -160v-167q-73 32 -165 32q-154 0 -212 -98q-44 -75 -44 -243
q0 -174 51 -262q63 -108 207 -108q67 0 105.5 27t58.5 92v-100h178zM370 161q-71 0 -98 52q-22 41 -22 130q0 87 18 129q27 63 99 63q79 0 125 -38v-127q0 -106 -19 -150q-27 -59 -103 -59z" />
    <glyph glyph-name="atilde" unicode="&#xe3;" horiz-adv-x="764" 
d="M546 1531q-15 -35 -32.5 -51t-41.5 -16q-6 0 -12.5 1.5t-11.5 3.5t-13.5 6.5t-12 6.5t-13.5 8.5t-13 8.5q-19 11 -29.5 16.5t-29.5 11.5t-38 6q-65 0 -105 -48q-37 -44 -61 -123l90 -39q27 67 77 67q12 0 27 -6t22 -10.5t28 -17.5q54 -34 94 -34q63 0 107 49
q37 41 58 123zM671 0v861q0 174 -60 261q-71 100 -238 100q-171 0 -238 -101q-54 -82 -54 -246v-68h178v70q0 87 19 121q25 44 96 44q76 0 100 -55q18 -40 18 -160v-167q-73 32 -165 32q-154 0 -212 -98q-44 -75 -44 -243q0 -174 51 -262q63 -108 207 -108q67 0 105.5 27
t58.5 92v-100h178zM370 161q-71 0 -98 52q-22 41 -22 130q0 87 18 129q27 63 99 63q79 0 125 -38v-127q0 -106 -19 -150q-27 -59 -103 -59z" />
    <glyph glyph-name="adieresis" unicode="&#xe4;" horiz-adv-x="764" 
d="M190 1414q0 -96 87 -96q32 0 51.5 11t28 31.5t8.5 53.5q0 52 -20.5 75.5t-67.5 23.5q-45 0 -66 -24t-21 -75zM404 1414q0 -96 86 -96q47 0 68 23.5t21 72.5q0 34 -9 56t-28.5 32.5t-51.5 10.5q-86 0 -86 -99zM671 0v861q0 174 -60 261q-71 100 -238 100q-171 0 -238 -101
q-54 -82 -54 -246v-68h178v70q0 87 19 121q25 44 96 44q76 0 100 -55q18 -41 18 -160v-167q-73 32 -165 32q-154 0 -212 -98q-44 -75 -44 -243q0 -174 51 -262q63 -108 207 -108q67 0 105.5 27t58.5 92v-100h178zM370 161q-71 0 -98 52q-22 41 -22 130q0 87 18 129
q27 63 99 63q79 0 125 -38v-127q0 -106 -19 -150q-27 -59 -103 -59z" />
    <glyph glyph-name="aring" unicode="&#xe5;" horiz-adv-x="764" 
d="M215 1458q0 -175 167 -175q91 0 132 44t41 131q0 62 -17 101t-55.5 59.5t-100.5 20.5q-58 0 -95 -20t-54.5 -60t-17.5 -101zM332 1460q0 61 51 61q20 0 32 -7.5t17 -20.5t5 -33q0 -61 -54 -61q-51 0 -51 61zM671 0v861q0 174 -60 261q-71 100 -238 100q-171 0 -238 -101
q-54 -82 -54 -246v-68h178v70q0 87 19 121q25 44 96 44q76 0 100 -55q18 -41 18 -160v-167q-73 32 -165 32q-154 0 -212 -98q-44 -75 -44 -243q0 -174 51 -262q63 -108 207 -108q67 0 105.5 27t58.5 92v-100h178zM370 161q-71 0 -98 52q-22 41 -22 130q0 87 18 129
q27 63 99 63q79 0 125 -38v-127q0 -106 -19 -150q-27 -59 -103 -59z" />
    <glyph glyph-name="ae" unicode="&#xe6;" horiz-adv-x="1185" 
d="M910 406v-23q0 -109 -18 -154q-26 -67 -101 -67q-77 0 -103 81q-17 51 -17 179v80l416 88v225q0 185 -52 280q-70 127 -244 127q-140 0 -206 -90q-64 90 -211 90q-166 0 -238 -126q-54 -95 -54 -271v-18h179v20q0 96 19 145q27 70 95 70q75 0 101 -78q17 -54 17 -182
v-122q-73 32 -164 32q-154 0 -212 -95q-45 -73 -45 -240q0 -173 57 -265q69 -111 222 -111q69 0 127 28.5t98 76.5q65 -104 217 -104q173 0 242 123q52 93 52 279v22h-177zM791 1042q76 0 102 -71q17 -46 17 -154v-97l-239 -55v116q0 129 18 183q26 78 102 78zM374 161
q-69 0 -97 57q-22 45 -22 136q0 84 18 123q25 58 98 58q80 0 124 -38v-91q0 -111 -22 -167q-31 -78 -99 -78z" />
    <glyph glyph-name="ccedilla" unicode="&#xe7;" horiz-adv-x="730" 
d="M667 807h-179v40q0 97 -16 135q-27 60 -102 60q-76 0 -101 -58q-17 -39 -17 -162v-338v-97q-2 -106 10 -148q12 -50 55 -68q21 -9 53 -9q74 0 100 58q18 39 18 138v37h179v-36q0 -177 -52 -262q-62 -102 -205 -114v-54l14 3q24 3 32 3q53 0 88 -40q34 -40 34 -101
q0 -82 -58 -127q-54 -41 -147 -41q-52 0 -94.5 19t-66.5 50l30 73q30 -23 53 -32q31 -13 74 -13q34 0 54 16.5t20 47.5q0 36 -48 48q-42 11 -80 -2l1 152q-133 15 -190 114q-54 88 -54 284v368v63q0 43 1 62q2 174 61 253q68 93 236 93q173 0 244 -117q53 -88 53 -260v-38z
" />
    <glyph glyph-name="egrave" unicode="&#xe8;" horiz-adv-x="736" 
d="M168 1546l143 -263h129l-111 263h-161zM488 406v-37q0 -106 -18 -148q-26 -59 -101 -59q-78 0 -103 58q-17 39 -17 157v125l417 88v244q0 181 -52 270q-69 118 -245 118q-175 0 -244 -111q-54 -87 -54 -282v-451q0 -194 54 -281q69 -115 246 -115q175 0 243 117
q52 88 52 271v36h-178zM369 1042q77 0 103 -61q16 -41 16 -145v-117l-239 -54v166q0 119 18 158q24 53 102 53z" />
    <glyph glyph-name="eacute" unicode="&#xe9;" horiz-adv-x="736" 
d="M405 1546l-110 -263h134l148 263h-172zM488 406v-37q0 -106 -18 -148q-26 -59 -101 -59q-78 0 -103 58q-17 39 -17 157v125l417 88v244q0 181 -52 270q-69 118 -245 118q-175 0 -244 -111q-54 -87 -54 -282v-451q0 -194 54 -281q69 -115 246 -115q175 0 243 117
q52 88 52 271v36h-178zM369 1042q77 0 103 -61q16 -41 16 -145v-117l-239 -54v166q0 119 18 158q24 53 102 53z" />
    <glyph glyph-name="ecircumflex" unicode="&#xea;" horiz-adv-x="736" 
d="M314 1283l54 133l54 -133h149l-117 236h-172l-117 -236h149zM488 406v-37q0 -106 -18 -148q-26 -59 -101 -59q-78 0 -103 58q-17 39 -17 157v125l417 88v244q0 181 -52 270q-69 118 -245 118q-175 0 -244 -111q-54 -87 -54 -282v-451q0 -194 54 -281q69 -115 246 -115
q175 0 243 117q52 88 52 271v36h-178zM369 1042q77 0 103 -61q16 -40 16 -145v-117l-239 -54v166q0 119 18 158q24 53 102 53z" />
    <glyph glyph-name="edieresis" unicode="&#xeb;" horiz-adv-x="736" 
d="M174 1414q0 -96 87 -96q47 0 67.5 23.5t20.5 72.5q0 52 -20.5 75.5t-67.5 23.5q-45 0 -66 -24t-21 -75zM388 1414q0 -96 86 -96q47 0 68 23.5t21 72.5q0 34 -9 56t-28.5 32.5t-51.5 10.5q-86 0 -86 -99zM488 406v-37q0 -106 -18 -148q-26 -59 -101 -59q-78 0 -103 58
q-17 39 -17 157v125l417 88v244q0 181 -52 270q-69 118 -245 118q-175 0 -244 -111q-54 -87 -54 -282v-451q0 -194 54 -281q69 -115 246 -115q175 0 243 117q52 88 52 271v36h-178zM369 1042q77 0 103 -61q16 -41 16 -145v-117l-239 -54v166q0 119 18 158q24 53 102 53z" />
    <glyph glyph-name="igrave" unicode="&#xec;" 
d="M-22 1546l143 -263h129l-111 263h-161zM276 0v1202h-179v-1202h179z" />
    <glyph glyph-name="iacute" unicode="&#xed;" 
d="M228 1546l-110 -263h134l148 263h-172zM276 0v1202h-179v-1202h179z" />
    <glyph glyph-name="icircumflex" unicode="&#xee;" 
d="M133 1283l54 133l54 -133h149l-117 236h-172l-117 -236h149zM276 0v1202h-179v-1202h179z" />
    <glyph glyph-name="idieresis" unicode="&#xef;" 
d="M-8 1414q0 -96 87 -96q47 0 67.5 23.5t20.5 72.5q0 52 -20.5 75.5t-67.5 23.5q-45 0 -66 -24t-21 -75zM206 1414q0 -96 86 -96q47 0 68 23.5t21 72.5q0 34 -9 56t-28.5 32.5t-51.5 10.5q-86 0 -86 -99zM276 0v1202h-179v-1202h179z" />
    <glyph glyph-name="eth" unicode="&#xf0;" horiz-adv-x="765" 
d="M280 1305l74 -63l61 78q59 -87 81 -239q-21 52 -59 77.5t-102 25.5q-151 0 -209 -125q-41 -90 -41 -297v-373q0 -194 53 -287q68 -120 246 -120q172 0 241 119q54 93 54 289v501q0 216 -46 369q-37 122 -107 204l52 67l-73 64l-52 -66q-59 39 -137 50l-78 -152
q2 -1 8 -1.5t9 -0.5q16 -2 24 -5q36 -10 67 -30zM383 162q-79 0 -102 60q-17 41 -17 159v402q0 121 18 165q23 60 101 60q75 0 101 -70q15 -44 15 -170v-355q0 -142 -16 -187q-24 -64 -100 -64z" />
    <glyph glyph-name="ntilde" unicode="&#xf1;" horiz-adv-x="777" 
d="M562 1531q-15 -35 -32.5 -51t-41.5 -16q-6 0 -12.5 1.5t-11.5 3.5t-13.5 6.5t-12 6.5t-13.5 8.5t-13 8.5q-19 11 -29.5 16.5t-29.5 11.5t-38 6q-65 0 -105 -48q-37 -44 -61 -123l90 -39q27 67 77 67q12 0 27 -6t22 -10.5t28 -17.5q54 -34 94 -34q63 0 107 49
q37 41 58 123zM689 0v810q0 196 -44 288q-59 122 -207 122q-129 0 -163 -108v90h-179v-1202h179v820q0 118 20 163q24 58 98 58q77 0 101 -58q16 -39 16 -156v-827h179z" />
    <glyph glyph-name="ograve" unicode="&#xf2;" horiz-adv-x="737" 
d="M155 1546l143 -263h129l-111 263h-161zM70 380q0 -192 54 -282q69 -116 246 -116q176 0 243 115q52 88 52 284v442q0 194 -53 283q-69 116 -244 116t-244 -115q-54 -90 -54 -285v-442zM368 1042q78 0 101 -58q16 -41 16 -159v-445q0 -120 -17 -161q-25 -57 -100 -57
q-77 0 -101 59q-17 39 -17 158v445q0 120 18 162q23 56 100 56z" />
    <glyph glyph-name="oacute" unicode="&#xf3;" horiz-adv-x="737" 
d="M401 1546l-110 -263h134l148 263h-172zM70 380q0 -192 54 -282q69 -116 246 -116q176 0 243 115q52 88 52 284v442q0 194 -53 283q-69 116 -244 116t-244 -115q-54 -90 -54 -285v-442zM368 1042q78 0 101 -58q16 -41 16 -159v-445q0 -120 -17 -161q-25 -57 -100 -57
q-77 0 -101 59q-17 39 -17 158v445q0 120 18 162q23 56 100 56z" />
    <glyph glyph-name="ocircumflex" unicode="&#xf4;" horiz-adv-x="737" 
d="M305 1283l54 133l54 -133h149l-117 236h-172l-117 -236h149zM70 380q0 -192 54 -282q69 -116 246 -116q176 0 243 115q52 88 52 284v442q0 194 -53 283q-69 116 -244 116t-244 -115q-54 -90 -54 -285v-442zM368 1042q78 0 101 -58q16 -41 16 -159v-445q0 -120 -17 -161
q-25 -57 -100 -57q-77 0 -101 59q-17 39 -17 158v445q0 120 18 162q23 56 100 56z" />
    <glyph glyph-name="otilde" unicode="&#xf5;" horiz-adv-x="737" 
d="M519 1531q-10 -24 -21 -38.5t-24 -21.5t-29 -7q-6 0 -13 1.5t-11.5 3.5t-13 6.5t-12 6.5t-13.5 8.5t-13 8.5q-19 11 -29.5 16.5t-29.5 11.5t-38 6q-65 0 -105 -48q-37 -44 -61 -123l90 -39q27 67 77 67q12 0 27 -6t22 -10.5t28 -17.5q54 -34 94 -34q63 0 107 49
q37 41 58 123zM70 380q0 -192 54 -282q69 -116 246 -116q176 0 243 115q52 88 52 284v442q0 194 -53 283q-69 116 -244 116t-244 -115q-54 -90 -54 -285v-442zM368 1042q78 0 101 -58q16 -41 16 -159v-445q0 -120 -17 -161q-25 -57 -100 -57q-77 0 -101 59q-17 39 -17 158
v445q0 120 18 162q23 56 100 56z" />
    <glyph glyph-name="odieresis" unicode="&#xf6;" horiz-adv-x="737" 
d="M161 1414q0 -96 87 -96q47 0 67.5 23.5t20.5 72.5q0 52 -20.5 75.5t-67.5 23.5q-45 0 -66 -24t-21 -75zM375 1414q0 -96 86 -96q47 0 68 23.5t21 72.5q0 34 -9 56t-28.5 32.5t-51.5 10.5q-86 0 -86 -99zM70 380q0 -192 54 -282q69 -116 246 -116q176 0 243 115
q52 88 52 284v442q0 194 -53 283q-69 116 -244 116t-244 -115q-54 -90 -54 -285v-442zM368 1042q78 0 101 -58q16 -41 16 -159v-445q0 -120 -17 -161q-25 -57 -100 -57q-77 0 -101 59q-17 39 -17 158v445q0 120 18 162q23 56 100 56z" />
    <glyph glyph-name="divide" unicode="&#xf7;" horiz-adv-x="710" 
d="M247 996q0 -107 107 -107q59 0 85 26t26 81q0 58 -26 84.5t-85 26.5q-107 0 -107 -111zM632 619v168h-554v-168h554zM247 406q0 -107 107 -107q40 0 64.5 12t35.5 35t11 60q0 58 -26 84.5t-85 26.5q-107 0 -107 -111z" />
    <glyph glyph-name="oslash" unicode="&#xf8;" horiz-adv-x="737" 
d="M754 1272l-113 43l-51 -124q-59 31 -153 31q-175 0 -244 -115q-54 -90 -54 -285v-442q0 -172 42 -260l-70 -180l119 -37l46 114q62 -35 163 -35q176 0 243 115q52 88 52 284v442q0 184 -48 273zM437 1042q78 0 101 -58q16 -41 16 -159v-445q0 -120 -17 -161
q-25 -57 -100 -57q-77 0 -101 59q-17 39 -17 158v445q0 120 18 162q23 56 100 56z" />
    <glyph glyph-name="ugrave" unicode="&#xf9;" horiz-adv-x="781" 
d="M182 1546l143 -263h129l-111 263h-161zM505 1202v-851q-2 -101 -21 -140q-25 -50 -95 -50q-79 0 -102 60q-16 42 -16 159v822h-179v-809q0 -199 43 -289q59 -122 213 -122q114 0 157 107v-89h180v1202h-180z" />
    <glyph glyph-name="uacute" unicode="&#xfa;" horiz-adv-x="781" 
d="M427 1546l-110 -263h134l148 263h-172zM505 1202v-851q-2 -101 -21 -140q-25 -50 -95 -50q-79 0 -102 60q-16 42 -16 159v822h-179v-809q0 -199 43 -289q59 -122 213 -122q114 0 157 107v-89h180v1202h-180z" />
    <glyph glyph-name="ucircumflex" unicode="&#xfb;" horiz-adv-x="781" 
d="M332 1283l54 133l54 -133h149l-117 236h-172l-117 -236h149zM505 1202v-851q-2 -101 -21 -140q-25 -50 -95 -50q-79 0 -102 60q-16 42 -16 159v822h-179v-809q0 -199 43 -289q59 -122 213 -122q114 0 157 107v-89h180v1202h-180z" />
    <glyph glyph-name="udieresis" unicode="&#xfc;" horiz-adv-x="781" 
d="M191 1414q0 -96 87 -96q32 0 51.5 11t28 31.5t8.5 53.5q0 52 -20.5 75.5t-67.5 23.5q-45 0 -66 -24t-21 -75zM405 1414q0 -96 86 -96q47 0 68 23.5t21 72.5q0 34 -9 56t-28.5 32.5t-51.5 10.5q-86 0 -86 -99zM505 1202v-851q-2 -101 -21 -140q-25 -50 -95 -50
q-79 0 -102 60q-16 42 -16 159v822h-179v-809q0 -199 43 -289q59 -122 213 -122q114 0 157 107v-89h180v1202h-180z" />
    <glyph glyph-name="yacute" unicode="&#xfd;" horiz-adv-x="669" 
d="M375 1546l-110 -263h134l148 263h-172zM8 1203l186 -1203h114l-3 -24q-17 -109 -58 -177q-35 -59 -91 -94l80 -130q189 98 238 408l62 401q84 535 126 819h-184l-124 -901l-20 -134l-142 1035h-184z" />
    <glyph glyph-name="thorn" unicode="&#xfe;" horiz-adv-x="788" 
d="M276 -366v462q40 -114 161 -114q153 0 211 118q43 90 43 289v421q0 199 -43 290q-59 122 -213 122q-63 0 -101 -29.5t-58 -86.5v462h-179v-1934h179zM395 1042q78 0 101 -60q16 -42 16 -159v-441q0 -120 -17 -162q-25 -58 -100 -58q-78 0 -102 68q-16 46 -16 167v409
q0 124 18 170q24 66 100 66z" />
    <glyph glyph-name="ydieresis" unicode="&#xff;" horiz-adv-x="669" 
d="M149 1414q0 -96 87 -96q47 0 67.5 23.5t20.5 72.5q0 52 -20.5 75.5t-67.5 23.5q-45 0 -66 -24t-21 -75zM363 1414q0 -96 86 -96q24 0 41 6t27.5 18t15.5 30t5 42q0 34 -9 56t-28.5 32.5t-51.5 10.5q-86 0 -86 -99zM8 1203l186 -1203h114l-3 -24q-17 -109 -58 -177
q-35 -59 -91 -94l80 -130q189 98 238 408l62 401q84 535 126 819h-184l-124 -901l-20 -134l-142 1035h-184z" />
    <glyph glyph-name="Amacron" unicode="&#x100;" horiz-adv-x="717" 
d="M557 1680v146h-393v-146h393zM191 0l40 307h257l40 -307h184l-227 1521h-251l-228 -1521h185zM359 1299l106 -818h-212z" />
    <glyph glyph-name="amacron" unicode="&#x101;" horiz-adv-x="764" 
d="M581 1361v146h-393v-146h393zM671 0v861q0 174 -60 261q-71 100 -238 100q-171 0 -238 -101q-54 -82 -54 -246v-68h178v70q0 87 19 121q25 44 96 44q76 0 100 -55q18 -41 18 -160v-167q-73 32 -165 32q-154 0 -212 -98q-44 -75 -44 -243q0 -174 51 -262q63 -108 207 -108
q67 0 105.5 27t58.5 92v-100h178zM370 161q-71 0 -98 52q-22 41 -22 130q0 87 18 129q27 63 99 63q79 0 125 -38v-127q0 -106 -19 -150q-27 -59 -103 -59z" />
    <glyph glyph-name="Abreve" unicode="&#x102;" horiz-adv-x="717" 
d="M488 1847q-7 -70 -29 -99q-27 -35 -96 -35t-97 37q-21 27 -28 97h-105q2 -111 53 -174q58 -71 177 -71q118 0 175 70q50 61 55 175h-105zM191 0l40 307h257l40 -307h184l-227 1521h-251l-228 -1521h185zM359 1299l106 -818h-212z" />
    <glyph glyph-name="abreve" unicode="&#x103;" horiz-adv-x="764" 
d="M507 1528q-7 -70 -29 -99q-27 -35 -96 -35t-97 37q-21 27 -28 97h-105q2 -111 53 -174q58 -71 177 -71q118 0 175 70q50 61 55 175h-105zM671 0v861q0 174 -60 261q-71 100 -238 100q-171 0 -238 -101q-54 -82 -54 -246v-68h178v70q0 87 19 121q25 44 96 44q76 0 100 -55
q18 -41 18 -160v-167q-73 32 -165 32q-154 0 -212 -98q-44 -75 -44 -243q0 -174 51 -262q63 -108 207 -108q67 0 105.5 27t58.5 92v-100h178zM370 161q-71 0 -98 52q-22 41 -22 130q0 87 18 129q27 63 99 63q79 0 125 -38v-127q0 -106 -19 -150q-27 -59 -103 -59z" />
    <glyph glyph-name="Aogonek" unicode="&#x104;" horiz-adv-x="717" 
d="M751 -263l11 -109q-39 -44 -122 -44t-134 48q-58 53 -58 161q0 95 59 157q24 25 62 50h-41l-40 307h-257l-40 -307h-185l228 1521h251l227 -1519l4 -2q-56 -39 -82 -82.5t-26 -109.5q0 -93 67 -93q19 0 32.5 2.5t22 7t21.5 12.5zM253 481h212l-106 818z" />
    <glyph glyph-name="aogonek" unicode="&#x105;" horiz-adv-x="764" 
d="M705 -263l11 -109q-39 -44 -122 -44t-134 48q-58 53 -58 161q0 95 59 157q24 25 62 50h-30v100q-20 -65 -58.5 -92t-105.5 -27q-144 0 -207 108q-51 88 -51 262q0 168 44 243q58 98 212 98q92 0 165 -32v167q0 119 -18 160q-24 55 -100 55q-71 0 -96 -44
q-19 -34 -19 -121v-70h-178v68q0 164 54 246q67 101 238 101q167 0 238 -100q60 -87 60 -261v-861h-1q-56 -39 -82 -82.5t-26 -109.5q0 -93 67 -93q19 0 32.5 2.5t22 7t21.5 12.5zM492 370v127q-46 38 -125 38q-72 0 -99 -63q-18 -42 -18 -129q0 -89 22 -130q27 -52 98 -52
q76 0 103 59q19 44 19 150z" />
    <glyph glyph-name="Cacute" unicode="&#x106;" horiz-adv-x="750" 
d="M420 1865l-110 -263h134l148 263h-172zM504 466v-110q0 -106 -22 -148q-28 -53 -101 -53q-80 0 -105 61q-20 46 -20 160v768q0 114 21 158q26 55 103 55q76 0 103 -55q21 -44 21 -147v-99h184v102q0 178 -58 268q-73 114 -250 114t-248 -114q-59 -93 -59 -283v-770
q0 -189 58 -279q72 -112 250 -112q175 0 248 110q59 88 59 263v111h-184z" />
    <glyph glyph-name="cacute" unicode="&#x107;" horiz-adv-x="730" 
d="M413 1575l-110 -263h134l148 263h-172zM488 358q0 -99 -18 -138q-26 -58 -100 -58q-32 0 -53 9q-43 18 -55 68q-12 42 -10 148v97v338q0 123 17 162q25 58 101 58q75 0 102 -60q16 -38 16 -135v-40h179v38q0 172 -53 260q-71 117 -244 117q-168 0 -236 -93
q-59 -79 -61 -253q-1 -19 -1 -62v-63v-368q0 -196 54 -284q69 -117 246 -117q173 0 243 115q52 85 52 262v36h-179v-37z" />
    <glyph glyph-name="Ccircumflex" unicode="&#x108;" horiz-adv-x="750" 
d="M327 1602l54 133l54 -133h149l-117 236h-172l-117 -236h149zM504 466v-110q0 -106 -22 -148q-28 -53 -101 -53q-80 0 -105 61q-20 46 -20 160v768q0 114 21 158q26 55 103 55q76 0 103 -55q21 -44 21 -147v-99h184v102q0 178 -58 268q-73 114 -250 114t-248 -114
q-59 -93 -59 -283v-770q0 -189 58 -279q72 -112 250 -112q175 0 248 110q59 88 59 263v111h-184z" />
    <glyph glyph-name="ccircumflex" unicode="&#x109;" horiz-adv-x="730" 
d="M315 1283l54 133l54 -133h149l-117 236h-172l-117 -236h149zM488 358q0 -99 -18 -138q-26 -58 -100 -58q-32 0 -53 9q-43 18 -55 68q-12 42 -10 148v97v338q0 123 17 162q25 58 101 58q75 0 102 -60q16 -38 16 -135v-40h179v38q0 172 -53 260q-71 117 -244 117
q-168 0 -236 -93q-59 -79 -61 -253q-1 -19 -1 -62v-63v-368q0 -196 54 -284q69 -117 246 -117q173 0 243 115q52 85 52 262v36h-179v-37z" />
    <glyph glyph-name="Cdotaccent" unicode="&#x10a;" horiz-adv-x="750" 
d="M273 1725q0 -55 26 -81t82 -26q39 0 63.5 12t35.5 35t11 60q0 58 -25.5 84.5t-84.5 26.5q-29 0 -49 -6.5t-33.5 -20.5t-19.5 -34.5t-6 -49.5zM504 466v-110q0 -106 -22 -148q-28 -53 -101 -53q-80 0 -105 61q-20 46 -20 160v768q0 114 21 158q26 55 103 55q76 0 103 -55
q21 -44 21 -147v-99h184v102q0 178 -58 268q-73 114 -250 114t-248 -114q-59 -93 -59 -283v-770q0 -189 58 -279q72 -112 250 -112q175 0 248 110q59 88 59 263v111h-184z" />
    <glyph glyph-name="cdotaccent" unicode="&#x10b;" horiz-adv-x="730" 
d="M260 1416q0 -36 11 -59.5t35 -35.5t62 -12q58 0 84 26t26 81q0 58 -25.5 84.5t-84.5 26.5q-38 0 -62 -12t-35 -36.5t-11 -62.5zM488 358q0 -99 -18 -138q-26 -58 -100 -58q-32 0 -53 9q-43 18 -55 68q-12 42 -10 148v97v338q0 123 17 162q25 58 101 58q75 0 102 -60
q16 -38 16 -135v-40h179v38q0 172 -53 260q-71 117 -244 117q-168 0 -236 -93q-59 -79 -61 -253q-1 -19 -1 -62v-63v-368q0 -196 54 -284q69 -117 246 -117q173 0 243 115q52 85 52 262v36h-179v-37z" />
    <glyph glyph-name="Ccaron" unicode="&#x10c;" horiz-adv-x="750" 
d="M180 1838l117 -236h172l117 236h-149l-54 -133l-53 133h-150zM504 466v-110q0 -106 -22 -148q-28 -53 -101 -53q-80 0 -105 61q-20 46 -20 160v768q0 114 21 158q26 55 103 55q76 0 103 -55q21 -44 21 -147v-99h184v102q0 178 -58 268q-73 114 -250 114t-248 -114
q-59 -93 -59 -283v-770q0 -189 58 -279q72 -112 250 -112q175 0 248 110q59 88 59 263v111h-184z" />
    <glyph glyph-name="ccaron" unicode="&#x10d;" horiz-adv-x="730" 
d="M166 1519l117 -236h172l117 236h-149l-54 -133l-53 133h-150zM488 358q0 -99 -18 -138q-26 -58 -100 -58q-32 0 -53 9q-43 18 -55 68q-12 42 -10 148v97v338q0 123 17 162q25 58 101 58q75 0 102 -60q16 -38 16 -135v-40h179v38q0 172 -53 260q-71 117 -244 117
q-168 0 -236 -93q-59 -79 -61 -253q-1 -19 -1 -62v-63v-368q0 -196 54 -284q69 -117 246 -117q173 0 243 115q52 85 52 262v36h-179v-37z" />
    <glyph glyph-name="Dcaron" unicode="&#x10e;" horiz-adv-x="781" 
d="M166 1838l117 -236h172l117 236h-149l-54 -133l-53 133h-150zM103 1520v-1520h300q176 0 247 112q59 93 59 286v727q0 192 -59 284q-71 111 -246 111h-301zM401 1336q72 0 99 -42q27 -45 27 -169v-724q0 -125 -27 -172q-28 -46 -99 -46h-116v1153h116z" />
    <glyph glyph-name="dcaron" unicode="&#x10f;" horiz-adv-x="770" 
d="M663 0v1568h-178v-460q-14 36 -33.5 60t-51 38.5t-74.5 14.5q-154 0 -213 -123q-44 -92 -44 -283v-426q0 -200 44 -289q57 -118 211 -118q63 0 101.5 29t59.5 85v-96h178zM730 1568l18 -287h124l20 287h-162zM367 162q-77 0 -100 58q-18 42 -18 162v441q0 118 17 159
q23 60 101 60q74 0 100 -66q17 -46 17 -170v-409q0 -121 -16 -167q-24 -68 -101 -68z" />
    <glyph glyph-name="Dcroat" unicode="&#x110;" horiz-adv-x="786" 
d="M-35 663h127v-663h299q177 0 248 112q59 93 59 286v727q0 192 -59 284q-71 111 -246 111h-301v-712h-127v-145zM390 1336q72 0 99 -42q27 -45 27 -169v-724q0 -125 -26 -170q-27 -46 -93 -48h-123v480h84v145h-84v528h116z" />
    <glyph glyph-name="dcroat" unicode="&#x111;" horiz-adv-x="770" 
d="M652 0v1300h79v167h-79v101h-179v-101h-99v-167h99v-218q-22 67 -59.5 103t-99.5 36q-153 0 -211 -135q-44 -100 -44 -307v-356q0 -204 44 -305q59 -137 213 -137q41 0 72.5 18t51 47.5t33.5 73.5v-120h179zM356 161q-76 0 -101 80q-17 51 -17 179v361q0 128 18 182
q26 78 100 78q64 0 92 -68q19 -47 25 -152v-443q-5 -100 -27 -151q-28 -66 -90 -66z" />
    <glyph glyph-name="Emacron" unicode="&#x112;" horiz-adv-x="709" 
d="M564 1680v146h-393v-146h393zM637 0v183h-352v502h294v184h-294v467l352 1v184l-534 -1v-1520h534z" />
    <glyph glyph-name="emacron" unicode="&#x113;" horiz-adv-x="736" 
d="M565 1361v146h-393v-146h393zM488 406v-37q0 -106 -18 -148q-26 -59 -101 -59q-78 0 -103 58q-17 39 -17 157v125l417 88v244q0 181 -52 270q-69 118 -245 118q-175 0 -244 -111q-54 -87 -54 -282v-451q0 -194 54 -281q69 -115 246 -115q175 0 243 117q52 88 52 271v36
h-178zM369 1042q77 0 103 -61q16 -40 16 -145v-117l-239 -54v166q0 119 18 158q24 53 102 53z" />
    <glyph glyph-name="Ebreve" unicode="&#x114;" horiz-adv-x="709" 
d="M492 1847q-7 -70 -29 -99q-27 -35 -96 -35t-97 37q-21 27 -28 97h-105q2 -111 53 -174q58 -71 177 -71q118 0 175 70q50 61 55 175h-105zM637 0v183h-352v502h294v184h-294v467l352 1v184l-534 -1v-1520h534z" />
    <glyph glyph-name="ebreve" unicode="&#x115;" horiz-adv-x="736" 
d="M490 1528q-7 -70 -29 -99q-27 -35 -96 -35t-97 37q-21 27 -28 97h-105q2 -111 53 -174q58 -71 177 -71q118 0 175 70q50 61 55 175h-105zM488 406v-37q0 -106 -18 -148q-26 -59 -101 -59q-78 0 -103 58q-17 39 -17 157v125l417 88v244q0 181 -52 270q-69 118 -245 118
q-175 0 -244 -111q-54 -87 -54 -282v-451q0 -194 54 -281q69 -115 246 -115q175 0 243 117q52 88 52 271v36h-178zM369 1042q77 0 103 -61q16 -41 16 -145v-117l-239 -54v166q0 119 18 158q24 53 102 53z" />
    <glyph glyph-name="Edotaccent" unicode="&#x116;" horiz-adv-x="709" 
d="M259 1725q0 -36 11 -59.5t35 -35.5t62 -12q58 0 84 26t26 81q0 58 -25.5 84.5t-84.5 26.5q-38 0 -62 -12t-35 -36.5t-11 -62.5zM637 0v183h-352v502h294v184h-294v467l352 1v184l-534 -1v-1520h534z" />
    <glyph glyph-name="edotaccent" unicode="&#x117;" horiz-adv-x="736" 
d="M260 1425q0 -55 26 -81t82 -26q58 0 84 26t26 81q0 58 -25.5 84.5t-84.5 26.5q-38 0 -62 -12t-35 -36.5t-11 -62.5zM488 406v-37q0 -106 -18 -148q-26 -59 -101 -59q-78 0 -103 58q-17 39 -17 157v125l417 88v244q0 181 -52 270q-69 118 -245 118q-175 0 -244 -111
q-54 -87 -54 -282v-451q0 -194 54 -281q69 -115 246 -115q175 0 243 117q52 88 52 271v36h-178zM369 1042q77 0 103 -61q16 -40 16 -145v-117l-239 -54v166q0 119 18 158q24 53 102 53z" />
    <glyph glyph-name="Eogonek" unicode="&#x118;" horiz-adv-x="709" 
d="M672 -263l11 -109q-39 -44 -122 -44t-134 48q-58 53 -58 161q0 95 59 157q24 25 62 50h-387v1520l534 1v-184l-352 -1v-467h294v-184h-294v-502h352v-183q-56 -39 -82 -82.5t-26 -109.5q0 -93 67 -93q27 0 42 5t34 17z" />
    <glyph glyph-name="eogonek" unicode="&#x119;" horiz-adv-x="736" 
d="M666 590l-417 -88v-125q0 -118 17 -157q25 -58 103 -58q75 0 101 59q18 42 18 148v37h178v-36q0 -183 -52 -271q-27 -47 -69 -73l2 -1q-56 -39 -82 -82.5t-26 -109.5q0 -93 67 -93q27 0 42 5t34 17l11 -109q-39 -44 -122 -44t-134 48q-58 53 -58 161q0 95 59 157l3.5 3.5
t3.5 4.5q-156 7 -220 114q-54 87 -54 281v451q0 195 54 282q69 111 244 111q176 0 245 -118q52 -89 52 -270v-244zM249 831v-166l239 54v117q0 104 -16 145q-26 61 -103 61q-78 0 -102 -53q-18 -39 -18 -158z" />
    <glyph glyph-name="Ecaron" unicode="&#x11a;" horiz-adv-x="709" 
d="M169 1838l117 -236h172l117 236h-149l-54 -133l-53 133h-150zM637 0v183h-352v502h294v184h-294v467l352 1v184l-534 -1v-1520h534z" />
    <glyph glyph-name="ecaron" unicode="&#x11b;" horiz-adv-x="736" 
d="M165 1519l117 -236h172l117 236h-149l-54 -133l-53 133h-150zM488 406v-37q0 -106 -18 -148q-26 -59 -101 -59q-78 0 -103 58q-17 39 -17 157v125l417 88v244q0 181 -52 270q-69 118 -245 118q-175 0 -244 -111q-54 -87 -54 -282v-451q0 -194 54 -281q69 -115 246 -115
q175 0 243 117q52 88 52 271v36h-178zM369 1042q77 0 103 -61q16 -41 16 -145v-117l-239 -54v166q0 119 18 158q24 53 102 53z" />
    <glyph glyph-name="Gcircumflex" unicode="&#x11c;" horiz-adv-x="758" 
d="M326 1602l54 133l54 -133h149l-117 236h-172l-117 -236h149zM373 613h131v-250q0 -107 -22 -147q-28 -51 -102 -51q-80 0 -105 57q-19 40 -19 155v786q0 102 24 146q27 48 100 48q77 0 103 -54q21 -43 21 -146v-101h183v104q0 176 -58 266q-73 114 -249 114
q-177 0 -249 -112q-58 -90 -58 -284v-768q0 -190 58 -281q70 -113 249 -113q175 0 248 112q59 89 59 265v436h-314v-182z" />
    <glyph glyph-name="gcircumflex" unicode="&#x11d;" horiz-adv-x="754" 
d="M324 1283l54 133l54 -133h149l-117 236h-172l-117 -236h149zM475 1202v-91q-44 110 -158 110q-154 0 -212 -120q-44 -91 -44 -292v-416q0 -197 44 -289q58 -123 213 -123q61 0 98.5 28.5t58.5 83.5v-102q0 -121 -26 -172q-25 -50 -84 -50q-62 0 -112 7q-62 9 -88 23
l-13 -158q81 -49 240 -49q146 0 209 108q54 92 54 291v1211h-180zM358 161q-78 0 -101 60q-16 42 -16 159v441q0 120 18 162q23 58 99 58q63 0 91 -53q21 -40 26 -130v-517q-5 -90 -26 -129q-27 -51 -91 -51z" />
    <glyph glyph-name="Gbreve" unicode="&#x11e;" horiz-adv-x="758" 
d="M506 1847q-7 -70 -29 -99q-27 -35 -96 -35t-97 37q-21 27 -28 97h-105q2 -111 53 -174q58 -71 177 -71q118 0 175 70q50 61 55 175h-105zM373 613h131v-250q0 -107 -22 -147q-28 -51 -102 -51q-80 0 -105 57q-19 40 -19 155v786q0 102 24 146q27 48 100 48q77 0 103 -54
q21 -43 21 -146v-101h183v104q0 176 -58 266q-73 114 -249 114q-177 0 -249 -112q-58 -90 -58 -284v-768q0 -189 58 -281q70 -113 249 -113q175 0 248 112q59 89 59 265v436h-314v-182z" />
    <glyph glyph-name="gbreve" unicode="&#x11f;" horiz-adv-x="754" 
d="M495 1528q-7 -70 -29 -99q-27 -35 -96 -35t-97 37q-21 27 -28 97h-105q2 -111 53 -174q58 -71 177 -71q118 0 175 70q50 61 55 175h-105zM475 1202v-91q-44 110 -158 110q-154 0 -212 -120q-44 -91 -44 -292v-416q0 -197 44 -289q58 -123 213 -123q61 0 98.5 28.5
t58.5 83.5v-102q0 -121 -26 -172q-25 -50 -84 -50q-62 0 -112 7q-62 9 -88 23l-13 -158q81 -49 240 -49q146 0 209 108q54 92 54 291v1211h-180zM358 161q-78 0 -101 60q-16 42 -16 159v441q0 120 18 162q23 58 99 58q63 0 91 -53q21 -40 26 -130v-517q-5 -90 -26 -129
q-27 -51 -91 -51z" />
    <glyph glyph-name="Gdotaccent" unicode="&#x120;" horiz-adv-x="758" 
d="M271 1735q0 -36 11 -59.5t35 -35.5t62 -12q39 0 63.5 12t35.5 35t11 60q0 58 -25.5 84.5t-84.5 26.5q-38 0 -62 -12t-35 -36.5t-11 -62.5zM373 613h131v-250q0 -107 -22 -147q-28 -51 -102 -51q-80 0 -105 57q-19 40 -19 155v786q0 102 24 146q27 48 100 48q77 0 103 -54
q21 -43 21 -146v-101h183v104q0 176 -58 266q-73 114 -249 114q-177 0 -249 -112q-58 -90 -58 -284v-768q0 -190 58 -281q70 -113 249 -113q175 0 248 112q59 89 59 265v436h-314v-182z" />
    <glyph glyph-name="gdotaccent" unicode="&#x121;" horiz-adv-x="754" 
d="M274 1406q0 -55 26 -81t82 -26q58 0 84 26t26 81q0 58 -25.5 84.5t-84.5 26.5q-29 0 -49 -6.5t-33.5 -20.5t-19.5 -34.5t-6 -49.5zM475 1202v-91q-44 110 -158 110q-154 0 -212 -120q-44 -91 -44 -292v-416q0 -197 44 -289q58 -123 213 -123q61 0 98.5 28.5t58.5 83.5
v-102q0 -121 -26 -172q-25 -50 -84 -50q-62 0 -112 7q-62 9 -88 23l-13 -158q81 -49 240 -49q146 0 209 108q54 92 54 291v1211h-180zM358 161q-78 0 -101 60q-16 42 -16 159v441q0 120 18 162q23 58 99 58q63 0 91 -53q21 -40 26 -130v-517q-5 -90 -26 -129
q-27 -51 -91 -51z" />
    <glyph glyph-name="Gcommaaccent" unicode="&#x122;" horiz-adv-x="758" 
d="M373 613h131v-250q0 -107 -22 -147q-28 -51 -102 -51q-80 0 -105 57q-19 40 -19 155v786q0 102 24 146q27 48 100 48q77 0 103 -54q21 -43 21 -146v-101h183v104q0 176 -58 266q-73 114 -249 114q-177 0 -249 -112q-58 -90 -58 -284v-768q0 -190 58 -281
q70 -113 249 -113q175 0 248 112q59 89 59 265v436h-314v-182zM289 -147q0 -46 20.5 -67t64.5 -21q-5 -39 -14 -65t-34 -68l68 -41q34 43 53 94q24 62 24 149q0 109 -93 109q-46 0 -67.5 -21t-21.5 -69z" />
    <glyph glyph-name="gcommaaccent" unicode="&#x123;" horiz-adv-x="754" 
d="M475 1202v-91q-44 110 -158 110q-154 0 -212 -120q-44 -91 -44 -292v-416q0 -197 44 -289q58 -123 213 -123q61 0 98.5 28.5t58.5 83.5v-102q0 -121 -26 -172q-25 -50 -84 -50q-62 0 -112 7q-62 9 -88 23l-13 -158q81 -49 240 -49q146 0 209 108q54 92 54 291v1211h-180z
M358 161q-78 0 -101 60q-16 42 -16 159v441q0 120 18 162q24 58 99 58q63 0 91 -53q21 -40 26 -130v-517q-5 -90 -26 -129q-27 -51 -91 -51zM295 -627q0 -46 20.5 -67t64.5 -21q-5 -39 -14 -65t-34 -68l68 -41q34 43 53 94q24 62 24 149q0 109 -93 109q-46 0 -67.5 -21
t-21.5 -69z" />
    <glyph glyph-name="Hcircumflex" unicode="&#x124;" horiz-adv-x="834" 
d="M363 1602l54 133l54 -133h149l-117 236h-172l-117 -236h149zM287 0v674h261v-674h183v1521h-183v-662h-261v662h-183v-1521h183z" />
    <glyph glyph-name="hcircumflex" unicode="&#x125;" horiz-adv-x="777" 
d="M147 1605l54 133l54 -133h149l-117 236h-172l-117 -236h149zM689 0v810q0 196 -44 288q-59 122 -207 122q-65 0 -104 -25.5t-59 -82.5v456h-179v-1568h179v820q0 116 21 163q24 58 97 58q77 0 101 -58q16 -39 16 -156v-827h179z" />
    <glyph glyph-name="Hbar" unicode="&#x126;" horiz-adv-x="834" 
d="M287 0v674h261v-674h183v1521h-183v-662h-261v662h-183v-1521h183zM186 1182v146h464v-146h-464z" />
    <glyph glyph-name="hbar" unicode="&#x127;" horiz-adv-x="777" 
d="M645 1098q44 -92 44 -288v-810h-179v827q0 117 -16 156q-24 58 -101 58q-73 0 -97 -58q-21 -47 -21 -163v-820h-179v1333h-64v146h64v89h179v-89h150v-146h-150v-221q20 57 59 82.5t104 25.5q148 0 207 -122z" />
    <glyph glyph-name="Itilde" unicode="&#x128;" horiz-adv-x="392" 
d="M357 1850q-15 -35 -32.5 -51t-41.5 -16q-6 0 -12.5 1.5t-11.5 3.5t-13.5 6.5t-12 6.5t-13.5 8.5t-13 8.5q-19 11 -29.5 16.5t-29.5 11.5t-38 6q-65 0 -105 -48q-37 -44 -61 -123l90 -39q27 67 77 67q12 0 27 -6t22 -10.5t28 -17.5q54 -34 94 -34q63 0 107 49
q37 41 58 123zM288 0v1521h-183v-1521h183z" />
    <glyph glyph-name="itilde" unicode="&#x129;" 
d="M348 1531q-15 -35 -32.5 -51t-41.5 -16q-6 0 -12.5 1.5t-11.5 3.5t-13.5 6.5t-12 6.5t-13.5 8.5t-13 8.5q-19 11 -29.5 16.5t-29.5 11.5t-38 6q-65 0 -105 -48q-37 -44 -61 -123l90 -39q27 67 77 67q12 0 27 -6t22 -10.5t28 -17.5q54 -34 94 -34q63 0 107 49
q37 41 58 123zM276 0v1202h-179v-1202h179z" />
    <glyph glyph-name="Imacron" unicode="&#x12a;" horiz-adv-x="392" 
d="M392 1680v146h-393v-146h393zM288 0v1521h-183v-1521h183z" />
    <glyph glyph-name="imacron" unicode="&#x12b;" 
d="M383 1361v146h-393v-146h393zM276 0v1202h-179v-1202h179z" />
    <glyph glyph-name="Ibreve" unicode="&#x12c;" horiz-adv-x="392" 
d="M321 1847q-7 -70 -29 -99q-27 -35 -96 -35t-97 37q-21 27 -28 97h-105q2 -111 53 -174q58 -71 177 -71q118 0 175 70q50 61 55 175h-105zM288 0v1521h-183v-1521h183z" />
    <glyph glyph-name="ibreve" unicode="&#x12d;" 
d="M313 1528q-7 -70 -29 -99q-27 -35 -96 -35t-97 37q-21 27 -28 97h-105q2 -111 53 -174q58 -71 177 -71q118 0 175 70q50 61 55 175h-105zM276 0v1202h-179v-1202h179z" />
    <glyph glyph-name="Iogonek" unicode="&#x12e;" horiz-adv-x="392" 
d="M324 -263l11 -109q-39 -44 -122 -44t-134 48q-58 53 -58 161q0 95 59 157q24 25 62 50h-37v1521h183v-1520l1 -1q-56 -39 -82 -82.5t-26 -109.5q0 -93 67 -93q19 0 32.5 2.5t22 7t21.5 12.5z" />
    <glyph glyph-name="iogonek" unicode="&#x12f;" 
d="M185 1383q-54 0 -79.5 23.5t-25.5 71.5q0 49 25.5 73.5t79.5 24.5q56 0 82.5 -24.5t26.5 -73.5q0 -48 -26 -71.5t-83 -23.5zM311 -263l11 -109q-39 -44 -122 -44t-134 48q-58 53 -58 161q0 95 59 157q24 25 62 50h-32v1202h179v-1202q-56 -39 -82 -82.5t-26 -109.5
q0 -93 67 -93q19 0 32.5 2.5t22 7t21.5 12.5z" />
    <glyph glyph-name="Idotaccent" unicode="&#x130;" horiz-adv-x="392" 
d="M87 1725q0 -55 26 -81t82 -26q58 0 84 26t26 81q0 58 -25.5 84.5t-84.5 26.5q-57 0 -82.5 -27t-25.5 -84zM288 0v1521h-183v-1521h183z" />
    <glyph glyph-name="dotlessi" unicode="&#x131;" 
d="M276 0v1202h-179v-1202h179z" />
    <glyph glyph-name="IJ" unicode="&#x132;" horiz-adv-x="950" 
d="M288 0v1521h-183v-1521h183zM492 1336h179v-953q0 -124 -24 -171q-23 -45 -90 -45q-39 0 -61.5 7.5t-45.5 24.5l-53 -161q30 -29 67.5 -41.5t92.5 -12.5q169 0 239 109q56 90 56 282v1145h-360v-184z" />
    <glyph glyph-name="ij" unicode="&#x133;" horiz-adv-x="725" 
d="M80 1478q0 -48 25.5 -71.5t79.5 -23.5q57 0 83 23.5t26 71.5q0 49 -26.5 73.5t-82.5 24.5q-54 0 -79.5 -24.5t-25.5 -73.5zM430 1478q0 -95 107 -95q56 0 82 23t26 72t-26 73.5t-82 24.5q-107 0 -107 -98zM276 0v1202h-179v-1202h179zM449 1202v-1211q0 -131 -14 -172
q-5 -14 -11 -23t-15 -15.5t-20 -9t-26 -2.5q-71 0 -131 39l-12 -157q76 -59 170 -59q144 0 197 107q42 85 42 292v1211h-180z" />
    <glyph glyph-name="Jcircumflex" unicode="&#x134;" horiz-adv-x="557" 
d="M226 1593l54 133l54 -133h149l-117 236h-172l-117 -236h149zM101 1336h179v-953q0 -124 -24 -171q-23 -45 -90 -45q-39 0 -61.5 7.5t-45.5 24.5l-53 -161q30 -29 67.5 -41.5t92.5 -12.5q170 0 239 109q56 90 56 282v1145h-360v-184z" />
    <glyph glyph-name="jcircumflex" unicode="&#x135;" horiz-adv-x="374" 
d="M131 1283l54 133l54 -133h149l-117 236h-172l-117 -236h149zM96 1202v-1211q0 -131 -14 -172q-9 -26 -26 -38t-46 -12q-69 0 -131 39l-11 -157q72 -59 169 -59q144 0 197 107q42 85 42 292v1211h-180z" />
    <glyph glyph-name="Kcommaaccent" unicode="&#x136;" horiz-adv-x="783" 
d="M287 0v674h88l214 -674h196l-248 773l230 747h-196l-202 -661h-82v662h-183v-1521h183zM346 -147q0 -31 9 -50t27.5 -28.5t48.5 -9.5q-5 -39 -14 -65t-34 -68l68 -41q34 43 53 94q24 62 24 149q0 109 -93 109q-46 0 -67.5 -21t-21.5 -69z" />
    <glyph glyph-name="kcommaaccent" unicode="&#x137;" horiz-adv-x="735" 
d="M95 1568v-1568h179v512h72l187 -512h199l-246 601l217 601h-183l-172 -507h-74v873h-179zM313 -147q0 -46 20.5 -67t64.5 -21q-5 -39 -14 -65t-34 -68l68 -41q34 43 53 94q24 62 24 149q0 109 -93 109q-46 0 -67.5 -21t-21.5 -69z" />
    <glyph glyph-name="kgreenlandic" unicode="&#x138;" horiz-adv-x="735" 
d="M95 1201v-1201h179v512h72l187 -512h199l-246 601l217 601h-183l-172 -507h-74v506h-179z" />
    <glyph glyph-name="Lacute" unicode="&#x139;" horiz-adv-x="634" 
d="M237 1865l-110 -263h134l148 263h-172zM624 0v182h-339v1339h-182v-1521h521z" />
    <glyph glyph-name="lacute" unicode="&#x13a;" 
d="M230 1892l-110 -263h134l148 263h-172zM274 0v1568h-178v-1568h178z" />
    <glyph glyph-name="Lcommaaccent" unicode="&#x13b;" horiz-adv-x="634" 
d="M624 0v182h-339v1339h-182v-1521h521zM273 -147q0 -46 20.5 -67t64.5 -21q-5 -39 -14 -65t-34 -68l68 -41q34 43 53 94q24 62 24 149q0 109 -93 109q-46 0 -67.5 -21t-21.5 -69z" />
    <glyph glyph-name="lcommaaccent" unicode="&#x13c;" 
d="M274 0v1568h-178v-1568h178zM94 -147q0 -46 20.5 -67t64.5 -21q-5 -39 -14 -65t-34 -68l68 -41q34 43 53 94q24 62 24 149q0 109 -93 109q-46 0 -67.5 -21t-21.5 -69z" />
    <glyph glyph-name="Lcaron" unicode="&#x13d;" horiz-adv-x="634" 
d="M455 1413q0 -107 102 -107q-7 -51 -16 -77q-15 -39 -41 -80l82 -48q41 50 63 112q29 82 29 179q0 61 -27.5 96.5t-84.5 35.5q-54 0 -80.5 -27t-26.5 -84zM624 0v182h-339v1339h-182v-1521h521z" />
    <glyph glyph-name="lcaron" unicode="&#x13e;" 
d="M350 1467q0 -107 102 -107q-7 -51 -16 -77q-15 -39 -41 -80l82 -48q41 50 63 112q29 82 29 179q0 61 -27.5 96.5t-84.5 35.5q-54 0 -80.5 -27t-26.5 -84zM274 0v1568h-178v-1568h178z" />
    <glyph glyph-name="Ldot" unicode="&#x13f;" horiz-adv-x="634" 
d="M624 0v182h-339v1339h-182v-1521h521zM442 730q0 -55 26 -81.5t82 -26.5q58 0 84.5 26.5t26.5 81.5q0 58 -26 84.5t-85 26.5q-56 0 -82 -27t-26 -84z" />
    <glyph glyph-name="ldot" unicode="&#x140;" 
d="M274 0v1568h-178v-1568h178zM375 719q0 -36 11 -59.5t35 -35.5t62 -12q39 0 63.5 12t35.5 35t11 60q0 39 -11 63t-35.5 36t-63.5 12q-38 0 -62 -12t-35 -36.5t-11 -62.5z" />
    <glyph glyph-name="Lslash" unicode="&#x141;" horiz-adv-x="634" 
d="M285 182h339v-182h-521v456l-86 -79v212l86 79v853h182v-685l138 127v-213l-138 -127v-441z" />
    <glyph glyph-name="lslash" unicode="&#x142;" 
d="M274 0v752l144 133v180l-144 -134v637h-178v-802l-137 -127v-178l137 126v-587h178z" />
    <glyph glyph-name="Nacute" unicode="&#x143;" horiz-adv-x="834" 
d="M479 1865l-110 -263h134l148 263h-172zM277 0l-8 1048l-14 134l301 -1182h211v1521h-173l9 -1041l23 -211l-296 1252h-226v-1521h173z" />
    <glyph glyph-name="nacute" unicode="&#x144;" horiz-adv-x="777" 
d="M433 1546l-110 -263h134l148 263h-172zM689 0v810q0 196 -44 288q-59 122 -207 122q-129 0 -163 -108v90h-179v-1202h179v820q0 118 20 163q24 58 98 58q77 0 101 -58q16 -39 16 -156v-827h179z" />
    <glyph glyph-name="Ncommaaccent" unicode="&#x145;" horiz-adv-x="834" 
d="M277 0l-8 1048l-14 134l301 -1182h211v1521h-173l9 -1041l23 -211l-296 1252h-226v-1521h173zM346 -147q0 -31 9 -50t27.5 -28.5t48.5 -9.5q-5 -39 -14 -65t-34 -68l68 -41q34 43 53 94q24 62 24 149q0 109 -93 109q-46 0 -67.5 -21t-21.5 -69z" />
    <glyph glyph-name="ncommaaccent" unicode="&#x146;" horiz-adv-x="777" 
d="M689 0v810q0 196 -44 288q-59 122 -207 122q-129 0 -163 -108v90h-179v-1202h179v820q0 118 20 163q24 58 98 58q77 0 101 -58q16 -39 16 -156v-827h179zM306 -147q0 -46 20.5 -67t64.5 -21q-5 -39 -14 -65t-34 -68l68 -41q34 43 53 94q24 62 24 149q0 109 -93 109
q-46 0 -67.5 -21t-21.5 -69z" />
    <glyph glyph-name="Ncaron" unicode="&#x147;" horiz-adv-x="834" 
d="M242 1838l117 -236h172l117 236h-149l-54 -133l-53 133h-150zM277 0l-8 1048l-14 134l301 -1182h211v1521h-173l9 -1041l23 -211l-296 1252h-226v-1521h173z" />
    <glyph glyph-name="ncaron" unicode="&#x148;" horiz-adv-x="777" 
d="M192 1519l117 -236h172l117 236h-149l-54 -133l-53 133h-150zM689 0v810q0 196 -44 288q-59 122 -207 122q-129 0 -163 -108v90h-179v-1202h179v820q0 118 20 163q24 58 98 58q77 0 101 -58q16 -39 16 -156v-827h179z" />
    <glyph glyph-name="napostrophe" unicode="&#x149;" horiz-adv-x="944" 
d="M1 1132q0 -23 5 -39.5t15.5 -27.5t26.5 -16t38 -5q-5 -39 -14 -65t-34 -68l68 -41q34 43 53 94q24 62 24 149q0 109 -93 109q-46 0 -67.5 -21t-21.5 -69zM840 0v810q0 196 -44 288q-59 122 -207 122q-129 0 -163 -108v90h-179v-1202h179v820q0 118 20 163q24 58 98 58
q77 0 101 -58q16 -39 16 -156v-827h179z" />
    <glyph glyph-name="Eng" unicode="&#x14a;" horiz-adv-x="834" 
d="M767 10h1v-24q0 -201 -55 -292q-70 -114 -244 -114q-54 0 -91.5 12.5t-69.5 41.5l53 162q25 -18 44 -24q26 -8 64 -8q68 0 91 45q23 43 23 171v20h-27l-301 1182l14 -134l8 -1048h-173v1521h226l296 -1252l-23 211l-9 1041h173v-1511z" />
    <glyph glyph-name="eng" unicode="&#x14b;" horiz-adv-x="777" 
d="M510 782v-788q0 -128 -15 -172q-9 -26 -26 -38t-46 -12q-73 0 -130 37l-12 -155q72 -59 168 -59q145 0 198 107q42 85 42 292v785q0 204 -42 304q-59 137 -211 137q-118 0 -161 -145v127h-179v-1202h179v747q0 136 18 199q27 95 100 95q76 0 101 -80q16 -52 16 -179z" />
    <glyph glyph-name="Omacron" unicode="&#x14c;" horiz-adv-x="760" 
d="M575 1680v146h-393v-146h393zM72 380q0 -191 58 -282q71 -116 250 -116q177 0 249 114q59 93 59 284v762q0 190 -58 283q-73 115 -250 115t-249 -114q-59 -93 -59 -285v-761zM380 1357q79 0 105 -58q20 -45 20 -158v-760q0 -116 -21 -160q-26 -56 -104 -56q-80 0 -105 59
q-20 45 -20 157v759q0 115 21 161q26 56 104 56z" />
    <glyph glyph-name="omacron" unicode="&#x14d;" horiz-adv-x="737" 
d="M556 1361v146h-393v-146h393zM70 380q0 -192 54 -282q69 -116 246 -116q176 0 243 115q52 88 52 284v442q0 194 -53 283q-69 116 -244 116t-244 -115q-54 -90 -54 -285v-442zM368 1042q78 0 101 -58q16 -41 16 -159v-445q0 -120 -17 -161q-25 -57 -100 -57q-77 0 -101 59
q-17 39 -17 158v445q0 120 18 162q23 56 100 56z" />
    <glyph glyph-name="Obreve" unicode="&#x14e;" horiz-adv-x="760" 
d="M504 1847q-7 -70 -29 -99q-27 -35 -96 -35t-97 37q-21 27 -28 97h-105q2 -111 53 -174q58 -71 177 -71q118 0 175 70q50 61 55 175h-105zM72 380q0 -190 58 -282q71 -116 250 -116q177 0 249 114q59 93 59 284v762q0 190 -58 283q-73 115 -250 115t-249 -114
q-59 -93 -59 -285v-761zM380 1357q79 0 105 -58q20 -45 20 -158v-760q0 -115 -21 -160q-26 -56 -104 -56q-80 0 -105 59q-20 45 -20 157v759q0 115 21 161q26 56 104 56z" />
    <glyph glyph-name="obreve" unicode="&#x14f;" horiz-adv-x="737" 
d="M483 1528q-7 -70 -29 -99q-27 -35 -96 -35t-97 37q-21 27 -28 97h-105q2 -111 53 -174q58 -71 177 -71q118 0 175 70q50 61 55 175h-105zM70 380q0 -192 54 -282q69 -116 246 -116q176 0 243 115q52 88 52 284v442q0 194 -53 283q-69 116 -244 116t-244 -115
q-54 -90 -54 -285v-442zM368 1042q78 0 101 -58q16 -41 16 -159v-445q0 -120 -17 -161q-25 -57 -100 -57q-77 0 -101 59q-17 39 -17 158v445q0 120 18 162q23 56 100 56z" />
    <glyph glyph-name="Ohungarumlaut" unicode="&#x150;" horiz-adv-x="760" 
d="M317 1865l-110 -263h129l143 263h-162zM527 1865l-110 -263h129l143 263h-162zM72 380q0 -190 58 -282q71 -116 250 -116q177 0 249 114q59 93 59 284v762q0 190 -58 283q-73 115 -250 115t-249 -114q-59 -93 -59 -285v-761zM380 1357q79 0 105 -58q20 -45 20 -158v-760
q0 -115 -21 -160q-26 -56 -104 -56q-80 0 -105 59q-20 45 -20 157v759q0 115 21 161q26 56 104 56z" />
    <glyph glyph-name="ohungarumlaut" unicode="&#x151;" horiz-adv-x="737" 
d="M258 1546l-110 -263h129l143 263h-162zM468 1546l-110 -263h129l143 263h-162zM70 380q0 -192 54 -282q69 -116 246 -116q176 0 243 115q52 88 52 284v442q0 194 -53 283q-69 116 -244 116t-244 -115q-54 -90 -54 -285v-442zM368 1042q78 0 101 -58q16 -41 16 -159v-445
q0 -120 -17 -161q-25 -57 -100 -57q-77 0 -101 59q-17 39 -17 158v445q0 120 18 162q23 56 100 56z" />
    <glyph glyph-name="OE" unicode="&#x152;" horiz-adv-x="1108" 
d="M1032 0v183h-352v502h294v184h-294v470l352 1v183l-535 -1v-55q-27 35 -51 50q-34 22 -76 22q-160 0 -229 -115q-57 -95 -57 -289v-753q0 -196 56 -287q68 -111 229 -111q49 0 82 26q15 13 46 60v-70h535zM394 165q-45 0 -68.5 21.5t-38.5 71.5q-10 15 -15 85
q-5 52 -5 148v478q0 119 4 177q5 103 15 122q13 43 37.5 65.5t68.5 22.5q41 0 68 -25q29 -27 29 -63v-1018q-27 -85 -95 -85z" />
    <glyph glyph-name="oe" unicode="&#x153;" horiz-adv-x="1165" 
d="M917 406v-37q0 -106 -18 -148q-26 -59 -101 -59q-79 0 -102 58q-17 39 -17 157v125l416 88v244q0 181 -52 270q-69 118 -245 118q-141 0 -209 -70q-70 70 -207 70q-175 0 -244 -115q-54 -90 -54 -285v-442q0 -194 54 -282q69 -116 246 -116q136 0 208 70q68 -70 209 -70
q175 0 243 117q51 86 51 271v36h-178zM382 1042q44 0 69 -14.5t37 -43.5q7 -18 10.5 -45.5t4 -49t0.5 -64.5v-445q0 -64 -3 -100t-14 -61q-25 -57 -104 -57q-78 0 -102 59q-17 39 -17 158v445q0 120 18 162q23 56 101 56zM798 1042q77 0 103 -61q16 -41 16 -145v-117
l-238 -54v166q0 119 18 158q24 53 101 53z" />
    <glyph glyph-name="Racute" unicode="&#x154;" horiz-adv-x="792" 
d="M411 1865l-110 -263h134l148 263h-172zM287 0v608h82q51 0 85 -48q42 -62 51 -172l16 -215q1 -20 7 -54q8 -43 24 -90l9 -29h190q-41 101 -46 178l-17 214q-11 117 -33 171q-23 56 -77 98q65 44 101.5 119t36.5 175v183q0 207 -75 297q-72 85 -234 85h-303v-1520h183z
M533 979q0 -81 -25 -131q-28 -56 -88 -56h-133v544h114q67 0 96 -35q36 -45 36 -169v-153z" />
    <glyph glyph-name="racute" unicode="&#x155;" horiz-adv-x="508" 
d="M330 1546l-110 -263h134l148 263h-172zM502 1205q-27 16 -63 16l-1 -1v1q-118 0 -163 -126v107h-179v-1202h179v805q2 113 33 170q34 62 110 62h1q17 0 31 -3q27 -7 41 -17q9 -5 11 -6v194z" />
    <glyph glyph-name="Rcommaaccent" unicode="&#x156;" horiz-adv-x="792" 
d="M287 0v608h82q51 0 85 -48q42 -62 51 -172l16 -215q1 -20 7 -54q8 -43 24 -90l9 -29h190q-41 101 -46 178l-17 214q-11 117 -33 171q-23 56 -77 98q65 44 101.5 119t36.5 175v183q0 207 -75 297q-72 85 -234 85h-303v-1520h183zM533 979q0 -81 -25 -131q-28 -56 -88 -56
h-133v544h114q67 0 96 -35q36 -45 36 -169v-153zM325 -147q0 -46 20.5 -67t64.5 -21q-5 -39 -14 -65t-34 -68l68 -41q34 43 53 94q24 62 24 149q0 109 -93 109q-46 0 -67.5 -21t-21.5 -69z" />
    <glyph glyph-name="rcommaaccent" unicode="&#x157;" horiz-adv-x="508" 
d="M502 1205q-27 16 -63 16l-1 -1v1q-118 0 -163 -126v107h-179v-1202h179v805q2 113 33 170q34 62 110 62h1q17 0 31 -3q27 -7 41 -17q9 -5 11 -6v194zM97 -147q0 -46 20.5 -67t64.5 -21q-5 -39 -14 -65t-34 -68l68 -41q34 43 53 94q24 62 24 149q0 109 -93 109
q-31 0 -50.5 -9t-29 -29t-9.5 -52z" />
    <glyph glyph-name="Rcaron" unicode="&#x158;" horiz-adv-x="792" 
d="M160 1838l117 -236h172l117 236h-149l-54 -133l-53 133h-150zM287 0v608h82q51 0 85 -48q42 -62 51 -172l16 -215q1 -20 7 -54q8 -43 24 -90l9 -29h190q-41 101 -46 178l-17 214q-11 117 -33 171q-23 56 -77 98q65 44 101.5 119t36.5 175v183q0 207 -75 297
q-72 85 -234 85h-303v-1520h183zM533 979q0 -81 -25 -131q-28 -56 -88 -56h-133v544h114q67 0 96 -35q36 -45 36 -169v-153z" />
    <glyph glyph-name="rcaron" unicode="&#x159;" horiz-adv-x="508" 
d="M87 1519l117 -236h172l117 236h-149l-54 -133l-53 133h-150zM502 1205q-27 16 -63 16l-1 -1v1q-118 0 -163 -126v107h-179v-1202h179v805q2 113 33 170q34 62 110 62h1q17 0 31 -3q27 -7 41 -17q9 -5 11 -6v194z" />
    <glyph glyph-name="Sacute" unicode="&#x15a;" horiz-adv-x="734" 
d="M414 1865l-110 -263h134l148 263h-172zM667 387q-5 301 -204 440l-112 78q-51 35 -78 98q-26 61 -28 130l-1 44q-6 180 120 180q115 0 117 -160v-141h183v127q0 357 -298 357q-101 0 -167.5 -37t-101.5 -114.5t-35 -197.5v-23q0 -158 37 -249q40 -100 157 -187l123 -89
q105 -76 105 -290v-11q0 -91 -28.5 -134t-97.5 -43q-73 0 -101 52q-24 44 -24 160v89h-182v-88q0 -198 62 -288q74 -108 247 -108q157 0 232.5 92.5t74.5 274.5v38z" />
    <glyph glyph-name="sacute" unicode="&#x15b;" horiz-adv-x="675" 
d="M374 1546l-110 -263h134l148 263h-172zM627 299q0 64 -17 118q-33 99 -107 172q-46 44 -146 125q-39 31 -63 59q-62 67 -62 140q0 39 11 67.5t35 45t60 16.5q62 0 86 -46q20 -41 20 -143l175 -1q0 212 -65 294q-33 41 -85.5 58.5t-130.5 17.5q-165 0 -233 -89
q-54 -72 -54 -222q0 -63 17 -114q31 -94 106 -165q42 -40 143 -121q34 -28 63 -60q60 -70 60 -151q0 -69 -25.5 -103.5t-81.5 -34.5q-70 0 -94 53q-20 44 -20 158h-179q0 -200 58 -288q66 -103 237 -103q158 0 227 79q65 73 65 238z" />
    <glyph glyph-name="Scircumflex" unicode="&#x15c;" horiz-adv-x="734" 
d="M310 1602l54 133l54 -133h149l-117 236h-172l-117 -236h149zM667 387q-5 301 -204 440l-112 78q-51 35 -78 98q-26 61 -28 130l-1 44q-6 180 120 180q115 0 117 -160v-141h183v127q0 357 -298 357q-101 0 -167.5 -37t-101.5 -114.5t-35 -197.5v-23q0 -158 37 -249
q40 -100 157 -187l123 -89q105 -76 105 -290v-11q0 -91 -28.5 -134t-97.5 -43q-73 0 -101 52q-24 44 -24 160v89h-182v-88q0 -198 62 -288q74 -108 247 -108q157 0 232.5 92.5t74.5 274.5v38z" />
    <glyph glyph-name="scircumflex" unicode="&#x15d;" horiz-adv-x="675" 
d="M281 1283l54 133l54 -133h149l-117 236h-172l-117 -236h149zM627 299q0 64 -17 118q-33 99 -107 172q-46 44 -146 125q-39 31 -63 59q-62 67 -62 140q0 39 11 67.5t35 45t60 16.5q62 0 86 -46q20 -41 20 -143l175 -1q0 212 -65 294q-33 41 -85.5 58.5t-130.5 17.5
q-165 0 -233 -89q-54 -72 -54 -222q0 -63 17 -114q31 -94 106 -165q42 -40 143 -121q34 -28 63 -60q60 -70 60 -151q0 -69 -25.5 -103.5t-81.5 -34.5q-70 0 -94 53q-20 44 -20 158h-179q0 -200 58 -288q66 -103 237 -103q158 0 227 79q65 73 65 238z" />
    <glyph glyph-name="Scedilla" unicode="&#x15e;" horiz-adv-x="734" 
d="M667 349q2 -339 -261 -365v-55l14 3q24 3 32 3q53 0 88 -40q34 -40 34 -101q0 -82 -58 -127q-54 -41 -147 -41q-52 0 -94.5 19t-66.5 50l30 73q30 -23 53 -32q31 -13 74 -13q34 0 54 16.5t20 47.5q0 36 -48 48q-42 11 -80 -2l1 151q-134 13 -199 106q-62 90 -62 288v88
h182v-89q0 -116 24 -160q28 -52 101 -52q69 0 97.5 43t28.5 134v11q0 214 -105 290l-123 89q-117 87 -157 187q-37 91 -37 249v23q0 178 76.5 263.5t227.5 85.5q298 0 298 -357v-127h-183v141q-2 160 -117 160q-126 0 -120 -180l1 -44q2 -69 28 -130q27 -63 78 -98l112 -78
q199 -139 204 -440v-38z" />
    <glyph glyph-name="scedilla" unicode="&#x15f;" horiz-adv-x="675" 
d="M562 61q-56 -65 -173 -77v-60l14 3q24 3 32 3q53 0 88 -40q34 -40 34 -101q0 -82 -58 -127q-54 -41 -147 -41q-52 0 -94.5 19t-66.5 50l30 73q30 -23 53 -32q31 -13 74 -13q33 0 53.5 16.5t20.5 47.5q0 36 -48 48q-42 11 -80 -2l1 155q-139 12 -197 102q-58 88 -58 288
h179q0 -114 20 -158q24 -53 94 -53q56 0 81.5 35t25.5 103q0 81 -60 151q-29 32 -63 60q-101 81 -143 121q-75 71 -106 165q-17 51 -17 114q0 150 54 222q68 89 233 89q78 0 130.5 -17.5t85.5 -58.5q65 -82 65 -294l-175 1q0 102 -20 143q-24 46 -86 46q-53 0 -79.5 -35
t-26.5 -94q0 -73 62 -140q24 -28 63 -59q100 -80 146 -125q74 -73 107 -172q17 -54 17 -118q0 -165 -65 -238z" />
    <glyph glyph-name="Scaron" unicode="&#x160;" horiz-adv-x="734" 
d="M160 1838l117 -236h172l117 236h-149l-54 -133l-53 133h-150zM667 387q-5 301 -204 440l-112 78q-51 35 -78 98q-26 61 -28 130l-1 44q-6 180 120 180q115 0 117 -160v-141h183v127q0 357 -298 357q-75 0 -131.5 -20.5t-95 -63.5t-58 -109t-19.5 -156v-23q0 -158 37 -249
q40 -100 157 -187l123 -89q105 -76 105 -290v-11q0 -91 -28.5 -134t-97.5 -43q-73 0 -101 52q-24 44 -24 160v89h-182v-88q0 -198 62 -288q74 -108 247 -108q157 0 232.5 92.5t74.5 274.5v38z" />
    <glyph glyph-name="scaron" unicode="&#x161;" horiz-adv-x="675" 
d="M132 1519l117 -236h172l117 236h-149l-54 -133l-53 133h-150zM627 299q0 64 -17 118q-33 99 -107 172q-46 44 -146 125q-39 31 -63 59q-62 67 -62 140q0 39 11 67.5t35 45t60 16.5q62 0 86 -46q20 -41 20 -143l175 -1q0 212 -65 294q-33 41 -85.5 58.5t-130.5 17.5
q-165 0 -233 -89q-54 -72 -54 -222q0 -63 17 -114q31 -94 106 -165q42 -40 143 -121q34 -28 63 -60q60 -70 60 -151q0 -69 -25.5 -103.5t-81.5 -34.5q-70 0 -94 53q-20 44 -20 158h-179q0 -200 58 -288q66 -103 237 -103q158 0 227 79q65 73 65 238z" />
    <glyph glyph-name="Tcaron" unicode="&#x164;" horiz-adv-x="633" 
d="M115 1838l117 -236h172l117 236h-149l-54 -133l-53 133h-150zM627 1336v184h-617v-184h217v-1336h183v1336h217z" />
    <glyph glyph-name="tcaron" unicode="&#x165;" horiz-adv-x="555" 
d="M497 1417q0 -107 102 -107q-7 -51 -16 -77q-15 -39 -41 -80l82 -48q41 50 63 112q29 82 29 179q0 61 -27.5 96.5t-84.5 35.5q-54 0 -80.5 -27t-26.5 -84zM129 1476v-273h-106v-174h106v-649q0 -205 43 -292q53 -107 197 -107q93 0 169 59l-13 157q-58 -38 -130 -38
q-29 0 -46 11.5t-26 37.5q-14 41 -14 172v649h180v174h-180v273h-180z" />
    <glyph glyph-name="Tbar" unicode="&#x166;" horiz-adv-x="633" 
d="M627 1336h-217v-541h104v-146h-104v-649h-183v649h-106v146h106v541h-217v184h617v-184z" />
    <glyph glyph-name="tbar" unicode="&#x167;" horiz-adv-x="555" 
d="M525 197l13 -157q-76 -59 -169 -59q-144 0 -197 107q-43 87 -43 292v220h-104v146h104v283h-106v174h106v273h180v-273h180v-174h-180v-283h109v-146h-109v-220q0 -131 14 -172q5 -13 11 -22.5t15 -15.5t20 -8.5t26 -2.5q72 0 130 38z" />
    <glyph glyph-name="Utilde" unicode="&#x168;" horiz-adv-x="793" 
d="M551 1850q-15 -35 -32.5 -51t-41.5 -16q-5 0 -10.5 1t-11 3t-10 4t-11 6t-10.5 6.5t-11.5 7.5t-11.5 7q-14 8 -21.5 12.5t-21 10.5t-27 8.5t-27.5 2.5q-65 0 -105 -48q-37 -44 -61 -123l90 -39q27 67 77 67q12 0 27 -6t22 -10.5t28 -17.5q54 -34 94 -34q63 0 107 49
q37 41 58 123zM529 1520v-1142q0 -111 -21 -154q-29 -59 -108 -59q-80 0 -110 59q-24 47 -24 154v1142h-182v-1147q0 -190 64 -282q76 -109 252 -109q175 0 249 109q62 91 62 282v1147h-182z" />
    <glyph glyph-name="utilde" unicode="&#x169;" horiz-adv-x="781" 
d="M546 1531q-15 -35 -32.5 -51t-41.5 -16q-6 0 -12.5 1.5t-11.5 3.5t-13.5 6.5t-12 6.5t-13.5 8.5t-13 8.5q-19 11 -29.5 16.5t-29.5 11.5t-38 6q-65 0 -105 -48q-37 -44 -61 -123l90 -39q27 67 77 67q12 0 27 -6t22 -10.5t28 -17.5q54 -34 94 -34q63 0 107 49
q37 41 58 123zM505 1202v-851q-2 -101 -21 -140q-25 -50 -95 -50q-79 0 -102 60q-16 42 -16 159v822h-179v-809q0 -199 43 -289q59 -122 213 -122q114 0 157 107v-89h180v1202h-180z" />
    <glyph glyph-name="Umacron" unicode="&#x16a;" horiz-adv-x="793" 
d="M586 1680v146h-393v-146h393zM529 1520v-1142q0 -111 -21 -154q-29 -59 -108 -59q-80 0 -110 59q-24 47 -24 154v1142h-182v-1147q0 -190 64 -282q76 -109 252 -109q175 0 249 109q62 91 62 282v1147h-182z" />
    <glyph glyph-name="umacron" unicode="&#x16b;" horiz-adv-x="781" 
d="M582 1361v146h-393v-146h393zM505 1202v-851q-2 -101 -21 -140q-25 -50 -95 -50q-79 0 -102 60q-16 42 -16 159v822h-179v-809q0 -199 43 -289q59 -122 213 -122q114 0 157 107v-89h180v1202h-180z" />
    <glyph glyph-name="Ubreve" unicode="&#x16c;" horiz-adv-x="793" 
d="M515 1847q-7 -70 -29 -99q-27 -35 -96 -35t-97 37q-21 27 -28 97h-105q2 -111 53 -174q58 -71 177 -71q118 0 175 70q50 61 55 175h-105zM529 1520v-1142q0 -111 -21 -154q-29 -59 -108 -59q-80 0 -110 59q-24 47 -24 154v1142h-182v-1147q0 -190 64 -282
q76 -109 252 -109q175 0 249 109q62 91 62 282v1147h-182z" />
    <glyph glyph-name="ubreve" unicode="&#x16d;" horiz-adv-x="781" 
d="M511 1528q-7 -70 -29 -99q-27 -35 -96 -35t-97 37q-21 27 -28 97h-105q2 -111 53 -174q58 -71 177 -71q118 0 175 70q50 61 55 175h-105zM505 1202v-851q-2 -101 -21 -140q-25 -50 -95 -50q-79 0 -102 60q-16 42 -16 159v822h-179v-809q0 -199 43 -289q59 -122 213 -122
q114 0 157 107v-89h180v1202h-180z" />
    <glyph glyph-name="Uring" unicode="&#x16e;" horiz-adv-x="793" 
d="M220 1777q0 -175 167 -175q91 0 132 44t41 131q0 93 -40.5 137t-132.5 44q-58 0 -95 -20t-54.5 -60t-17.5 -101zM337 1779q0 61 51 61q30 0 42 -15t12 -46q0 -61 -54 -61q-51 0 -51 61zM529 1520v-1142q0 -111 -21 -154q-29 -59 -108 -59q-80 0 -110 59q-24 47 -24 154
v1142h-182v-1147q0 -190 64 -282q76 -109 252 -109q175 0 249 109q62 91 62 282v1147h-182z" />
    <glyph glyph-name="uring" unicode="&#x16f;" horiz-adv-x="781" 
d="M216 1458q0 -175 167 -175q91 0 132 44t41 131q0 62 -17 101t-55.5 59.5t-100.5 20.5q-86 0 -126.5 -44.5t-40.5 -136.5zM333 1460q0 61 51 61q30 0 42 -15t12 -46q0 -61 -54 -61q-51 0 -51 61zM505 1202v-851q-2 -101 -21 -140q-25 -50 -95 -50q-79 0 -102 60
q-16 42 -16 159v822h-179v-809q0 -199 43 -289q59 -122 213 -122q114 0 157 107v-89h180v1202h-180z" />
    <glyph glyph-name="Uhungarumlaut" unicode="&#x170;" horiz-adv-x="793" 
d="M329 1865l-110 -263h129l143 263h-162zM539 1865l-110 -263h129l143 263h-162zM529 1520v-1142q0 -111 -21 -154q-29 -59 -108 -59q-80 0 -110 59q-24 47 -24 154v1142h-182v-1147q0 -190 64 -282q76 -109 252 -109q175 0 249 109q62 91 62 282v1147h-182z" />
    <glyph glyph-name="uhungarumlaut" unicode="&#x171;" horiz-adv-x="781" 
d="M327 1546l-110 -263h129l143 263h-162zM537 1546l-110 -263h129l143 263h-162zM505 1202v-851q-2 -101 -21 -140q-25 -50 -95 -50q-79 0 -102 60q-16 42 -16 159v822h-179v-809q0 -199 43 -289q59 -122 213 -122q114 0 157 107v-89h180v1202h-180z" />
    <glyph glyph-name="Uogonek" unicode="&#x172;" horiz-adv-x="793" 
d="M529 1520h182v-1147q0 -191 -62 -282q-38 -56 -104 -84q-31 -24 -50.5 -48.5t-30 -57.5t-10.5 -74q0 -93 67 -93q27 0 42 5t34 17l11 -109q-39 -44 -122 -44t-134 48q-58 53 -58 161q0 95 59 157l14 14q-149 8 -219 108q-64 92 -64 282v1147h182v-1142q0 -107 24 -154
q30 -59 110 -59q79 0 108 59q21 43 21 154v1142z" />
    <glyph glyph-name="uogonek" unicode="&#x173;" horiz-adv-x="781" 
d="M720 -263l11 -109q-39 -44 -122 -44t-134 48q-58 53 -58 161q0 95 59 157q24 25 62 50h-33v89q-43 -107 -157 -107q-155 0 -213 122q-43 90 -43 289v809h179v-822q0 -117 16 -159q23 -60 102 -60q70 0 95 50q19 39 21 140v851h180v-1202q-56 -39 -82 -82.5t-26 -109.5
q0 -93 67 -93q27 0 42 5t34 17z" />
    <glyph glyph-name="Wcircumflex" unicode="&#x174;" horiz-adv-x="1136" 
d="M513 1602l54 133l54 -133h149l-117 236h-172l-117 -236h149zM701 0h225l178 1521h-185l-104 -1043l-15 -213l-16 213l-110 1043h-215l-109 -1043l-18 -218l-14 218l-105 1043h-185l178 -1521h226l121 957l13 162l14 -161z" />
    <glyph glyph-name="wcircumflex" unicode="&#x175;" horiz-adv-x="1120" 
d="M518 1283l54 133l54 -133h149l-117 236h-172l-117 -236h149zM169 0h281l112 1002l112 -1002h281l155 1203h-185l-113 -1024h-4l-114 1024h-264l-114 -1024h-4l-113 1024h-185z" />
    <glyph glyph-name="Ycircumflex" unicode="&#x176;" horiz-adv-x="705" 
d="M304 1602l54 133l54 -133h149l-117 236h-172l-117 -236h149zM702 1520h-181l-163 -677l-155 677h-200l262 -944v-576h182v576z" />
    <glyph glyph-name="ycircumflex" unicode="&#x177;" horiz-adv-x="669" 
d="M281 1283l54 133l54 -133h149l-117 236h-172l-117 -236h149zM8 1203l186 -1203h114l-3 -24q-17 -109 -58 -177q-35 -59 -91 -94l80 -130q189 98 238 408l62 401q84 535 126 819h-184l-124 -901l-20 -134l-142 1035h-184z" />
    <glyph glyph-name="Ydieresis" unicode="&#x178;" horiz-adv-x="705" 
d="M164 1733q0 -96 87 -96q47 0 67.5 23.5t20.5 72.5q0 35 -8.5 56.5t-28 32t-51.5 10.5q-30 0 -49 -10.5t-28.5 -32.5t-9.5 -56zM378 1733q0 -96 86 -96q47 0 68 23.5t21 72.5q0 52 -21 75.5t-68 23.5q-86 0 -86 -99zM702 1520h-181l-163 -677l-155 677h-200l262 -944v-576
h182v576z" />
    <glyph glyph-name="Zacute" unicode="&#x179;" horiz-adv-x="659" 
d="M387 1865l-110 -263h134l148 263h-172zM617 0v183h-372l372 1176v161h-554v-184h347l-365 -1165v-171h572z" />
    <glyph glyph-name="zacute" unicode="&#x17a;" horiz-adv-x="636" 
d="M360 1546l-110 -263h134l148 263h-172zM585 0v178h-347l348 865v159h-524v-173h325l-350 -869v-160h548z" />
    <glyph glyph-name="Zdotaccent" unicode="&#x17b;" horiz-adv-x="659" 
d="M234 1725q0 -55 26 -81t82 -26q58 0 84 26t26 81q0 29 -6 49.5t-19.5 34.5t-34 20.5t-50.5 6.5q-29 0 -49 -6.5t-33.5 -20.5t-19.5 -34.5t-6 -49.5zM617 0v183h-372l372 1176v161h-554v-184h347l-365 -1165v-171h572z" />
    <glyph glyph-name="zdotaccent" unicode="&#x17c;" horiz-adv-x="636" 
d="M204 1406q0 -55 26 -81t82 -26q58 0 84 26t26 81q0 58 -25.5 84.5t-84.5 26.5q-29 0 -49 -6.5t-33.5 -20.5t-19.5 -34.5t-6 -49.5zM585 0v178h-347l348 865v159h-524v-173h325l-350 -869v-160h548z" />
    <glyph glyph-name="Zcaron" unicode="&#x17d;" horiz-adv-x="659" 
d="M140 1838l117 -236h172l117 236h-149l-54 -133l-53 133h-150zM617 0v183h-372l372 1176v161h-554v-184h347l-365 -1165v-171h572z" />
    <glyph glyph-name="zcaron" unicode="&#x17e;" horiz-adv-x="636" 
d="M115 1519l117 -236h172l117 236h-149l-54 -133l-53 133h-150zM585 0v178h-347l348 865v159h-524v-173h325l-350 -869v-160h548z" />
    <glyph glyph-name="longs" unicode="&#x17f;" horiz-adv-x="477" 
d="M13 1029h102v-1029h180v1211q0 131 14 172q9 26 26 38t46 12q46 0 87 -18l32 156q-73 39 -146 39q-142 0 -196 -107q-43 -87 -43 -292v-8h-102v-174z" />
    <glyph glyph-name="AEacute" unicode="&#x1fc;" horiz-adv-x="955" 
d="M625 1865l-110 -263h134l148 263h-172zM192 0l64 307h206v-307h456v183h-273v502h214v184h-214v467l273 1v184l-567 -1l-341 -1520h182zM292 481l170 817v-817h-170z" />
    <glyph glyph-name="aeacute" unicode="&#x1fd;" horiz-adv-x="1185" 
d="M620 1546l-110 -263h134l148 263h-172zM910 406v-23q0 -109 -18 -154q-26 -67 -101 -67q-77 0 -103 81q-17 51 -17 179v80l416 88v225q0 185 -52 280q-70 127 -244 127q-140 0 -206 -90q-64 90 -211 90q-166 0 -238 -126q-54 -96 -54 -271v-18h179v20q0 96 19 145
q27 70 95 70q75 0 101 -78q17 -54 17 -182v-122q-73 32 -164 32q-154 0 -212 -95q-45 -73 -45 -240q0 -173 57 -265q69 -111 222 -111q69 0 127 28.5t98 76.5q65 -104 217 -104q173 0 242 123q52 93 52 279v22h-177zM791 1042q76 0 102 -71q17 -46 17 -154v-97l-239 -55v116
q0 129 18 183q26 78 102 78zM374 161q-69 0 -97 57q-22 45 -22 136q0 84 18 123q25 58 98 58q80 0 124 -38v-91q0 -111 -22 -167q-31 -78 -99 -78z" />
    <glyph glyph-name="Oslashacute" unicode="&#x1fe;" horiz-adv-x="760" 
d="M384 1883l-110 -263h134l148 263h-172zM305 -128l26 115q35 -5 70 -5v1l1 -1q177 0 249 114q59 93 59 284v762q0 206 -69 298l37 159l-163 47l-29 -114q-43 8 -84 8l-1 -1v1q-177 0 -248 -114q-59 -93 -59 -285v-761q0 -219 77 -310l-36 -162zM402 1357q79 0 105 -58
q19 -45 19 -158v-760q0 -115 -20 -160q-26 -56 -104 -56h-1q-79 0 -104 59q-20 45 -20 157v759q0 115 21 161q26 56 103 56h1z" />
    <glyph glyph-name="oslashacute" unicode="&#x1ff;" horiz-adv-x="737" 
d="M473 1546l-110 -263h134l148 263h-172zM754 1272l-113 43l-51 -124q-59 31 -153 31q-175 0 -244 -115q-54 -90 -54 -285v-442q0 -172 42 -260l-70 -180l119 -37l46 114q62 -35 163 -35q176 0 243 115q52 88 52 284v442q0 184 -48 273zM437 1042q78 0 101 -58
q16 -41 16 -159v-445q0 -120 -17 -161q-25 -57 -100 -57q-77 0 -101 59q-17 39 -17 158v445q0 120 18 162q23 56 100 56z" />
    <glyph glyph-name="Scommaaccent" unicode="&#x218;" horiz-adv-x="734" 
d="M667 387q-5 301 -204 440l-112 78q-51 35 -78 98q-26 61 -28 130l-1 44q-6 180 120 180q115 0 117 -160v-141h183v127q0 357 -298 357q-101 0 -167.5 -37t-101.5 -114.5t-35 -197.5v-23q0 -158 37 -249q40 -100 157 -187l123 -89q105 -76 105 -290v-11q0 -91 -28.5 -134
t-97.5 -43q-73 0 -101 52q-24 44 -24 160v89h-182v-88q0 -198 62 -288q74 -108 247 -108q157 0 232.5 92.5t74.5 274.5v38zM279 -157q0 -46 20.5 -67t64.5 -21q-5 -39 -14 -65t-34 -68l68 -41q34 43 53 94q24 62 24 149q0 109 -93 109q-46 0 -67.5 -21t-21.5 -69z" />
    <glyph glyph-name="scommaaccent" unicode="&#x219;" horiz-adv-x="675" 
d="M627 299q0 64 -17 118q-33 99 -107 172q-46 44 -146 125q-39 31 -63 59q-62 67 -62 140q0 59 26.5 94t79.5 35q62 0 86 -46q20 -41 20 -143l175 -1q0 212 -65 294q-33 41 -85.5 58.5t-130.5 17.5q-165 0 -233 -89q-54 -72 -54 -222q0 -63 17 -114q31 -94 106 -165
q42 -40 143 -121q34 -28 63 -60q60 -70 60 -151q0 -69 -25.5 -103.5t-81.5 -34.5q-70 0 -94 53q-20 44 -20 158h-179q0 -200 58 -288q66 -103 237 -103q158 0 227 79q65 73 65 238zM244 -147q0 -46 20.5 -67t64.5 -21q-5 -39 -14 -65t-34 -68l68 -41q34 43 53 94
q24 62 24 149q0 109 -93 109q-46 0 -67.5 -21.5t-21.5 -68.5z" />
    <glyph glyph-name="uni021A" unicode="&#x21a;" horiz-adv-x="633" 
d="M627 1336v184h-617v-184h217v-1336h183v1336h217zM227 -147q0 -46 20.5 -67t64.5 -21q-5 -39 -14 -65t-34 -68l68 -41q34 43 53 94q24 62 24 149q0 109 -93 109q-46 0 -67.5 -21t-21.5 -69z" />
    <glyph glyph-name="uni021B" unicode="&#x21b;" horiz-adv-x="555" 
d="M129 1476v-273h-106v-174h106v-649q0 -205 43 -292q53 -107 197 -107q93 0 169 59l-13 157q-58 -38 -130 -38q-29 0 -46 11.5t-26 37.5q-14 41 -14 172v649h180v174h-180v273h-180zM258 -183q0 -46 20.5 -67t64.5 -21q-5 -39 -14 -65t-34 -68l68 -41q34 43 53 94
q24 62 24 149q0 109 -93 109q-46 0 -67.5 -21t-21.5 -69z" />
    <glyph glyph-name="uni0237" unicode="&#x237;" horiz-adv-x="242" 
d="M99 1202v-1211q0 -131 -14 -172q-9 -26 -26 -38t-46 -12q-69 0 -131 39l-11 -157q72 -59 169 -59q144 0 197 107q42 85 42 292v1211h-180z" />
    <glyph glyph-name="uni0262" unicode="&#x262;" horiz-adv-x="729" 
d="M357 475h125v-114q0 -97 -19 -140q-26 -59 -99 -59q-62 0 -88 32q-23 27 -28 92q-3 46 -3 103v107v326q0 120 18 162q24 58 101 58q75 0 102 -61q16 -40 16 -137v-37h178v35q0 173 -52 262q-70 118 -244 118q-168 0 -236 -93q-59 -79 -61 -253v-34q-1 -13 -1 -41v-42v-34
v-346q0 -195 54 -282q69 -115 246 -115q120 0 189 55q60 48 86 140q19 71 19 185v198h-3l3 67h-303v-152z" />
    <glyph glyph-name="uni026A" unicode="&#x26a;" 
d="M276 0v1202h-179v-1202h179z" />
    <glyph glyph-name="uni0274" unicode="&#x274;" horiz-adv-x="798" 
d="M698 0v1202h-183v-742l-94 314l-114 428h-213l3 -1202h183v755l83 -282l124 -473h211z" />
    <glyph glyph-name="uni0276" unicode="&#x276;" horiz-adv-x="1099" 
d="M1020 0v185h-341v338h249v185h-249v309h341v185h-469v-64q-20 35 -49 54q-46 30 -119 30q-164 0 -235 -94q-60 -81 -62 -251v-35q-1 -13 -1 -41v-41v-35v-342q0 -195 53 -284q70 -117 247 -117q100 0 166 71v-53h469zM383 1042q42 0 64.5 -18.5t34.5 -54.5q6 -12 11 -40
q6 -41 6 -124v-69v-262v-57v-58q-2 -73 -5 -90q-8 -54 -31 -79q-26 -28 -80 -28q-44 0 -66.5 20t-33.5 57q-8 15 -12 39q-7 45 -7 117v67v257v57q0 41 1 61q0 62 5 94q8 62 33.5 86.5t79.5 24.5z" />
    <glyph glyph-name="uni0280" unicode="&#x280;" horiz-adv-x="754" 
d="M274 0v456h75q53 -9 79 -45q36 -49 48 -163l10 -93q6 -51 17 -93q4 -16 10 -37t7 -25h186q-33 78 -41 160l-9 93q-13 119 -37 176q-12 27 -30 47.5t-48 42.5q63 48 100 122.5t37 168.5v49q0 175 -71.5 259t-226.5 84h-284v-1202h178zM500 810q0 -175 -123 -175h-103v388
h105q61 0 91 -37.5t30 -124.5v-51z" />
    <glyph glyph-name="uni028F" unicode="&#x28f;" horiz-adv-x="627" 
d="M454 1202l-136 -539l-132 539h-177l217 -744v-458h182v458l211 744h-165z" />
    <glyph glyph-name="uni0299" unicode="&#x299;" horiz-adv-x="761" 
d="M97 1202v-1202h284q155 0 226.5 80.5t71.5 253.5v46q0 163 -116 232q104 68 104 219v57q0 169 -73 242q-72 72 -230 72h-267zM484 841q0 -81 -30 -115q-27 -31 -93 -31h-86v328h87q62 0 89 -26q33 -31 33 -116v-40zM501 332q0 -87 -32 -122q-28 -31 -90 -31h-104v347h103
q63 0 93 -34.5t30 -115.5v-44z" />
    <glyph glyph-name="uni029C" unicode="&#x29c;" horiz-adv-x="791" 
d="M275 0v500h240v-500h180v1202h-180v-517h-240v517h-179v-1202h179z" />
    <glyph glyph-name="uni029F" unicode="&#x29f;" horiz-adv-x="626" 
d="M96 1202v-1202h520v187h-341v1015h-179z" />
    <glyph glyph-name="circumflex" unicode="&#x2c6;" horiz-adv-x="430" 
d="M166 1283l54 133l54 -133h149l-117 236h-172l-117 -236h149z" />
    <glyph glyph-name="caron" unicode="&#x2c7;" horiz-adv-x="581" 
d="M85 1519l117 -236h172l117 236h-149l-54 -133l-53 133h-150z" />
    <glyph glyph-name="breve" unicode="&#x2d8;" horiz-adv-x="594" 
d="M410 1528q-7 -70 -29 -99q-27 -35 -96 -35t-97 37q-21 27 -28 97h-105q2 -111 53 -174q58 -71 177 -71q118 0 175 70q50 61 55 175h-105z" />
    <glyph glyph-name="dotaccent" unicode="&#x2d9;" horiz-adv-x="420" 
d="M70 1406q0 -55 26 -81t82 -26q58 0 84 26t26 81q0 58 -25.5 84.5t-84.5 26.5q-29 0 -49 -6.5t-33.5 -20.5t-19.5 -34.5t-6 -49.5z" />
    <glyph glyph-name="ring" unicode="&#x2da;" horiz-adv-x="348" 
d="M0 1458q0 -175 167 -175q91 0 132 44t41 131q0 62 -17 101t-55.5 59.5t-100.5 20.5q-58 0 -95 -20t-54.5 -60t-17.5 -101zM117 1460q0 61 51 61q20 0 32 -7.5t17 -20.5t5 -33q0 -61 -54 -61q-51 0 -51 61z" />
    <glyph glyph-name="ogonek" unicode="&#x2db;" horiz-adv-x="433" 
d="M321 -263q-19 -12 -34 -17t-42 -5q-67 0 -67 93q0 66 26 109.5t82 82.5l-75 39q-90 -42 -134 -89q-59 -62 -59 -157q0 -108 58 -161q51 -48 134 -48t122 44z" />
    <glyph glyph-name="tilde" unicode="&#x2dc;" horiz-adv-x="432" 
d="M369 1531q-15 -35 -32.5 -51t-41.5 -16q-6 0 -12.5 1.5t-11.5 3.5t-13.5 6.5t-12 6.5t-13.5 8.5t-13 8.5q-19 11 -29.5 16.5t-29.5 11.5t-38 6q-65 0 -105 -48q-37 -44 -61 -123l90 -39q27 67 77 67q12 0 27 -6t22 -10.5t28 -17.5q54 -34 94 -34q63 0 107 49
q37 41 58 123z" />
    <glyph glyph-name="hungarumlaut" unicode="&#x2dd;" horiz-adv-x="350" 
d="M50 1546l-110 -263h129l143 263h-162zM260 1546l-110 -263h129l143 263h-162z" />
    <glyph glyph-name="uni0326" unicode="&#x326;" horiz-adv-x="0" 
d="M-255 -147q0 -46 20.5 -67t64.5 -21q-5 -39 -14 -65t-34 -68l68 -41q34 43 53 94q24 62 24 149q0 109 -93 109q-46 0 -67.5 -21t-21.5 -69z" />
    <glyph glyph-name="tonos" unicode="&#x384;" horiz-adv-x="334" 
d="M97 1546l16 -263h119l22 263h-157z" />
    <glyph glyph-name="dieresistonos" unicode="&#x385;" horiz-adv-x="530" 
d="M185 1664l16 -263h115l22 263h-153zM-2 1414q0 -49 20.5 -72.5t64.5 -23.5q47 0 68 23.5t21 72.5q0 35 -9 56.5t-28.5 32t-51.5 10.5q-45 0 -65 -24t-20 -75zM342 1414q0 -32 8.5 -53t27.5 -32t49 -11q47 0 68 23.5t21 72.5q0 35 -9 56.5t-28.5 32t-51.5 10.5
q-30 0 -49 -10.5t-27.5 -32.5t-8.5 -56z" />
    <glyph glyph-name="Alphatonos" unicode="&#x386;" horiz-adv-x="717" 
d="M-6 1522l16 -263h119l22 263h-157zM191 0l40 307h257l40 -307h184l-227 1521h-251l-228 -1521h185zM359 1299l106 -818h-212z" />
    <glyph glyph-name="Epsilontonos" unicode="&#x388;" horiz-adv-x="709" 
d="M-107 1523l16 -263h119l22 263h-157zM637 0v183h-352v502h294v184h-294v467l352 1v184l-534 -1v-1520h534z" />
    <glyph glyph-name="Etatonos" unicode="&#x389;" horiz-adv-x="834" 
d="M287 0v674h261v-674h183v1521h-183v-662h-261v662h-183v-1521h183zM-104 1520l16 -263h119l22 263h-157z" />
    <glyph glyph-name="Iotatonos" unicode="&#x38a;" horiz-adv-x="392" 
d="M-111 1528l16 -263h119l22 263h-157zM288 0v1521h-183v-1521h183z" />
    <glyph glyph-name="Omicrontonos" unicode="&#x38c;" horiz-adv-x="737" 
d="M-113 1559l16 -263h119l22 263h-157zM64 380q0 -190 58 -282q71 -116 250 -116q177 0 249 114q59 93 59 284v762q0 190 -58 283q-73 115 -250 115t-249 -114q-59 -93 -59 -285v-761zM372 1357q79 0 105 -58q20 -45 20 -158v-760q0 -116 -21 -160q-26 -56 -104 -56
q-80 0 -105 59q-20 45 -20 157v759q0 115 21 161q26 56 104 56z" />
    <glyph glyph-name="Upsilontonos" unicode="&#x38e;" horiz-adv-x="932" 
d="M-8 1523l16 -263h119l22 263h-157zM909 1520h-181l-163 -677l-155 677h-200l262 -944v-576h182v576z" />
    <glyph glyph-name="Omegatonos" unicode="&#x38f;" horiz-adv-x="785" 
d="M-95 1546l16 -263h119l22 263h-157zM360 0v474q-39 0 -59 32q-35 60 -33 186v106v332q0 116 21 165q25 61 100 62q1 -1 4 -1q79 0 106 -64q19 -47 19 -162v-332v-34.5v-38.5t-0.5 -35t-1.5 -38.5t-2.5 -33.5t-4.5 -34q-6 -34 -15.5 -57.5t-26.5 -38t-42 -14.5v-474h263
v182h-109l2 161q72 61 101 199q19 95 19 255v334q0 191 -58 288q-73 121 -250 121l-1 -1v1q-177 0 -248 -119q-59 -97 -59 -290v-334q0 -159 19 -255q28 -141 100 -200l3 -160h-109v-182h262z" />
    <glyph glyph-name="iotadieresistonos" unicode="&#x390;" 
d="M111 1648l16 -263h115l22 263h-153zM-76 1398q0 -49 20.5 -72.5t64.5 -23.5q32 0 51.5 11t28.5 31.5t9 53.5q0 34 -9 56t-28.5 32.5t-51.5 10.5q-23 0 -39 -6t-26 -18t-15 -30.5t-5 -44.5zM268 1398q0 -49 20.5 -72.5t64.5 -23.5q47 0 68 23.5t21 72.5q0 34 -9 56
t-28.5 32.5t-51.5 10.5q-45 0 -65 -24t-20 -75zM276 0v1202h-179v-1202h179z" />
    <glyph glyph-name="Alpha" unicode="&#x391;" horiz-adv-x="717" 
d="M191 0l40 307h257l40 -307h184l-227 1521h-251l-228 -1521h185zM359 1299l106 -818h-212z" />
    <glyph glyph-name="Beta" unicode="&#x392;" horiz-adv-x="789" 
d="M719 514q-1 125 -48 200q-39 61 -106 81q67 18 104 108q35 84 35 205v52q0 91 -17.5 158t-54.5 112.5t-95 68t-138 22.5h-295v-1520h307q160 0 233 87q75 90 75 299v127zM521 1088q0 -109 -19 -152q-26 -56 -102 -56h-113v465h111q66 0 94 -38q28 -41 28 -136zM537 392
q1 -122 -33 -169q-29 -39 -94 -39h-123v522h101q86 0 118 -51q30 -48 30 -162z" />
    <glyph glyph-name="Gamma" unicode="&#x393;" horiz-adv-x="637" 
d="M629 1340v184h-532v-1524h183v1340h349z" />
    <glyph glyph-name="uni0394" unicode="&#x394;" horiz-adv-x="717" 
d="M720 0l-217 1521h-278l-218 -1521h713zM365 1313l143 -1129h-290z" />
    <glyph glyph-name="Epsilon" unicode="&#x395;" horiz-adv-x="709" 
d="M637 0v183h-352v502h294v184h-294v467l352 1v184l-534 -1v-1520h534z" />
    <glyph glyph-name="Zeta" unicode="&#x396;" horiz-adv-x="659" 
d="M617 0v183h-372l372 1176v161h-554v-184h347l-365 -1165v-171h572z" />
    <glyph glyph-name="Eta" unicode="&#x397;" horiz-adv-x="834" 
d="M287 0v674h261v-674h183v1521h-183v-662h-261v662h-183v-1521h183z" />
    <glyph glyph-name="Theta" unicode="&#x398;" horiz-adv-x="760" 
d="M72 380q0 -190 58 -282q71 -116 250 -116q177 0 249 114q59 93 59 284v762q0 190 -58 283q-73 115 -250 115t-249 -114q-59 -93 -59 -285v-761zM380 1357q79 0 105 -58q20 -45 20 -158v-760q0 -115 -21 -160q-26 -56 -104 -56q-80 0 -105 59q-20 45 -20 157v759
q0 115 21 161q26 56 104 56zM286 665h192v184h-192v-184z" />
    <glyph glyph-name="Iota" unicode="&#x399;" horiz-adv-x="392" 
d="M288 0v1521h-183v-1521h183z" />
    <glyph glyph-name="Kappa" unicode="&#x39a;" horiz-adv-x="783" 
d="M287 0v674h88l214 -674h196l-248 773l230 747h-196l-202 -661h-82v662h-183v-1521h183z" />
    <glyph glyph-name="Lambda" unicode="&#x39b;" horiz-adv-x="738" 
d="M538 0h187l-216 1521h-278l-218 -1521h187l170 1310z" />
    <glyph glyph-name="Mu" unicode="&#x39c;" horiz-adv-x="1059" 
d="M449 209h161l200 1079l-15 -250l-11 -1038h169v1521h-240l-166 -831l-18 -153l-17 152l-166 832h-241v-1521h168l-11 1037l-15 263z" />
    <glyph glyph-name="Nu" unicode="&#x39d;" horiz-adv-x="834" 
d="M277 0l-8 1048l-14 134l301 -1182h211v1521h-173l9 -1041l23 -211l-296 1252h-226v-1521h173z" />
    <glyph glyph-name="Xi" unicode="&#x39e;" horiz-adv-x="710" 
d="M84 1339l540 1v183l-540 -1v-183zM142 685h424v184h-424v-184zM84 0h540v183h-541z" />
    <glyph glyph-name="Omicron" unicode="&#x39f;" horiz-adv-x="737" 
d="M64 380q0 -190 58 -282q71 -116 250 -116q177 0 249 114q59 93 59 284v762q0 190 -58 283q-73 115 -250 115t-249 -114q-59 -93 -59 -285v-761zM372 1357q79 0 105 -58q20 -45 20 -158v-760q0 -116 -21 -160q-26 -56 -104 -56q-80 0 -105 59q-20 45 -20 157v759
q0 115 21 161q26 56 104 56z" />
    <glyph glyph-name="Pi" unicode="&#x3a0;" horiz-adv-x="821" 
d="M280 0v1337h262v-1337h183v1521h-628v-1521h183z" />
    <glyph glyph-name="Rho" unicode="&#x3a1;" horiz-adv-x="768" 
d="M694 1151q0 199 -80 288q-74 82 -227 82h-290v-1521h183v555h96q163 0 237 82q81 90 81 300v214zM512 992q0 -133 -16 -179q-26 -75 -112 -75h-104v599h97q82 0 110 -48q25 -43 25 -163v-134z" />
    <glyph glyph-name="Sigma" unicode="&#x3a3;" horiz-adv-x="673" 
d="M464 791l-209 547h358v183h-558v-171l220 -589l-225 -590v-171h571v183h-371l214 547v61z" />
    <glyph glyph-name="Tau" unicode="&#x3a4;" horiz-adv-x="633" 
d="M627 1336v184h-617v-184h217v-1336h183v1336h217z" />
    <glyph glyph-name="Upsilon" unicode="&#x3a5;" horiz-adv-x="705" 
d="M702 1520h-181l-163 -677l-155 677h-200l262 -944v-576h182v576z" />
    <glyph glyph-name="Phi" unicode="&#x3a6;" horiz-adv-x="967" 
d="M575 0v126q175 0 246 117q56 92 56 282v475q0 192 -57 285q-71 116 -245 116v120h-183v-120q-175 0 -246 -116q-57 -93 -57 -285v-475q0 -190 56 -282q71 -117 247 -117v-126h183zM267 1003q0 115 21 161q27 57 104 57v-914q-80 0 -105 59q-20 45 -20 157v480zM699 523
q0 -112 -19 -157q-26 -59 -105 -59v914q76 0 103 -57q21 -46 21 -161v-480z" />
    <glyph glyph-name="Chi" unicode="&#x3a7;" horiz-adv-x="768" 
d="M756 0l-252 788l233 733h-199l-152 -538l-152 538h-200l227 -731l-248 -790h203l164 594l172 -594h204z" />
    <glyph glyph-name="Psi" unicode="&#x3a8;" horiz-adv-x="967" 
d="M575 0v411q175 0 249 132q58 105 58 302v677l-183 -1v-675q0 -122 -20 -178q-28 -73 -104 -73v926h-183v-926q-78 0 -104 76q-20 55 -20 175v675l-183 1v-677q0 -197 58 -300q73 -134 249 -134v-411h183z" />
    <glyph glyph-name="uni03A9" unicode="&#x3a9;" horiz-adv-x="785" 
d="M360 0v474q-39 0 -59 32q-35 60 -33 186v106v332q0 116 21 165q25 61 100 62q1 -1 4 -1q79 0 106 -64q19 -47 19 -162v-332v-34.5v-38.5t-0.5 -35t-1.5 -38.5t-2.5 -33.5t-4.5 -34q-6 -34 -15.5 -57.5t-26.5 -38t-42 -14.5v-474h263v182h-109l2 161q72 61 101 199
q19 95 19 255v334q0 191 -58 288q-73 121 -250 121l-1 -1v1q-177 0 -248 -119q-59 -97 -59 -290v-334q0 -159 19 -255q28 -141 100 -200l3 -160h-109v-182h262z" />
    <glyph glyph-name="Iotadieresis" unicode="&#x3aa;" horiz-adv-x="392" 
d="M-5 1733q0 -96 87 -96q47 0 67.5 23.5t20.5 72.5q0 52 -20.5 75.5t-67.5 23.5q-45 0 -66 -24t-21 -75zM209 1733q0 -96 86 -96q32 0 51.5 11t28.5 31.5t9 53.5q0 52 -21 75.5t-68 23.5q-86 0 -86 -99zM288 0v1521h-183v-1521h183z" />
    <glyph glyph-name="Upsilondieresis" unicode="&#x3ab;" horiz-adv-x="705" 
d="M163 1733q0 -96 87 -96q47 0 67.5 23.5t20.5 72.5q0 52 -20.5 75.5t-67.5 23.5q-45 0 -66 -24t-21 -75zM377 1733q0 -96 86 -96q47 0 68 23.5t21 72.5q0 52 -21 75.5t-68 23.5q-86 0 -86 -99zM702 1520h-181l-163 -677l-155 677h-200l262 -944v-576h182v576z" />
    <glyph glyph-name="alphatonos" unicode="&#x3ac;" horiz-adv-x="764" 
d="M287 1550l16 -263h119l22 263h-157zM668 0v1202h-179v-90q-21 54 -58.5 81.5t-98.5 27.5q-154 0 -213 -123q-44 -92 -44 -283v-426q0 -200 44 -289q57 -118 211 -118q63 0 100.5 27.5t58.5 81.5v-91h179zM372 162q-76 0 -99 58q-18 42 -18 162v441q0 42 0.5 63.5t4 49.5
t11.5 46q23 60 101 60q63 0 90 -45q22 -38 27 -122v-553q-5 -81 -26 -115q-27 -45 -91 -45z" />
    <glyph glyph-name="epsilontonos" unicode="&#x3ad;" horiz-adv-x="763" 
d="M305 1549l16 -263h119l22 263h-157zM500 358q0 -99 -18 -138q-26 -58 -100 -58q-32 0 -53 9q-43 18 -55 68q-12 42 -10 148v97v38l289 -2v171l-289 -5v136q0 123 17 162q25 58 101 58q75 0 102 -60q16 -38 16 -135v-40h179v38q0 172 -53 260q-71 117 -244 117
q-168 0 -236 -93q-59 -79 -61 -253q-1 -19 -1 -62v-63v-368q0 -196 54 -284q69 -117 245 -117q174 0 244 115q52 85 52 262v36h-179v-37z" />
    <glyph glyph-name="etatonos" unicode="&#x3ae;" horiz-adv-x="777" 
d="M307 1550l16 -263h119l22 263h-157zM689 -366v1160q0 201 -41 296q-56 130 -203 130q-68 0 -108 -23t-62 -84v89h-179v-1202h179v826q0 114 21 160q24 55 100 55q78 0 100 -64q14 -40 14 -162v-1181h179z" />
    <glyph glyph-name="iotatonos" unicode="&#x3af;" 
d="M108 1564l16 -263h119l22 263h-157zM276 0v1202h-179v-1202h179z" />
    <glyph glyph-name="upsilondieresistonos" unicode="&#x3b0;" horiz-adv-x="761" 
d="M309 1648l16 -263h115l22 263h-153zM122 1398q0 -49 20.5 -72.5t64.5 -23.5q47 0 68 23.5t21 72.5q0 34 -9 56t-28.5 32.5t-51.5 10.5q-30 0 -49 -10.5t-27.5 -32.5t-8.5 -56zM466 1398q0 -49 20.5 -72.5t64.5 -23.5q47 0 68 23.5t21 72.5q0 34 -9 56t-28.5 32.5
t-51.5 10.5q-45 0 -65 -24t-20 -75zM500 1202v-832q0 -108 -18 -147q-25 -57 -99 -58q-78 0 -103 56q-19 42 -19 149v832h-181v-833q0 -189 57 -276q67 -106 237 -110l1 -1h11q170 4 238 110q58 90 58 277v833h-182z" />
    <glyph glyph-name="alpha" unicode="&#x3b1;" horiz-adv-x="764" 
d="M668 0v1202h-179v-90q-21 54 -58.5 81.5t-98.5 27.5q-154 0 -213 -123q-44 -92 -44 -283v-426q0 -200 44 -289q57 -118 211 -118q63 0 100.5 27.5t58.5 81.5v-91h179zM372 162q-76 0 -99 58q-18 42 -18 162v441v38.5t1 33.5t2.5 33.5t4.5 27.5t8 26q23 60 101 60
q63 0 90 -45q22 -38 27 -122v-553q-5 -81 -26 -115q-27 -45 -91 -45z" />
    <glyph glyph-name="beta" unicode="&#x3b2;" horiz-adv-x="745" 
d="M677 435q0 81 -7 139t-23 102.5t-43 71t-67 37.5q66 26 92 97q30 81 30 260q0 213 -69 307q-69 91 -219 91q-157 0 -223 -88q-63 -84 -63 -271v-1545h183v368q72 -22 127 -22q77 0 129 22t86 72q67 99 67 359zM268 1191q0 99 20 131q20 35 80 35q62 0 88 -50
q21 -43 21 -154v-73q0 -113 -30 -164q-27 -44 -84 -44h-95v319zM358 693q65 0 97 -33q40 -43 40 -146v-138q0 -123 -31 -171q-26 -40 -87 -40q-37 0 -109 22v506h90z" />
    <glyph glyph-name="gamma" unicode="&#x3b3;" horiz-adv-x="689" 
d="M432 -370v370h38l206 1203h-186l-147 -1014l-147 1014h-183l205 -1203h34v-370h180z" />
    <glyph glyph-name="delta" unicode="&#x3b4;" horiz-adv-x="737" 
d="M173 1408l130 -191q-137 -21 -190 -131q-43 -90 -43 -264v-442q0 -192 54 -282q69 -116 246 -116q176 0 243 115q52 88 52 284v442q0 117 -17 190q-21 89 -73 140q-10 12 -31 42q-29 39 -80 110l-37 51q-24 33 -27 37q-11 14 -9 15h273v160h-491v-160zM368 1042
q78 0 101 -58q16 -41 16 -159v-445q0 -120 -17 -161q-25 -57 -100 -57q-77 0 -101 59q-17 39 -17 158v445q0 120 18 162q23 56 100 56z" />
    <glyph glyph-name="epsilon" unicode="&#x3b5;" horiz-adv-x="763" 
d="M500 358q0 -99 -18 -138q-26 -58 -100 -58q-32 0 -53 9q-43 18 -55 68q-12 42 -10 148v97v38l289 -2v171l-289 -5v136q0 123 17 162q25 58 101 58q75 0 102 -60q16 -38 16 -135v-40h179v38q0 172 -53 260q-71 117 -244 117q-168 0 -236 -93q-59 -79 -61 -253
q-1 -19 -1 -62v-63v-368q0 -196 54 -284q69 -117 245 -117q174 0 244 115q52 85 52 262v36h-179v-37z" />
    <glyph glyph-name="zeta" unicode="&#x3b6;" horiz-adv-x="678" 
d="M147 1380h272l-336 -751q-34 -86 -44.5 -169.5t-1 -152.5t37.5 -128q41 -87 113.5 -139t162.5 -57q82 -1 111 -37q25 -30 10 -88l-43 -224h178l39 214q27 140 -25 210q-61 83 -237 100q-50 3 -91.5 34t-62.5 84q-51 127 22 313l353 791v188h-458v-188z" />
    <glyph glyph-name="eta" unicode="&#x3b7;" horiz-adv-x="777" 
d="M689 -366v1160q0 201 -41 296q-56 130 -203 130q-46 0 -76.5 -9t-54.5 -33t-39 -65v89h-179v-1202h179v826q0 114 21 160q24 55 100 55q78 0 100 -64q14 -40 14 -162v-1181h179z" />
    <glyph glyph-name="theta" unicode="&#x3b8;" horiz-adv-x="737" 
d="M68 394q0 -196 51 -289q66 -123 244 -123q173 0 241 119q53 93 53 290v741q0 195 -53 288q-68 120 -241 120q-174 0 -242 -122q-53 -95 -53 -287v-737zM363 1357q76 0 98 -61q14 -39 14 -160v-287h-224v281q0 120 16 166q22 61 96 61zM363 165q-76 0 -98 63
q-14 39 -14 161v276h224v-279q0 -121 -15 -162q-22 -59 -97 -59z" />
    <glyph glyph-name="iota" unicode="&#x3b9;" 
d="M276 0v1202h-179v-1202h179z" />
    <glyph glyph-name="kappa" unicode="&#x3ba;" horiz-adv-x="746" 
d="M97 1201v-1201h179v512h72l187 -512h199l-246 601l217 601h-183l-172 -507h-74v506h-179z" />
    <glyph glyph-name="lambda" unicode="&#x3bb;" horiz-adv-x="689" 
d="M198 0l140 1024h12l16 -121h2l124 -903h184l-150 969l-34 244q-17 127 -84 228q-60 86 -143 127l-80 -130q52 -30 87 -79q42 -61 55 -155v-1h-127l-187 -1203h185z" />
    <glyph glyph-name="uni03BC" unicode="&#x3bc;" horiz-adv-x="784" 
d="M511 1202v-827q0 -117 -16 -156q-24 -58 -101 -58q-72 0 -97 59q-21 47 -21 163v819h-179v-1567h179v455q20 -56 59 -82t104 -26q148 0 207 122q44 92 44 289v809h-179z" />
    <glyph glyph-name="nu" unicode="&#x3bd;" horiz-adv-x="678" 
d="M485 1203l-147 -1014l-147 1014h-184l206 -1203h251l207 1203h-186z" />
    <glyph glyph-name="xi" unicode="&#x3be;" horiz-adv-x="794" 
d="M645 -366l16 133q20 186 -36 281q-66 112 -242 112l-1 -1v1q-63 0 -91 42q-35 51 -35 181v127q0 114 38 152q28 28 94 28h142v178h-142q-54 0 -78 34q-29 40 -29 137v117q0 104 19 146q25 55 98 55q72 0 98 -51q18 -36 18 -130v-86h183v66q0 179 -54 268
q-70 116 -245 116t-244 -116q-54 -92 -54 -287v-103q0 -205 122 -252q-81 -23 -114 -99q-34 -79 -34 -251q0 -250 70 -352q35 -51 91.5 -74.5t138.5 -23.5h4q81 0 100 -54q15 -43 4 -161l-15 -133h178z" />
    <glyph glyph-name="omicron" unicode="&#x3bf;" horiz-adv-x="737" 
d="M70 380q0 -192 54 -282q69 -116 246 -116q176 0 243 115q52 88 52 284v442q0 194 -53 283q-69 116 -244 116t-244 -115q-54 -90 -54 -285v-442zM368 1042q78 0 101 -58q16 -41 16 -159v-445q0 -120 -17 -161q-25 -57 -100 -57q-77 0 -101 59q-17 39 -17 158v445
q0 120 18 162q23 56 100 56z" />
    <glyph glyph-name="pi" unicode="&#x3c0;" horiz-adv-x="943" 
d="M897 1022v180h-875v-180h142v-1022h177v1022h238v-1022h178v1022h140z" />
    <glyph glyph-name="rho" unicode="&#x3c1;" horiz-adv-x="765" 
d="M270 -366v463q40 -115 161 -115q153 0 211 118q43 90 43 289v450q0 182 -63 275q-73 108 -233 108l-1 -1v1q-175 0 -244 -118q-53 -91 -53 -290v-1180h179zM389 162q-78 0 -102 61q-17 40 -17 159v440q0 120 18 162q24 58 100 58h1q76 0 101 -60q7 -18 10.5 -46t4 -49.5
t0.5 -63.5v-441q0 -123 -16 -162q-25 -58 -100 -58z" />
    <glyph glyph-name="uni03C2" unicode="&#x3c2;" horiz-adv-x="734" 
d="M639 -366l15 133q20 186 -36 281q-66 112 -242 112h-3q-33 0 -54 10q-42 17 -56 68q-11 40 -11 149v97v338q0 120 18 162q24 58 101 58q75 0 102 -60q16 -38 16 -135v-40h178v38q0 172 -52 260q-69 117 -244 117q-168 0 -236 -93q-60 -81 -62 -253v-493q0 -195 53 -284
q69 -117 246 -117h7q74 -1 92 -56q13 -38 4 -159l-15 -133h179z" />
    <glyph glyph-name="sigma" unicode="&#x3c3;" horiz-adv-x="737" 
d="M744 1202h-247q-57 20 -129 20q-175 0 -244 -115q-54 -90 -54 -285v-442q0 -192 54 -282q69 -116 246 -116q176 0 243 115q52 88 52 284v442q0 134 -25 218l104 -20v181zM368 1042q78 0 101 -58q16 -41 16 -159v-445q0 -120 -17 -161q-25 -57 -100 -57q-77 0 -101 59
q-17 39 -17 158v445q0 120 18 162q23 56 100 56z" />
    <glyph glyph-name="tau" unicode="&#x3c4;" horiz-adv-x="571" 
d="M566 1022v180h-561v-180h193v-1022h177v1022h191z" />
    <glyph glyph-name="upsilon" unicode="&#x3c5;" horiz-adv-x="761" 
d="M500 1202v-832q0 -108 -18 -147q-25 -57 -99 -58q-78 0 -103 56q-19 42 -19 149v832h-181v-833q0 -189 57 -276q67 -106 237 -110l1 -1h11q170 4 238 110q58 90 58 277v833h-182z" />
    <glyph glyph-name="phi" unicode="&#x3c6;" horiz-adv-x="910" 
d="M544 -366v349q168 4 232 117q50 89 50 281v442q0 188 -50 278q-66 114 -232 120v347h-180v-347q-165 -6 -229 -119q-52 -90 -52 -280v-442q0 -189 51 -277q64 -114 230 -120v-349h180zM263 824q0 112 15 155q20 56 86 62v-879q-68 6 -87 65q-14 41 -14 152v445zM646 380
q0 -115 -15 -156q-20 -56 -87 -62v879q68 -6 88 -63q14 -40 14 -153v-445z" />
    <glyph glyph-name="chi" unicode="&#x3c7;" horiz-adv-x="684" 
d="M672 0l-218 625l206 577h-175l-140 -414l-132 414h-188l206 -577l-219 -625h177l150 451l146 -451h187z" />
    <glyph glyph-name="psi" unicode="&#x3c8;" horiz-adv-x="898" 
d="M84 1202v-833q0 -182 54 -270q62 -106 219 -116v-349h180v349q160 10 223 115q54 88 54 271v833h-182v-832q0 -100 -15 -140q-20 -53 -80 -63v1401h-180v-1400q-58 11 -76 64q-15 40 -15 138v832h-182z" />
    <glyph glyph-name="omega" unicode="&#x3c9;" horiz-adv-x="1145" 
d="M484 779v-327q0 -164 -18 -217q-12 -37 -35.5 -54t-64.5 -17q-36 0 -57 12.5t-31 42.5q-16 46 -16 202v379q0 135 41 190q37 47 120 49l-2 180q-95 -3 -158 -25.5t-103 -68.5q-76 -90 -76 -304v-417q0 -128 12 -197q19 -107 73 -160q66 -66 196 -66t204 115
q74 -115 211 -115q129 0 196 65q54 53 73 158q11 62 11 195l1 422q0 212 -75 303q-26 31 -64 51.5t-86.5 30.5t-111.5 12l-2 -180q82 -2 120 -53q40 -56 40 -194v-370q0 -86 -2.5 -130t-12.5 -72q-10 -30 -31 -42.5t-57 -12.5q-21 0 -36.5 4.5t-28 13t-20.5 22t-14 31.5
q-18 53 -18 217v327h-178z" />
    <glyph glyph-name="iotadieresis" unicode="&#x3ca;" 
d="M-8 1475q0 -96 87 -96q47 0 67.5 23.5t20.5 72.5q0 52 -20.5 75.5t-67.5 23.5q-45 0 -66 -24t-21 -75zM206 1475q0 -96 86 -96q47 0 68 23.5t21 72.5q0 52 -21 75.5t-68 23.5q-86 0 -86 -99zM276 0v1202h-179v-1202h179z" />
    <glyph glyph-name="upsilondieresis" unicode="&#x3cb;" horiz-adv-x="761" 
d="M188 1435q0 -96 87 -96q47 0 67.5 23.5t20.5 72.5q0 52 -20.5 75.5t-67.5 23.5q-45 0 -66 -24t-21 -75zM402 1435q0 -96 86 -96q47 0 68 23.5t21 72.5q0 52 -21 75.5t-68 23.5q-86 0 -86 -99zM500 1202v-832q0 -108 -18 -147q-25 -57 -99 -58q-78 0 -103 56
q-19 42 -19 149v832h-181v-833q0 -189 57 -276q67 -106 237 -110l1 -1h11q170 4 238 110q58 90 58 277v833h-182z" />
    <glyph glyph-name="omicrontonos" unicode="&#x3cc;" horiz-adv-x="737" 
d="M292 1546l16 -263h119l22 263h-157zM70 380q0 -192 54 -282q69 -116 246 -116q176 0 243 115q52 88 52 284v442q0 194 -53 283q-69 116 -244 116t-244 -115q-54 -90 -54 -285v-442zM368 1042q78 0 101 -58q16 -41 16 -159v-445q0 -120 -17 -161q-25 -57 -100 -57
q-77 0 -101 59q-17 39 -17 158v445q0 120 18 162q23 56 100 56z" />
    <glyph glyph-name="upsilontonos" unicode="&#x3cd;" horiz-adv-x="761" 
d="M296 1546l18 -263h134l20 263h-172zM500 1202v-832q0 -108 -18 -147q-25 -57 -99 -58q-78 0 -103 56q-19 42 -19 149v832h-181v-833q0 -189 57 -276q67 -106 237 -110l1 -1h11q170 4 238 110q58 90 58 277v833h-182z" />
    <glyph glyph-name="omegatonos" unicode="&#x3ce;" horiz-adv-x="1145" 
d="M492 1546l16 -263h119l22 263h-157zM484 779v-327q0 -164 -18 -217q-12 -37 -35.5 -54t-64.5 -17q-36 0 -57 12.5t-31 42.5q-16 46 -16 202v379q0 135 41 190q37 47 120 49l-2 180q-95 -3 -158 -25.5t-103 -68.5q-76 -90 -76 -304v-417q0 -128 12 -197q19 -107 73 -160
q66 -66 196 -66t204 115q74 -115 211 -115q129 0 196 65q54 53 73 158q11 62 11 195l1 422q0 212 -75 303q-26 31 -64 51.5t-86.5 30.5t-111.5 12l-2 -180q82 -2 120 -53q40 -56 40 -194v-370q0 -86 -2.5 -130t-12.5 -72q-10 -30 -31 -42.5t-57 -12.5q-41 0 -64.5 17
t-34.5 54q-18 53 -18 217v327h-178z" />
    <glyph glyph-name="uni0401" unicode="&#x401;" horiz-adv-x="709" 
d="M168 1733q0 -96 87 -96q47 0 67.5 23.5t20.5 72.5q0 52 -20.5 75.5t-67.5 23.5q-45 0 -66 -24t-21 -75zM382 1733q0 -96 86 -96q47 0 68 23.5t21 72.5q0 52 -21 75.5t-68 23.5q-86 0 -86 -99zM637 0v183h-352v502h294v184h-294v467l352 1v184l-534 -1v-1520h534z" />
    <glyph glyph-name="uni0402" unicode="&#x402;" horiz-adv-x="913" 
d="M531 -18q182 0 248 118q28 51 38.5 121t10.5 168v373q0 191 -44 283q-59 123 -213 123q-117 0 -157 -109v277h217v184h-618v-184h217v-1336h184v822q2 80 26 122q27 45 91 45q78 0 101 -60q16 -42 16 -159v-388q0 -120 -17 -162q-25 -58 -100 -58v-180z" />
    <glyph glyph-name="uni0403" unicode="&#x403;" horiz-adv-x="655" 
d="M403 1863l-110 -263h134l148 263h-172zM618 1521v-182h-339v-1339h-182v1521h521z" />
    <glyph glyph-name="uni0404" unicode="&#x404;" horiz-adv-x="764" 
d="M699 1056v102q0 177 -58 267q-74 115 -249 115q-177 0 -249 -113q-59 -93 -59 -284v-770q0 -188 58 -278q73 -113 249 -113q177 0 249 109q59 88 59 264v111h-183v-110q0 -105 -23 -148q-28 -53 -102 -53q-79 0 -104 61q-20 46 -20 160v309h310v184h-310v275
q0 115 21 159q25 54 104 54q76 0 103 -56q21 -43 21 -146v-99h183z" />
    <glyph glyph-name="uni0405" unicode="&#x405;" horiz-adv-x="770" 
d="M680 387q-5 301 -204 440l-112 78q-51 35 -78 98q-26 61 -28 130l-1 44q-6 180 120 180q115 0 117 -160v-141h183v127q0 357 -298 357q-151 0 -227.5 -85.5t-76.5 -263.5v-23q0 -158 37 -249q40 -100 157 -187l123 -89q105 -76 105 -290v-11q0 -91 -28.5 -134t-97.5 -43
q-73 0 -101 52q-24 44 -24 160v89h-182v-88q0 -198 62 -288q74 -108 247 -108q157 0 232.5 92.5t74.5 274.5v38z" />
    <glyph glyph-name="uni0406" unicode="&#x406;" horiz-adv-x="392" 
d="M288 0v1521h-183v-1521h183z" />
    <glyph glyph-name="uni0407" unicode="&#x407;" horiz-adv-x="392" 
d="M1 1733q0 -96 87 -96q47 0 67.5 23.5t20.5 72.5q0 52 -20.5 75.5t-67.5 23.5q-30 0 -49 -10.5t-28.5 -32.5t-9.5 -56zM215 1733q0 -96 86 -96q47 0 68 23.5t21 72.5q0 52 -21 75.5t-68 23.5q-86 0 -86 -99zM288 0v1521h-183v-1521h183z" />
    <glyph glyph-name="uni0408" unicode="&#x408;" horiz-adv-x="557" 
d="M280 1520v-1137q0 -124 -24 -171q-23 -45 -90 -45q-39 0 -61.5 7.5t-45.5 24.5l-53 -161q30 -29 67.5 -41.5t92.5 -12.5q170 0 239 109q56 90 56 282v1145h-181z" />
    <glyph glyph-name="uni0409" unicode="&#x409;" horiz-adv-x="1249" 
d="M1089 884q81 -90 81 -300v-214q0 -198 -80 -287q-74 -83 -227 -83h-290v1337h-271v-922q0 -232 -60 -329q-67 -105 -229 -105v184q64 0 88 61q19 51 19 190v1106l636 -1v-555h96q163 0 237 -82zM988 395v134q0 134 -16 180q-26 74 -112 74h-104v-599h97q81 0 110 49
q25 43 25 162z" />
    <glyph glyph-name="uni040A" unicode="&#x40a;" horiz-adv-x="1206" 
d="M279 0v759h261v-759h290q153 0 227 83q80 89 80 287v199q0 209 -81 296q-72 76 -237 76h-95v580h-184v-580h-261v580h-182v-1521h182zM955 369q0 -115 -25 -149q-14 -20 -40 -28t-70 -8h-96v574h103q86 0 112 -67q7 -20 11 -50.5t4.5 -53.5t0.5 -68v-150z" />
    <glyph glyph-name="uni040B" unicode="&#x40b;" horiz-adv-x="914" 
d="M630 1336v184h-618v-184h218v-1336h183v657q0 102 23 149q24 53 95 53q77 0 101 -58q16 -39 16 -156v-645h179v627q0 197 -43 289q-59 122 -207 122q-66 0 -105 -26t-59 -82v406h217z" />
    <glyph glyph-name="uni040C" unicode="&#x40c;" horiz-adv-x="783" 
d="M454 1865l-110 -263h134l148 263h-172zM287 0v674h88l214 -674h196l-248 773l230 747h-196l-202 -661h-82v662h-183v-1521h183z" />
    <glyph glyph-name="uni040E" unicode="&#x40e;" horiz-adv-x="730" 
d="M494 1847q-7 -70 -29 -99q-27 -35 -96 -35t-97 37q-21 27 -28 97h-105q2 -111 53 -174q58 -71 177 -71q118 0 175 70q50 61 55 175h-105zM709 1520h-180l-164 -713l-154 713h-199l263 -984l-132 -536h179l135 550z" />
    <glyph glyph-name="uni040F" unicode="&#x40f;" horiz-adv-x="834" 
d="M731 0v1521h-183v-1337h-261v1337h-183v-1521h233v-175h178v175h216z" />
    <glyph glyph-name="uni0410" unicode="&#x410;" horiz-adv-x="717" 
d="M191 0l40 307h257l40 -307h184l-227 1521h-251l-228 -1521h185zM359 1299l106 -818h-212z" />
    <glyph glyph-name="uni0411" unicode="&#x411;" horiz-adv-x="789" 
d="M702 584q0 208 -81 300q-74 82 -237 82h-97v373h339v182h-522v-1521h290q154 0 228 83q80 89 80 287v214zM520 395q0 -118 -26 -162q-29 -49 -110 -49h-97v599h104q87 0 113 -74q16 -46 16 -180v-134z" />
    <glyph glyph-name="uni0412" unicode="&#x412;" horiz-adv-x="789" 
d="M719 514q-1 125 -48 200q-39 61 -106 81q67 18 104 108q35 84 35 205v52q0 91 -17.5 158t-54.5 112.5t-95 68t-138 22.5h-295v-1520h307q160 0 233 87q75 90 75 299v127zM521 1088q0 -109 -19 -152q-26 -56 -102 -56h-113v465h111q66 0 94 -38q28 -41 28 -136zM537 392
q1 -122 -33 -169q-29 -39 -94 -39h-123v522h101q86 0 118 -51q30 -48 30 -162z" />
    <glyph glyph-name="uni0413" unicode="&#x413;" horiz-adv-x="682" 
d="M629 1340v184h-532v-1524h183v1340h349z" />
    <glyph glyph-name="uni0414" unicode="&#x414;" horiz-adv-x="911" 
d="M784 1520l-612 1v-473q0 -106 -6 -246q-7 -171 -21 -284q-18 -154 -44 -235q-31 -98 -72 -98h-17v-360h183v176h520v-176h183v360h-114v1335zM355 1336h246v-1151h-370q76 98 103 331q21 181 21 531v289z" />
    <glyph glyph-name="uni0415" unicode="&#x415;" horiz-adv-x="709" 
d="M637 0v183h-352v502h294v184h-294v467l352 1v184l-534 -1v-1520h534z" />
    <glyph glyph-name="uni0416" unicode="&#x416;" horiz-adv-x="1207" 
d="M695 0v674h89v-1l215 -673h195l-250 775l232 745h-196l-202 -661h-83v662h-183v-662h-83l-202 661h-195l231 -745l-250 -775h196l215 673l-1 1h89v-674h183z" />
    <glyph glyph-name="uni0417" unicode="&#x417;" horiz-adv-x="752" 
d="M677 405q0 167 -29 257q-33 102 -108 123q70 27 98 102q30 86 30 273q0 155 -45 247q-38 76 -109 109q-54 24 -135 24q-157 0 -228 -92q-67 -87 -67 -273v-104h184v107q0 97 24 138t86 41q64 0 86 -44q21 -43 21 -174v-54q0 -119 -30 -170q-27 -43 -83 -43l-78 -2v-176
l71 -1q64 0 94 -33q36 -41 36 -146v-124q0 -138 -27 -183q-14 -24 -36 -33t-56 -9q-58 0 -85 34q-31 39 -31 137v114h-181v-110q0 -192 75 -278q67 -80 212 -80q85 0 143 20.5t95 67.5q73 92 73 335z" />
    <glyph glyph-name="uni0418" unicode="&#x418;" horiz-adv-x="834" 
d="M315 0l301 1183l-14 -135l-9 -1048h174v1521h-226l-297 -1256l24 215l9 1041h-173v-1521h211z" />
    <glyph glyph-name="uni0419" unicode="&#x419;" horiz-adv-x="834" 
d="M559 1877q-7 -70 -29 -99q-27 -35 -96 -35t-97 37q-21 27 -28 97h-105q2 -111 53 -174q58 -71 177 -71q118 0 175 70q50 61 55 175h-105zM315 0l301 1183l-14 -135l-9 -1048h174v1521h-226l-297 -1256l24 215l9 1041h-173v-1521h211z" />
    <glyph glyph-name="uni041A" unicode="&#x41a;" horiz-adv-x="783" 
d="M287 0v674h88l214 -674h196l-248 773l230 747h-196l-202 -661h-82v662h-183v-1521h183z" />
    <glyph glyph-name="uni041B" unicode="&#x41b;" horiz-adv-x="846" 
d="M748 0v1521l-628 1v-1106q0 -139 -19 -190q-24 -61 -89 -61v-184q163 0 230 105q60 97 60 329v922h264v-1337h182z" />
    <glyph glyph-name="uni041C" unicode="&#x41c;" horiz-adv-x="1059" 
d="M449 209h161l200 1079l-15 -250l-11 -1038h169v1521h-240l-166 -831l-18 -153l-17 152l-166 832h-241v-1521h168l-11 1037l-15 263z" />
    <glyph glyph-name="uni041D" unicode="&#x41d;" horiz-adv-x="834" 
d="M287 0v674h261v-674h183v1521h-183v-662h-261v662h-183v-1521h183z" />
    <glyph glyph-name="uni041E" unicode="&#x41e;" horiz-adv-x="760" 
d="M72 380q0 -190 58 -282q71 -116 250 -116q177 0 249 114q59 93 59 284v762q0 190 -58 283q-73 115 -250 115t-249 -114q-59 -93 -59 -285v-761zM380 1357q79 0 105 -58q20 -45 20 -158v-760q0 -115 -21 -160q-26 -56 -104 -56q-80 0 -105 59q-20 45 -20 157v759
q0 115 21 161q26 56 104 56z" />
    <glyph glyph-name="uni041F" unicode="&#x41f;" horiz-adv-x="819" 
d="M280 0v1337h262v-1337h183v1521h-628v-1521h183z" />
    <glyph glyph-name="uni0420" unicode="&#x420;" horiz-adv-x="763" 
d="M694 1151q0 199 -80 288q-74 82 -227 82h-290v-1521h183v555h96q163 0 237 82q81 90 81 300v214zM512 992q0 -133 -16 -179q-26 -75 -112 -75h-104v599h97q82 0 110 -48q25 -43 25 -163v-134z" />
    <glyph glyph-name="uni0421" unicode="&#x421;" horiz-adv-x="750" 
d="M504 466v-110q0 -106 -22 -148q-28 -53 -101 -53q-80 0 -105 61q-20 46 -20 160v768q0 114 21 158q26 55 103 55q76 0 103 -55q21 -44 21 -147v-99h184v102q0 178 -58 268q-73 114 -250 114t-248 -114q-59 -93 -59 -283v-770q0 -189 58 -279q72 -112 250 -112
q175 0 248 110q59 88 59 263v111h-184z" />
    <glyph glyph-name="uni0422" unicode="&#x422;" horiz-adv-x="633" 
d="M627 1336v184h-617v-184h217v-1336h183v1336h217z" />
    <glyph glyph-name="uni0423" unicode="&#x423;" horiz-adv-x="721" 
d="M709 1520h-180l-164 -713l-154 713h-199l263 -984l-132 -536h179l135 550z" />
    <glyph glyph-name="uni0424" unicode="&#x424;" horiz-adv-x="967" 
d="M554 0v126q176 0 247 117q56 92 56 282v475q0 192 -57 285q-71 116 -246 116v120h-183v-120q-175 0 -246 -116q-57 -93 -57 -285v-475q0 -190 56 -282q71 -117 247 -117v-126h183zM247 1003q0 115 21 161q27 57 103 57v-914q-79 0 -104 59q-20 45 -20 157v480zM678 523
q0 -112 -19 -157q-26 -59 -105 -59v914q76 0 103 -57q21 -46 21 -161v-480z" />
    <glyph glyph-name="uni0425" unicode="&#x425;" horiz-adv-x="768" 
d="M755 0l-252 788l233 733h-199l-152 -538l-152 538h-200l227 -731l-248 -790h203l164 594l172 -594h204z" />
    <glyph glyph-name="uni0426" unicode="&#x426;" horiz-adv-x="852" 
d="M542 1521v-1337h-261v1337h-184v-1521h557v-175h183v359h-112v1337h-183z" />
    <glyph glyph-name="uni0427" unicode="&#x427;" horiz-adv-x="821" 
d="M93 1521v-641q0 -194 47 -289q59 -122 208 -122q69 0 120 27t70 81v-577h182v1521h-182v-651q0 -113 -25 -163q-31 -59 -103 -59q-80 0 -110 63q-25 49 -25 160v650h-182z" />
    <glyph glyph-name="uni0428" unicode="&#x428;" horiz-adv-x="1073" 
d="M792 1518v-1334h-159v1324h-183v-1324h-169v1334h-183v-1518h877v1518h-183z" />
    <glyph glyph-name="uni0429" unicode="&#x429;" horiz-adv-x="1153" 
d="M791 1518v-1334h-159v1324h-183v-1324h-168v1334h-184v-1518h830v-175h178v355h-130v1338h-184z" />
    <glyph glyph-name="uni042A" unicode="&#x42a;" horiz-adv-x="808" 
d="M13 1337h123v-1337h290q153 0 227 83q80 89 80 287v214q0 208 -81 300q-74 82 -237 82h-96v555h-183v-1h-123v-183zM552 395q0 -118 -26 -162q-29 -49 -110 -49h-97v599h104q87 0 113 -74q16 -46 16 -180v-134z" />
    <glyph glyph-name="uni042B" unicode="&#x42b;" horiz-adv-x="1118" 
d="M695 584q0 210 -81 300q-74 82 -237 82h-96v555h-183v-1521h290q153 0 227 83q80 89 80 287v214zM1026 0v1521h-183v-1521h183zM513 395q0 -119 -25 -162q-29 -49 -110 -49h-97v599h104q86 0 112 -74q16 -46 16 -180v-134z" />
    <glyph glyph-name="uni042C" unicode="&#x42c;" horiz-adv-x="782" 
d="M694 370q0 -198 -80 -287q-74 -83 -227 -83h-290v1521h183v-555h96q163 0 237 -82q81 -90 81 -300v-214zM512 529q0 134 -16 180q-26 74 -112 74h-104v-599h97q81 0 110 49q25 43 25 162v134z" />
    <glyph glyph-name="uni042D" unicode="&#x42d;" horiz-adv-x="763" 
d="M371 1357q78 0 103 -54q21 -44 21 -159v-275h-324v-184h324v-309q0 -114 -19 -160q-27 -61 -105 -61q-73 0 -101 53q-23 43 -23 148v110h-184v-111q0 -177 60 -264q74 -109 248 -109q178 0 250 112q57 91 57 279v770q0 190 -58 284q-72 113 -249 113t-250 -114
q-58 -90 -58 -268v-102h184v99q0 103 21 147q27 55 103 55z" />
    <glyph glyph-name="uni042E" unicode="&#x42e;" horiz-adv-x="1149" 
d="M280 0v665h165v-285q0 -190 58 -282q71 -116 249 -116v1l1 -1q177 0 249 114q58 94 58 284v762q0 190 -57 283q-73 115 -250 115l-1 -1v1q-177 0 -249 -114q-58 -92 -58 -285v-292h-165v672h-183v-1521h183zM753 1357q79 0 105 -58q19 -45 19 -158v-760q0 -116 -21 -160
q-26 -56 -103 -56h-1q-80 0 -105 59q-19 42 -19 157v759q0 115 21 161q26 56 103 56h1z" />
    <glyph glyph-name="uni042F" unicode="&#x42f;" horiz-adv-x="742" 
d="M467 0v608h-82q-51 0 -84 -48q-42 -61 -52 -172l-16 -215q-1 -20 -7 -54q-8 -43 -24 -90l-9 -29h-190q41 101 46 178l17 214q11 117 33 171q23 56 77 98q-65 44 -101.5 119t-36.5 175v183q0 207 75 297q72 85 234 85h303v-1520h-183zM221 979q0 -81 25 -131
q28 -56 88 -56h133v544h-114q-67 0 -96 -35q-36 -45 -36 -169v-153z" />
    <glyph glyph-name="uni0430" unicode="&#x430;" horiz-adv-x="764" 
d="M671 0v861q0 174 -60 261q-71 100 -238 100q-171 0 -238 -101q-54 -82 -54 -246v-68h178v70q0 87 19 121q25 44 96 44q76 0 100 -55q18 -41 18 -160v-167q-73 32 -165 32q-154 0 -212 -98q-44 -75 -44 -243q0 -174 51 -262q63 -108 207 -108q67 0 105.5 27t58.5 92v-100
h178zM370 161q-71 0 -98 52q-22 41 -22 130q0 87 18 129q27 63 99 63q79 0 125 -38v-127q0 -106 -19 -150q-27 -59 -103 -59z" />
    <glyph glyph-name="uni0431" unicode="&#x431;" horiz-adv-x="741" 
d="M541 1570q-8 -6 -16 -14q-12 -12 -29 -21q-52 -28 -134 -29q-163 -4 -236 -182q-63 -153 -63 -445v-496q0 -192 53 -283q22 -37 53.5 -62.5t79.5 -40.5t110 -15q181 0 248 118q29 51 39.5 124.5t10.5 178.5v397q0 100 -7 171t-29 124q-52 127 -206 127q-109 0 -176 -99
q7 112 38 167q38 67 123 67q159 0 221 62q18 18 30.5 44t18.5 47.5t13 58.5zM360 162q-78 0 -101 60q-8 18 -11.5 45.5t-4 49t-0.5 64.5v395q0 45 3 93q4 65 7 79q10 53 33.5 73.5t73.5 20.5q77 0 102 -60q16 -42 16 -159v-441q0 -120 -18 -162q-25 -58 -100 -58z" />
    <glyph glyph-name="uni0432" unicode="&#x432;" horiz-adv-x="761" 
d="M97 1202v-1202h284q155 0 226.5 80.5t71.5 253.5v46q0 163 -116 232q104 68 104 219v57q0 169 -73 242q-72 72 -230 72h-267zM484 841q0 -81 -30 -115q-27 -31 -93 -31h-86v328h87q62 0 89 -26q33 -31 33 -116v-40zM501 332q0 -87 -32 -122q-28 -31 -90 -31h-104v347h103
q63 0 93 -34.5t30 -115.5v-44z" />
    <glyph glyph-name="uni0433" unicode="&#x433;" horiz-adv-x="589" 
d="M269 0v1015h309v187h-488v-1202h179z" />
    <glyph glyph-name="uni0434" unicode="&#x434;" horiz-adv-x="851" 
d="M168 1203v-275q0 -176 -11 -322q-24 -277 -80 -377q-27 -49 -57 -49h-7v-355h178v175h468v-175h178v355h-117v1022zM346 1022h196v-842h-325q73 90 104 288q25 162 25 431v123z" />
    <glyph glyph-name="uni0435" unicode="&#x435;" horiz-adv-x="736" 
d="M488 406v-37q0 -106 -18 -148q-26 -59 -101 -59q-78 0 -103 58q-17 39 -17 157v125l417 88v244q0 181 -52 270q-69 118 -245 118q-175 0 -244 -111q-54 -87 -54 -282v-451q0 -194 54 -281q69 -115 246 -115q175 0 243 117q52 88 52 271v36h-178zM369 1042q77 0 103 -61
q16 -40 16 -145v-117l-239 -54v166q0 119 18 158q24 53 102 53z" />
    <glyph glyph-name="uni0436" unicode="&#x436;" horiz-adv-x="1032" 
d="M426 1201v-506h-29l-172 507h-183l217 -601l-246 -601h199l187 512h27v-512h179v512h30l187 -512h198l-245 601l216 601h-183l-171 -507h-32v506h-179z" />
    <glyph glyph-name="uni0437" unicode="&#x437;" horiz-adv-x="737" 
d="M228 683v-159h132q68 0 98 -41t30 -134q0 -103 -31 -146q-29 -38 -89 -38q-57 0 -86 33.5t-29 113.5v94h-181v-72q0 -192 78 -276q71 -77 218 -77q156 0 232 93q70 86 70 247q0 119 -33 193.5t-90 85.5q43 20 77 76q46 77 46 183q0 179 -70 269q-75 95 -232 95
q-145 0 -218 -82q-78 -87 -78 -281v-63h181v85q0 157 115 157q120 0 120 -177v-31q0 -73 -34.5 -110t-94.5 -37z" />
    <glyph glyph-name="uni0438" unicode="&#x438;" horiz-adv-x="791" 
d="M96 0v1202h183v-742l94 314l114 428h213l-3 -1202h-183v755l-83 -282l-124 -473h-211z" />
    <glyph glyph-name="uni0439" unicode="&#x439;" horiz-adv-x="791" 
d="M533 1528q-5 -69 -28 -99q-27 -35 -95 -35q-70 0 -98 37q-21 27 -28 97h-105q2 -112 54 -174q58 -71 177 -71q116 0 175 70q52 64 54 175h-106zM307 0l124 473l83 282v-755h183l3 1202h-213l-114 -428l-94 -314v742h-183v-1202h211z" />
    <glyph glyph-name="uni043A" unicode="&#x43a;" horiz-adv-x="745" 
d="M96 1201v-1201h179v512h72l187 -512h199l-246 601l217 601h-183l-172 -507h-74v506h-179z" />
    <glyph glyph-name="uni043B" unicode="&#x43b;" horiz-adv-x="833" 
d="M744 0v1202l-624 1v-790q0 -139 -19 -191q-24 -61 -88 -61v-180q156 0 223 105q63 99 63 329v607h267v-1022h178z" />
    <glyph glyph-name="uni043C" unicode="&#x43c;" horiz-adv-x="1002" 
d="M425 225h160l151 708l-6 -933h182v1203h-241l-163 -716h-6l-160 716h-242v-1203h182l-8 941z" />
    <glyph glyph-name="uni043D" unicode="&#x43d;" horiz-adv-x="791" 
d="M275 0v500h240v-500h180v1202h-180v-517h-240v517h-179v-1202h179z" />
    <glyph glyph-name="uni043E" unicode="&#x43e;" horiz-adv-x="737" 
d="M70 380q0 -192 54 -282q69 -116 246 -116q176 0 243 115q52 88 52 284v442q0 194 -53 283q-69 116 -244 116t-244 -115q-54 -90 -54 -285v-442zM368 1042q78 0 101 -58q16 -41 16 -159v-445q0 -120 -17 -161q-25 -57 -100 -57q-77 0 -101 59q-17 39 -17 158v445
q0 120 18 162q23 56 100 56z" />
    <glyph glyph-name="uni043F" unicode="&#x43f;" horiz-adv-x="791" 
d="M276 0v1022h240v-1022h179v1202h-599v-1202h180z" />
    <glyph glyph-name="uni0440" unicode="&#x440;" horiz-adv-x="765" 
d="M270 -366v448q13 -33 33 -54.5t52 -33.5t75 -12q153 0 212 121q43 91 43 291v411q0 199 -44 292q-59 125 -213 125q-63 0 -100.5 -25.5t-57.5 -75.5v81h-179v-1568h179zM388 1042q78 0 101 -59q16 -41 16 -160v-441q0 -123 -16 -162q-25 -58 -101 -58q-73 0 -97 47
q-21 38 -21 129v518q0 98 22 139q24 47 96 47z" />
    <glyph glyph-name="uni0441" unicode="&#x441;" horiz-adv-x="730" 
d="M488 358q0 -99 -18 -138q-26 -58 -100 -58q-32 0 -53 9q-43 18 -55 68q-12 42 -10 148v97v338q0 123 17 162q25 58 101 58q75 0 102 -60q16 -38 16 -135v-40h179v38q0 172 -53 260q-71 117 -244 117q-168 0 -236 -93q-59 -79 -61 -253q-1 -19 -1 -62v-63v-368
q0 -196 54 -284q69 -117 246 -117q173 0 243 115q52 85 52 262v36h-179v-37z" />
    <glyph glyph-name="uni0442" unicode="&#x442;" horiz-adv-x="564" 
d="M562 1022v180h-561v-180h193v-1022h177v1022h191z" />
    <glyph glyph-name="uni0443" unicode="&#x443;" horiz-adv-x="669" 
d="M-11 1203l206 -1203h92l-8 -60q-12 -93 -56 -155q-35 -50 -86 -80l79 -130q83 40 143 128q68 98 85 227l39 285l170 988h-186l-139 -963h-10l-3 -18l-142 981h-184z" />
    <glyph glyph-name="uni0444" unicode="&#x444;" horiz-adv-x="1132" 
d="M656 -369v417q43 -66 137 -66q154 0 212 118q43 90 43 289v426q0 191 -44 283q-59 123 -213 123q-91 0 -135 -65v365h-180v-365q-44 65 -135 65q-154 0 -213 -123q-44 -92 -44 -283v-426q0 -200 44 -289q57 -118 211 -118q94 0 137 66v-417h180zM382 162q-77 0 -100 58
q-18 42 -18 162v441q0 118 17 159q23 60 101 60q67 0 94 -53v-776q-27 -51 -94 -51zM750 1042q77 0 102 -60q16 -42 16 -159v-441q0 -120 -17 -162q-25 -58 -101 -58q-69 0 -94 51v776q26 53 94 53z" />
    <glyph glyph-name="uni0445" unicode="&#x445;" horiz-adv-x="689" 
d="M675 0l-218 625l206 577h-175l-140 -414l-132 414h-188l206 -577l-219 -625h177l150 451l146 -451h187z" />
    <glyph glyph-name="uni0446" unicode="&#x446;" horiz-adv-x="861" 
d="M97 1202v-1202h541v-175h179v355h-118v1022h-182v-1022h-237v1022h-183z" />
    <glyph glyph-name="uni0447" unicode="&#x447;" horiz-adv-x="784" 
d="M97 1202v-444q0 -197 44 -289q59 -122 207 -122q65 0 104.5 26t59.5 82v-455h178v1202h-178v-454q0 -115 -20 -163q-26 -59 -98 -59q-77 0 -101 58q-17 39 -17 156v462h-179z" />
    <glyph glyph-name="uni0448" unicode="&#x448;" horiz-adv-x="1068" 
d="M789 1202v-1022h-160v1012h-182v-1012h-169v1022h-183v-1202h876v1202h-182z" />
    <glyph glyph-name="uni0449" unicode="&#x449;" horiz-adv-x="1111" 
d="M791 1202v-1022h-159v1012h-183v-1012h-169v1022h-183v-1202h805v-175h178v355h-106v1022h-183z" />
    <glyph glyph-name="uni044A" unicode="&#x44a;" horiz-adv-x="801" 
d="M13 1202v-175h138v-1027h284q154 0 226 89.5t72 264.5v83q0 184 -89 271q-81 78 -232 78h-83v416h-316zM557 338q0 -86 -35 -124q-31 -35 -88 -35h-105v428h103q43 0 71 -19.5t40.5 -56.5t13.5 -94v-99z" />
    <glyph glyph-name="uni044B" unicode="&#x44b;" horiz-adv-x="1129" 
d="M97 1202v-1202h284q154 0 226 89.5t72 264.5v83q0 184 -89 271q-81 78 -232 78h-83v416h-178zM1022 0v1202h-179v-1202h179zM503 338q0 -86 -35 -124q-31 -35 -88 -35h-105v428h103q64 0 94 -42.5t31 -127.5v-99z" />
    <glyph glyph-name="uni044C" unicode="&#x44c;" horiz-adv-x="723" 
d="M271 1202v-416h83q151 0 232 -78q89 -87 89 -271v-83q0 -175 -72 -264.5t-226 -89.5h-284v1202h178zM499 437q-1 85 -31 127.5t-94 42.5h-103v-428h105q57 0 88 35q35 38 35 124v99z" />
    <glyph glyph-name="uni044D" unicode="&#x44d;" horiz-adv-x="741" 
d="M231 395h-178v-36q0 -115 20 -185q24 -90 85 -137q71 -55 190 -55q176 0 246 117q53 89 53 284v368v63q0 43 -1 62q-2 173 -60 253q-70 93 -237 93q-174 0 -243 -117q-53 -90 -53 -260v-38h178v40q0 97 17 135q25 60 101 60t101 -58q17 -39 17 -162v-125h-245v-166h245
v-47q0 -66 1 -97q0 -32 -2 -94q-5 -67 -28 -96q-27 -35 -89 -35q-74 0 -100 58q-18 39 -18 138v37z" />
    <glyph glyph-name="uni044E" unicode="&#x44e;" horiz-adv-x="1102" 
d="M277 0v494h162v-114q0 -192 54 -282q69 -116 247 -116q175 0 242 115q52 88 52 284v442q0 194 -53 283q-69 116 -244 116t-244 -115q-54 -90 -54 -285v-160h-162v540h-180v-1202h180zM737 1042q78 0 101 -58q16 -41 16 -159v-445q0 -120 -17 -161q-25 -57 -100 -57
q-77 0 -101 59q-17 39 -17 158v445q0 120 18 162q23 56 100 56z" />
    <glyph glyph-name="uni044F" unicode="&#x44f;" horiz-adv-x="718" 
d="M447 0v456h-75q-52 -9 -78 -45q-37 -50 -49 -163l-10 -93q-6 -51 -17 -93q-4 -16 -10 -37t-7 -25h-186q33 78 41 160l9 93q13 119 37 176q8 19 20 35t25 28t33 27q-63 48 -100 122.5t-37 168.5v49q0 175 71.5 259t226.5 84h284v-1202h-178zM221 810q0 -175 123 -175h103
v388h-105q-61 0 -91 -37.5t-30 -124.5v-51z" />
    <glyph glyph-name="uni0451" unicode="&#x451;" horiz-adv-x="736" 
d="M174 1414q0 -96 87 -96q47 0 67.5 23.5t20.5 72.5q0 52 -20.5 75.5t-67.5 23.5q-45 0 -66 -24t-21 -75zM388 1414q0 -96 86 -96q47 0 68 23.5t21 72.5q0 34 -9 56t-28.5 32.5t-51.5 10.5q-86 0 -86 -99zM488 406v-37q0 -106 -18 -148q-26 -59 -101 -59q-78 0 -103 58
q-17 39 -17 157v125l417 88v244q0 181 -52 270q-69 118 -245 118q-175 0 -244 -111q-54 -87 -54 -282v-451q0 -194 54 -281q69 -115 246 -115q175 0 243 117q52 88 52 271v36h-178zM369 1042q77 0 103 -61q16 -41 16 -145v-117l-239 -54v166q0 119 18 158q24 53 102 53z" />
    <glyph glyph-name="uni0452" unicode="&#x452;" horiz-adv-x="766" 
d="M235 -356q15 -15 32 -25t36.5 -16t41.5 -9t50 -3q169 0 239 109q56 90 56 282v828q0 196 -44 288q-59 122 -207 122q-65 0 -104 -25.5t-59 -82.5v194h71v147h-71v121h-179v-121h-64v-147h64v-1306h179v820q0 116 21 163q24 58 97 58q77 0 101 -58q16 -39 16 -156v-827h1
v-10q0 -125 -25 -171q-25 -45 -92 -45q-39 0 -65 8q-22 7 -42 24z" />
    <glyph glyph-name="uni0453" unicode="&#x453;" horiz-adv-x="613" 
d="M340 1570l-110 -263h134l148 263h-172zM263 0v1015h309v187h-489v-1202h180z" />
    <glyph glyph-name="uni0454" unicode="&#x454;" horiz-adv-x="761" 
d="M498 358q0 -99 -18 -138q-26 -58 -100 -58q-32 0 -53 9q-43 18 -55 68q-10 40 -10 148v97v47h296v166h-296v125q0 120 18 162q23 58 100 58q75 0 102 -60q16 -38 16 -135v-40h179v38q0 172 -53 260q-71 117 -244 117q-168 0 -236 -93q-59 -79 -61 -253v-493
q0 -195 53 -284q69 -117 246 -117q173 0 243 115q52 85 52 262v36h-179v-37z" />
    <glyph glyph-name="uni0455" unicode="&#x455;" horiz-adv-x="735" 
d="M650 299q0 64 -17 118q-33 99 -107 172q-46 44 -146 125q-39 31 -63 59q-62 67 -62 140q0 59 26.5 94t79.5 35q62 0 86 -46q20 -41 20 -143l175 -1q0 212 -65 294q-33 41 -85.5 58.5t-130.5 17.5q-165 0 -233 -89q-54 -72 -54 -222q0 -63 17 -114q31 -94 106 -165
q42 -40 143 -121q35 -29 63 -60q60 -70 60 -151q0 -69 -25.5 -103.5t-81.5 -34.5q-70 0 -94 53q-20 44 -20 158h-179q0 -200 58 -288q66 -103 237 -103q158 0 227 79q65 73 65 238z" />
    <glyph glyph-name="uni0456" unicode="&#x456;" 
d="M80 1478q0 -48 25.5 -71.5t79.5 -23.5q57 0 83 23.5t26 71.5q0 49 -26.5 73.5t-82.5 24.5q-54 0 -79.5 -24.5t-25.5 -73.5zM276 0v1202h-179v-1202h179z" />
    <glyph glyph-name="uni0457" unicode="&#x457;" 
d="M-2 1472q0 -96 87 -96q47 0 67.5 23.5t20.5 72.5q0 35 -8.5 56.5t-28 32t-51.5 10.5q-45 0 -66 -24t-21 -75zM212 1472q0 -96 86 -96q24 0 41 6t27.5 18t15.5 30t5 42q0 52 -21 75.5t-68 23.5q-86 0 -86 -99zM276 0v1202h-179v-1202h179z" />
    <glyph glyph-name="uni0458" unicode="&#x458;" horiz-adv-x="374" 
d="M77 1478q0 -95 107 -95q56 0 82 23t26 72t-26 73.5t-82 24.5q-107 0 -107 -98zM96 1202v-1211q0 -131 -14 -172q-9 -26 -26 -38t-46 -12q-71 0 -131 39l-12 -157q76 -59 170 -59q144 0 197 107q42 85 42 292v1211h-180z" />
    <glyph glyph-name="uni0459" unicode="&#x459;" horiz-adv-x="780" 
d="M312 1202h-299v-180h121v-1022h284q154 0 226 89.5t72 264.5v83q0 184 -89 271q-81 78 -232 78h-83v416zM540 338q0 -86 -35 -124q-31 -35 -88 -35h-105v428h103q43 0 71 -19.5t40.5 -56.5t13.5 -94v-99z" />
    <glyph glyph-name="uni045A" unicode="&#x45a;" horiz-adv-x="1167" 
d="M515 1202v-423h-239v423h-180v-1202h180v597h239v-597h284q104 0 171 41.5t97.5 118.5t30.5 194v76q0 184 -90 272q-81 78 -232 78h-83v422h-178zM921 338q0 -86 -35 -124q-31 -35 -88 -35h-105v421h103q65 0 95 -42.5t30 -127.5v-92z" />
    <glyph glyph-name="uni045B" unicode="&#x45b;" horiz-adv-x="777" 
d="M645 1098q44 -92 44 -288v-810h-179v827q0 117 -16 156q-24 58 -101 58q-73 0 -97 -58q-21 -47 -21 -163v-820h-179v1367h-53v151h53v50h179v-50h82v-151h-82v-255q20 57 59 82.5t104 25.5q148 0 207 -122z" />
    <glyph glyph-name="uni045C" unicode="&#x45c;" horiz-adv-x="709" 
d="M410 1546l-110 -263h134l148 263h-172zM84 1201v-1201h179v512h72l187 -512h199l-246 601l217 601h-183l-172 -507h-74v506h-179z" />
    <glyph glyph-name="uni045E" unicode="&#x45e;" horiz-adv-x="744" 
d="M488 1544q-7 -70 -29 -99q-27 -35 -96 -35t-97 37q-21 27 -28 97h-105q2 -111 53 -174q58 -71 177 -71q118 0 175 70q50 61 55 175h-105zM49 1203l186 -1203h114l-3 -24q-17 -109 -58 -177q-35 -59 -91 -94l80 -130q189 98 238 408l62 401q84 535 126 819h-184l-124 -901
l-20 -134l-142 1035h-184z" />
    <glyph glyph-name="uni045F" unicode="&#x45f;" horiz-adv-x="791" 
d="M96 0h216v-175h178v175h205v1202h-180v-1016h-240v1016h-179v-1202z" />
    <glyph glyph-name="uni0472" unicode="&#x472;" horiz-adv-x="760" 
d="M72 380q0 -190 58 -283q70 -115 250 -115q177 0 249 114q59 93 59 284v762q0 190 -58 283q-73 115 -250 115t-249 -114q-59 -93 -59 -285v-761zM379 1357q84 0 110 -73q6 -16 9.5 -35.5t4.5 -46.5t1.5 -45.5t0.5 -54.5v-383l-250 275v127q0 127 18 173q25 63 106 63z
M380 165q-83 0 -108 65q-17 43 -17 168v352l250 -274v-78q0 -126 -18 -171q-26 -62 -107 -62z" />
    <glyph glyph-name="uni0473" unicode="&#x473;" horiz-adv-x="737" 
d="M70 380q0 -192 54 -282q69 -116 246 -116q176 0 243 115q52 88 52 284v442q0 193 -53 282q-70 117 -244 117q-175 0 -244 -115q-54 -90 -54 -285v-442zM368 1042q43 0 66.5 -15t35.5 -46q7 -19 10.5 -47.5t4 -51t0.5 -66.5v-210l-235 232q0 111 18 151q24 53 100 53z
M368 162q-43 0 -67 15.5t-36 46.5q-7 19 -10.5 48t-4 51t-0.5 67v220l235 -231q0 -118 -17 -160q-25 -57 -100 -57z" />
    <glyph glyph-name="uni0474" unicode="&#x474;" horiz-adv-x="722" 
d="M537 1521l-162 -1153l-15 -186l-14 188l-163 1151h-179l231 -1521h250l232 1521h-180z" />
    <glyph glyph-name="uni0475" unicode="&#x475;" horiz-adv-x="678" 
d="M485 1203l-147 -1014l-147 1014h-184l206 -1203h251l207 1203h-186z" />
    <glyph glyph-name="uni0490" unicode="&#x490;" horiz-adv-x="703" 
d="M657 1337v360h-177v-176h-383v-1521h183v1337h377z" />
    <glyph glyph-name="uni0491" unicode="&#x491;" horiz-adv-x="686" 
d="M617 1022v348l-176 2v-170h-344v-1202h178v1022h342z" />
    <glyph glyph-name="uni04D9" unicode="&#x4d9;" horiz-adv-x="763" 
d="M262 797v37q0 106 18 148q26 59 101 59q78 0 103 -58q17 -39 17 -157v-125l-417 -88v-244q0 -179 53 -270q69 -118 244 -118t244 111q54 87 54 282v451q0 193 -53 282q-71 114 -247 114q-173 0 -242 -116q-53 -91 -53 -272v-36h178zM381 161q-78 0 -102 62
q-17 40 -17 144v117l239 54v-166q0 -119 -18 -158q-24 -53 -102 -53z" />
    <glyph glyph-name="uni1D00" unicode="&#x1d00;" horiz-adv-x="681" 
d="M194 0l31 226h229l31 -226h184l-186 1203h-287l-186 -1203h184zM334 1024h10l87 -633h-184z" />
    <glyph glyph-name="uni1D01" unicode="&#x1d01;" horiz-adv-x="878" 
d="M190 0l42 226h153l1 -227l433 1v185h-254v338h162v185h-162v309h254v185h-572l-241 -1202h184zM381 1024h4v-633h-122z" />
    <glyph glyph-name="uni1D04" unicode="&#x1d04;" horiz-adv-x="730" 
d="M488 358q0 -99 -18 -138q-26 -58 -100 -58q-32 0 -53 9q-43 18 -55 68q-12 42 -10 148v97v338q0 123 17 162q25 58 101 58q75 0 102 -60q16 -38 16 -135v-40h179v38q0 172 -53 260q-71 117 -244 117q-168 0 -236 -93q-59 -79 -61 -253q-1 -19 -1 -62v-63v-368
q0 -196 54 -284q69 -117 246 -117q173 0 243 115q52 85 52 262v36h-179v-37z" />
    <glyph glyph-name="uni1D05" unicode="&#x1d05;" horiz-adv-x="761" 
d="M380 0q177 0 248 112q59 93 59 286v408q0 192 -59 284q-72 112 -246 112h-285v-1202h283zM387 1018q67 -1 93 -47q26 -45 26 -168v-399q0 -125 -27 -173q-28 -48 -99 -48h-101v835h108z" />
    <glyph glyph-name="uni1D07" unicode="&#x1d07;" horiz-adv-x="672" 
d="M616 0v185h-341v338h249v185h-249v309h341v185h-520v-1202h520z" />
    <glyph glyph-name="uni1D0A" unicode="&#x1d0a;" horiz-adv-x="529" 
d="M-10 36q30 -29 68 -41.5t92 -12.5q168 0 238 109q56 90 56 282v7l1 822h-180v-818q0 -123 -23 -172q-24 -47 -87 -47q-61 0 -110 30z" />
    <glyph glyph-name="uni1D0B" unicode="&#x1d0b;" horiz-adv-x="735" 
d="M95 1201v-1201h179v512h72l187 -512h199l-246 601l217 601h-183l-172 -507h-74v506h-179z" />
    <glyph glyph-name="uni1D0D" unicode="&#x1d0d;" horiz-adv-x="999" 
d="M421 225h160l151 708l-6 -933h182v1203h-241l-163 -716h-6l-160 716h-242v-1203h182l-8 941z" />
    <glyph glyph-name="uni1D0F" unicode="&#x1d0f;" horiz-adv-x="737" 
d="M70 380q0 -192 54 -282q69 -116 246 -116q176 0 243 115q52 88 52 284v442q0 194 -53 283q-69 116 -244 116t-244 -115q-54 -90 -54 -285v-442zM368 1042q78 0 101 -58q16 -41 16 -159v-445q0 -120 -17 -161q-25 -57 -100 -57q-77 0 -101 59q-17 39 -17 158v445
q0 120 18 162q23 56 100 56z" />
    <glyph glyph-name="uni1D18" unicode="&#x1d18;" horiz-adv-x="723" 
d="M274 0v416h83q151 0 232 78q89 87 89 271v83q0 116 -30.5 193.5t-97.5 119t-170 41.5h-284v-1202h178zM502 765q-1 -86 -31 -128t-94 -42h-103v428h105q57 0 88 -34q35 -40 35 -125v-99z" />
    <glyph glyph-name="uni1D1B" unicode="&#x1d1b;" horiz-adv-x="571" 
d="M566 1022v180h-561v-180h193v-1022h177v1022h191z" />
    <glyph glyph-name="uni1D1C" unicode="&#x1d1c;" horiz-adv-x="761" 
d="M500 1202v-832q0 -108 -18 -147q-25 -57 -99 -58q-78 0 -103 56q-19 42 -19 149v832h-181v-833q0 -189 57 -276q67 -106 237 -110l1 -1h11q170 4 238 110q58 90 58 277v833h-182z" />
    <glyph glyph-name="uni1D20" unicode="&#x1d20;" horiz-adv-x="678" 
d="M485 1203l-147 -1014l-147 1014h-184l206 -1203h251l207 1203h-186z" />
    <glyph glyph-name="uni1D21" unicode="&#x1d21;" horiz-adv-x="1120" 
d="M169 0h281l112 1002l112 -1002h281l155 1203h-185l-113 -1024h-4l-114 1024h-264l-114 -1024h-4l-113 1024h-185z" />
    <glyph glyph-name="uni1D22" unicode="&#x1d22;" horiz-adv-x="636" 
d="M585 0v178h-347l348 865v159h-524v-173h325l-350 -869v-160h548z" />
    <glyph glyph-name="Wgrave" unicode="&#x1e80;" horiz-adv-x="1136" 
d="M352 1865l143 -263h129l-111 263h-161zM701 0h225l178 1521h-185l-104 -1043l-15 -213l-16 213l-110 1043h-215l-109 -1043l-18 -218l-14 218l-105 1043h-185l178 -1521h226l121 957l13 162l14 -161z" />
    <glyph glyph-name="wgrave" unicode="&#x1e81;" horiz-adv-x="1120" 
d="M364 1546l143 -263h129l-111 263h-161zM169 0h281l112 1002l112 -1002h281l155 1203h-185l-113 -1024h-4l-114 1024h-264l-114 -1024h-4l-113 1024h-185z" />
    <glyph glyph-name="Wacute" unicode="&#x1e82;" horiz-adv-x="1136" 
d="M607 1865l-110 -263h134l148 263h-172zM701 0h225l178 1521h-185l-104 -1043l-15 -213l-16 213l-110 1043h-215l-109 -1043l-18 -218l-14 218l-105 1043h-185l178 -1521h226l121 957l13 162l14 -161z" />
    <glyph glyph-name="wacute" unicode="&#x1e83;" horiz-adv-x="1120" 
d="M621 1546l-110 -263h134l148 263h-172zM169 0h281l112 1002l112 -1002h281l155 1203h-185l-113 -1024h-4l-114 1024h-264l-114 -1024h-4l-113 1024h-185z" />
    <glyph glyph-name="Wdieresis" unicode="&#x1e84;" horiz-adv-x="1136" 
d="M372 1733q0 -96 87 -96q47 0 67.5 23.5t20.5 72.5q0 26 -5 44.5t-15.5 30.5t-27 18t-40.5 6q-45 0 -66 -24t-21 -75zM586 1733q0 -96 86 -96q32 0 51.5 11t28.5 31.5t9 53.5q0 52 -21 75.5t-68 23.5q-86 0 -86 -99zM701 0h225l178 1521h-185l-104 -1043l-15 -213l-16 213
l-110 1043h-215l-109 -1043l-18 -218l-14 218l-105 1043h-185l178 -1521h226l121 957l13 162l14 -161z" />
    <glyph glyph-name="wdieresis" unicode="&#x1e85;" horiz-adv-x="1120" 
d="M376 1414q0 -96 87 -96q47 0 67.5 23.5t20.5 72.5q0 52 -20.5 75.5t-67.5 23.5q-45 0 -66 -24t-21 -75zM590 1414q0 -96 86 -96q47 0 68 23.5t21 72.5q0 34 -9 56t-28.5 32.5t-51.5 10.5q-86 0 -86 -99zM169 0h281l112 1002l112 -1002h281l155 1203h-185l-113 -1024h-4
l-114 1024h-264l-114 -1024h-4l-113 1024h-185z" />
    <glyph glyph-name="uni1E9E" unicode="&#x1e9e;" horiz-adv-x="776" 
d="M379 774h28q74 -4 100 -60q19 -44 19 -154v-145q0 -123 -21 -171q-29 -66 -106 -66v-182q176 0 251 124q59 97 59 295v143q0 269 -174 342l154 442v186l-290 1q-176 0 -249 -124q-58 -98 -58 -295v-1110l185 1v1108q0 122 20 170q26 66 102 66h108l-128 -403v-168z" />
    <glyph glyph-name="Ygrave" unicode="&#x1ef2;" horiz-adv-x="705" 
d="M158 1856l143 -263h129l-111 263h-161zM702 1520h-181l-163 -677l-155 677h-200l262 -944v-576h182v576z" />
    <glyph glyph-name="ygrave" unicode="&#x1ef3;" horiz-adv-x="669" 
d="M136 1546l143 -263h129l-111 263h-161zM8 1203l186 -1203h114l-3 -24q-17 -109 -58 -177q-35 -59 -91 -94l80 -130q189 98 238 408l62 401q84 535 126 819h-184l-124 -901l-20 -134l-142 1035h-184z" />
    <glyph glyph-name="figuredash" unicode="&#x2012;" horiz-adv-x="573" 
d="M514 507v167h-449v-167h449z" />
    <glyph glyph-name="endash" unicode="&#x2013;" horiz-adv-x="729" 
d="M684 505v168h-631v-168h631z" />
    <glyph glyph-name="emdash" unicode="&#x2014;" horiz-adv-x="1110" 
d="M1019 505v168h-936v-168h936z" />
    <glyph glyph-name="quoteleft" unicode="&#x2018;" horiz-adv-x="288" 
d="M93 1705q-29 -93 -42 -171q-12 -65 -12 -111v-185l196 2v193h-29q-18 0 -22 21q-6 20 -4 56q3 45 29 173z" />
    <glyph glyph-name="quoteright" unicode="&#x2019;" horiz-adv-x="288" 
d="M184 1094q28 90 43 171q11 66 11 111v184l-196 -1v-193h29q17 0 23 -21q4 -21 3 -56q-3 -43 -29 -174z" />
    <glyph glyph-name="quotesinglbase" unicode="&#x201a;" horiz-adv-x="347" 
d="M196 -263q28 89 43 172q11 66 11 110v185l-196 -2v-193h29q17 0 23 -21q4 -21 3 -55q-3 -46 -29 -174z" />
    <glyph glyph-name="quotedblleft" unicode="&#x201c;" horiz-adv-x="629" 
d="M100 1705q-29 -93 -42 -171q-12 -65 -12 -111v-185l196 2v193h-29q-18 0 -22 21q-6 19 -4 56q3 44 29 173zM415 1704q-29 -93 -42 -171q-12 -65 -12 -111v-185l196 2v193h-29q-18 0 -22 21q-6 19 -4 56q3 45 29 173z" />
    <glyph glyph-name="quotedblright" unicode="&#x201d;" horiz-adv-x="659" 
d="M192 1705q27 -88 43 -171q11 -67 11 -111v-185l-196 2v193h29q17 0 23 21q4 21 3 56q-3 45 -29 173zM474 1704q27 -87 43 -171q11 -67 11 -111v-185l-196 2v193h29q17 0 23 21q4 21 3 56q-3 44 -29 173z" />
    <glyph glyph-name="quotedblbase" unicode="&#x201e;" horiz-adv-x="634" 
d="M196 -263q28 89 43 172q11 66 11 110v185l-196 -2v-193h29q17 0 23 -21q4 -21 3 -55q-3 -46 -29 -174zM511 -263q28 89 43 172q11 66 11 110v185l-196 -2v-193h29q17 0 23 -21q4 -21 3 -55q-3 -46 -29 -174z" />
    <glyph glyph-name="dagger" unicode="&#x2020;" horiz-adv-x="766" 
d="M705 915v182h-230v426h-179v-426h-230v-182h230v-1158h179v1158h230z" />
    <glyph glyph-name="daggerdbl" unicode="&#x2021;" horiz-adv-x="733" 
d="M47 360v-182h230v-421h179v421h231v182h-231v555h231v182h-231v426h-179v-426h-230v-182h230v-555h-230z" />
    <glyph glyph-name="bullet" unicode="&#x2022;" horiz-adv-x="655" 
d="M574 702q0 115 -70 191q-71 77 -175 77q-102 0 -174 -77q-73 -78 -73 -191q0 -112 73 -188q72 -77 174 -77q104 0 175 77q70 75 70 188z" />
    <glyph glyph-name="ellipsis" unicode="&#x2026;" horiz-adv-x="1058" 
d="M74 89q0 -107 107 -107q59 0 85 26t26 81q0 39 -11 63t-35.5 36t-64.5 12q-107 0 -107 -111zM418 89q0 -55 25.5 -81t81.5 -26q59 0 85 26t26 81q0 39 -11 63t-35.5 36t-64.5 12q-56 0 -81.5 -27t-25.5 -84zM762 89q0 -55 25.5 -81t81.5 -26q59 0 85 26t26 81
q0 58 -26 84.5t-85 26.5q-56 0 -81.5 -27t-25.5 -84z" />
    <glyph glyph-name="perthousand" unicode="&#x2030;" horiz-adv-x="1846" 
d="M68 913q0 -149 47 -216q54 -77 181 -77q134 0 186 91q41 74 41 245v246q0 171 -40 244q-51 90 -187 90q-137 0 -187 -91q-41 -72 -41 -243v-289zM932 1521h-174l-378 -1521h173zM296 772q-46 0 -60 49q-11 38 -11 132v252q0 97 10 131q14 48 61 48q45 0 59 -48
q11 -39 11 -132v-294q0 -73 -16 -105.5t-54 -32.5zM777 270q0 -149 48 -216q54 -77 181 -77q134 0 186 91q41 74 41 245v147q0 169 -41 243q-51 90 -186 90q-137 0 -188 -90q-41 -72 -41 -243v-190zM1302 270q0 -149 48 -216q54 -77 181 -77q134 0 186 91q41 74 41 245v147
q0 170 -40 243q-51 90 -187 90q-137 0 -188 -90q-41 -72 -41 -243v-190zM1006 129q-45 0 -60 49q-12 37 -12 132v153q0 93 11 131q14 48 61 48q44 0 58 -48q10 -40 10 -132v-195q0 -37 -3.5 -62t-11.5 -42.5t-21 -25.5t-32 -8zM1531 129q-44 0 -59 49q-12 37 -12 132v153
q0 97 10 131q14 48 61 48q43 0 59 -48q11 -35 11 -132v-195q0 -72 -16.5 -105t-53.5 -33z" />
    <glyph glyph-name="guilsinglleft" unicode="&#x2039;" horiz-adv-x="417" 
d="M370 188l-157 402l157 404h-180l-151 -404l151 -402h180z" />
    <glyph glyph-name="guilsinglright" unicode="&#x203a;" horiz-adv-x="389" 
d="M218 188l151 402l-151 404h-180l157 -404l-157 -402h180z" />
    <glyph glyph-name="fraction" unicode="&#x2044;" horiz-adv-x="498" 
d="M517 1510l-152 32l-408 -1563l157 -32z" />
    <glyph glyph-name="uni2070" unicode="&#x2070;" horiz-adv-x="590" 
d="M67 1112q0 -146 48 -206q52 -67 181 -67q137 0 187 80q40 66 40 236v371q0 166 -41 234q-51 80 -186 80q-137 0 -186 -81q-43 -69 -43 -233v-414zM296 992q-44 0 -59 39q-13 34 -13 122v386q0 88 12 117q14 32 60 32t60 -33q11 -26 11 -117v-430q0 -68 -16 -93
q-16 -23 -55 -23z" />
    <glyph glyph-name="uni2074" unicode="&#x2074;" horiz-adv-x="596" 
d="M187 1821l-133 -690v-121h279v-152h156v152h59v164h-59v293h-156v-293h-109l122 647h-159z" />
    <glyph glyph-name="uni2075" unicode="&#x2075;" horiz-adv-x="592" 
d="M527 1188q0 172 -31 240q-38 80 -145 80q-90 0 -127 -64l11 220h258v157h-411l-14 -550h157v18q18 77 75 77q44 0 58 -38q12 -34 12 -130q0 -118 -11 -155q-15 -51 -64 -51q-67 0 -69 116l-1 31h-157v-37q0 -128 53 -192q57 -71 175 -71q63 0 106 16t70 53q55 77 55 280z
" />
    <glyph glyph-name="uni2076" unicode="&#x2076;" horiz-adv-x="590" 
d="M66 1122q0 -137 39 -199q52 -84 187 -84q140 0 191 79q39 61 39 205v67q0 75 -4.5 124t-20.5 84q-38 83 -148 83q-90 0 -126 -92v154q0 79 10 107q12 37 58 37q41 0 56 -37q9 -26 9 -84v-44h155v54q0 127 -38 186q-52 78 -182 78q-132 0 -183 -83q-42 -66 -42 -211v-424z
M223 1187q0 65 15 100q18 42 60 42q44 0 59 -41q9 -28 9 -100v-66q0 -70 -9 -95q-14 -35 -62 -35q-49 0 -63 45q-9 25 -9 81v69z" />
    <glyph glyph-name="uni2077" unicode="&#x2077;" horiz-adv-x="527" 
d="M493 1678v143h-448v-256h147v92h129l-184 -799h169z" />
    <glyph glyph-name="uni2078" unicode="&#x2078;" horiz-adv-x="590" 
d="M68 1546q0 -127 56 -182q-36 -28 -50 -73.5t-14 -111.5v-82q0 -130 45 -188q53 -70 184 -70q132 0 184 69q44 57 44 189v87q0 128 -64 178q55 51 55 169v66q0 127 -44 183q-50 60 -176 60q-125 0 -174 -62q-46 -59 -46 -187v-45zM289 1438q-44 0 -57 32q-10 22 -10 78v30
q0 53 10 76q14 34 57 34q42 0 56 -29q11 -23 11 -77v-39q0 -55 -10 -76q-14 -29 -57 -29zM289 1289q47 0 63 -32q11 -23 11 -87v-55q0 -41 -5.5 -66t-22 -40t-46.5 -15q-48 0 -64 36q-12 26 -12 84v56q0 62 13 87q18 32 63 32z" />
    <glyph glyph-name="uni2079" unicode="&#x2079;" horiz-adv-x="590" 
d="M523 1548q0 139 -39 205q-52 88 -186 88q-142 0 -192 -78q-38 -59 -38 -207v-74q0 -147 26 -205q37 -81 148 -81q88 0 125 92v-157q0 -75 -9 -101q-14 -37 -59 -37q-40 0 -54 38q-10 24 -10 82v37h-155v-54q0 -126 38 -182q50 -74 181 -74q133 0 184 83q40 65 40 211v414
zM367 1487q-2 -69 -15 -98q-18 -41 -59 -41q-45 0 -58 44q-10 30 -10 102v64q0 70 10 96q14 35 61 35q48 0 64 -47q7 -24 7 -84v-71z" />
    <glyph glyph-name="uni207D" unicode="&#x207d;" horiz-adv-x="342" 
d="M334 779v146h-16q-59 0 -84 74q-19 51 -19 148v378q0 79 13 131q23 96 90 96h16v145h-16q-118 0 -184 -74q-48 -56 -67 -160q-10 -56 -10 -145v-360q0 -105 13 -166q19 -96 71 -148q63 -65 177 -65h16z" />
    <glyph glyph-name="uni207E" unicode="&#x207e;" horiz-adv-x="343" 
d="M30 779v146h16q58 0 85 74q18 52 18 148v378q0 79 -12 131q-24 96 -91 96h-16v145h16q118 0 184 -74q50 -57 68 -160q9 -50 9 -145v-360q0 -105 -12 -166q-21 -97 -72 -148q-63 -65 -177 -65h-16z" />
    <glyph glyph-name="uni2080" unicode="&#x2080;" horiz-adv-x="590" 
d="M62 -140q0 -146 48 -206q52 -67 181 -67q137 0 187 80q40 66 40 236v371q0 166 -41 234q-51 80 -186 80q-137 0 -186 -81q-43 -69 -43 -233v-414zM291 -260q-44 0 -59 39q-13 34 -13 122v386q0 88 12 117q14 32 60 32t60 -33q11 -26 11 -117v-430q0 -68 -16 -93
q-16 -23 -55 -23z" />
    <glyph glyph-name="uni2081" unicode="&#x2081;" horiz-adv-x="391" 
d="M29 271q80 32 118 93v-758h157v963h-131q-49 -81 -144 -144v-154z" />
    <glyph glyph-name="uni2082" unicode="&#x2082;" horiz-adv-x="580" 
d="M516 -394v157h-266q6 44 29 84q35 60 116 154q31 37 61 84q65 105 65 216q0 288 -225 288q-119 0 -176 -77q-54 -72 -54 -200v-51h157v35q0 58 13 91q17 42 57 42q72 0 72 -129q0 -43 -20 -85q-35 -70 -118 -164q-35 -39 -70 -87q-79 -105 -93 -202v-156h452z" />
    <glyph glyph-name="uni2083" unicode="&#x2083;" horiz-adv-x="581" 
d="M521 -133q0 125 -29 182q-22 42 -73 55q95 20 95 198q0 148 -52.5 217t-168.5 69q-119 0 -175 -76q-51 -69 -51 -214v-27l157 1v41q0 61 15 92t52 31q21 0 35 -9.5t21 -28.5t10 -43t3 -58v-10q0 -57 -19.5 -87t-54.5 -31l-58 -1v-133l53 -1q42 0 62 -27q24 -34 24 -113
v-41q0 -62 -20 -87.5t-56 -25.5q-42 0 -61 45q-14 30 -14 83v30h-156v-34q0 -146 63 -215q57 -63 168 -63q114 0 169 59q61 67 61 222z" />
    <glyph glyph-name="uni2084" unicode="&#x2084;" horiz-adv-x="596" 
d="M192 569l-133 -690v-121h279v-152h156v152h59v164h-59v293h-156v-293h-109l122 647h-159z" />
    <glyph glyph-name="uni2085" unicode="&#x2085;" horiz-adv-x="592" 
d="M532 -64q0 172 -31 240q-38 80 -145 80q-90 0 -127 -64l11 220h258v157h-411l-14 -550h157v18q18 77 75 77q44 0 58 -38q12 -34 12 -130q0 -118 -11 -155q-15 -51 -64 -51q-67 0 -69 116l-1 31h-157v-37q0 -128 53 -192q57 -71 175 -71q127 0 176 69q55 77 55 280z" />
    <glyph glyph-name="uni2086" unicode="&#x2086;" horiz-adv-x="591" 
d="M66 -130q0 -137 39 -199q52 -84 187 -84q140 0 191 79q39 61 39 205v67q0 75 -4.5 124t-20.5 84q-38 83 -148 83q-90 0 -126 -92v154q0 79 10 107q12 37 58 37q41 0 56 -37q9 -26 9 -84v-44h155v54q0 127 -38 186q-52 78 -182 78q-132 0 -183 -83q-42 -66 -42 -211v-424z
M223 -65q0 65 15 100q18 42 60 42q44 0 59 -41q9 -28 9 -100v-66q0 -70 -9 -95q-14 -35 -62 -35q-49 0 -63 45q-9 25 -9 81v69z" />
    <glyph glyph-name="uni2087" unicode="&#x2087;" horiz-adv-x="521" 
d="M493 426v143h-448v-256h147v92h129l-184 -799h169z" />
    <glyph glyph-name="uni2088" unicode="&#x2088;" horiz-adv-x="577" 
d="M73 294q0 -127 56 -182q-36 -28 -50 -73.5t-14 -111.5v-82q0 -130 45 -188q53 -70 184 -70q132 0 184 69q44 57 44 189v87q0 128 -64 178q55 51 55 169v66q0 127 -44 183q-50 60 -176 60q-125 0 -174 -62q-46 -59 -46 -187v-45zM294 186q-44 0 -57 32q-10 22 -10 78v30
q0 53 10 76q14 34 57 34q42 0 56 -29q11 -23 11 -77v-39q0 -55 -10 -76q-14 -29 -57 -29zM294 37q47 0 63 -32q11 -23 11 -87v-55q0 -63 -15.5 -92t-58.5 -29q-48 0 -64 36q-12 26 -12 84v56q0 62 13 87q18 32 63 32z" />
    <glyph glyph-name="uni2089" unicode="&#x2089;" horiz-adv-x="592" 
d="M523 296q0 139 -39 205q-52 88 -186 88q-142 0 -192 -78q-38 -59 -38 -207v-74q0 -73 5 -121.5t21 -83.5q37 -81 148 -81q88 0 125 92v-157q0 -75 -9 -101q-14 -37 -59 -37q-40 0 -54 38q-10 24 -10 82v37h-155v-54q0 -126 38 -182q50 -74 181 -74q133 0 184 83
q40 65 40 211v414zM367 235q-2 -69 -15 -98q-18 -41 -59 -41q-45 0 -58 44q-10 30 -10 102v64q0 70 10 96q14 35 61 35q48 0 64 -47q7 -25 7 -84v-71z" />
    <glyph glyph-name="uni208D" unicode="&#x208d;" horiz-adv-x="342" 
d="M334 -473v146h-16q-59 0 -84 74q-19 51 -19 148v378q0 79 13 131q23 96 90 96h16v145h-16q-118 0 -184 -74q-48 -56 -67 -160q-10 -56 -10 -145v-360q0 -105 13 -166q19 -96 71 -148q63 -65 177 -65h16z" />
    <glyph glyph-name="uni208E" unicode="&#x208e;" horiz-adv-x="343" 
d="M39 -473v146h16q58 0 85 74q18 52 18 148v378q0 79 -12 131q-24 96 -91 96h-16v145h16q118 0 184 -74q50 -57 68 -160q9 -50 9 -145v-360q0 -105 -12 -166q-21 -97 -72 -148q-63 -65 -177 -65h-16z" />
    <glyph glyph-name="lira" unicode="&#x20a4;" horiz-adv-x="729" 
d="M262 1178q0 65 10 105t36 62t69 22q49 0 74 -25q46 -45 48 -152q0 -14 0.5 -31.5l1 -35t0.5 -30.5l171 2q7 228 -52 332q-68 121 -242 121q-161 0 -233 -92q-65 -83 -65 -240q0 -126 58 -345h-75v-145h111q9 -40 23 -118h-134v-146h142q-5 -101 -37 -172
q-37 -85 -103 -114v-182q10 1 29.5 3.5t28.5 4.5q74 9 100 9q48 0 152 -12q113 -13 148 -13q97 0 157 57l-60 157q-29 -22 -55.5 -28.5t-66.5 -6.5q-24 0 -47 4q-9 2 -27 4.5t-26 3.5q-69 8 -104 -1q32 38 58 121q25 79 31 165h183v146h-190q-5 42 -21 118h211v145h-247
q-21 81 -29 114.5t-18 91.5t-10 101z" />
    <glyph glyph-name="Euro" unicode="&#x20ac;" horiz-adv-x="747" 
d="M681 1056v102q0 176 -58 268q-73 114 -250 114t-249 -113q-58 -92 -58 -284v-198h-35l-13 -125h48v-124h-35l-13 -124h48v-199q0 -189 58 -279q70 -112 249 -112q175 0 249 109q59 86 59 264v111h-184v-110q0 -106 -22 -148q-28 -53 -102 -53q-80 0 -105 61
q-19 44 -19 160v196h314l11 124h-325v124h322l12 125h-334v199q0 115 21 159q25 54 103 54q76 0 103 -55q21 -44 21 -147v-99h184z" />
    <glyph glyph-name="uni2116" unicode="&#x2116;" horiz-adv-x="1557" 
d="M934 805q0 -146 48 -206q52 -67 181 -67q137 0 187 80q40 66 40 236v371q0 166 -41 234q-51 80 -186 80q-137 0 -186 -81q-43 -69 -43 -233v-414zM281 0v1067l271 -1067h187v1521h-183v-987l-254 986h-21v1h-183v-1521h183zM1163 685q-44 0 -59 39q-13 34 -13 122v386
q0 88 12 117q14 32 60 32t60 -33q11 -26 11 -117v-430q0 -68 -16 -93q-16 -23 -55 -23zM1404 262v167h-476v-167h476z" />
    <glyph glyph-name="trademark" unicode="&#x2122;" horiz-adv-x="1265" 
d="M800 674h136l109 475h3l-9 -591h156v965h-191l-134 -589h-5l-132 589h-194v-965h157l-9 591h2zM494 1364v158h-464v-158h153v-806h159v806h152z" />
    <glyph glyph-name="uni2126" unicode="&#x2126;" horiz-adv-x="777" 
d="M356 0v474q-39 0 -59 32q-35 60 -33 186v106v332q0 116 21 165q25 61 100 62q1 -1 4 -1q79 0 106 -64q19 -47 19 -162v-332v-34.5v-38.5t-0.5 -35t-1.5 -38.5t-2.5 -33.5t-4.5 -34q-9 -53 -28.5 -81.5t-55.5 -28.5v-474h263v182h-109l2 161q72 61 101 199q19 95 19 255
v334q0 191 -58 288q-73 121 -250 121l-1 -1v1q-177 0 -248 -119q-59 -97 -59 -290v-334q0 -159 19 -255q28 -141 100 -200l3 -160h-109v-182h262z" />
    <glyph glyph-name="estimated" unicode="&#x212e;" horiz-adv-x="763" 
d="M524 416v-100q0 -120 -22 -176q-33 -79 -120 -79q-91 0 -122 78q-21 53 -21 185v239l439 41v216q0 183 -52 277q-70 125 -245 125h-1q-174 0 -242 -118q-54 -94 -54 -289v-423q0 -197 54 -289q69 -121 245 -121h1q119 0 189 59q60 49 86 147q19 75 19 196v32h-154z
M239 884q0 133 22 186q30 73 117 74h4q78 0 111 -61q25 -46 30 -139v-271l-284 -26v237z" />
    <glyph glyph-name="partialdiff" unicode="&#x2202;" horiz-adv-x="740" 
d="M355 1356q5 0 7 1h7q73 0 96 -81q14 -50 14 -190v-197q-21 52 -59 77t-102 26q-155 0 -207 -126q-38 -89 -38 -293v-181q0 -198 52 -290q68 -120 243 -120q177 0 243 118q51 91 51 285v714q0 204 -51 306q-67 135 -242 135h-15q-11 0 -16 -1zM360 808q76 0 100 -50
q19 -40 19 -159v-216v-13q0 -104 -11 -141q-21 -64 -100 -64q-40 0 -62.5 15t-34.5 45q-16 42 -16 164v191q0 116 14 161q21 67 91 67z" />
    <glyph glyph-name="uni2206" unicode="&#x2206;" horiz-adv-x="739" 
d="M365 1274h13l161 -1274h187l-216 1521h-278l-219 -1521h500l-21 184h-268z" />
    <glyph glyph-name="product" unicode="&#x220f;" horiz-adv-x="767" 
d="M278 -175v1515h212v-1515h179v1695h-572v-1695h181z" />
    <glyph glyph-name="summation" unicode="&#x2211;" horiz-adv-x="727" 
d="M494 791l-209 547h358v183h-558v-171l221 -589l-226 -590v-171h571v183h-371l214 547v61z" />
    <glyph glyph-name="minus" unicode="&#x2212;" horiz-adv-x="710" 
d="M632 619v168h-554v-168h554z" />
    <glyph glyph-name="approxequal" unicode="&#x2248;" horiz-adv-x="619" 
d="M466 986q-15 -35 -32.5 -51t-41.5 -16q-6 0 -13 1.5t-11.5 3.5t-13 6.5t-12 6.5t-13.5 8.5t-13 8.5q-14 8 -21.5 12.5t-21 10.5t-27 8.5t-27.5 2.5q-65 0 -105 -48q-37 -44 -61 -123l90 -39q27 67 77 67q12 0 27 -6t22 -10.5t28 -17.5q54 -34 94 -34q63 0 107 49
q37 41 58 123zM466 631q-15 -35 -32.5 -51t-41.5 -16q-6 0 -12.5 1.5t-11.5 3.5t-13.5 6.5t-12 6.5t-13.5 8.5t-13 8.5q-14 8 -21.5 12.5t-21 10.5t-27 8.5t-27.5 2.5q-65 0 -105 -48q-37 -44 -61 -123l90 -39q27 67 77 67q12 0 27 -6t22 -10.5t28 -17.5q54 -34 94 -34
q63 0 107 49q37 41 58 123z" />
    <glyph glyph-name="notequal" unicode="&#x2260;" horiz-adv-x="710" 
d="M512 1026l-134 38l-38 -156h-262v-168h221l-37 -153h-184v-168h144l-26 -107l135 -38l35 145h266v168h-226l37 153h189v168h-149z" />
    <glyph glyph-name="lessequal" unicode="&#x2264;" horiz-adv-x="671" 
d="M562 367v208l-286 247l286 248v208l-476 -381v-149zM577 140v173h-499v-173h499z" />
    <glyph glyph-name="greaterequal" unicode="&#x2265;" horiz-adv-x="660" 
d="M551 748v149l-476 381v-208l286 -248l-286 -247v-208zM560 140v173h-500v-173h500z" />
    <glyph glyph-name="uniA730" unicode="&#xa730;" horiz-adv-x="634" 
d="M275 0v497h254v188h-254v330h341v187h-520v-1202h179z" />
    <glyph glyph-name="uniA731" unicode="&#xa731;" horiz-adv-x="675" 
d="M627 299q0 64 -17 118q-33 99 -107 172q-46 44 -146 125q-39 31 -63 59q-62 67 -62 140q0 59 26.5 94t79.5 35q62 0 86 -46q20 -41 20 -143l175 -1q0 212 -65 294q-33 41 -85.5 58.5t-130.5 17.5q-165 0 -233 -89q-54 -72 -54 -222q0 -63 17 -114q31 -94 106 -165
q42 -40 143 -121q34 -28 63 -60q60 -70 60 -151q0 -69 -25.5 -103.5t-81.5 -34.5q-70 0 -94 53q-20 44 -20 158h-179q0 -200 58 -288q66 -103 237 -103q158 0 227 79q65 73 65 238z" />
    <glyph glyph-name="uniF6E1" unicode="&#xf6e1;" horiz-adv-x="326" 
d="M57 -303q0 -107 102 -107q-7 -51 -16 -77q-15 -39 -41 -80l82 -48q41 50 63 112q29 82 29 179q0 40 -11 68.5t-37 46t-64 17.5q-54 0 -80.5 -27t-26.5 -84z" />
    <glyph glyph-name="uniF6E2" unicode="&#xf6e2;" horiz-adv-x="326" 
d="M57 948q0 -107 102 -107q-7 -51 -16 -77q-15 -39 -41 -80l82 -48q41 50 63 112q29 82 29 179q0 40 -11 68.5t-37 46t-64 17.5q-54 0 -80.5 -27t-26.5 -84z" />
    <glyph glyph-name="uniF6E5" unicode="&#xf6e5;" horiz-adv-x="476" 
d="M456 -1v157h-422v-157h422z" />
    <glyph glyph-name="uniF6E6" unicode="&#xf6e6;" horiz-adv-x="476" 
d="M456 1250v157h-422v-157h422z" />
    <glyph glyph-name="uniF6E7" unicode="&#xf6e7;" horiz-adv-x="336" 
d="M57 -309q0 -107 107 -107q59 0 85 26t26 81q0 58 -26 84.5t-85 26.5q-107 0 -107 -111z" />
    <glyph glyph-name="uniF6E8" unicode="&#xf6e8;" horiz-adv-x="336" 
d="M57 942q0 -107 107 -107q59 0 85 26t26 81q0 58 -26 84.5t-85 26.5q-107 0 -107 -111z" />
    <glyph glyph-name="uniF6F9" unicode="&#xf6f9;" horiz-adv-x="626" 
d="M275 187h341v-187h-520v402l-117 -109v178l117 109v622h179v-455l139 130v-180l-139 -129v-381z" />
    <glyph glyph-name="uniF6FD" unicode="&#xf6fd;" horiz-adv-x="675" 
d="M132 1519l117 -236h172l117 236h-149l-54 -133l-53 133h-150zM627 299q0 64 -17 118q-33 99 -107 172q-46 44 -146 125q-39 31 -63 59q-62 67 -62 140q0 39 11 67.5t35 45t60 16.5q62 0 86 -46q20 -41 20 -143l175 -1q0 212 -65 294q-33 41 -85.5 58.5t-130.5 17.5
q-165 0 -233 -89q-54 -72 -54 -222q0 -63 17 -114q31 -94 106 -165q42 -40 143 -121q34 -28 63 -60q60 -70 60 -151q0 -69 -25.5 -103.5t-81.5 -34.5q-70 0 -94 53q-20 44 -20 158h-179q0 -200 58 -288q66 -103 237 -103q158 0 227 79q65 73 65 238z" />
    <glyph glyph-name="uniF6FF" unicode="&#xf6ff;" horiz-adv-x="636" 
d="M125 1519l117 -236h172l117 236h-149l-54 -133l-53 133h-150zM585 0v178h-347l348 865v159h-524v-173h325l-350 -869v-160h548z" />
    <glyph glyph-name="uniF730" unicode="&#xf730;" horiz-adv-x="758" 
d="M84 394q0 -196 51 -289q66 -123 244 -123q175 0 243 121q52 93 52 292v414q0 196 -51 291q-67 122 -244 122q-174 0 -242 -121q-53 -96 -53 -293v-414zM379 1038q56 0 83 -45q18 -31 26 -92l-220 -386q-1 12 -1 33v34v225q0 121 16 168q22 63 96 63zM379 165
q-56 0 -81 44q-18 31 -27 94l220 394q1 -13 1 -36v-38v-236q0 -122 -16 -163q-23 -59 -97 -59z" />
    <glyph glyph-name="uniF731" unicode="&#xf731;" horiz-adv-x="512" 
d="M396 0v1211h-149q-46 -73 -89 -114q-60 -56 -134 -78v-181q55 15 108 40q59 29 86 72v-950h178z" />
    <glyph glyph-name="uniF732" unicode="&#xf732;" horiz-adv-x="762" 
d="M683 0v183h-357q8 47 37 93q36 54 156 192q47 53 83 111q87 139 87 283q0 187 -73 275q-70 83 -220 83q-155 0 -228 -93q-68 -85 -68 -256v-102h182v86q0 88 20 128q24 52 91 52q61 0 87.5 -39.5t26.5 -129.5q0 -55 -26 -108q-46 -89 -158 -209q-50 -53 -95 -110
q-110 -139 -131 -257v-182h586z" />
    <glyph glyph-name="uniF733" unicode="&#xf733;" horiz-adv-x="764" 
d="M683 87q0 167 -29 257q-33 102 -108 123q70 27 98 102q30 86 30 273q0 155 -45 247q-38 76 -109 109q-54 24 -135 24q-157 0 -228 -92q-67 -87 -67 -273v-104h184v107q0 97 24 138t86 41q64 0 86 -44q21 -43 21 -174v-54q0 -119 -30 -170q-27 -43 -83 -43l-78 -2v-176
l71 -1q63 0 94 -33q36 -41 36 -146v-124q0 -138 -27 -183q-10 -16 -23.5 -25.5t-29.5 -13t-39 -3.5q-58 0 -85 34q-31 39 -31 137v114h-181v-110q0 -192 75 -278q67 -80 212 -80q85 0 143 20.5t95 67.5q73 92 73 335z" />
    <glyph glyph-name="uniF734" unicode="&#xf734;" horiz-adv-x="794" 
d="M306 1203l-208 -1131v-135h367v-255h178v255h92v184h-92v397h-178v-397h-172l200 1082h-187z" />
    <glyph glyph-name="uniF735" unicode="&#xf735;" horiz-adv-x="763" 
d="M674 203q0 281 -46 381q-26 56 -71.5 81t-119.5 25q-51 0 -96 -19q-53 -22 -76 -67l13 415h353v184h-533l-18 -847h182v20q0 62 28 99t85 37q64 0 89 -48q25 -50 25 -183v-219q0 -112 -16 -154q-25 -61 -97 -61q-29 0 -50 8.5t-35 27.5t-21 48t-7 69v132h-183v-128
q0 -166 70 -251q74 -89 229 -89q79 0 132 18t88 64q75 100 75 368v89z" />
    <glyph glyph-name="uniF736" unicode="&#xf736;" horiz-adv-x="751" 
d="M84 385q0 -194 51 -285q66 -118 244 -118q176 0 243 114q29 50 40 119t11 166v222q0 98 -7 164.5t-29 113.5q-53 111 -207 111q-121 -1 -163 -109v255q0 122 16 164q21 55 92 55q69 0 91 -53q14 -36 14 -123v-97h182v96q0 164 -49 247q-66 113 -236 113q-173 0 -241 -118
q-52 -90 -52 -288v-749zM387 808q71 0 92 -62q12 -40 12 -156v-196q0 -126 -14 -166q-22 -63 -98 -63q-79 0 -100 72q-6 20 -9 51t-3 47.5v62.5v165q0 125 19 177q25 68 101 68z" />
    <glyph glyph-name="uniF737" unicode="&#xf737;" horiz-adv-x="793" 
d="M711 1056v147h-613v-369h170v185h248l-296 -1337h192z" />
    <glyph glyph-name="uniF738" unicode="&#xf738;" horiz-adv-x="751" 
d="M84 1064q0 -103 21.5 -171t74.5 -106q-59 -39 -83 -115q-22 -72 -22 -194v-119q0 -185 57 -272q67 -105 237 -105q168 0 237 104q57 85 57 274v135q0 70 -9.5 123t-35 97t-66.5 71q57 40 82 114q21 66 21 161v109q0 182 -50 265q-65 105 -236 105q-169 0 -234 -105
q-51 -81 -51 -264v-107zM368.5 881q-68.5 0 -89.5 48q-13 29 -13 116v118q0 108 13 142q18 52 90 52q71 0 91 -53q12 -34 12 -142v-118q0 -84 -13 -115q-22 -48 -90.5 -48zM369 697q73 0 97 -56q16 -37 16 -140v-133q0 -114 -19 -153q-24 -50 -94 -50q-75 0 -97 61
q-14 38 -14 151v123q0 103 16 141q24 56 95 56z" />
    <glyph glyph-name="uniF739" unicode="&#xf739;" horiz-adv-x="759" 
d="M675 809q0 199 -51 291q-68 122 -244 122q-174 0 -242 -121q-53 -96 -53 -293v-182q0 -98 7.5 -168.5t30.5 -122.5q52 -123 207 -123q43 0 75 13.5t53 38t35 61.5v-257q0 -126 -16 -164q-23 -57 -96 -57q-66 0 -88 53q-14 34 -14 122v98h-182v-92q0 -166 48 -249
q67 -115 236 -115q175 0 243 118q29 51 40 121t11 167v739zM373 395q-71 0 -90 68q-14 45 -14 161v186q0 44 0.5 66.5t4 51.5t10.5 48q12 32 34 47.5t62 15.5q80 0 101 -69q6 -20 9 -50.5t3 -46.5v-62v-208q-2 -109 -23 -153q-26 -55 -97 -55z" />
    <glyph glyph-name="uniF771" unicode="&#xf771;" horiz-adv-x="737" 
d="M612 1106q53 -89 53 -283v-442q0 -196 -52 -284q-50 -88 -164 -108v-122h-162v122q-111 23 -163 109q-54 90 -54 282v442q0 195 54 285q69 115 244 115t244 -116zM485 380v445q0 118 -16 159q-23 58 -101 58q-77 0 -100 -56q-18 -42 -18 -162v-445q0 -119 17 -158
q24 -59 101 -59q75 0 100 57q17 41 17 161z" />
    <glyph glyph-name="uniF778" unicode="&#xf778;" horiz-adv-x="691" 
d="M676 0l-219 625l206 577h-175l-139 -414l-133 414h-188l207 -577l-219 -625h177l149 451l146 -451h188z" />
    <glyph glyph-name="uniF7E0" unicode="&#xf7e0;" horiz-adv-x="681" 
d="M134 1546l143 -263h129l-111 263h-161zM194 0l31 226h229l31 -226h184l-186 1203h-287l-186 -1203h184zM334 1024h10l87 -633h-184z" />
    <glyph glyph-name="uniF7E1" unicode="&#xf7e1;" horiz-adv-x="681" 
d="M382 1546l-110 -263h134l148 263h-172zM194 0l31 226h229l31 -226h184l-186 1203h-287l-186 -1203h184zM334 1024h10l87 -633h-184z" />
    <glyph glyph-name="uniF7E2" unicode="&#xf7e2;" horiz-adv-x="681" 
d="M285 1283l54 133l54 -133h149l-117 236h-172l-117 -236h149zM194 0l31 226h229l31 -226h184l-186 1203h-287l-186 -1203h184zM334 1024h10l87 -633h-184z" />
    <glyph glyph-name="uniF7E3" unicode="&#xf7e3;" horiz-adv-x="681" 
d="M501 1531q-15 -35 -32.5 -51t-41.5 -16q-5 0 -9.5 1l-9 2t-9.5 3.5l-9 4.5t-9.5 5.5t-9.5 6t-10 6.5t-10 6q-19 11 -29.5 16.5t-29.5 11.5t-38 6q-65 0 -105 -48q-37 -44 -61 -123l90 -39q27 67 77 67q12 0 27 -6t22 -10.5t28 -17.5q54 -34 94 -34q63 0 107 49
q37 41 58 123zM194 0l31 226h229l31 -226h184l-186 1203h-287l-186 -1203h184zM334 1024h10l87 -633h-184z" />
    <glyph glyph-name="uniF7E4" unicode="&#xf7e4;" horiz-adv-x="681" 
d="M145 1414q0 -96 87 -96q47 0 67.5 23.5t20.5 72.5q0 52 -20.5 75.5t-67.5 23.5q-45 0 -66 -24t-21 -75zM359 1414q0 -96 86 -96q47 0 68 23.5t21 72.5q0 34 -9 56t-28.5 32.5t-51.5 10.5q-86 0 -86 -99zM194 0l31 226h229l31 -226h184l-186 1203h-287l-186 -1203h184z
M334 1024h10l87 -633h-184z" />
    <glyph glyph-name="uniF7E5" unicode="&#xf7e5;" horiz-adv-x="681" 
d="M169 1458q0 -175 167 -175q91 0 132 44t41 131q0 62 -17 101t-55.5 59.5t-100.5 20.5q-86 0 -126.5 -44.5t-40.5 -136.5zM286 1460q0 61 51 61q20 0 32 -7.5t17 -20.5t5 -33q0 -61 -54 -61q-51 0 -51 61zM194 0l31 226h229l31 -226h184l-186 1203h-287l-186 -1203h184z
M334 1024h10l87 -633h-184z" />
    <glyph glyph-name="uniF7E7" unicode="&#xf7e7;" horiz-adv-x="730" 
d="M667 807h-179v40q0 97 -16 135q-27 60 -102 60q-76 0 -101 -58q-17 -39 -17 -162v-338v-97q-2 -106 10 -148q12 -50 55 -68q21 -9 53 -9q74 0 100 58q18 39 18 138v37h179v-36q0 -177 -52 -262q-64 -106 -214 -114v-54l14 3q24 3 32 3q53 0 88 -40q34 -40 34 -101
q0 -82 -58 -127q-54 -41 -147 -41q-52 0 -94.5 19t-66.5 50l30 73q30 -23 53 -32q31 -13 74 -13q34 0 54 16.5t20 47.5q0 36 -48 48q-42 11 -80 -2l1 153q-126 18 -181 113q-54 88 -54 284v368v63q0 43 1 62q2 174 61 253q68 93 236 93q173 0 244 -117q53 -88 53 -260v-38z
" />
    <glyph glyph-name="uniF7E8" unicode="&#xf7e8;" horiz-adv-x="672" 
d="M149 1546l143 -263h129l-111 263h-161zM616 0v185h-341v338h249v185h-249v309h341v185h-520v-1202h520z" />
    <glyph glyph-name="uniF7E9" unicode="&#xf7e9;" horiz-adv-x="672" 
d="M383 1546l-110 -263h134l148 263h-172zM616 0v185h-341v338h249v185h-249v309h341v185h-520v-1202h520z" />
    <glyph glyph-name="uniF7EA" unicode="&#xf7ea;" horiz-adv-x="672" 
d="M293 1283l54 133l54 -133h149l-117 236h-172l-117 -236h149zM616 0v185h-341v338h249v185h-249v309h341v185h-520v-1202h520z" />
    <glyph glyph-name="uniF7EB" unicode="&#xf7eb;" horiz-adv-x="672" 
d="M158 1414q0 -96 87 -96q47 0 67.5 23.5t20.5 72.5q0 52 -20.5 75.5t-67.5 23.5q-45 0 -66 -24t-21 -75zM372 1414q0 -96 86 -96q47 0 68 23.5t21 72.5q0 52 -21 75.5t-68 23.5q-86 0 -86 -99zM616 0v185h-341v338h249v185h-249v309h341v185h-520v-1202h520z" />
    <glyph glyph-name="uniF7EC" unicode="&#xf7ec;" 
d="M-27 1546l143 -263h129l-111 263h-161zM276 0v1202h-179v-1202h179z" />
    <glyph glyph-name="uniF7ED" unicode="&#xf7ed;" 
d="M228 1546l-110 -263h134l148 263h-172zM276 0v1202h-179v-1202h179z" />
    <glyph glyph-name="uniF7EE" unicode="&#xf7ee;" 
d="M133 1283l54 133l54 -133h149l-117 236h-172l-117 -236h149zM276 0v1202h-179v-1202h179z" />
    <glyph glyph-name="uniF7EF" unicode="&#xf7ef;" 
d="M-8 1414q0 -96 87 -96q47 0 67.5 23.5t20.5 72.5q0 52 -20.5 75.5t-67.5 23.5q-45 0 -66 -24t-21 -75zM206 1414q0 -96 86 -96q47 0 68 23.5t21 72.5q0 34 -9 56t-28.5 32.5t-51.5 10.5q-86 0 -86 -99zM276 0v1202h-179v-1202h179z" />
    <glyph glyph-name="uniF7F0" unicode="&#xf7f0;" horiz-adv-x="775" 
d="M380 0q177 0 248 112q59 93 59 286v408q0 192 -59 284q-72 112 -246 112h-285v-528h-91v-167h91v-507h283zM380 1018q71 0 99 -44q27 -45 27 -171v-399q0 -125 -27 -173q-28 -48 -99 -48h-101v324h90v167h-90v344h101z" />
    <glyph glyph-name="uniF7F1" unicode="&#xf7f1;" horiz-adv-x="791" 
d="M575 1531q-15 -35 -32.5 -51t-41.5 -16q-6 0 -12.5 1.5t-11.5 3.5t-13.5 6.5t-12 6.5t-13.5 8.5t-13 8.5q-14 8 -21.5 12.5t-21 10.5t-27 8.5t-27.5 2.5q-65 0 -105 -48q-37 -44 -61 -123l90 -39q27 67 77 67q12 0 27 -6t22 -10.5t28 -17.5q54 -34 94 -34q63 0 107 49
q37 41 58 123zM697 0v1202h-183v-742l-94 314l-114 428h-213l3 -1202h183v755l83 -282l124 -473h211z" />
    <glyph glyph-name="uniF7F2" unicode="&#xf7f2;" horiz-adv-x="737" 
d="M159 1546l143 -263h129l-111 263h-161zM70 380q0 -192 54 -282q69 -116 246 -116q176 0 243 115q52 88 52 284v442q0 194 -53 283q-69 116 -244 116t-244 -115q-54 -90 -54 -285v-442zM368 1042q78 0 101 -58q16 -41 16 -159v-445q0 -120 -17 -161q-25 -57 -100 -57
q-77 0 -101 59q-17 39 -17 158v445q0 120 18 162q23 56 100 56z" />
    <glyph glyph-name="uniF7F3" unicode="&#xf7f3;" horiz-adv-x="737" 
d="M415 1546l-110 -263h134l148 263h-172zM70 380q0 -192 54 -282q69 -116 246 -116q176 0 243 115q52 88 52 284v442q0 194 -53 283q-69 116 -244 116t-244 -115q-54 -90 -54 -285v-442zM368 1042q78 0 101 -58q16 -41 16 -159v-445q0 -120 -17 -161q-25 -57 -100 -57
q-77 0 -101 59q-17 39 -17 158v445q0 120 18 162q23 56 100 56z" />
    <glyph glyph-name="uniF7F4" unicode="&#xf7f4;" horiz-adv-x="737" 
d="M316 1283l54 133l54 -133h149l-117 236h-172l-117 -236h149zM70 380q0 -192 54 -282q69 -116 246 -116q176 0 243 115q52 88 52 284v442q0 194 -53 283q-69 116 -244 116t-244 -115q-54 -90 -54 -285v-442zM368 1042q78 0 101 -58q16 -41 16 -159v-445q0 -120 -17 -161
q-25 -57 -100 -57q-77 0 -101 59q-17 39 -17 158v445q0 120 18 162q23 56 100 56z" />
    <glyph glyph-name="uniF7F5" unicode="&#xf7f5;" horiz-adv-x="737" 
d="M528 1531q-15 -35 -32.5 -51t-41.5 -16q-6 0 -13 1.5t-11.5 3.5t-13 6.5t-12 6.5t-13.5 8.5t-13 8.5q-19 11 -29.5 16.5t-29.5 11.5t-38 6q-65 0 -105 -48q-37 -44 -61 -123l90 -39q27 67 77 67q12 0 27 -6t22 -10.5t28 -17.5q54 -34 94 -34q63 0 107 49q37 41 58 123z
M70 380q0 -192 54 -282q69 -116 246 -116q176 0 243 115q52 88 52 284v442q0 194 -53 283q-69 116 -244 116t-244 -115q-54 -90 -54 -285v-442zM368 1042q78 0 101 -58q16 -41 16 -159v-445q0 -120 -17 -161q-25 -57 -100 -57q-77 0 -101 59q-17 39 -17 158v445
q0 120 18 162q23 56 100 56z" />
    <glyph glyph-name="uniF7F6" unicode="&#xf7f6;" horiz-adv-x="737" 
d="M175 1414q0 -96 87 -96q32 0 51.5 11t28 31.5t8.5 53.5q0 52 -20.5 75.5t-67.5 23.5q-45 0 -66 -24t-21 -75zM389 1414q0 -96 86 -96q47 0 68 23.5t21 72.5q0 34 -9 56t-28.5 32.5t-51.5 10.5q-86 0 -86 -99zM70 380q0 -192 54 -282q69 -116 246 -116q176 0 243 115
q52 88 52 284v442q0 194 -53 283q-69 116 -244 116t-244 -115q-54 -90 -54 -285v-442zM368 1042q78 0 101 -58q16 -41 16 -159v-445q0 -120 -17 -161q-25 -57 -100 -57q-77 0 -101 59q-17 39 -17 158v445q0 120 18 162q23 56 100 56z" />
    <glyph glyph-name="uniF7F8" unicode="&#xf7f8;" horiz-adv-x="737" 
d="M731 1292l-112 46l-58 -142q-63 26 -142 26q-175 0 -244 -115q-54 -90 -54 -285v-442q0 -189 52 -280l-60 -156l114 -49l45 115q58 -28 149 -28q176 0 243 115q51 86 51 284v442q0 197 -56 288zM419 1042q78 0 101 -58q5 -14 8.5 -30.5t4.5 -40t1.5 -39.5t0.5 -49v-445
q0 -123 -16 -161q-25 -57 -100 -57q-78 0 -102 59q-17 39 -17 158v445q0 120 18 162q23 56 101 56z" />
    <glyph glyph-name="uniF7F9" unicode="&#xf7f9;" horiz-adv-x="761" 
d="M180 1546l143 -263h129l-111 263h-161zM500 1202v-832q0 -108 -18 -147q-25 -57 -99 -58q-78 0 -103 56q-19 42 -19 149v832h-181v-833q0 -189 57 -276q67 -106 237 -110l1 -1h11q170 4 238 110q58 90 58 277v833h-182z" />
    <glyph glyph-name="uniF7FA" unicode="&#xf7fa;" horiz-adv-x="761" 
d="M418 1546l-110 -263h134l148 263h-172zM500 1202v-832q0 -108 -18 -147q-25 -57 -99 -58q-78 0 -103 56q-19 42 -19 149v832h-181v-833q0 -189 57 -276q67 -106 237 -110l1 -1h11q170 4 238 110q58 90 58 277v833h-182z" />
    <glyph glyph-name="uniF7FB" unicode="&#xf7fb;" horiz-adv-x="761" 
d="M328 1283l54 133l54 -133h149l-117 236h-172l-117 -236h149zM500 1202v-832q0 -108 -18 -147q-25 -57 -99 -58q-78 0 -103 56q-19 42 -19 149v832h-181v-833q0 -189 57 -276q67 -106 237 -110l1 -1h11q170 4 238 110q58 90 58 277v833h-182z" />
    <glyph glyph-name="uniF7FC" unicode="&#xf7fc;" horiz-adv-x="761" 
d="M186 1414q0 -96 87 -96q47 0 67.5 23.5t20.5 72.5q0 52 -20.5 75.5t-67.5 23.5q-45 0 -66 -24t-21 -75zM400 1414q0 -96 86 -96q24 0 41 6t27.5 18t15.5 30t5 42q0 34 -9 56t-28.5 32.5t-51.5 10.5q-86 0 -86 -99zM500 1202v-832q0 -108 -18 -147q-25 -57 -99 -58
q-78 0 -103 56q-19 42 -19 149v832h-181v-833q0 -189 57 -276q67 -106 237 -110l1 -1h11q170 4 238 110q58 90 58 277v833h-182z" />
    <glyph glyph-name="uniF7FD" unicode="&#xf7fd;" horiz-adv-x="627" 
d="M368 1546l-110 -263h134l148 263h-172zM454 1202l-136 -539l-132 539h-177l217 -744v-458h182v458l211 744h-165z" />
    <glyph glyph-name="uniF7FE" unicode="&#xf7fe;" horiz-adv-x="758" 
d="M93 1203v-1203h178v211h83q141 0 222 66q99 79 99 258v108q0 175 -72.5 264.5t-225.5 89.5h-106v206h-178zM497 555q0 -165 -123 -165h-103v427h104q62 0 92 -37t30 -125v-100z" />
    <glyph glyph-name="uniF7FF" unicode="&#xf7ff;" horiz-adv-x="627" 
d="M130 1414q0 -96 87 -96q47 0 67.5 23.5t20.5 72.5q0 52 -20.5 75.5t-67.5 23.5q-45 0 -66 -24t-21 -75zM344 1414q0 -96 86 -96q47 0 68 23.5t21 72.5q0 52 -21 75.5t-68 23.5q-86 0 -86 -99zM454 1202l-136 -539l-132 539h-177l217 -744v-458h182v458l211 744h-165z" />
    <glyph glyph-name="s_t" unicode="&#xfb06;" horiz-adv-x="1298" 
d="M1267 197l12 -157q-76 -59 -169 -59q-143 0 -196 107q-43 87 -43 292v649h-107v174h107v70q-7 58 -40 91q-27 27 -64 27q-62 0 -91 -73q-19 -47 -19 -113l-3 -310q1 -14 1 -43l-175 1q0 102 -20 143q-24 46 -86 46q-53 0 -79.5 -34.5t-26.5 -94.5q0 -73 62 -140
q24 -28 63 -59q100 -80 146 -125q74 -73 107 -172q17 -54 17 -118q0 -164 -65 -238q-69 -79 -227 -79q-171 0 -237 103q-58 88 -58 288h179q0 -114 20 -158q24 -53 94 -53q56 0 81.5 35t25.5 103q0 81 -60 151q-29 32 -63 60q-101 81 -143 121q-75 71 -106 165
q-17 51 -17 114q0 150 54 222q68 89 233 89q65 0 108 -11q0 4 -0.5 8.5t-0.5 7.5t-0.5 6t-0.5 5l-2 9q-1 0 -1 -2q0 61 17 124q23 85 81 136q72 64 189 64q136 0 210 -70q79 -74 79 -221v-75h196v-174h-197l-1 -649q0 -131 14 -172q9 -26 25.5 -38t45.5 -12q71 0 131 39z
" />
    <glyph glyph-name="f.001" horiz-adv-x="502" 
d="M2 1029h110v-1029h180v1029h199v174h-199v8q0 131 14 173q6 18 15.5 28.5t23 15.5t33.5 5q71 0 131 -39l12 157q-76 59 -170 59q-142 0 -196 -107q-43 -87 -43 -292v-8h-110v-174z" />
    <glyph glyph-name="DOT" horiz-adv-x="18" 
d="M110 382q0 -92 90 -92q48 0 70 22.5t22 70t-22 70t-70 22.5q-90 0 -90 -93z" />
    <glyph glyph-name="zero.fitted" horiz-adv-x="788" 
d="M99 394q0 -196 51 -289q66 -123 244 -123q173 0 241 119q53 93 53 290v741q0 195 -53 288q-68 120 -241 120q-175 0 -243 -122q-52 -93 -52 -287v-737zM394 1357q76 0 98 -61q14 -39 14 -160v-750q0 -121 -15 -162q-22 -59 -97 -59q-76 0 -98 63q-14 39 -14 161v741
q0 120 16 166q22 61 96 61z" />
    <glyph glyph-name="one.fitted" horiz-adv-x="740" 
d="M637 183h-163v1340h-148q-44 -71 -90 -114q-59 -56 -133 -78v-181q58 16 107 39q59 29 86 72v-1078h-175v-183h516v183z" />
    <glyph glyph-name="two.fitted" horiz-adv-x="740" 
d="M658 0v183h-373q18 87 54 170q54 125 163 321q46 84 80 162q82 188 82 354q0 187 -73 272q-70 80 -220 80q-156 0 -228 -90q-68 -84 -68 -254v-143h183v127q0 88 19 126q25 49 91 49q61 0 87.5 -40t26.5 -130q0 -87 -27 -173q-46 -146 -159 -335q-55 -93 -95 -168
q-110 -201 -129 -346v-165h586z" />
    <glyph glyph-name="three.fitted" horiz-adv-x="740" 
d="M669 405q0 167 -29 257q-33 102 -108 123q70 27 98 102q30 85 30 273q0 155 -45 247q-38 76 -109 109q-54 24 -135 24q-157 0 -228 -92q-67 -87 -67 -273v-104h184v107q0 97 24 138t86 41q64 0 86 -44q21 -43 21 -174v-54q0 -119 -30 -170q-27 -43 -83 -43l-78 -2v-176
l71 -1q64 0 94 -33q36 -41 36 -146v-124q0 -138 -27 -183q-10 -16 -23.5 -25.5t-29.5 -13t-39 -3.5q-58 0 -85 34q-31 39 -31 137v114h-181v-110q0 -192 75 -278q67 -80 212 -80q85 0 143 20.5t95 67.5q73 92 73 335z" />
    <glyph glyph-name="four.fitted" horiz-adv-x="740" 
d="M259 1521l-208 -1131v-135h367v-255h178v255h92v184h-92v397h-178v-397h-172l200 1082h-187z" />
    <glyph glyph-name="five.fitted" horiz-adv-x="740" 
d="M661 521q0 143 -10.5 234.5t-35.5 146.5q-26 56 -71.5 81t-119.5 25q-51 0 -96 -19q-53 -22 -76 -67l13 415h353v184h-533l-18 -847h182v20q0 20 3 37.5t9 33t15 27.5t21.5 20.5t29 13t35.5 4.5q64 0 89 -48q25 -50 25 -183v-219q0 -112 -16 -154q-25 -61 -97 -61
q-58 0 -85.5 36.5t-27.5 116.5v132h-183v-128q0 -166 70 -251q74 -89 229 -89q79 0 132 18t88 64q75 99 75 368v89z" />
    <glyph glyph-name="six.fitted" horiz-adv-x="740" 
d="M75 385q0 -194 51 -285q66 -118 244 -118q176 0 243 114q29 50 40 119t11 166v222q0 98 -7 164.5t-29 113.5q-53 111 -207 111q-121 -1 -163 -109v255q0 122 16 164q21 55 92 55q69 0 91 -53q14 -36 14 -123v-97h182v96q0 164 -49 247q-66 113 -236 113q-173 0 -241 -118
q-52 -90 -52 -288v-749zM378 808q71 0 92 -62q12 -40 12 -156v-196q0 -126 -14 -166q-22 -63 -98 -63q-79 0 -100 72q-6 20 -9 51t-3 47.5v62.5v165q0 125 19 177q25 68 101 68z" />
    <glyph glyph-name="seven.fitted" horiz-adv-x="740" 
d="M686 1374v147h-633v-369h169v185h269l-296 -1337h193z" />
    <glyph glyph-name="eight.fitted" horiz-adv-x="740" 
d="M85 1064q0 -103 21.5 -171t74.5 -106q-59 -39 -83 -115q-22 -72 -22 -194v-119q0 -185 57 -272q67 -105 237 -105q168 0 237 104q57 85 57 274v135q0 107 -25 179.5t-86 111.5q57 40 82 114q21 66 21 161v109q0 182 -50 265q-65 105 -236 105q-169 0 -234 -105
q-51 -81 -51 -264v-107zM370 881q-68 0 -90 48q-13 29 -13 116v118q0 108 13 142q18 52 90 52q71 0 91 -53q12 -34 12 -142v-118q0 -84 -13 -115q-22 -48 -90 -48zM370 697q73 0 97 -56q16 -37 16 -140v-133q0 -114 -19 -153q-24 -50 -94 -50q-75 0 -97 61q-14 38 -14 151
v123q0 103 16 141q24 56 95 56z" />
    <glyph glyph-name="nine.fitted" horiz-adv-x="740" 
d="M660 1128q0 199 -51 291q-68 122 -244 122q-174 0 -242 -121q-53 -96 -53 -293v-182q0 -98 7.5 -168.5t30.5 -122.5q52 -123 207 -123q64 0 103 28.5t60 84.5v-257q0 -126 -16 -164q-23 -57 -96 -57q-67 0 -88 53q-14 34 -14 122v98h-182v-92q0 -166 48 -249
q67 -115 236 -115q175 0 243 118q29 51 40 121t11 167v739zM358 714q-71 0 -90 68q-14 45 -14 161v186q0 44 0.5 66.5t4 51.5t10.5 48q12 32 34 47.5t62 15.5q80 0 101 -69q12 -39 12 -159v-208q-2 -109 -23 -153q-26 -55 -97 -55z" />
    <glyph glyph-name="a.end" horiz-adv-x="784" 
d="M677 0v1202h-179v-89q-44 108 -157 108q-154 0 -213 -123q-44 -92 -44 -283v-426q0 -200 44 -289q58 -118 211 -118q63 0 100.5 27.5t58.5 81.5v-91h179zM382 162q-77 0 -100 58q-18 42 -18 162v441q0 118 17 159q23 60 101 60q63 0 90 -45q21 -36 26 -122v-553
q-5 -81 -26 -115q-27 -45 -90 -45z" />
    <glyph glyph-name="i.trk" horiz-adv-x="394" 
d="M82 1478q0 -48 26 -71.5t80 -23.5q38 0 62 10.5t35 31.5t11 53q0 49 -26 73.5t-82 24.5q-106 0 -106 -98zM280 0v1202h-180v-1202h180z" />
    </font>
</defs>
</svg>
