<?xml version="1.0" standalone="no"?>
<!DOCTYPE svg PUBLIC "-//W3C//DTD SVG 1.1//EN" "http://www.w3.org/Graphics/SVG/1.1/DTD/svg11.dtd" >
<svg xmlns="http://www.w3.org/2000/svg" xmlns:xlink="http://www.w3.org/1999/xlink" version="1.1">
<metadata>
Created by FontForge 20170731 at Wed Apr  4 15:07:54 2018
 By Aleksey,,,
Copyright (c) 2017 by Studio Kmzero &#38; Zetafonts. All rights reserved.
</metadata>
<defs>
<font id="HeadingProCompressed-Bold" horiz-adv-x="760" >
  <font-face 
    font-family="Heading Pro Compressed"
    font-weight="600"
    font-stretch="normal"
    units-per-em="2048"
    panose-1="0 0 7 0 0 0 0 0 0 0"
    ascent="1638"
    descent="-410"
    x-height="1202"
    cap-height="1521"
    bbox="-266 -918 1881 1990"
    underline-thickness="102"
    underline-position="-409"
    unicode-range="U+000D-FB06"
  />
<missing-glyph horiz-adv-x="1252" 
 />
    <glyph glyph-name="ff" unicode="ff" horiz-adv-x="1057" 
d="M-9 986h114v-986h222v986h302v-986h223v986h189v217h-189v8q0 100 13 138q14 40 56 40q45 0 86 -15q22 -9 49 -27l13 195q-82 67 -185 67q-149 0 -207 -109q-48 -90 -48 -289v-8h-302v8q0 97 14 138q14 40 56 40q45 0 86 -15q22 -9 49 -27l13 195q-82 67 -185 67
q-149 0 -207 -109q-48 -90 -48 -289v-8h-114v-217z" />
    <glyph glyph-name="fi" unicode="fi" horiz-adv-x="903" 
d="M-6 986h113v-986h222v986h264v-986h222v1203h-486v8q0 97 14 138q14 40 57 40q69 0 126 -34l12 195q-20 17 -46.5 30t-60.5 21t-69 8q-150 0 -207 -109q-48 -90 -48 -289v-8h-113v-217zM573 1462q0 -60 31.5 -88t97.5 -28q28 0 49 4.5t36.5 13.5t25.5 23t15 32.5t5 42.5
q0 60 -31 88t-100 28q-66 0 -97.5 -28t-31.5 -88z" />
    <glyph glyph-name="fl" unicode="fl" horiz-adv-x="920" 
d="M831 0v1537q-34 29 -139 60q-122 36 -229 36q-215 0 -295 -121q-18 -28 -30.5 -61.5t-19 -73t-9 -79t-2.5 -87.5v-8h-113v-217h113v-986h222v986h190v217h-190v8q0 114 22 155q32 59 133 59q49 0 127 -16v-1409h220z" />
    <glyph glyph-name="ffi" unicode="ffi" horiz-adv-x="1440" 
d="M-9 986h114v-986h222v986h302v-986h223v986h281v-986h221v1202h-207v1h-295v8q0 100 13 138q14 40 56 40q45 0 86 -15q22 -9 49 -27l13 195q-82 67 -185 67q-149 0 -207 -109q-48 -90 -48 -289v-8h-302v8q0 97 14 138q14 40 56 40q45 0 86 -15q22 -9 49 -27l13 195
q-82 67 -185 67q-149 0 -207 -109q-48 -90 -48 -289v-8h-114v-217zM1113 1462q0 -60 31.5 -88t98.5 -28q69 0 100 28t31 88t-31 88t-100 28q-67 0 -98.5 -28t-31.5 -88z" />
    <glyph glyph-name="ffl" unicode="ffl" horiz-adv-x="1453" 
d="M1140 1568h221v-1568h-221v986h-288v-986h-223v986h-302v-986h-222v986h-114v217h114v8q0 199 48 289q58 109 207 109q103 0 185 -67l-13 -195q-27 18 -49 27q-41 15 -86 15q-42 0 -56 -40q-14 -41 -14 -138v-8h302v8q0 199 48 289q58 109 207 109q103 0 185 -67
l-13 -195q-27 18 -49 27q-41 15 -86 15q-42 0 -56 -40q-13 -38 -13 -138v-8h288v365z" />
    <glyph glyph-name="f_t" unicode="ft" horiz-adv-x="1086" 
d="M640 1589v-386h-313v8q0 97 14 138q14 40 56 40q45 0 86 -15q22 -9 49 -27l13 195q-82 67 -185 67q-149 0 -207 -109q-48 -90 -48 -289v-8h-114v-217h114v-986h222v986h313v-608q0 -200 48 -289q57 -109 206 -109q104 0 186 67l-13 195q-26 -17 -50 -26q-39 -16 -85 -16
q-42 0 -56 41q-14 39 -14 137v608h190v217h-190v386h-222z" />
    <glyph glyph-name="f_f_j" unicode="ffj" horiz-adv-x="1442" 
d="M-9 986h114v-986h222v986h302v-986h223v986h282v-995q0 -101 -13 -137q-14 -41 -57 -41q-46 0 -85 16q-24 9 -50 26l-13 -195q82 -67 185 -67q149 0 207 109q48 90 48 289v1211h-206v1h-298v8q0 100 13 138q14 40 56 40q45 0 86 -15q22 -9 49 -27l13 195q-82 67 -185 67
q-149 0 -207 -109q-48 -90 -48 -289v-8h-302v8q0 97 14 138q14 40 56 40q45 0 86 -15q22 -9 49 -27l13 195q-82 67 -185 67q-149 0 -207 -109q-48 -90 -48 -289v-8h-114v-217zM1114 1462q0 -60 31 -88t98 -28q69 0 100 28t31 88t-31 88t-100 28q-67 0 -98 -28t-31 -88z" />
    <glyph glyph-name="f_j" unicode="fj" horiz-adv-x="918" 
d="M-9 986h114v-986h222v986h283v-995q0 -101 -13 -137q-14 -41 -57 -41q-45 0 -84 16q-26 10 -51 26l-13 -195q82 -67 185 -67q149 0 207 109q48 90 48 289v1211h-173v1h-332v8q0 97 14 138q14 40 56 40q45 0 86 -15q22 -9 49 -27l13 195q-82 67 -185 67q-149 0 -207 -109
q-48 -90 -48 -289v-8h-114v-217zM589 1462q0 -60 31.5 -88t98.5 -28q69 0 100 28t31 88t-31 88t-100 28q-67 0 -98.5 -28t-31.5 -88z" />
    <glyph glyph-name=".notdef" horiz-adv-x="1252" 
 />
    <glyph glyph-name=".null" horiz-adv-x="0" 
 />
    <glyph glyph-name="uni000D" unicode="&#xd;" horiz-adv-x="314" 
 />
    <glyph glyph-name="NULL" horiz-adv-x="0" 
 />
    <glyph glyph-name="NULL" horiz-adv-x="0" 
 />
    <glyph glyph-name="space" unicode=" " horiz-adv-x="314" 
 />
    <glyph glyph-name="exclam" unicode="!" horiz-adv-x="412" 
d="M302 399l31 1122h-256l34 -1122h191zM74 109q0 -66 31.5 -97.5t98.5 -31.5q69 0 100.5 31.5t31.5 97.5q0 68 -31.5 99.5t-100.5 31.5q-67 0 -98.5 -31.5t-31.5 -99.5z" />
    <glyph glyph-name="quotedbl" unicode="&#x22;" horiz-adv-x="591" 
d="M240 1097l18 424h-202l16 -424h168zM515 1097l18 424h-203l18 -424h167z" />
    <glyph glyph-name="numbersign" unicode="#" horiz-adv-x="750" 
d="M682 598h-90l39 369h96l8 154h-88l42 403h-184l-41 -403h-109l42 403h-184l-41 -403h-90l-8 -154h82l-38 -369h-90l-7 -154h82l-45 -444h180l46 444h110l-45 -444h181l46 444h97zM339 967h109l-38 -369h-110z" />
    <glyph glyph-name="dollar" unicode="$" horiz-adv-x="742" 
d="M690 419q-8 150 -49 244q-49 109 -166 192l-108 75q-84 59 -86 197l-1 29q0 76 20 113q24 44 71 44q48 0 70 -38q19 -34 19 -101v-96l226 -1v84q0 159 -51 250t-158 119v110h-225v-115q-197 -63 -197 -360v-27q0 -158 35 -238q40 -93 165 -189l123 -93q53 -38 72 -96
q15 -46 15 -140v-12q0 -76 -21 -115q-26 -45 -79 -45q-56 0 -78 43q-19 36 -19 127v72h-226v-74q0 -166 46 -255q52 -102 164 -130v-112h225v112q225 60 214 376z" />
    <glyph glyph-name="percent" unicode="%" horiz-adv-x="1405" 
d="M62 917q0 -165 52 -238q58 -81 198 -81q145 0 201 91q47 77 47 256v250q0 177 -47 254q-55 90 -201 90t-202 -90q-48 -77 -48 -254v-278zM995 1521h-213l-367 -1521h213zM312 785q-35 0 -46 39q-12 38 -12 117v257q0 79 11 118q10 37 47 37q36 0 47 -38q10 -36 10 -117
v-285q0 -72 -13 -99q-14 -29 -44 -29zM845 293q0 -166 52 -238q59 -82 199 -82q145 0 201 91q47 77 47 257v249q0 177 -47 254q-56 90 -201 90q-147 0 -203 -90q-48 -77 -48 -254v-277zM1096 161q-37 0 -47 39q-12 38 -12 117v256q0 79 11 118q11 38 48 38q35 0 46 -38
q10 -37 10 -119v-283q0 -71 -13 -99q-14 -29 -43 -29z" />
    <glyph glyph-name="ampersand" unicode="&#x26;" horiz-adv-x="803" 
d="M714 1017l-225 1v-115h-86q-55 0 -78 38.5t-21 122.5l1 92q0 70 23 107q23 40 74 40h176l-1 218h-182q-163 0 -242 -91q-75 -87 -75 -255v-89q0 -121 28 -190.5t87 -90.5q-60 -20 -93.5 -89.5t-33.5 -176.5v-151q0 -192 69 -291q80 -117 255 -117t256 118q68 99 68 290
v301h64v213h-64v115zM292 482l1 57q0 66 23 105q25 43 77 43h96v-282q0 -92 -18 -135q-25 -60 -83 -60q-53 0 -77 55q-19 43 -19 141v76z" />
    <glyph glyph-name="quotesingle" unicode="'" horiz-adv-x="314" 
d="M240 1097l18 424h-202l16 -424h168z" />
    <glyph glyph-name="parenleft" unicode="(" horiz-adv-x="466" 
d="M411 -105v211h-14q-62 0 -86 62q-16 41 -16 119v938q0 40 4 68q5 51 25 82q25 39 73 39h14v210h-14q-148 0 -227 -76q-62 -60 -84 -166q-12 -60 -12 -160v-924q0 -109 14 -173q20 -102 85 -160q78 -70 224 -70h14z" />
    <glyph glyph-name="parenright" unicode=")" horiz-adv-x="462" 
d="M63 -105q146 0 224 70q64 57 86 160q13 64 13 173v924q0 100 -12 160q-22 106 -84 166q-79 76 -227 76h-14v-210h14q48 0 73 -39q18 -30 26 -82q3 -28 3 -68v-938q0 -80 -15 -119q-24 -62 -87 -62h-14v-211h14z" />
    <glyph glyph-name="asterisk" unicode="*" horiz-adv-x="745" 
d="M457 1521h-171l18 -271l-212 99l-53 -171l228 -66l-154 -213l137 -105l121 225l121 -227l137 108l-154 211l227 66l-52 173l-213 -101z" />
    <glyph glyph-name="plus" unicode="+" horiz-adv-x="717" 
d="M261 373h196v227h188v207h-188v226h-196v-226h-190v-207h190v-227z" />
    <glyph glyph-name="comma" unicode="," horiz-adv-x="375" 
d="M61 109q0 -65 29.5 -97t91.5 -32q-7 -51 -19 -83q-16 -41 -48 -86l99 -61q48 53 76 127q34 94 34 206q0 157 -134 157q-44 0 -72.5 -14t-42.5 -42.5t-14 -74.5z" />
    <glyph glyph-name="hyphen" unicode="-" horiz-adv-x="574" 
d="M528 487v207h-490v-207h490z" />
    <glyph glyph-name="period" unicode="." horiz-adv-x="387" 
d="M61 109q0 -66 31.5 -97.5t97.5 -31.5q47 0 76.5 14t43.5 42.5t14 72.5q0 34 -8 58.5t-24.5 41t-41.5 24t-60 7.5q-44 0 -72.5 -14t-42.5 -42.5t-14 -74.5z" />
    <glyph glyph-name="slash" unicode="/" horiz-adv-x="600" 
d="M592 1599h-219l-366 -1679h218z" />
    <glyph glyph-name="zero" unicode="0" horiz-adv-x="756" 
d="M68 384q0 -194 60 -288q74 -116 251 -116q173 0 248 112q62 92 62 286v767q0 190 -62 284q-75 113 -248 113q-176 0 -251 -115q-60 -94 -60 -283v-760zM379 1313q55 0 74 -44q12 -31 12 -118v-780q0 -90 -12 -119q-18 -42 -74 -42q-57 0 -74 46q-11 29 -11 120v767
q0 95 12 124q17 46 73 46z" />
    <glyph glyph-name="one" unicode="1" horiz-adv-x="491" 
d="M407 0v1524h-180q-44 -68 -89 -111q-59 -56 -138 -76v-221q61 13 105 34q59 28 82 66v-1216h220z" />
    <glyph glyph-name="two" unicode="2" horiz-adv-x="756" 
d="M687 0v229h-349q36 125 134 313q8 16 26 50t28 53t25.5 50t26.5 53.5t23.5 50.5t23.5 53q72 176 72 331q0 192 -76 278q-75 84 -233 84q-162 0 -238 -86.5t-76 -258.5v-160h226v137q0 69 15 99q18 37 69 37q50 0 68.5 -30.5t18.5 -101.5q0 -82 -25 -160
q-43 -140 -150 -323q-53 -90 -92 -162q-107 -197 -132 -328v-208h615z" />
    <glyph glyph-name="three" unicode="3" horiz-adv-x="757" 
d="M693 396q0 163 -25 254q-32 108 -107 135q66 29 94 109q28 81 28 264q0 161 -51 255q-42 78 -118 108q-52 21 -133 21q-163 0 -238 -88q-74 -87 -74 -280v-113h227v117q0 72 17.5 104t64.5 31q26 0 41 -7.5t24 -27.5q15 -34 15 -147v-39q0 -114 -22 -158q-20 -41 -67 -41
l-81 -3v-218l73 -2q52 0 78 -31q29 -37 29 -120v-139q0 -104 -22 -139q-20 -31 -70 -31q-46 0 -65 26q-25 30 -25 108v116h-225v-111q0 -201 80 -289q73 -80 222 -80q87 0 147.5 19t100.5 65q82 94 82 332z" />
    <glyph glyph-name="four" unicode="4" horiz-adv-x="792" 
d="M253 1521l-192 -1120v-162h368v-239h219v239h79v229h-79v325h-219v-325h-124l181 1053h-233z" />
    <glyph glyph-name="five" unicode="5" horiz-adv-x="771" 
d="M702 517q0 74 -1.5 128.5t-6 105t-12.5 89t-20 67.5q-25 60 -71 87t-122 27q-53 0 -96 -18q-47 -21 -70 -62l12 350h343v230h-565l-18 -847h225v15q0 51 19 80q21 32 67 32q51 0 69 -39t18 -136v-257q0 -80 -12 -112q-18 -47 -74 -47q-14 0 -25.5 2.5t-21.5 8.5t-17 15
t-12 21.5t-7.5 29.5t-2.5 38v144h-226v-139q0 -172 73 -258q78 -92 243 -92q83 0 139.5 19t93.5 66q78 99 78 374v78z" />
    <glyph glyph-name="six" unicode="6" horiz-adv-x="750" 
d="M66 374q0 -190 59 -282q72 -112 251 -112t252 109q59 87 59 283v242q0 99 -7.5 165.5t-30.5 113.5q-52 107 -209 107q-56 -1 -91.5 -27t-56.5 -78v246q0 100 12 131q16 41 68 41t68 -39q10 -25 10 -104v-91h225v97q0 172 -55 258q-71 108 -245 108q-178 0 -250 -113
q-59 -93 -59 -286v-769zM382 770q56 0 71 -46q9 -27 9 -126v-209q0 -100 -11 -131q-17 -48 -75 -48q-59 0 -75 53q-9 30 -9 129v188q0 101 14 140q19 50 76 50z" />
    <glyph glyph-name="seven" unicode="7" horiz-adv-x="754" 
d="M704 1340v181h-652v-402h208v172h203l-287 -1291h238z" />
    <glyph glyph-name="eight" unicode="8" horiz-adv-x="729" 
d="M62 1068q0 -105 21.5 -173t71.5 -108q-55 -37 -78 -109t-23 -193v-124q0 -189 63 -277q73 -104 248 -104q174 0 248 104q63 88 63 278v135q0 106 -25.5 177.5t-84.5 111.5q103 77 103 279v101q0 185 -58 272q-71 104 -246 104t-244 -104q-59 -87 -59 -271v-99zM365 904
q-52 0 -67 37q-10 24 -10 100v115q0 89 9 116q14 41 68 41q55 0 69 -42q9 -28 9 -116v-114q0 -76 -10 -100q-15 -37 -68 -37zM365 675q55 0 74 -42q13 -30 13 -117v-144q0 -88 -15 -122q-18 -40 -72 -40q-57 0 -75 50q-10 28 -10 125v131q0 87 13 117q17 42 72 42z" />
    <glyph glyph-name="nine" unicode="9" horiz-adv-x="725" 
d="M672 1139q0 196 -59 288q-74 116 -252 116t-251 -115q-60 -95 -60 -290v-209q0 -204 40 -289q54 -116 210 -116q104 0 147 102v-244q0 -100 -12 -131q-16 -41 -73 -41q-46 0 -62 38q-12 29 -12 103v93h-225v-90q0 -175 55 -262q70 -111 244 -111q179 0 251 113
q59 91 59 286v759zM357 753q-53 0 -70 50q-11 31 -11 129v202q0 97 12 132q17 48 73 48q61 0 77 -52q9 -29 9 -127v-228q-2 -82 -18 -115q-20 -39 -72 -39z" />
    <glyph glyph-name="colon" unicode=":" horiz-adv-x="364" 
d="M49 1089q0 -66 31.5 -97.5t97.5 -31.5q47 0 76.5 14t43.5 42.5t14 72.5q0 68 -32 99.5t-102 31.5q-66 0 -97.5 -31.5t-31.5 -99.5zM49 109q0 -66 31.5 -97.5t97.5 -31.5q69 0 101.5 31.5t32.5 97.5q0 34 -8 58.5t-24.5 41t-41.5 24t-60 7.5q-44 0 -72.5 -14t-42.5 -42.5
t-14 -74.5z" />
    <glyph glyph-name="semicolon" unicode=";" horiz-adv-x="364" 
d="M50 1089q0 -66 31.5 -97.5t97.5 -31.5q47 0 76.5 14t43.5 42.5t14 72.5q0 68 -32 99.5t-102 31.5q-66 0 -97.5 -31.5t-31.5 -99.5zM50 109q0 -65 29.5 -97t91.5 -32q-7 -51 -19 -83q-16 -41 -48 -86l99 -61q48 53 76 127q34 94 34 206q0 157 -134 157q-44 0 -72.5 -14
t-42.5 -42.5t-14 -74.5z" />
    <glyph glyph-name="less" unicode="&#x3c;" horiz-adv-x="635" 
d="M562 210v255l-283 237l283 238v255l-519 -402v-181z" />
    <glyph glyph-name="equal" unicode="=" horiz-adv-x="717" 
d="M645 802v207h-574v-207h574zM645 398v207h-574v-207h574z" />
    <glyph glyph-name="greater" unicode="&#x3e;" horiz-adv-x="635" 
d="M592 612v181l-519 402v-255l283 -238l-283 -237v-255z" />
    <glyph glyph-name="question" unicode="?" horiz-adv-x="745" 
d="M674 1146q0 206 -83 305q-75 89 -226 89q-166 0 -239 -108q-61 -92 -59 -270l1 -86h217l3 112q2 59 18 88q20 33 62 33q46 0 63 -39t17 -122q0 -58 -14 -111q-23 -83 -79 -193q-26 -52 -44 -102q-47 -122 -46 -258l1 -85h193l1 82q2 57 17 102q24 71 92 191q27 49 51 105
q54 131 54 267zM230 109q0 -66 31.5 -97.5t98.5 -31.5q69 0 101 31.5t32 97.5q0 68 -32 99.5t-101 31.5q-67 0 -98.5 -31.5t-31.5 -99.5z" />
    <glyph glyph-name="at" unicode="@" horiz-adv-x="1086" 
d="M974 -54h-334q-88 0 -155 35q-89 46 -137 144q-60 117 -60 308v410q0 256 65 373q67 119 217 119q98 0 151.5 -76t56.5 -224q-38 110 -126 110q-130 0 -182 -109q-42 -87 -42 -261v-290q0 -172 43 -259q52 -110 182 -110q87 0 125 106v-88h197v889q-2 230 -94 366
q-105 152 -311 152q-228 0 -345 -149q-136 -173 -136 -548v-411q0 -359 149 -530q137 -159 402 -159h334v202zM702 317q-48 0 -64 52q-11 34 -11 112v296q0 78 12 114q17 50 63 50q47 0 65 -63q11 -41 11 -124v-250q0 -84 -11 -124q-17 -63 -65 -63z" />
    <glyph glyph-name="A" unicode="A" horiz-adv-x="743" 
d="M235 0l31 269h215l31 -269h227l-215 1522h-301l-216 -1522h228zM373 1200l83 -714h-165z" />
    <glyph glyph-name="B" unicode="B" horiz-adv-x="815" 
d="M747 533q0 113 -45 185q-39 59 -102 80q61 19 99 101q37 80 37 201v54q0 183 -70 269q-79 98 -254 98h-316v-1520h327q167 0 244 86q80 89 80 296v150zM510 1075q0 -95 -15 -127q-20 -45 -82 -45h-91v400h90q54 0 76 -33q21 -34 21 -115zM522 390q0 -92 -24 -128
q-23 -32 -76 -32h-100v457h85q67 0 92 -42q22 -39 22 -126z" />
    <glyph glyph-name="C" unicode="C" horiz-adv-x="776" 
d="M487 482v-132q0 -80 -17 -113q-21 -42 -78 -42q-61 0 -80 48q-16 37 -16 122v788q0 85 16 118q20 42 79 42q60 0 80 -42q16 -33 16 -111v-119h227v121q0 178 -65 270q-79 110 -257 110q-180 0 -256 -108q-66 -92 -66 -282v-789q0 -186 65 -277q75 -106 256 -106
q179 0 257 103q66 88 66 265v134h-227z" />
    <glyph glyph-name="D" unicode="D" horiz-adv-x="803" 
d="M96 1521v-1521h317q178 0 255 108q66 92 66 283v739q0 191 -65 283q-78 108 -254 108h-319zM411 1291q56 0 77 -34q21 -35 21 -125v-738q0 -91 -19 -126q-20 -37 -75 -39h-94v1062h90z" />
    <glyph glyph-name="E" unicode="E" horiz-adv-x="736" 
d="M662 0v229h-340v430h281v230h-281v402h340v230h-566v-1521h566z" />
    <glyph glyph-name="F" unicode="F" horiz-adv-x="714" 
d="M660 1291v230h-564v-1521h226v617h275v229h-275v445h338z" />
    <glyph glyph-name="G" unicode="G" horiz-adv-x="781" 
d="M385 590h102v-233q0 -77 -18 -109q-21 -38 -78 -38q-62 0 -80 43q-16 33 -16 115v797q0 76 19 110q21 38 77 38q58 0 80 -41q16 -30 16 -111v-120h227v123q0 178 -66 270q-79 108 -257 108q-180 0 -256 -107q-66 -93 -66 -282v-786q0 -187 66 -279q76 -108 256 -108
q178 0 256 106q67 92 67 269v462h-329v-227z" />
    <glyph glyph-name="H" unicode="H" horiz-adv-x="860" 
d="M322 0v652h216v-652h226v1521h-226v-639h-216v639h-226v-1521h226z" />
    <glyph glyph-name="I" unicode="I" horiz-adv-x="420" 
d="M323 0v1521h-226v-1521h226z" />
    <glyph glyph-name="J" unicode="J" horiz-adv-x="583" 
d="M102 1291h164v-911q0 -92 -19 -129q-20 -39 -74 -39q-39 0 -60.5 7t-42.5 24l-63 -203q63 -57 166 -57q176 0 253 107q65 92 65 283v1148h-389v-230z" />
    <glyph glyph-name="K" unicode="K" horiz-adv-x="816" 
d="M322 0v652h72l184 -652h241l-226 777l211 744h-241l-175 -639h-66v639h-226v-1521h226z" />
    <glyph glyph-name="L" unicode="L" horiz-adv-x="656" 
d="M646 0v227h-325v1294h-225v-1521h550z" />
    <glyph glyph-name="M" unicode="M" horiz-adv-x="1082" 
d="M447 190h190l174 1002l-18 -285l-14 -907h206v1521h-285l-139 -729l-19 -179l-19 178l-139 730h-287v-1521h206l-15 906l-19 305z" />
    <glyph glyph-name="N" unicode="N" horiz-adv-x="860" 
d="M309 0l-12 907l-19 176l283 -1083h241l1 1521h-213l12 -897l29 -250l-273 1147h-262v-1521h213z" />
    <glyph glyph-name="O" unicode="O" horiz-adv-x="780" 
d="M67 371q0 -189 66 -281q76 -110 257 -110q180 0 257 109q66 92 66 282v780q0 189 -65 282q-79 109 -258 109t-257 -108q-66 -93 -66 -283v-780zM390 1313q61 0 81 -44q15 -36 15 -119v-778q0 -85 -16 -120q-20 -43 -80 -43q-62 0 -81 45q-16 34 -16 118v778q0 86 17 120
q21 43 80 43z" />
    <glyph glyph-name="P" unicode="P" horiz-adv-x="784" 
d="M729 1149q0 202 -86 291q-78 81 -239 81h-308v-1521h227v524h72q170 0 247 80q87 92 87 301v244zM504 944q0 -100 -14 -137q-21 -54 -88 -54h-79v538h75q62 0 85 -36q21 -33 21 -122v-189z" />
    <glyph glyph-name="Q" unicode="Q" horiz-adv-x="780" 
d="M299 -132h198v124q119 28 171 131q45 91 45 248v780q0 189 -65 282q-79 109 -258 109t-257 -108q-66 -93 -66 -283v-780q0 -164 48 -253q55 -106 184 -130v-120zM390 1313q61 0 81 -44q15 -36 15 -119v-778q0 -86 -16 -120q-20 -43 -80 -43q-62 0 -81 45q-16 34 -16 118
v778q0 86 17 120q21 43 80 43z" />
    <glyph glyph-name="R" unicode="R" horiz-adv-x="817" 
d="M322 0v588h55q44 2 73 -41q36 -53 43 -157l13 -212q4 -50 21 -111q8 -29 22 -67h234q-10 23 -13 30t-11.5 30.5t-12 38.5t-7.5 38.5t-5 47.5l-14 210q-7 115 -30 172q-19 47 -72 92q127 100 127 277v204q0 206 -80 296q-77 85 -244 85h-325v-1521h226zM519 969
q0 -71 -18 -106q-23 -45 -72 -45h-107v473h94q55 0 77 -30q26 -37 26 -128v-164z" />
    <glyph glyph-name="S" unicode="S" horiz-adv-x="767" 
d="M696 397q-5 309 -216 458l-108 75q-43 30 -63.5 83.5t-21.5 116.5l-1 42q-5 141 92 141q33 0 53 -16t28 -44t8 -70v-142h226v135q0 125 -33.5 206t-102.5 120.5t-176 39.5q-159 0 -237 -84q-83 -89 -83 -276v-27q0 -164 35 -247q41 -102 166 -197l122 -93q51 -38 71 -107
q16 -59 16 -154v-11q0 -70 -23 -103t-77 -33q-55 0 -78 39q-19 33 -19 120v113h-225v-112q0 -197 70 -288q79 -102 255 -102q326 0 323 367z" />
    <glyph glyph-name="T" unicode="T" horiz-adv-x="656" 
d="M653 1291v230h-644v-230h208v-1291h227v1291h209z" />
    <glyph glyph-name="U" unicode="U" horiz-adv-x="812" 
d="M513 1521v-1151q0 -81 -19 -116q-24 -45 -84 -45q-61 0 -87 45q-23 38 -23 116v1151h-225v-1155q0 -187 73 -281q81 -105 262 -105q179 0 259 105q69 91 69 281v1155h-225z" />
    <glyph glyph-name="V" unicode="V" horiz-adv-x="750" 
d="M521 1522l-133 -1067l-14 -210l-14 212l-134 1065h-220l218 -1522h300l218 1522h-221z" />
    <glyph glyph-name="W" unicode="W" horiz-adv-x="1159" 
d="M899 1522l-78 -926l-15 -239l-17 239l-86 926h-249l-84 -926l-18 -246l-15 246l-79 926h-228l168 -1522h269l99 804l12 160l13 -159l100 -805h267l169 1522h-228z" />
    <glyph glyph-name="X" unicode="X" horiz-adv-x="798" 
d="M793 0l-245 787l228 734h-247l-127 -491l-128 491h-248l222 -733l-243 -788h250l139 547l148 -547h251z" />
    <glyph glyph-name="Y" unicode="Y" horiz-adv-x="751" 
d="M748 1521h-222l-143 -638l-131 638h-248l264 -965v-556h226v556z" />
    <glyph glyph-name="Z" unicode="Z" horiz-adv-x="690" 
d="M643 0v229h-347l346 1093v199h-580v-230h323l-337 -1077v-214h595z" />
    <glyph glyph-name="bracketleft" unicode="[" horiz-adv-x="459" 
d="M411 -105v211h-116v1308h116v210h-337v-1729h337z" />
    <glyph glyph-name="backslash" unicode="\" horiz-adv-x="600" 
d="M374 -80h218l-367 1679h-218z" />
    <glyph glyph-name="bracketright" unicode="]" horiz-adv-x="459" 
d="M386 -105v1729h-337v-210h116v-1308h-116v-211h337z" />
    <glyph glyph-name="asciicircum" unicode="^" horiz-adv-x="901" 
d="M616 1599h-331l-211 -751h228l133 539h30l132 -539h230z" />
    <glyph glyph-name="underscore" unicode="_" horiz-adv-x="727" 
d="M707 -232v192h-687v-192h687z" />
    <glyph glyph-name="grave" unicode="`" horiz-adv-x="372" 
d="M30 1555l153 -274h154l-112 274h-195z" />
    <glyph glyph-name="a" unicode="a" horiz-adv-x="783" 
d="M698 0v854q0 182 -65 269q-76 101 -249 101q-174 0 -247 -98q-62 -84 -62 -255v-67h220v70q0 66 16 93q18 33 74 33q60 0 78 -41q14 -33 14 -120v-167q-65 27 -154 27q-149 0 -208 -91q-49 -76 -49 -250q0 -180 54 -270q62 -108 206 -108q60 0 96.5 29t56.5 93v-102h219z
M380 204q-58 0 -77 43q-16 33 -16 103q0 71 14 106q20 50 75 50q61 0 101 -32v-96q0 -86 -13 -121q-22 -53 -84 -53z" />
    <glyph glyph-name="b" unicode="b" horiz-adv-x="791" 
d="M316 0v88q40 -108 149 -108q151 0 209 112q48 92 48 287v446q0 186 -49 279q-62 118 -210 118q-39 0 -68 -13t-47.5 -35.5t-31.5 -57.5v452h-220v-1568h220zM409 1000q59 0 78 -44q13 -31 13 -120v-467q0 -87 -14 -120q-18 -43 -77 -43q-60 0 -79 50q-13 34 -13 123v446
q0 90 14 126q19 49 78 49z" />
    <glyph glyph-name="c" unicode="c" horiz-adv-x="756" 
d="M474 354q0 -74 -15 -105q-21 -43 -78 -43q-50 0 -71 30q-19 28 -21 79q-2 47 0 96v98v326q0 88 14 122q18 43 78 43q57 0 79 -45q14 -33 14 -104v-47h220v44q0 178 -61 266q-76 110 -252 110q-173 0 -248 -94q-64 -82 -66 -262v-496q0 -191 62 -282q75 -110 254 -110
q178 0 252 109q59 86 59 267v43h-220v-45z" />
    <glyph glyph-name="d" unicode="d" horiz-adv-x="791" 
d="M691 0v1568h-221v-451q-40 105 -146 105q-148 0 -210 -118q-50 -95 -50 -279v-446q0 -195 48 -287q58 -112 209 -112q109 0 149 108v-88h221zM378 206q-60 0 -78 43q-14 33 -14 120v467q0 86 14 120q19 44 78 44q57 0 78 -49q14 -36 14 -126v-446q0 -87 -14 -123
q-19 -50 -78 -50z" />
    <glyph glyph-name="e" unicode="e" 
d="M474 406v-45q0 -79 -15 -111q-20 -44 -79 -44q-61 0 -79 43q-15 32 -15 117v111l407 92v272q0 183 -60 273q-74 110 -253 110t-252 -106q-61 -88 -61 -280v-470q0 -190 62 -280q75 -108 254 -108q178 0 251 110q59 87 59 273v43h-219zM380 1000q59 0 80 -46
q14 -33 14 -110v-119l-188 -46v162q0 87 15 118q20 41 79 41z" />
    <glyph glyph-name="f" unicode="f" horiz-adv-x="510" 
d="M525 1564q-33 17 -72 30q-54 15 -91 15q-149 0 -207 -109q-48 -90 -48 -289v-8h-93v-217h93v-986h222v986h140v217h-140v8q0 101 14 138q16 40 57 40q35 0 86 -17z" />
    <glyph glyph-name="g" unicode="g" horiz-adv-x="769" 
d="M458 1202v-87q-40 108 -148 108q-150 0 -209 -115q-48 -95 -48 -290v-433q0 -193 50 -288q61 -117 210 -117q105 0 145 110v-99q0 -97 -24 -137q-24 -41 -68 -41q-57 0 -116 8q-56 6 -89 21l-13 -196q86 -53 256 -53q152 0 218 109q58 95 58 289v1211h-222zM366 204
q-59 0 -78 45q-14 33 -14 118v467q0 89 15 121q18 43 77 43q54 0 75 -51q15 -39 17 -117v-435q0 -93 -14 -134q-20 -57 -78 -57z" />
    <glyph glyph-name="h" unicode="h" horiz-adv-x="792" 
d="M711 0v821q0 194 -49 287q-61 114 -205 114q-115 0 -150 -102v448h-221v-1568h221v830q0 87 16 123q21 45 76 45q60 0 78 -41q13 -29 13 -115v-842h221z" />
    <glyph glyph-name="i" unicode="i" horiz-adv-x="394" 
d="M67 1462q0 -60 31 -88t98 -28q69 0 100 28t31 88t-31 88t-100 28q-67 0 -98 -28t-31 -88zM308 0v1202h-221v-1202h221z" />
    <glyph glyph-name="j" unicode="j" horiz-adv-x="396" 
d="M66 1462q0 -60 31 -88t98 -28q69 0 100 28t31 88t-31 88t-100 28q-67 0 -98 -28t-31 -88zM86 1202v-1211q0 -101 -13 -137q-14 -41 -57 -41q-46 0 -85 16q-24 9 -50 26l-12 -195q82 -67 185 -67q149 0 207 109q47 90 47 289v1211h-222z" />
    <glyph glyph-name="k" unicode="k" horiz-adv-x="765" 
d="M85 1568v-1568h221v491h60l150 -491h245l-220 601l194 601h-224l-141 -482h-64v848h-221z" />
    <glyph glyph-name="l" unicode="l" horiz-adv-x="393" 
d="M307 0v1568h-221v-1568h221z" />
    <glyph glyph-name="m" unicode="m" horiz-adv-x="1199" 
d="M711 0l-2 562l3 262q0 88 16 126q19 48 78 48q60 0 77 -44q11 -29 11 -119v-835h221v808q0 196 -42 293q-53 121 -192 121q-143 0 -213 -124q-52 124 -175 124q-115 0 -186 -114v94h-221v-1202h221v852q0 74 17 107q20 39 75 39q57 0 77 -44q14 -33 14 -117v-837h221z
" />
    <glyph glyph-name="n" unicode="n" horiz-adv-x="792" 
d="M711 0v821q0 194 -49 287q-61 114 -205 114q-117 0 -150 -102v82h-221v-1202h221v830q0 87 16 123q19 45 76 45q60 0 78 -41q13 -29 13 -115v-842h221z" />
    <glyph glyph-name="o" unicode="o" 
d="M66 369q0 -190 63 -280q74 -109 254 -109q178 0 251 108q59 87 59 282v464q0 191 -61 281q-74 109 -252 109q-177 0 -252 -108q-62 -91 -62 -283v-464zM380 1000q59 0 78 -44q13 -30 13 -118v-471q0 -88 -14 -119q-18 -42 -77 -42q-61 0 -79 43q-13 30 -13 117v472
q0 87 14 120q19 42 78 42z" />
    <glyph glyph-name="p" unicode="p" horiz-adv-x="783" 
d="M303 -366v448q40 -102 149 -102q150 0 209 116q48 93 48 290v429q0 197 -48 291q-61 118 -211 118q-58 0 -93 -25.5t-54 -75.5v79h-220v-1568h220zM396 1000q59 0 78 -44q14 -34 14 -120v-467q0 -87 -14 -120q-18 -43 -78 -43t-78 43q-14 31 -14 116v473q0 88 15 120
q18 42 77 42z" />
    <glyph glyph-name="q" unicode="q" horiz-adv-x="778" 
d="M477 -366v448q-40 -102 -149 -102q-150 0 -209 116q-48 93 -48 290v429q0 196 49 291q61 118 210 118q58 0 93 -25.5t54 -75.5v79h220v-1568h-220zM384 1000q-59 0 -78 -44q-14 -34 -14 -120v-467q0 -87 14 -120q18 -43 78 -43t78 43q14 31 14 116v473q0 87 -14 120
q-20 42 -78 42z" />
    <glyph glyph-name="r" unicode="r" horiz-adv-x="531" 
d="M524 1203q-24 19 -64 19l-1 -1v1q-58 0 -94.5 -32t-57.5 -92v104h-221v-1202h221v798q5 194 125 194h1q21 0 36 -4q27 -8 45 -22l10 -6v243z" />
    <glyph glyph-name="s" unicode="s" horiz-adv-x="704" 
d="M658 317q0 86 -28 148q-50 112 -164 201q-43 32 -93 74q-49 40 -74.5 76t-25.5 78q0 45 18 73q20 33 63 33q48 0 67 -44q13 -33 13 -115l217 -1q0 219 -69 304q-35 43 -90.5 61.5t-137.5 18.5q-184 0 -254 -100q-51 -72 -51 -232q0 -83 28 -141q49 -106 161 -189
q55 -43 90 -73q47 -42 72.5 -82t25.5 -89q0 -51 -19 -81.5t-59 -30.5q-57 0 -75 45q-14 35 -14 133h-222q0 -209 61 -299q70 -105 252 -105q170 0 242 85q66 77 66 252z" />
    <glyph glyph-name="t" unicode="t" horiz-adv-x="578" 
d="M125 1479v-276h-109v-217h109v-608q0 -199 48 -289q58 -109 207 -109q103 0 185 67l-13 195q-27 -18 -49 -26q-39 -16 -86 -16q-41 0 -55 41q-14 39 -14 137v608h163v217h-163v276h-223z" />
    <glyph glyph-name="u" unicode="u" horiz-adv-x="795" 
d="M84 1203v-818q0 -195 49 -288q61 -116 210 -116q105 0 145 108v-89h220v1202h-220v-856q-2 -73 -17 -104q-20 -38 -74 -38q-60 0 -79 45q-13 30 -13 118v836h-221z" />
    <glyph glyph-name="v" unicode="v" horiz-adv-x="724" 
d="M488 1203l-127 -935l-126 935h-227l203 -1203h301l205 1203h-229z" />
    <glyph glyph-name="w" unicode="w" horiz-adv-x="1201" 
d="M162 0h342l97 928l97 -928h341l153 1203h-229l-101 -977l-101 977h-320l-102 -979l-101 979h-227z" />
    <glyph glyph-name="x" unicode="x" horiz-adv-x="703" 
d="M698 0l-208 625l197 577h-215l-117 -373l-107 373h-231l197 -577l-209 -625h216l126 407l121 -407h230z" />
    <glyph glyph-name="y" unicode="y" horiz-adv-x="713" 
d="M8 1203l177 -1203h138l-3 -26q-17 -112 -63 -178q-35 -50 -94 -84l96 -164q98 45 168 150q76 117 99 279l58 400q36 247 61 413q26 170 61 413h-228q-60 -488 -113 -903l-9 -62l-120 965h-228z" />
    <glyph glyph-name="z" unicode="z" horiz-adv-x="663" 
d="M609 0v222h-324l324 783v197h-548v-216h302l-327 -788v-198h573z" />
    <glyph glyph-name="braceleft" unicode="{" horiz-adv-x="496" 
d="M16 871v-223q36 -3 57.5 -16t33.5 -39q19 -43 19 -171v-191q0 -189 97 -272q72 -64 180 -64h59v211h-31q-50 0 -68 37q-16 32 -16 111l-4 291q-2 102 -30 152.5t-84 62.5q57 11 85 62.5t30 152.5l3 272q0 90 15 125q16 42 69 42h31v210h-59q-24 0 -59 -5
q-72 -14 -123 -58q-60 -52 -83 -150q-11 -44 -12.5 -110.5t1.5 -106.5q0 -64 -1 -96q0 -127 -19 -171q-12 -27 -33.5 -40t-57.5 -16z" />
    <glyph glyph-name="bar" unicode="|" horiz-adv-x="452" 
d="M334 -82v1685h-226v-1685h226z" />
    <glyph glyph-name="braceright" unicode="}" horiz-adv-x="498" 
d="M480 871q-69 6 -91 56q-19 42 -19 171l1 191q1 187 -96 272q-72 63 -183 63h-58v-210h31q53 0 71 -42q13 -33 13 -125l4 -272q2 -100 30.5 -152t84.5 -63q-58 -12 -86 -62.5t-29 -152.5l-4 -291q0 -79 -16 -111q-18 -37 -68 -37h-31v-211h58q110 0 183 64q98 84 97 272
l-2 191q0 128 19 171q22 49 91 55v223z" />
    <glyph glyph-name="asciitilde" unicode="~" horiz-adv-x="716" 
d="M642 820q-37 -58 -123 -58q-18 0 -42.5 8.5t-36.5 14.5t-47 24q-90 47 -145 47q-120 0 -172 -108l38 -155q36 58 123 58q19 0 42.5 -8t36.5 -15t45 -24q84 -47 143 -47q121 0 176 108z" />
    <glyph glyph-name="exclamdown" unicode="&#xa1;" horiz-adv-x="439" 
d="M342 1105q0 66 -31 97.5t-98 31.5q-46 0 -75 -14t-43 -42.5t-14 -72.5q0 -46 14 -74.5t43 -42.5t75 -14q67 0 98 31.5t31 99.5zM114 815l-31 -1123h256l-34 1123h-191z" />
    <glyph glyph-name="cent" unicode="&#xa2;" horiz-adv-x="769" 
d="M477 354q0 -73 -14 -105q-21 -43 -78 -43q-51 0 -72 30q-18 27 -20 79q-2 63 -1 96v98v326q0 89 15 122q18 43 78 43q58 0 78 -45q14 -33 14 -104v-47h220v44q0 149 -43 236q-51 101 -172 130v163h-197v-163q-117 -22 -168 -114q-46 -84 -46 -232v-496q0 -160 43 -249
q50 -104 171 -132v-158h197v156q122 27 173 129q42 84 42 238v43h-220v-45z" />
    <glyph glyph-name="sterling" unicode="&#xa3;" horiz-adv-x="727" 
d="M42 539h147q4 -30 4 -69q0 -92 -34 -154q-41 -73 -123 -100v-224q11 2 32 4.5t31 3.5q79 9 110 9q50 0 164 -12q112 -12 158 -12q106 0 169 71l-77 193q-28 -25 -61 -35q-25 -7 -64 -7q-20 0 -40 4l-46 6q-61 8 -90 2q33 27 61 102q30 81 30 154q0 33 -3 64h176v213h-215
q-18 71 -31 114q-24 80 -31 108q-32 118 -32 192q0 88 20 126t70 38q44 0 65 -26q37 -48 37 -160q-1 -51 0 -100l210 2q11 258 -52 376q-72 134 -260 134q-171 0 -248 -96q-68 -83 -68 -242q0 -60 9 -118q16 -102 55 -232q25 -88 32 -116h-105v-213z" />
    <glyph glyph-name="currency" unicode="&#xa4;" horiz-adv-x="693" 
d="M106 700q0 -55 18 -103l-75 -82l139 -146l71 79q42 -19 88 -19q45 0 90 20l71 -81l140 147l-78 86q17 49 17 99t-18 101l79 89l-140 146l-74 -84q-42 19 -87 19q-41 0 -85 -18l-74 83l-139 -146l75 -86q-18 -48 -18 -104zM267 700q0 39 24 72q22 30 56 30q35 0 57 -30
q23 -31 23 -72q0 -28 -10.5 -51t-29 -36.5t-40.5 -13.5q-33 0 -56.5 29.5t-23.5 71.5z" />
    <glyph glyph-name="yen" unicode="&#xa5;" horiz-adv-x="781" 
d="M760 1521h-223l-142 -638l-132 638h-248l233 -848h-156v-138h188v-110h-188v-138h188v-287h225v287h192v138h-192v110h192v138h-161z" />
    <glyph glyph-name="brokenbar" unicode="&#xa6;" horiz-adv-x="446" 
d="M334 823v780h-226v-780h226zM108 709v-791h226v791h-226z" />
    <glyph glyph-name="section" unicode="&#xa7;" horiz-adv-x="734" 
d="M54 622q0 -82 29 -142q51 -107 164 -183q49 -35 93 -66q49 -37 74.5 -70.5t25.5 -75.5q0 -46 -17 -76q-22 -36 -64 -36q-45 0 -62 52q-13 39 -13 106l-223 2q0 -213 83 -306q70 -78 215 -78q165 0 239 94q66 86 66 269q0 92 -41 166q-30 54 -98 112q150 63 150 286
q0 84 -28 143q-51 105 -165 182q-49 34 -93 66q-32 24 -52 44t-34 46.5t-14 55.5q0 47 18 76q21 36 64 36q46 0 63 -51q12 -36 12 -107l222 -2q0 214 -83 307q-69 77 -214 77q-167 0 -239 -94q-67 -85 -67 -270q0 -92 41 -166q32 -58 97 -112q-149 -67 -149 -285zM286 652
q0 52 18 81q19 34 61 34q13 0 24 -4q54 -56 54 -116q0 -33 -7.5 -58.5t-25.5 -41.5t-45 -16q-15 0 -25 3q-54 54 -54 118z" />
    <glyph glyph-name="dieresis" unicode="&#xa8;" horiz-adv-x="402" 
d="M-33 1418q0 -113 101 -113q54 0 78.5 27.5t24.5 85.5q0 60 -24.5 87.5t-78.5 27.5q-35 0 -57 -12t-33 -37.5t-11 -65.5zM207 1418q0 -113 101 -113q54 0 78.5 27.5t24.5 85.5q0 60 -24.5 87.5t-78.5 27.5q-34 0 -56.5 -12t-33.5 -37.5t-11 -65.5z" />
    <glyph glyph-name="copyright" unicode="&#xa9;" horiz-adv-x="1299" 
d="M1224 878q0 371 -156 539q-140 150 -417 150q-278 0 -418 -148q-156 -165 -156 -535v-408q0 -373 156 -540q138 -151 417 -151q278 0 417 149q157 168 157 537v407zM650 1384q206 0 298 -120q90 -117 90 -382v-416q0 -262 -89 -378q-92 -120 -298 -120t-299 121
q-90 117 -90 383v417q0 256 91 375q93 120 297 120zM738 486h191v-18q0 -167 -52 -255q-65 -111 -223 -111t-226 119q-55 94 -55 276v285v51q0 33 1 50q0 167 58 257q68 103 220 103q156 0 224 -112q53 -88 53 -255v-18h-191v22q0 75 -13 110q-20 54 -73 54q-55 0 -73 -59
q-14 -42 -14 -135v-250v-89q0 -30 2 -86q6 -60 20 -85q20 -38 65 -38q52 0 72 53q14 36 14 112v19z" />
    <glyph glyph-name="ordfeminine" unicode="&#xaa;" horiz-adv-x="663" 
d="M582 776v745h-193v-89q-38 110 -113 110q-130 0 -176 -90q-38 -75 -38 -254v-123q0 -85 8 -142t30 -95q47 -82 176 -82q75 0 113 115v-95h193zM321 943q-35 0 -51 36q-16 35 -16 115v111q0 82 16 115q15 35 51 35q35 0 50 -35q15 -36 15 -116v-139q0 -67 -17 -96
q-16 -26 -48 -26zM101 510h473v184h-473v-184z" />
    <glyph glyph-name="guillemotleft" unicode="&#xab;" horiz-adv-x="795" 
d="M399 188l-157 402l157 404h-221l-149 -404l149 -402h221zM764 188l-157 402l157 404h-221l-148 -404l148 -402h221z" />
    <glyph glyph-name="logicalnot" unicode="&#xac;" horiz-adv-x="717" 
d="M449 373h196v434h-574v-207h378v-227z" />
    <glyph glyph-name="uni00AD" unicode="&#xad;" horiz-adv-x="616" 
d="M560 -113v207h-490v-207h490z" />
    <glyph glyph-name="registered" unicode="&#xae;" horiz-adv-x="1299" 
d="M1224 878q0 371 -156 539q-140 150 -417 150q-278 0 -418 -148q-156 -165 -156 -535v-408q0 -373 156 -540q138 -151 417 -151q278 0 417 149q157 168 157 537v407zM650 1384q206 0 298 -120q90 -117 90 -382v-416q0 -262 -89 -378q-92 -120 -298 -120t-299 121
q-90 117 -90 383v417q0 256 91 375q93 120 297 120zM377 127v1105h274q145 0 214 -79.5t69 -246.5v-47q0 -81 -31.5 -147.5t-85.5 -113.5q52 -39 72 -84q25 -56 25 -156l2 -231h-192l-5 222q-4 100 -33 140q-22 29 -66 35h-48v-397h-195zM740 909q0 66 -21.5 95t-69.5 29
h-77v-310h76q90 0 92 136v50z" />
    <glyph glyph-name="macron" unicode="&#xaf;" horiz-adv-x="382" 
d="M403 1344v176h-421v-176h421z" />
    <glyph glyph-name="degree" unicode="&#xb0;" horiz-adv-x="417" 
d="M404 1309q0 98 -52 164q-55 70 -146 70q-90 0 -144 -70q-51 -66 -51 -164q0 -99 51 -162q54 -67 144 -67t146 67q52 63 52 162zM277 1309q0 -44 -18.5 -72.5t-52.5 -28.5q-31 0 -49.5 29t-18.5 72q0 46 18 73t50 27q34 0 52.5 -27t18.5 -73z" />
    <glyph glyph-name="plusminus" unicode="&#xb1;" horiz-adv-x="717" 
d="M261 543h196v227h188v207h-188v226h-196v-226h-190v-207h190v-227zM645 231v207h-574v-207h574z" />
    <glyph glyph-name="uni00B2" unicode="&#xb2;" horiz-adv-x="609" 
d="M551 846v194h-261q6 33 26.5 65t56.5 73q6 7 23.5 27t27 31t24 28.5t26 33.5t22.5 32q63 100 63 207q0 306 -246 306q-128 0 -192 -78q-60 -73 -60 -211v-51h191v30q0 50 10 78q13 36 46 36t47 -32q13 -29 13 -79q0 -36 -20 -74q-33 -60 -119 -153q-32 -35 -71 -82
q-83 -102 -99 -188v-193h492z" />
    <glyph glyph-name="uni00B3" unicode="&#xb3;" horiz-adv-x="602" 
d="M555 1116q0 117 -30 174q-25 46 -74 58q95 19 95 199q0 151 -58 223t-184 72q-128 0 -187.5 -76t-59.5 -230v-20l191 2v38q0 48 12 74t42 26q34 0 48 -34q8 -24 8 -83v-5q0 -36 -6.5 -59.5t-20.5 -35.5t-36 -12l-64 -2v-160l58 -1q38 0 56 -26q20 -31 20 -101v-28
q0 -36 -8 -58t-21 -30t-34 -8q-35 0 -50 36q-13 30 -13 74v28h-191v-31q0 -157 71 -231q61 -65 183 -65q125 0 188 66q65 70 65 226z" />
    <glyph glyph-name="acute" unicode="&#xb4;" horiz-adv-x="445" 
d="M176 1555l-112 -274h162l158 274h-208z" />
    <glyph glyph-name="paragraph" unicode="&#xb6;" horiz-adv-x="989" 
d="M621 -369v1890h-198q-192 0 -281 -114t-89 -348q0 -218 91.5 -330t278.5 -117v-981h198zM916 -369v1890h-199v-1890h199z" />
    <glyph glyph-name="periodcentered" unicode="&#xb7;" horiz-adv-x="383" 
d="M58 588q0 -66 31.5 -97.5t97.5 -31.5q35 0 60 7.5t41.5 24t24.5 40.5t8 57q0 68 -32 99.5t-102 31.5q-44 0 -72.5 -14t-42.5 -42.5t-14 -74.5z" />
    <glyph glyph-name="cedilla" unicode="&#xb8;" horiz-adv-x="555" 
d="M70 -335q29 -33 76 -54t106 -21q109 0 169 47q65 49 65 140q0 65 -37 110q-39 46 -102 46q-23 0 -38 -4l-16 -3l1 110h-110l-1 -224q42 15 87 4q53 -13 53 -49q0 -32 -21.5 -48t-55.5 -16q-51 0 -84 14q-26 10 -58 34z" />
    <glyph glyph-name="uni00B9" unicode="&#xb9;" horiz-adv-x="408" 
d="M30 1498q34 10 64.5 31t45.5 48v-731h193v975h-157q-53 -77 -146 -137v-186z" />
    <glyph glyph-name="ordmasculine" unicode="&#xba;" horiz-adv-x="621" 
d="M60 1074q0 -167 52 -238q60 -81 199 -81q145 0 201 91q47 77 47 256v93q0 177 -47 254q-56 90 -201 90q-147 0 -202 -90q-49 -78 -49 -254v-121zM311 941q-37 0 -47 37q-11 38 -11 116v109q0 78 11 116q11 35 47 35q35 0 46 -36q10 -34 10 -116v-137q0 -70 -13 -97
q-12 -27 -43 -27zM73 510h475v184h-475v-184z" />
    <glyph glyph-name="guillemotright" unicode="&#xbb;" horiz-adv-x="786" 
d="M253 188l149 402l-149 404h-220l156 -404l-156 -402h220zM617 188l149 402l-149 404h-220l156 -404l-156 -402h220z" />
    <glyph glyph-name="onehalf" unicode="&#xbd;" horiz-adv-x="1356" 
d="M32 1445q34 10 64.5 31t45.5 48v-731h193v975h-157q-53 -77 -146 -137v-186zM841 1514l-187 38l-383 -1548l192 -39zM1283 -4v194h-261q6 33 26.5 65t56.5 73q6 7 23.5 27t27 31t24 28.5t26 33.5t22.5 32q63 100 63 207q0 306 -246 306q-128 0 -192 -78q-60 -73 -60 -211
v-51h191v30q0 51 10 78q13 36 46 36t47 -32q13 -29 13 -79q0 -36 -20 -74q-33 -60 -119 -153q-32 -35 -71 -82q-83 -102 -99 -188v-193h492z" />
    <glyph glyph-name="questiondown" unicode="&#xbf;" horiz-adv-x="754" 
d="M523 1099q0 128 -130 128q-69 0 -101 -31t-32 -97q0 -68 32 -100t101 -32q66 0 98 32t32 100zM79 61q0 -206 83 -305q75 -89 225 -89q167 0 239 109q62 92 60 269l-2 86h-216l-3 -111q-2 -60 -20 -90.5t-61 -30.5q-46 0 -62.5 38.5t-16.5 121.5q0 58 14 111q23 81 79 194
q23 45 45 101q46 123 45 258l-2 85h-192l-1 -82q-2 -58 -17 -101q-21 -65 -91 -191q-28 -49 -51 -105q-55 -131 -55 -268z" />
    <glyph glyph-name="Agrave" unicode="&#xc0;" horiz-adv-x="743" 
d="M147 1875l153 -274h154l-112 274h-195zM235 0l31 269h215l31 -269h227l-215 1522h-301l-216 -1522h228zM373 1200l83 -714h-165z" />
    <glyph glyph-name="Aacute" unicode="&#xc1;" horiz-adv-x="743" 
d="M407 1875l-112 -274h162l158 274h-208zM235 0l31 269h215l31 -269h227l-215 1522h-301l-216 -1522h228zM373 1200l83 -714h-165z" />
    <glyph glyph-name="Acircumflex" unicode="&#xc2;" horiz-adv-x="743" 
d="M332 1601l45 120l44 -120h178l-118 241h-209l-118 -241h178zM235 0l31 269h215l31 -269h227l-215 1522h-301l-216 -1522h228zM373 1200l83 -714h-165z" />
    <glyph glyph-name="Atilde" unicode="&#xc3;" horiz-adv-x="743" 
d="M538 1870q-13 -36 -31 -52.5t-44 -16.5q-7 0 -14 1.5t-16 6t-13.5 7t-16 9.5t-15.5 9q-58 33 -100 33q-76 0 -125 -59q-43 -52 -62 -145l109 -41q7 20 15.5 33.5t18.5 21.5t20.5 11.5t24.5 3.5q6 0 12.5 -1.5t12 -3.5t12.5 -5.5t12 -6.5t13.5 -8t13.5 -8q56 -33 96 -33
q78 0 127 60q42 51 60 146zM235 0l31 269h215l31 -269h227l-215 1522h-301l-216 -1522h228zM373 1200l83 -714h-165z" />
    <glyph glyph-name="Adieresis" unicode="&#xc4;" horiz-adv-x="743" 
d="M152 1738q0 -113 101 -113q54 0 78.5 27.5t24.5 85.5q0 60 -24.5 87.5t-78.5 27.5q-52 0 -76.5 -27.5t-24.5 -87.5zM392 1738q0 -113 101 -113q54 0 78.5 27.5t24.5 85.5q0 40 -11 65.5t-33.5 37.5t-58.5 12q-26 0 -44.5 -6.5t-31.5 -21t-19 -36t-6 -51.5zM235 0l31 269
h215l31 -269h227l-215 1522h-301l-216 -1522h228zM373 1200l83 -714h-165z" />
    <glyph glyph-name="Aring" unicode="&#xc5;" horiz-adv-x="743" 
d="M182 1790q0 -66 20 -109t62.5 -65t108.5 -22q68 0 111 22t63 65t20 109q0 104 -46 152t-148 48q-66 0 -108 -21.5t-62.5 -65.5t-20.5 -113zM323 1791q0 59 51 59q19 0 30.5 -7t16 -19.5t4.5 -32.5q0 -29 -11.5 -43.5t-39.5 -14.5q-51 0 -51 58zM235 0l31 269h215l31 -269
h227l-215 1522h-301l-216 -1522h228zM373 1200l83 -714h-165z" />
    <glyph glyph-name="AE" unicode="&#xc6;" horiz-adv-x="1003" 
d="M233 0l52 269h186v-269h491v229h-266v430h207v230h-207v402h266v230h-625l-330 -1521h226zM328 486l143 732v-732h-143z" />
    <glyph glyph-name="Ccedilla" unicode="&#xc7;" horiz-adv-x="776" 
d="M714 1041h-227v119q0 78 -16 111q-20 42 -80 42q-59 0 -79 -42q-16 -33 -16 -118v-788q0 -85 16 -122q19 -48 80 -48q57 0 78 42q17 33 17 113v132h227v-134q0 -177 -66 -265q-66 -87 -203 -101l-1 -56l16 3q15 4 38 4q63 0 102 -46q37 -45 37 -110q0 -91 -65 -140
q-60 -47 -169 -47q-40 0 -76 10.5t-62 27t-44 37.5l34 86q32 -24 58 -34q33 -14 84 -14q34 0 55.5 16t21.5 48q0 36 -53 49q-45 11 -87 -4l1 171q-136 14 -200 103q-65 91 -65 277v789q0 190 66 282q76 108 256 108q178 0 257 -110q65 -92 65 -270v-121z" />
    <glyph glyph-name="Egrave" unicode="&#xc8;" horiz-adv-x="736" 
d="M151 1875l153 -274h154l-112 274h-195zM662 0v229h-340v430h281v230h-281v402h340v230h-566v-1521h566z" />
    <glyph glyph-name="Eacute" unicode="&#xc9;" horiz-adv-x="736" 
d="M399 1875l-112 -274h162l158 274h-208zM662 0v229h-340v430h281v230h-281v402h340v230h-566v-1521h566z" />
    <glyph glyph-name="Ecircumflex" unicode="&#xca;" horiz-adv-x="736" 
d="M329 1601l45 120l44 -120h178l-118 241h-209l-118 -241h178zM662 0v229h-340v430h281v230h-281v402h340v230h-566v-1521h566z" />
    <glyph glyph-name="Edieresis" unicode="&#xcb;" horiz-adv-x="736" 
d="M149 1738q0 -113 101 -113q54 0 78.5 27.5t24.5 85.5q0 60 -24.5 87.5t-78.5 27.5q-35 0 -57 -12t-33 -37.5t-11 -65.5zM389 1738q0 -113 101 -113q54 0 78.5 27.5t24.5 85.5q0 60 -24.5 87.5t-78.5 27.5q-51 0 -76 -27.5t-25 -87.5zM662 0v229h-340v430h281v230h-281
v402h340v230h-566v-1521h566z" />
    <glyph glyph-name="Igrave" unicode="&#xcc;" horiz-adv-x="420" 
d="M-22 1875l153 -274h154l-112 274h-195zM323 0v1521h-226v-1521h226z" />
    <glyph glyph-name="Iacute" unicode="&#xcd;" horiz-adv-x="420" 
d="M240 1875l-112 -274h162l158 274h-208zM323 0v1521h-226v-1521h226z" />
    <glyph glyph-name="Icircumflex" unicode="&#xce;" horiz-adv-x="420" 
d="M165 1601l45 120l44 -120h178l-118 241h-209l-118 -241h178zM323 0v1521h-226v-1521h226z" />
    <glyph glyph-name="Idieresis" unicode="&#xcf;" horiz-adv-x="420" 
d="M-12 1738q0 -113 101 -113q54 0 78.5 27.5t24.5 85.5q0 60 -24.5 87.5t-78.5 27.5q-52 0 -76.5 -27.5t-24.5 -87.5zM228 1738q0 -113 101 -113q54 0 78.5 27.5t24.5 85.5q0 30 -6 51.5t-18.5 36t-32 21t-46.5 6.5q-51 0 -76 -27.5t-25 -87.5zM323 0v1521h-226v-1521h226z
" />
    <glyph glyph-name="Eth" unicode="&#xd0;" horiz-adv-x="798" 
d="M7 600h74v-600h317q178 0 255 108q66 92 66 283v739q0 191 -65 283q-78 108 -254 108h-319v-714h-74v-207zM400 807h-94v484h95q54 -2 73 -36t19 -123v-738q0 -91 -19 -126q-20 -38 -74 -39h-94v371h94v207z" />
    <glyph glyph-name="Ntilde" unicode="&#xd1;" horiz-adv-x="860" 
d="M617 1870q-13 -36 -31 -52.5t-44 -16.5q-7 0 -14 1.5t-16 6t-13.5 7t-16 9.5t-15.5 9q-58 33 -100 33q-76 0 -125 -59q-43 -52 -62 -145l109 -41q14 38 33 54t46 16q6 0 12.5 -1.5t12 -3.5t12.5 -5.5t12 -6.5t13.5 -8t13.5 -8q56 -33 96 -33q78 0 127 60q42 51 60 146z
M309 0l-12 907l-19 176l283 -1083h241l1 1521h-213l12 -897l29 -250l-273 1147h-262v-1521h213z" />
    <glyph glyph-name="Ograve" unicode="&#xd2;" horiz-adv-x="780" 
d="M163 1875l153 -274h154l-112 274h-195zM67 371q0 -189 66 -281q77 -110 257 -110t257 109q66 92 66 282v780q0 189 -65 282q-79 109 -258 109t-257 -108q-66 -93 -66 -283v-780zM390 1313q61 0 81 -44q15 -36 15 -119v-778q0 -85 -16 -120q-20 -43 -80 -43q-62 0 -81 45
q-16 34 -16 118v778q0 86 17 120q22 43 80 43z" />
    <glyph glyph-name="Oacute" unicode="&#xd3;" horiz-adv-x="780" 
d="M413 1875l-112 -274h162l158 274h-208zM67 371q0 -189 66 -281q77 -110 257 -110t257 109q66 92 66 282v780q0 189 -65 282q-79 109 -258 109t-257 -108q-66 -93 -66 -283v-780zM390 1313q61 0 81 -44q15 -36 15 -119v-778q0 -85 -16 -120q-20 -43 -80 -43q-62 0 -81 45
q-16 34 -16 118v778q0 86 17 120q22 43 80 43z" />
    <glyph glyph-name="Ocircumflex" unicode="&#xd4;" horiz-adv-x="780" 
d="M344 1601l45 120l44 -120h178l-118 241h-209l-118 -241h178zM67 371q0 -189 66 -281q77 -110 257 -110t257 109q66 92 66 282v780q0 189 -65 282q-79 109 -258 109t-257 -108q-66 -93 -66 -283v-780zM390 1313q61 0 81 -44q15 -36 15 -119v-778q0 -85 -16 -120
q-20 -43 -80 -43q-62 0 -81 45q-16 34 -16 118v778q0 86 17 120q22 43 80 43z" />
    <glyph glyph-name="Otilde" unicode="&#xd5;" horiz-adv-x="780" 
d="M551 1870q-13 -36 -31 -52.5t-44 -16.5q-7 0 -14 1.5t-16 6t-13.5 7t-16 9.5t-15.5 9q-58 33 -100 33q-76 0 -125 -59q-43 -52 -62 -145l109 -41q7 20 15.5 33.5t18.5 21.5t20.5 11.5t24.5 3.5q7 0 14 -1.5t15.5 -5.5t14 -7t16.5 -9.5t16 -9.5q56 -33 96 -33q78 0 127 60
q42 51 60 146zM67 371q0 -189 66 -281q76 -110 257 -110q180 0 257 109q66 92 66 282v780q0 189 -65 282q-79 109 -258 109t-257 -108q-66 -93 -66 -283v-780zM390 1313q61 0 81 -44q15 -36 15 -119v-778q0 -85 -16 -120q-20 -43 -80 -43q-62 0 -81 45q-16 34 -16 118v778
q0 86 17 120q21 43 80 43z" />
    <glyph glyph-name="Odieresis" unicode="&#xd6;" horiz-adv-x="780" 
d="M166 1738q0 -113 101 -113q54 0 78.5 27.5t24.5 85.5q0 60 -24.5 87.5t-78.5 27.5q-35 0 -57 -12t-33 -37.5t-11 -65.5zM406 1738q0 -113 101 -113q54 0 78.5 27.5t24.5 85.5q0 60 -24.5 87.5t-78.5 27.5q-51 0 -76 -27.5t-25 -87.5zM67 371q0 -189 66 -281
q76 -110 257 -110q180 0 257 109q66 92 66 282v780q0 189 -65 282q-79 109 -258 109t-257 -108q-66 -93 -66 -283v-780zM390 1313q61 0 81 -44q15 -36 15 -119v-778q0 -85 -16 -120q-20 -43 -80 -43q-62 0 -81 45q-16 34 -16 118v778q0 86 17 120q21 43 80 43z" />
    <glyph glyph-name="multiply" unicode="&#xd7;" horiz-adv-x="717" 
d="M72 528l139 -146l147 168l148 -167l139 146l-153 174l152 173l-139 146l-147 -167l-146 167l-140 -146l153 -174z" />
    <glyph glyph-name="Oslash" unicode="&#xd8;" horiz-adv-x="780" 
d="M343 -130l24 112q32 -2 52 -2v1l1 -1q180 0 257 109q66 94 66 282v780q0 189 -69 285l37 163l-200 58l-30 -119q-25 4 -61 4q-1 0 -1 -1v1q-180 0 -256 -108q-66 -93 -66 -283v-780q0 -202 73 -292l-36 -167zM420 1313q60 0 80 -44q16 -36 16 -119v-778q0 -88 -16 -120
q-22 -43 -80 -43h-1q-61 0 -80 45q-16 34 -16 118v778q0 86 17 120q21 43 79 43h1z" />
    <glyph glyph-name="Ugrave" unicode="&#xd9;" horiz-adv-x="812" 
d="M167 1875l153 -274h154l-112 274h-195zM513 1521v-1151q0 -81 -19 -116q-24 -45 -84 -45q-61 0 -87 45q-23 38 -23 116v1151h-225v-1155q0 -187 73 -281q81 -105 262 -105q179 0 259 105q69 91 69 281v1155h-225z" />
    <glyph glyph-name="Uacute" unicode="&#xda;" horiz-adv-x="812" 
d="M427 1875l-112 -274h162l158 274h-208zM513 1521v-1151q0 -81 -19 -116q-24 -45 -84 -45q-61 0 -87 45q-23 38 -23 116v1151h-225v-1155q0 -187 73 -281q81 -105 262 -105q179 0 259 105q69 91 69 281v1155h-225z" />
    <glyph glyph-name="Ucircumflex" unicode="&#xdb;" horiz-adv-x="812" 
d="M351 1601l45 120l44 -120h178l-118 241h-209l-118 -241h178zM513 1521v-1151q0 -81 -19 -116q-24 -45 -84 -45q-61 0 -87 45q-23 38 -23 116v1151h-225v-1155q0 -187 73 -281q81 -105 262 -105q179 0 259 105q69 91 69 281v1155h-225z" />
    <glyph glyph-name="Udieresis" unicode="&#xdc;" horiz-adv-x="812" 
d="M174 1738q0 -113 101 -113q54 0 78.5 27.5t24.5 85.5q0 60 -24.5 87.5t-78.5 27.5q-52 0 -76.5 -27.5t-24.5 -87.5zM414 1738q0 -113 101 -113q54 0 78.5 27.5t24.5 85.5q0 60 -24.5 87.5t-78.5 27.5q-51 0 -76 -27.5t-25 -87.5zM513 1521v-1151q0 -81 -19 -116
q-24 -45 -84 -45q-61 0 -87 45q-23 38 -23 116v1151h-225v-1155q0 -187 73 -281q81 -105 262 -105q179 0 259 105q69 91 69 281v1155h-225z" />
    <glyph glyph-name="Yacute" unicode="&#xdd;" horiz-adv-x="751" 
d="M419 1875l-112 -274h162l158 274h-208zM748 1521h-222l-143 -638l-131 638h-248l264 -965v-556h226v556z" />
    <glyph glyph-name="Thorn" unicode="&#xde;" horiz-adv-x="795" 
d="M86 1521v-1521h225v267h80q160 0 239 80q88 91 88 300v207q0 199 -89 291q-79 82 -236 82h-82v294h-225zM492 647q0 -83 -23.5 -117.5t-81.5 -34.5h-76v502h83q53 0 75.5 -35t22.5 -108v-207z" />
    <glyph glyph-name="germandbls" unicode="&#xdf;" horiz-adv-x="772" 
d="M364 766h23q63 0 83 -45q17 -38 17 -140v-171q0 -101 -18 -142q-21 -48 -82 -48v-222q180 0 257 109q65 92 65 283v187q0 216 -136 298q128 75 128 261v67q0 181 -62 268q-76 104 -252 104q-182 0 -255 -111q-65 -99 -65 -320v-1144l225 1v1176q0 101 16 135q19 41 79 41
q55 0 77 -37q16 -27 16 -81v-102q0 -69 -15 -101q-22 -44 -72 -45h-29v-221z" />
    <glyph glyph-name="agrave" unicode="&#xe0;" horiz-adv-x="783" 
d="M158 1555l153 -274h154l-112 274h-195zM698 0v854q0 182 -65 269q-76 101 -249 101q-174 0 -247 -98q-62 -84 -62 -255v-67h220v70q0 66 16 93q18 33 74 33q60 0 78 -41q14 -33 14 -120v-167q-65 27 -154 27q-149 0 -208 -91q-49 -76 -49 -250q0 -180 54 -270
q62 -108 206 -108q60 0 96.5 29t56.5 93v-102h219zM380 204q-58 0 -77 43q-16 33 -16 103q0 71 14 106q20 50 75 50q61 0 101 -32v-96q0 -86 -13 -121q-22 -53 -84 -53z" />
    <glyph glyph-name="aacute" unicode="&#xe1;" horiz-adv-x="783" 
d="M414 1555l-112 -274h162l158 274h-208zM698 0v854q0 182 -65 269q-76 101 -249 101q-174 0 -247 -98q-62 -84 -62 -255v-67h220v70q0 66 16 93q18 33 74 33q60 0 78 -41q14 -33 14 -120v-167q-65 27 -154 27q-149 0 -208 -91q-49 -76 -49 -250q0 -180 54 -270
q62 -108 206 -108q60 0 96.5 29t56.5 93v-102h219zM380 204q-58 0 -77 43q-16 33 -16 103q0 71 14 106q20 50 75 50q61 0 101 -32v-96q0 -86 -13 -121q-22 -53 -84 -53z" />
    <glyph glyph-name="acircumflex" unicode="&#xe2;" horiz-adv-x="783" 
d="M352 1281l45 120l44 -120h178l-118 241h-209l-118 -241h178zM698 0v854q0 182 -65 269q-76 101 -249 101q-174 0 -247 -98q-62 -84 -62 -255v-67h220v70q0 66 16 93q18 33 74 33q60 0 78 -41q14 -33 14 -120v-167q-65 27 -154 27q-149 0 -208 -91q-49 -76 -49 -250
q0 -180 54 -270q62 -108 206 -108q60 0 96.5 29t56.5 93v-102h219zM380 204q-58 0 -77 43q-16 33 -16 103q0 71 14 106q20 50 75 50q61 0 101 -32v-96q0 -86 -13 -121q-22 -53 -84 -53z" />
    <glyph glyph-name="atilde" unicode="&#xe3;" horiz-adv-x="783" 
d="M560 1550q-13 -36 -31 -52.5t-44 -16.5q-6 0 -12.5 1.5t-12 3.5t-12.5 6t-11.5 6.5l-13.5 7.5t-13 8q-58 33 -100 33q-76 0 -125 -59q-43 -52 -62 -145l109 -41q14 38 33 54t46 16q7 0 14 -1.5t15.5 -5.5t14 -7t16.5 -9.5t16 -9.5q56 -33 96 -33q78 0 127 60
q42 51 60 146zM698 0v854q0 182 -65 269q-76 101 -249 101q-174 0 -247 -98q-62 -84 -62 -255v-67h220v70q0 66 16 93q18 33 74 33q60 0 78 -41q14 -33 14 -120v-167q-65 27 -154 27q-149 0 -208 -91q-49 -76 -49 -250q0 -180 54 -270q62 -108 206 -108q60 0 96.5 29
t56.5 93v-102h219zM380 204q-58 0 -77 43q-16 33 -16 103q0 71 14 106q20 50 75 50q61 0 101 -32v-96q0 -86 -13 -121q-22 -53 -84 -53z" />
    <glyph glyph-name="adieresis" unicode="&#xe4;" horiz-adv-x="783" 
d="M175 1418q0 -113 101 -113q54 0 78.5 27.5t24.5 85.5q0 60 -24.5 87.5t-78.5 27.5q-52 0 -76.5 -27.5t-24.5 -87.5zM415 1418q0 -113 101 -113q54 0 78.5 27.5t24.5 85.5q0 40 -11 65.5t-33.5 37.5t-58.5 12q-51 0 -76 -27.5t-25 -87.5zM698 0v854q0 182 -65 269
q-76 101 -249 101q-174 0 -247 -98q-62 -84 -62 -255v-67h220v70q0 66 16 93q18 33 74 33q60 0 78 -41q14 -33 14 -120v-167q-65 27 -154 27q-149 0 -208 -91q-49 -76 -49 -250q0 -180 54 -270q62 -108 206 -108q60 0 96.5 29t56.5 93v-102h219zM380 204q-58 0 -77 43
q-16 33 -16 103q0 71 14 106q20 50 75 50q61 0 101 -32v-96q0 -86 -13 -121q-22 -53 -84 -53z" />
    <glyph glyph-name="aring" unicode="&#xe5;" horiz-adv-x="783" 
d="M205 1470q0 -99 46.5 -147.5t144.5 -48.5q68 0 111 22t63 65t20 109q0 104 -46 152t-148 48q-66 0 -108 -21.5t-62.5 -65.5t-20.5 -113zM346 1471q0 59 51 59q28 0 39.5 -14.5t11.5 -44.5q0 -29 -11.5 -43.5t-39.5 -14.5q-51 0 -51 58zM698 0v854q0 182 -65 269
q-76 101 -249 101q-174 0 -247 -98q-62 -84 -62 -255v-67h220v70q0 66 16 93q18 33 74 33q60 0 78 -41q14 -33 14 -120v-167q-65 27 -154 27q-149 0 -208 -91q-49 -76 -49 -250q0 -180 54 -270q62 -108 206 -108q60 0 96.5 29t56.5 93v-102h219zM380 204q-58 0 -77 43
q-16 33 -16 103q0 71 14 106q20 50 75 50q61 0 101 -32v-96q0 -86 -13 -121q-22 -53 -84 -53z" />
    <glyph glyph-name="ae" unicode="&#xe6;" horiz-adv-x="1189" 
d="M882 406v-25q0 -83 -15 -120q-22 -55 -78 -55q-58 0 -80 64q-15 44 -15 137v70l407 92v249q0 186 -60 284q-75 122 -252 122q-134 0 -202 -74q-68 74 -204 74q-173 0 -248 -121q-62 -100 -62 -279v-20h221v24q0 74 16 115q21 57 74 57q57 0 77 -62q14 -43 14 -139v-127
q-63 27 -154 27q-150 0 -208 -89q-50 -76 -50 -248q0 -180 60 -273q71 -109 229 -109q133 0 223 90q69 -90 216 -90q176 0 251 119q59 94 59 284v23h-219zM789 1000q57 0 79 -58q14 -41 14 -121v-96l-188 -46v118q0 94 16 141q20 62 79 62zM383 204q-55 0 -76 46
q-17 37 -17 107q0 69 14 102q20 47 75 47q61 0 100 -32v-72q0 -84 -18 -133q-24 -65 -78 -65z" />
    <glyph glyph-name="ccedilla" unicode="&#xe7;" horiz-adv-x="756" 
d="M694 804h-220v47q0 71 -14 104q-22 45 -79 45q-60 0 -78 -43q-14 -34 -14 -122v-326v-98q-2 -50 0 -96q2 -51 21 -79q21 -30 71 -30q57 0 78 43q15 31 15 105v45h220v-43q0 -181 -59 -267q-66 -96 -208 -107l-1 -56l16 3q15 4 38 4q63 0 102 -46q37 -45 37 -110
q0 -91 -65 -140q-60 -47 -169 -47q-59 0 -106 21t-76 54l34 86q32 -24 58 -34q33 -14 84 -14q34 0 55.5 16t21.5 48q0 36 -53 49q-45 11 -87 -4l1 172q-128 17 -188 106q-62 91 -62 282v496q2 180 66 262q75 94 248 94q176 0 252 -110q61 -88 61 -266v-44z" />
    <glyph glyph-name="egrave" unicode="&#xe8;" 
d="M160 1555l153 -274h154l-112 274h-195zM474 406v-45q0 -79 -15 -111q-20 -44 -79 -44q-61 0 -79 43q-15 32 -15 117v111l407 92v272q0 183 -60 273q-74 110 -253 110t-252 -106q-61 -88 -61 -280v-470q0 -190 62 -280q75 -108 254 -108q178 0 251 110q59 87 59 273v43
h-219zM380 1000q59 0 80 -46q14 -33 14 -110v-119l-188 -46v162q0 87 15 118q20 41 79 41z" />
    <glyph glyph-name="eacute" unicode="&#xe9;" 
d="M405 1555l-112 -274h162l158 274h-208zM474 406v-45q0 -79 -15 -111q-20 -44 -79 -44q-61 0 -79 43q-15 32 -15 117v111l407 92v272q0 183 -60 273q-74 110 -253 110t-252 -106q-61 -88 -61 -280v-470q0 -190 62 -280q75 -108 254 -108q178 0 251 110q59 87 59 273v43
h-219zM380 1000q59 0 80 -46q14 -33 14 -110v-119l-188 -46v162q0 87 15 118q20 41 79 41z" />
    <glyph glyph-name="ecircumflex" unicode="&#xea;" 
d="M335 1281l45 120l44 -120h178l-118 241h-209l-118 -241h178zM474 406v-45q0 -79 -15 -111q-20 -44 -79 -44q-61 0 -79 43q-15 32 -15 117v111l407 92v272q0 183 -60 273q-74 110 -253 110t-252 -106q-61 -88 -61 -280v-470q0 -190 62 -280q75 -108 254 -108
q178 0 251 110q59 87 59 273v43h-219zM380 1000q59 0 80 -46q14 -33 14 -110v-119l-188 -46v162q0 87 15 118q20 41 79 41z" />
    <glyph glyph-name="edieresis" unicode="&#xeb;" 
d="M158 1418q0 -113 101 -113q36 0 58.5 12.5t33.5 37t11 63.5q0 60 -24.5 87.5t-78.5 27.5q-52 0 -76.5 -27.5t-24.5 -87.5zM398 1418q0 -113 101 -113q54 0 78.5 27.5t24.5 85.5q0 40 -11 65.5t-33.5 37.5t-58.5 12q-34 0 -56.5 -12t-33.5 -37.5t-11 -65.5zM474 406v-45
q0 -79 -15 -111q-20 -44 -79 -44q-61 0 -79 43q-15 32 -15 117v111l407 92v272q0 183 -60 273q-74 110 -253 110t-252 -106q-61 -88 -61 -280v-470q0 -190 62 -280q75 -108 254 -108q178 0 251 110q59 87 59 273v43h-219zM380 1000q59 0 80 -46q14 -33 14 -110v-119
l-188 -46v162q0 87 15 118q20 41 79 41z" />
    <glyph glyph-name="igrave" unicode="&#xec;" horiz-adv-x="394" 
d="M-33 1555l153 -274h154l-112 274h-195zM308 0v1202h-221v-1202h221z" />
    <glyph glyph-name="iacute" unicode="&#xed;" horiz-adv-x="394" 
d="M229 1555l-112 -274h162l158 274h-208zM308 0v1202h-221v-1202h221z" />
    <glyph glyph-name="icircumflex" unicode="&#xee;" horiz-adv-x="394" 
d="M153 1281l45 120l44 -120h178l-118 241h-209l-118 -241h178zM308 0v1202h-221v-1202h221z" />
    <glyph glyph-name="idieresis" unicode="&#xef;" horiz-adv-x="394" 
d="M-25 1418q0 -113 101 -113q54 0 78.5 27.5t24.5 85.5q0 60 -24.5 87.5t-78.5 27.5q-52 0 -76.5 -27.5t-24.5 -87.5zM215 1418q0 -113 101 -113q36 0 59 12.5t33.5 37t10.5 63.5q0 30 -6 51.5t-18.5 36t-32 21t-46.5 6.5q-34 0 -56.5 -12t-33.5 -37.5t-11 -65.5zM308 0
v1202h-221v-1202h221z" />
    <glyph glyph-name="eth" unicode="&#xf0;" horiz-adv-x="776" 
d="M264 1291l89 -70l49 72q56 -81 76 -223q-21 52 -57.5 77t-96.5 25q-147 0 -205 -123q-45 -95 -45 -297v-372q0 -194 62 -286q74 -114 255 -114q177 0 250 115q60 94 60 289v525q0 217 -52 371q-42 124 -118 200l41 59l-88 70l-44 -63q-48 25 -125 38l-97 -191l41 -5
q29 -3 59 -19zM388 206q-60 0 -79 45q-13 30 -13 118v413q0 90 14 125q18 46 78 46q58 0 78 -52q13 -35 13 -125v-386q0 -101 -14 -137q-6 -16 -16 -26.5t-25 -15.5t-36 -5z" />
    <glyph glyph-name="ntilde" unicode="&#xf1;" horiz-adv-x="792" 
d="M570 1550q-9 -24 -19.5 -39.5t-24 -22.5t-31.5 -7q-7 0 -14 1.5t-16 6t-13.5 7t-16 9.5t-15.5 9q-58 33 -100 33q-76 0 -125 -59q-43 -52 -62 -145l109 -41q14 38 33 54t46 16q7 0 14 -1.5t15.5 -5.5t14 -7t16.5 -9.5t16 -9.5q56 -33 96 -33q78 0 127 60q42 51 60 146z
M711 0v821q0 194 -49 287q-61 114 -205 114q-117 0 -150 -102v82h-221v-1202h221v830q0 87 16 123q19 45 76 45q60 0 78 -41q13 -29 13 -115v-842h221z" />
    <glyph glyph-name="ograve" unicode="&#xf2;" 
d="M147 1555l153 -274h154l-112 274h-195zM66 369q0 -190 63 -280q74 -109 254 -109q178 0 251 108q59 87 59 282v464q0 191 -61 281q-74 109 -252 109q-177 0 -252 -108q-62 -91 -62 -283v-464zM380 1000q59 0 78 -44q13 -30 13 -118v-471q0 -88 -14 -119q-18 -42 -77 -42
q-61 0 -79 43q-13 30 -13 117v472q0 87 14 120q19 42 78 42z" />
    <glyph glyph-name="oacute" unicode="&#xf3;" 
d="M403 1555l-112 -274h162l158 274h-208zM66 369q0 -190 63 -280q74 -109 254 -109q178 0 251 108q59 87 59 282v464q0 191 -61 281q-74 109 -252 109q-177 0 -252 -108q-62 -91 -62 -283v-464zM380 1000q59 0 78 -44q13 -30 13 -118v-471q0 -88 -14 -119q-18 -42 -77 -42
q-61 0 -79 43q-13 30 -13 117v472q0 87 14 120q19 42 78 42z" />
    <glyph glyph-name="ocircumflex" unicode="&#xf4;" 
d="M328 1281l45 120l44 -120h178l-118 241h-209l-118 -241h178zM66 369q0 -190 63 -280q74 -109 254 -109q178 0 251 108q59 87 59 282v464q0 191 -61 281q-74 109 -252 109q-177 0 -252 -108q-62 -91 -62 -283v-464zM380 1000q59 0 78 -44q13 -30 13 -118v-471
q0 -88 -14 -119q-18 -42 -77 -42q-61 0 -79 43q-13 30 -13 117v472q0 87 14 120q19 42 78 42z" />
    <glyph glyph-name="otilde" unicode="&#xf5;" 
d="M535 1550q-6 -18 -14 -31.5t-17 -21.5t-20 -12t-24 -4q-7 0 -14 1.5t-16 6t-13.5 7t-16 9.5t-15.5 9q-58 33 -100 33q-76 0 -125 -59q-43 -52 -62 -145l109 -41q14 38 33 54t46 16q7 0 14 -1.5t15.5 -5.5t14 -7t16.5 -9.5t16 -9.5q56 -33 96 -33q78 0 127 60
q42 51 60 146zM66 369q0 -190 63 -280q74 -109 254 -109q178 0 251 108q59 87 59 282v464q0 191 -61 281q-74 109 -252 109q-177 0 -252 -108q-62 -91 -62 -283v-464zM380 1000q59 0 78 -44q13 -30 13 -118v-471q0 -88 -14 -119q-18 -42 -77 -42q-61 0 -79 43
q-13 30 -13 117v472q0 87 14 120q19 42 78 42z" />
    <glyph glyph-name="odieresis" unicode="&#xf6;" 
d="M149 1418q0 -113 101 -113q54 0 78.5 27.5t24.5 85.5q0 60 -24.5 87.5t-78.5 27.5q-35 0 -57 -12t-33 -37.5t-11 -65.5zM389 1418q0 -113 101 -113q54 0 78.5 27.5t24.5 85.5q0 60 -24.5 87.5t-78.5 27.5q-51 0 -76 -27.5t-25 -87.5zM66 369q0 -190 63 -280
q74 -109 254 -109q178 0 251 108q59 87 59 282v464q0 191 -61 281q-74 109 -252 109q-177 0 -252 -108q-62 -91 -62 -283v-464zM380 1000q59 0 78 -44q13 -30 13 -118v-471q0 -88 -14 -119q-18 -42 -77 -42q-61 0 -79 43q-13 30 -13 117v472q0 87 14 120q19 42 78 42z" />
    <glyph glyph-name="divide" unicode="&#xf7;" horiz-adv-x="717" 
d="M226 1015q0 -44 14 -72.5t42.5 -42.5t72.5 -14q69 0 101.5 31.5t32.5 97.5q0 68 -32 99.5t-102 31.5q-66 0 -97.5 -31.5t-31.5 -99.5zM645 600v207h-574v-207h574zM226 388q0 -66 31.5 -97.5t97.5 -31.5q35 0 60 7.5t41.5 24t24.5 40.5t8 57q0 68 -32 99.5t-102 31.5
q-66 0 -97.5 -31.5t-31.5 -99.5z" />
    <glyph glyph-name="oslash" unicode="&#xf8;" 
d="M811 1262l-135 54l-53 -121q-63 29 -156 29q-178 0 -253 -108q-61 -90 -61 -283v-464q0 -148 36 -233l-77 -188l144 -46l46 111q69 -33 168 -33q178 0 250 108q59 89 59 282v464q0 159 -42 247zM467 1000q58 0 77 -44q13 -30 13 -118v-471q0 -88 -14 -119
q-18 -42 -76 -42q-61 0 -79 43q-13 30 -13 117v472q0 87 14 120q19 42 78 42z" />
    <glyph glyph-name="ugrave" unicode="&#xf9;" horiz-adv-x="795" 
d="M168 1555l153 -274h154l-112 274h-195zM84 1203v-818q0 -195 49 -288q61 -116 210 -116q105 0 145 108v-89h220v1202h-220v-856q-2 -73 -17 -104q-20 -38 -74 -38q-60 0 -79 45q-13 30 -13 118v836h-221z" />
    <glyph glyph-name="uacute" unicode="&#xfa;" horiz-adv-x="795" 
d="M425 1555l-112 -274h162l158 274h-208zM84 1203v-818q0 -195 49 -288q61 -116 210 -116q105 0 145 108v-89h220v1202h-220v-856q-2 -73 -17 -104q-20 -38 -74 -38q-60 0 -79 45q-13 30 -13 118v836h-221z" />
    <glyph glyph-name="ucircumflex" unicode="&#xfb;" horiz-adv-x="795" 
d="M350 1281l45 120l44 -120h178l-118 241h-209l-118 -241h178zM84 1203v-818q0 -195 49 -288q61 -116 210 -116q105 0 145 108v-89h220v1202h-220v-856q-2 -73 -17 -104q-20 -38 -74 -38q-60 0 -79 45q-13 30 -13 118v836h-221z" />
    <glyph glyph-name="udieresis" unicode="&#xfc;" horiz-adv-x="795" 
d="M172 1418q0 -113 101 -113q54 0 78.5 27.5t24.5 85.5q0 60 -24.5 87.5t-78.5 27.5q-26 0 -45 -6.5t-31.5 -21t-18.5 -36t-6 -51.5zM412 1418q0 -113 101 -113q54 0 78.5 27.5t24.5 85.5q0 60 -24.5 87.5t-78.5 27.5q-51 0 -76 -27.5t-25 -87.5zM84 1203v-818
q0 -195 49 -288q61 -116 210 -116q105 0 145 108v-89h220v1202h-220v-856q-2 -73 -17 -104q-20 -38 -74 -38q-60 0 -79 45q-13 30 -13 118v836h-221z" />
    <glyph glyph-name="yacute" unicode="&#xfd;" horiz-adv-x="713" 
d="M388 1555l-112 -274h162l158 274h-208zM8 1203l177 -1203h138l-3 -26q-17 -112 -63 -178q-35 -50 -94 -84l96 -164q98 45 168 150q76 117 99 279l58 400q36 247 61 413q26 170 61 413h-228q-60 -488 -113 -903l-9 -62l-120 965h-228z" />
    <glyph glyph-name="thorn" unicode="&#xfe;" horiz-adv-x="798" 
d="M307 -366v453q40 -107 149 -107q150 0 208 112q48 92 48 287v439q0 198 -48 290q-61 116 -211 116q-106 0 -146 -107v451h-221v-1934h221zM399 1000q59 0 78 -44q14 -34 14 -120v-467q0 -87 -14 -120q-20 -43 -78 -43q-59 0 -78 50q-13 34 -13 123v446q0 90 14 126
q19 49 77 49z" />
    <glyph glyph-name="ydieresis" unicode="&#xff;" horiz-adv-x="713" 
d="M141 1418q0 -113 101 -113q36 0 58.5 12.5t33.5 37t11 63.5q0 60 -24.5 87.5t-78.5 27.5q-52 0 -76.5 -27.5t-24.5 -87.5zM381 1418q0 -113 101 -113q54 0 78.5 27.5t24.5 85.5q0 60 -24.5 87.5t-78.5 27.5q-34 0 -56.5 -12t-33.5 -37.5t-11 -65.5zM8 1203l177 -1203h138
l-3 -26q-17 -112 -63 -178q-35 -50 -94 -84l96 -164q98 45 168 150q76 117 99 279l58 400q36 247 61 413q26 170 61 413h-228q-60 -488 -113 -903l-9 -62l-120 965h-228z" />
    <glyph glyph-name="Amacron" unicode="&#x100;" horiz-adv-x="743" 
d="M585 1664v176h-421v-176h421zM235 0l31 269h215l31 -269h227l-215 1522h-301l-216 -1522h228zM373 1200l83 -714h-165z" />
    <glyph glyph-name="amacron" unicode="&#x101;" horiz-adv-x="783" 
d="M607 1344v176h-421v-176h421zM698 0v854q0 182 -65 269q-76 101 -249 101q-174 0 -247 -98q-62 -84 -62 -255v-67h220v70q0 66 16 93q18 33 74 33q60 0 78 -41q14 -33 14 -120v-167q-65 27 -154 27q-149 0 -208 -91q-49 -76 -49 -250q0 -180 54 -270q62 -108 206 -108
q60 0 96.5 29t56.5 93v-102h219zM380 204q-58 0 -77 43q-16 33 -16 103q0 71 14 106q20 50 75 50q61 0 101 -32v-96q0 -86 -13 -121q-22 -53 -84 -53z" />
    <glyph glyph-name="Abreve" unicode="&#x102;" horiz-adv-x="743" 
d="M499 1868q-7 -72 -26 -98q-27 -36 -98 -36q-75 0 -100 38q-8 11 -12.5 28t-6 29t-4.5 39h-125q0 -122 54 -188q63 -79 194 -79q129 0 192 78q55 68 57 189h-125zM235 0l31 269h215l31 -269h227l-215 1522h-301l-216 -1522h228zM373 1200l83 -714h-165z" />
    <glyph glyph-name="abreve" unicode="&#x103;" horiz-adv-x="783" 
d="M519 1548q-7 -72 -26 -98q-27 -36 -98 -36q-75 0 -100 38q-8 11 -12.5 28t-6 29t-4.5 39h-125q0 -122 54 -188q63 -79 194 -79q129 0 192 78q55 68 57 189h-125zM698 0v854q0 182 -65 269q-76 101 -249 101q-174 0 -247 -98q-62 -84 -62 -255v-67h220v70q0 66 16 93
q18 33 74 33q60 0 78 -41q14 -33 14 -120v-167q-65 27 -154 27q-149 0 -208 -91q-49 -76 -49 -250q0 -180 54 -270q62 -108 206 -108q60 0 96.5 29t56.5 93v-102h219zM380 204q-58 0 -77 43q-16 33 -16 103q0 71 14 106q20 50 75 50q61 0 101 -32v-96q0 -86 -13 -121
q-22 -53 -84 -53z" />
    <glyph glyph-name="Aogonek" unicode="&#x104;" horiz-adv-x="743" 
d="M764 -257l13 -131q-43 -49 -134 -49q-94 0 -149 51q-64 59 -64 172q0 95 68 161q29 27 72 53h-58l-31 269h-215l-31 -269h-228l216 1522h301l215 -1520l3 -2q-63 -43 -89.5 -86.5t-26.5 -107.5q0 -87 61 -87q26 0 44 6q13 5 33 18zM291 486h165l-83 714z" />
    <glyph glyph-name="aogonek" unicode="&#x105;" horiz-adv-x="783" 
d="M719 -257l13 -131q-43 -49 -134 -49q-94 0 -149 51q-64 59 -64 172q0 95 68 161q29 27 72 53h-46v102q-20 -64 -56.5 -93t-96.5 -29q-144 0 -206 108q-54 90 -54 270q0 174 49 250q59 91 208 91q89 0 154 -27v167q0 87 -14 120q-18 41 -78 41q-56 0 -74 -33
q-16 -27 -16 -93v-70h-220v67q0 171 62 255q73 98 247 98q173 0 249 -101q65 -87 65 -269v-854h-1q-63 -43 -89.5 -86.5t-26.5 -107.5q0 -87 61 -87q26 0 44 6q13 5 33 18zM477 378v96q-40 32 -101 32q-55 0 -75 -50q-14 -35 -14 -106q0 -70 16 -103q19 -43 77 -43
q62 0 84 53q13 35 13 121z" />
    <glyph glyph-name="Cacute" unicode="&#x106;" horiz-adv-x="776" 
d="M420 1875l-112 -274h162l158 274h-208zM487 482v-132q0 -80 -17 -113q-21 -42 -78 -42q-61 0 -80 48q-16 37 -16 122v788q0 85 16 118q20 42 79 42q60 0 80 -42q16 -33 16 -111v-119h227v121q0 178 -65 270q-79 110 -257 110q-180 0 -256 -108q-66 -92 -66 -282v-789
q0 -186 65 -277q75 -106 256 -106q179 0 257 103q66 88 66 265v134h-227z" />
    <glyph glyph-name="cacute" unicode="&#x107;" horiz-adv-x="756" 
d="M408 1577l-112 -274h162l158 274h-208zM474 354q0 -74 -15 -105q-21 -43 -78 -43q-50 0 -71 30q-19 28 -21 79q-2 47 0 96v98v326q0 88 14 122q18 43 78 43q57 0 79 -45q14 -33 14 -104v-47h220v44q0 178 -61 266q-76 110 -252 110q-173 0 -248 -94q-64 -82 -66 -262
v-496q0 -191 62 -282q75 -110 254 -110q178 0 252 109q59 86 59 267v43h-220v-45z" />
    <glyph glyph-name="Ccircumflex" unicode="&#x108;" horiz-adv-x="776" 
d="M347 1601l45 120l44 -120h178l-118 241h-209l-118 -241h178zM487 482v-132q0 -80 -17 -113q-21 -42 -78 -42q-61 0 -80 48q-16 37 -16 122v788q0 85 16 118q20 42 79 42q60 0 80 -42q16 -33 16 -111v-119h227v121q0 178 -65 270q-79 110 -257 110q-180 0 -256 -108
q-66 -92 -66 -282v-789q0 -186 65 -277q75 -106 256 -106q179 0 257 103q66 88 66 265v134h-227z" />
    <glyph glyph-name="ccircumflex" unicode="&#x109;" horiz-adv-x="756" 
d="M336 1281l45 120l44 -120h178l-118 241h-209l-118 -241h178zM474 354q0 -74 -15 -105q-21 -43 -78 -43q-50 0 -71 30q-19 28 -21 79q-2 47 0 96v98v326q0 88 14 122q18 43 78 43q57 0 79 -45q14 -33 14 -104v-47h220v44q0 178 -61 266q-76 110 -252 110q-173 0 -248 -94
q-64 -82 -66 -262v-496q0 -191 62 -282q75 -110 254 -110q178 0 252 109q59 86 59 267v43h-220v-45z" />
    <glyph glyph-name="Cdotaccent" unicode="&#x10a;" horiz-adv-x="776" 
d="M263 1728q0 -66 31 -97.5t98 -31.5q69 0 101 31.5t32 97.5q0 68 -31.5 99.5t-101.5 31.5q-45 0 -73 -14t-42 -42.5t-14 -74.5zM487 482v-132q0 -80 -17 -113q-21 -42 -78 -42q-61 0 -80 48q-16 37 -16 122v788q0 85 16 118q20 42 79 42q60 0 80 -42q16 -33 16 -111v-119
h227v121q0 178 -65 270q-79 110 -257 110q-180 0 -256 -108q-66 -92 -66 -282v-789q0 -186 65 -277q75 -106 256 -106q179 0 257 103q66 88 66 265v134h-227z" />
    <glyph glyph-name="cdotaccent" unicode="&#x10b;" horiz-adv-x="756" 
d="M250 1421q0 -66 31 -97.5t98 -31.5q69 0 101 31.5t32 97.5q0 46 -14 74.5t-43 42.5t-76 14q-67 0 -98 -31.5t-31 -99.5zM474 354q0 -74 -15 -105q-21 -43 -78 -43q-50 0 -71 30q-19 28 -21 79q-2 47 0 96v98v326q0 88 14 122q18 43 78 43q57 0 79 -45q14 -33 14 -104v-47
h220v44q0 178 -61 266q-76 110 -252 110q-173 0 -248 -94q-64 -82 -66 -262v-496q0 -191 62 -282q75 -110 254 -110q178 0 252 109q59 86 59 267v43h-220v-45z" />
    <glyph glyph-name="Ccaron" unicode="&#x10c;" horiz-adv-x="776" 
d="M171 1842l119 -241h208l119 241h-178l-45 -120l-44 120h-179zM487 482v-132q0 -80 -17 -113q-21 -42 -78 -42q-61 0 -80 48q-16 37 -16 122v788q0 85 16 118q20 42 79 42q60 0 80 -42q16 -33 16 -111v-119h227v121q0 178 -65 270q-79 110 -257 110q-180 0 -256 -108
q-66 -92 -66 -282v-789q0 -186 65 -277q75 -106 256 -106q179 0 257 103q66 88 66 265v134h-227z" />
    <glyph glyph-name="ccaron" unicode="&#x10d;" horiz-adv-x="756" 
d="M157 1522l119 -241h208l119 241h-178l-45 -120l-44 120h-179zM474 354q0 -74 -15 -105q-21 -43 -78 -43q-50 0 -71 30q-19 28 -21 79q-2 47 0 96v98v326q0 88 14 122q18 43 78 43q57 0 79 -45q14 -33 14 -104v-47h220v44q0 178 -61 266q-76 110 -252 110q-173 0 -248 -94
q-64 -82 -66 -262v-496q0 -191 62 -282q75 -110 254 -110q178 0 252 109q59 86 59 267v43h-220v-45z" />
    <glyph glyph-name="Dcaron" unicode="&#x10e;" horiz-adv-x="803" 
d="M151 1842l119 -241h208l119 241h-178l-45 -120l-44 120h-179zM96 1521v-1521h317q178 0 255 108q66 92 66 283v739q0 191 -65 283q-78 108 -254 108h-319zM411 1291q56 0 77 -34q21 -35 21 -125v-738q0 -91 -19 -126q-20 -37 -75 -39h-94v1062h90z" />
    <glyph glyph-name="dcaron" unicode="&#x10f;" horiz-adv-x="791" 
d="M691 0v1568h-221v-451q-40 105 -146 105q-148 0 -210 -118q-50 -95 -50 -279v-446q0 -195 48 -287q58 -112 209 -112q109 0 149 108v-88h221zM751 1568l23 -307h147l26 307h-196zM378 206q-60 0 -78 43q-14 33 -14 120v467q0 86 14 120q19 44 78 44q57 0 78 -49
q14 -36 14 -126v-446q0 -87 -14 -123q-19 -50 -78 -50z" />
    <glyph glyph-name="Dcroat" unicode="&#x110;" horiz-adv-x="798" 
d="M-47 650h128v-650h317q178 0 255 108q66 92 66 283v739q0 191 -65 283q-78 108 -254 108h-319v-695h-128v-176zM373 650v176h-67v465h95q54 -2 73 -36t19 -123v-738q0 -93 -20 -128q-21 -37 -78 -37h-89v421h67z" />
    <glyph glyph-name="dcroat" unicode="&#x111;" horiz-adv-x="791" 
d="M679 0v1280h77v207h-77v81h-220v-81h-91v-207h91v-191q-14 42 -32.5 70.5t-48 46t-67.5 17.5q-149 0 -209 -127q-48 -101 -48 -302v-385q0 -199 49 -301q62 -128 210 -128q105 0 146 131v-111h220zM367 204q-58 0 -78 63q-14 43 -14 137v393q0 97 15 140q20 61 77 61
t78 -76q14 -52 14 -151v-363q-2 -91 -18 -139q-22 -65 -74 -65z" />
    <glyph glyph-name="Emacron" unicode="&#x112;" horiz-adv-x="736" 
d="M584 1664v176h-421v-176h421zM662 0v229h-340v430h281v230h-281v402h340v230h-566v-1521h566z" />
    <glyph glyph-name="emacron" unicode="&#x113;" 
d="M590 1344v176h-421v-176h421zM474 406v-45q0 -79 -15 -111q-20 -44 -79 -44q-61 0 -79 43q-15 32 -15 117v111l407 92v272q0 183 -60 273q-74 110 -253 110t-252 -106q-61 -88 -61 -280v-470q0 -190 62 -280q75 -108 254 -108q178 0 251 110q59 87 59 273v43h-219z
M380 1000q59 0 80 -46q14 -33 14 -110v-119l-188 -46v162q0 87 15 118q20 41 79 41z" />
    <glyph glyph-name="Ebreve" unicode="&#x114;" horiz-adv-x="736" 
d="M497 1868q-7 -72 -26 -98q-27 -36 -98 -36q-75 0 -100 38q-8 11 -12.5 28t-6 29t-4.5 39h-125q0 -122 54 -188q63 -79 194 -79q129 0 192 78q55 68 57 189h-125zM662 0v229h-340v430h281v230h-281v402h340v230h-566v-1521h566z" />
    <glyph glyph-name="ebreve" unicode="&#x115;" 
d="M502 1548q-7 -72 -26 -98q-27 -36 -98 -36q-75 0 -100 38q-8 11 -12.5 28t-6 29t-4.5 39h-125q0 -122 54 -188q63 -79 194 -79q129 0 192 78q55 68 57 189h-125zM474 406v-45q0 -79 -15 -111q-20 -44 -79 -44q-61 0 -79 43q-15 32 -15 117v111l407 92v272q0 183 -60 273
q-74 110 -253 110t-252 -106q-61 -88 -61 -280v-470q0 -190 62 -280q75 -108 254 -108q178 0 251 110q59 87 59 273v43h-219zM380 1000q59 0 80 -46q14 -33 14 -110v-119l-188 -46v162q0 87 15 118q20 41 79 41z" />
    <glyph glyph-name="Edotaccent" unicode="&#x116;" horiz-adv-x="736" 
d="M245 1728q0 -44 13.5 -72.5t42 -42.5t73.5 -14q69 0 101 31.5t32 97.5q0 68 -31.5 99.5t-101.5 31.5q-45 0 -73 -14t-42 -42.5t-14 -74.5zM662 0v229h-340v430h281v230h-281v402h340v230h-566v-1521h566z" />
    <glyph glyph-name="edotaccent" unicode="&#x117;" 
d="M250 1435q0 -66 31 -97.5t98 -31.5q69 0 101 31.5t32 97.5q0 68 -31.5 99.5t-101.5 31.5q-67 0 -98 -31.5t-31 -99.5zM474 406v-45q0 -79 -15 -111q-20 -44 -79 -44q-61 0 -79 43q-15 32 -15 117v111l407 92v272q0 183 -60 273q-74 110 -253 110t-252 -106
q-61 -88 -61 -280v-470q0 -190 62 -280q75 -108 254 -108q178 0 251 110q59 87 59 273v43h-219zM380 1000q59 0 80 -46q14 -33 14 -110v-119l-188 -46v162q0 87 15 118q20 41 79 41z" />
    <glyph glyph-name="Eogonek" unicode="&#x118;" horiz-adv-x="736" 
d="M684 -257l13 -131q-43 -49 -134 -49q-94 0 -149 51q-64 59 -64 172q0 95 68 161q29 27 72 53h-394v1521h566v-230h-340v-402h281v-230h-281v-430h340v-229q-63 -43 -89.5 -86.5t-26.5 -107.5q0 -87 61 -87q26 0 44 6q13 5 33 18z" />
    <glyph glyph-name="eogonek" unicode="&#x119;" 
d="M693 569l-407 -92v-111q0 -85 15 -117q18 -43 79 -43q59 0 79 44q15 32 15 111v45h219v-43q0 -186 -59 -273q-28 -42 -68 -66l1 -1q-42 -29 -67 -56.5t-37 -60.5t-12 -77q0 -87 61 -87q26 0 44 6q13 5 33 18l13 -131q-43 -49 -134 -49q-94 0 -149 51q-64 59 -64 172
q0 95 68 161l13 12q-142 13 -207 106q-62 90 -62 280v470q0 192 61 280q73 106 252 106t253 -110q60 -90 60 -273v-272zM286 841v-162l188 46v119q0 77 -14 110q-21 46 -80 46t-79 -41q-15 -31 -15 -118z" />
    <glyph glyph-name="Ecaron" unicode="&#x11a;" horiz-adv-x="736" 
d="M154 1842l119 -241h208l119 241h-178l-45 -120l-44 120h-179zM662 0v229h-340v430h281v230h-281v402h340v230h-566v-1521h566z" />
    <glyph glyph-name="ecaron" unicode="&#x11b;" 
d="M157 1522l119 -241h208l119 241h-178l-45 -120l-44 120h-179zM474 406v-45q0 -79 -15 -111q-20 -44 -79 -44q-61 0 -79 43q-15 32 -15 117v111l407 92v272q0 183 -60 273q-74 110 -253 110t-252 -106q-61 -88 -61 -280v-470q0 -190 62 -280q75 -108 254 -108
q178 0 251 110q59 87 59 273v43h-219zM380 1000q59 0 80 -46q14 -33 14 -110v-119l-188 -46v162q0 87 15 118q20 41 79 41z" />
    <glyph glyph-name="Gcircumflex" unicode="&#x11c;" horiz-adv-x="781" 
d="M346 1601l45 120l44 -120h178l-118 241h-209l-118 -241h178zM385 590h102v-233q0 -77 -18 -109q-21 -38 -78 -38q-62 0 -80 43q-16 33 -16 115v797q0 76 19 110q21 38 77 38q58 0 80 -41q16 -30 16 -111v-120h227v123q0 178 -66 270q-79 108 -257 108q-180 0 -256 -107
q-66 -93 -66 -282v-786q0 -187 66 -279q76 -108 256 -108q178 0 256 106q67 92 67 269v462h-329v-227z" />
    <glyph glyph-name="gcircumflex" unicode="&#x11d;" horiz-adv-x="769" 
d="M347 1281l45 120l44 -120h178l-118 241h-209l-118 -241h178zM458 1202v-87q-40 108 -148 108q-150 0 -209 -115q-48 -95 -48 -290v-433q0 -193 50 -288q61 -117 210 -117q105 0 145 110v-99q0 -97 -24 -137q-24 -41 -68 -41q-57 0 -116 8q-56 6 -89 21l-13 -196
q86 -53 256 -53q152 0 218 109q58 95 58 289v1211h-222zM366 204q-59 0 -78 45q-14 33 -14 118v467q0 89 15 121q18 43 77 43q54 0 75 -51q15 -39 17 -117v-435q0 -93 -14 -134q-20 -57 -78 -57z" />
    <glyph glyph-name="Gbreve" unicode="&#x11e;" horiz-adv-x="781" 
d="M516 1868q-7 -72 -26 -98q-27 -36 -98 -36q-75 0 -100 38q-8 11 -12.5 28t-6 29t-4.5 39h-125q0 -122 54 -188q63 -79 194 -79q129 0 192 78q55 68 57 189h-125zM385 590h102v-233q0 -77 -18 -109q-21 -38 -78 -38q-62 0 -80 43q-16 33 -16 115v797q0 76 19 110
q21 38 77 38q58 0 80 -41q16 -30 16 -111v-120h227v123q0 178 -66 270q-79 108 -257 108q-180 0 -256 -107q-66 -93 -66 -282v-786q0 -187 66 -279q76 -108 256 -108q179 0 256 106q67 92 67 269v462h-329v-227z" />
    <glyph glyph-name="gbreve" unicode="&#x11f;" horiz-adv-x="769" 
d="M506 1548q-7 -72 -26 -98q-27 -36 -98 -36q-75 0 -100 38q-6 8 -10 18t-6.5 24.5t-3.5 24t-3 29.5h-125q0 -122 54 -188q63 -79 194 -79q129 0 192 78q55 68 57 189h-125zM458 1202v-87q-40 108 -148 108q-150 0 -209 -115q-48 -95 -48 -290v-433q0 -193 50 -288
q61 -117 210 -117q105 0 145 110v-99q0 -97 -24 -137q-24 -41 -68 -41q-57 0 -116 8q-56 6 -89 21l-13 -196q86 -53 256 -53q152 0 218 109q58 95 58 289v1211h-222zM366 204q-59 0 -78 45q-14 33 -14 118v467q0 89 15 121q18 43 77 43q54 0 75 -51q15 -39 17 -117v-435
q0 -93 -14 -134q-20 -57 -78 -57z" />
    <glyph glyph-name="Gdotaccent" unicode="&#x120;" horiz-adv-x="781" 
d="M261 1741q0 -66 31 -97.5t98 -31.5q69 0 101 31.5t32 97.5q0 46 -14 74.5t-43 42.5t-76 14q-34 0 -58 -7.5t-40 -24t-23.5 -41t-7.5 -58.5zM385 590h102v-233q0 -77 -18 -109q-21 -38 -78 -38q-62 0 -80 43q-16 33 -16 115v797q0 76 19 110q21 38 77 38q58 0 80 -41
q16 -30 16 -111v-120h227v123q0 178 -66 270q-79 108 -257 108q-180 0 -256 -107q-66 -93 -66 -282v-786q0 -187 66 -279q76 -108 256 -108q179 0 256 106q67 92 67 269v462h-329v-227z" />
    <glyph glyph-name="gdotaccent" unicode="&#x121;" horiz-adv-x="769" 
d="M269 1408q0 -66 31 -97.5t98 -31.5q28 0 49.5 5t37.5 15t26 25.5t15 36t5 47.5q0 68 -31.5 99.5t-101.5 31.5q-67 0 -98 -31.5t-31 -99.5zM458 1202v-87q-40 108 -148 108q-150 0 -209 -115q-48 -95 -48 -290v-433q0 -193 50 -288q61 -117 210 -117q105 0 145 110v-99
q0 -97 -24 -137q-24 -41 -68 -41q-57 0 -116 8q-56 6 -89 21l-13 -196q86 -53 256 -53q152 0 218 109q58 95 58 289v1211h-222zM366 204q-59 0 -78 45q-14 33 -14 118v467q0 89 15 121q18 43 77 43q54 0 75 -51q15 -39 17 -117v-435q0 -93 -14 -134q-20 -57 -78 -57z" />
    <glyph glyph-name="Gcommaaccent" unicode="&#x122;" horiz-adv-x="781" 
d="M385 590h102v-233q0 -77 -18 -109q-21 -38 -78 -38q-62 0 -80 43q-16 33 -16 115v797q0 76 19 110q21 38 77 38q58 0 80 -41q16 -30 16 -111v-120h227v123q0 178 -66 270q-79 108 -257 108q-180 0 -256 -107q-66 -93 -66 -282v-786q0 -187 66 -279q76 -108 256 -108
q178 0 256 106q67 92 67 269v462h-329v-227zM284 -159q0 -27 6 -46t18 -31t30.5 -18t43.5 -6q-7 -44 -16 -68q-13 -34 -38 -71l80 -48q40 43 62 101q28 71 28 165q0 125 -109 125q-55 0 -80 -24t-25 -79z" />
    <glyph glyph-name="gcommaaccent" unicode="&#x123;" horiz-adv-x="769" 
d="M458 1202v-87q-40 108 -148 108q-150 0 -209 -115q-48 -95 -48 -290v-433q0 -193 50 -288q61 -117 210 -117q105 0 145 110v-99q0 -97 -24 -137q-24 -41 -68 -41q-57 0 -116 8q-56 6 -89 21l-13 -196q86 -53 256 -53q152 0 218 109q58 95 58 289v1211h-222zM366 204
q-59 0 -78 45q-14 33 -14 118v467q0 89 15 121q18 43 77 43q54 0 75 -51q15 -39 17 -117v-435q0 -93 -14 -134q-20 -57 -78 -57zM291 -630q0 -53 23.5 -77t74.5 -24q-7 -44 -16 -68q-13 -34 -38 -71l80 -48q40 43 62 101q28 71 28 165q0 125 -109 125q-37 0 -59.5 -10
t-34 -33t-11.5 -60z" />
    <glyph glyph-name="Hcircumflex" unicode="&#x124;" horiz-adv-x="860" 
d="M385 1601l45 120l44 -120h178l-118 241h-209l-118 -241h178zM322 0v652h216v-652h226v1521h-226v-639h-216v639h-226v-1521h226z" />
    <glyph glyph-name="hcircumflex" unicode="&#x125;" horiz-adv-x="792" 
d="M169 1601l45 120l44 -120h178l-118 241h-209l-118 -241h178zM711 0v821q0 194 -49 287q-61 114 -205 114q-115 0 -150 -102v448h-221v-1568h221v830q0 87 16 123q21 45 76 45q60 0 78 -41q13 -29 13 -115v-842h221z" />
    <glyph glyph-name="Hbar" unicode="&#x126;" horiz-adv-x="860" 
d="M322 0v652h216v-652h226v1521h-226v-639h-216v639h-226v-1521h226zM197 1177v176h468v-176h-468z" />
    <glyph glyph-name="hbar" unicode="&#x127;" horiz-adv-x="792" 
d="M662 1108q49 -93 49 -287v-821h-221v842q0 86 -13 115q-18 41 -78 41q-55 0 -76 -45q-16 -36 -16 -123v-830h-221v1319h-62v176h62v73h221v-73h138v-176h-138v-199q34 102 150 102q144 0 205 -114z" />
    <glyph glyph-name="Itilde" unicode="&#x128;" horiz-adv-x="420" 
d="M373 1870q-13 -36 -31 -52.5t-44 -16.5q-7 0 -14 1.5t-16 6t-13.5 7t-16 9.5t-15.5 9q-58 33 -100 33q-76 0 -125 -59q-43 -52 -62 -145l109 -41q14 38 33 54t46 16q6 0 12.5 -1.5t12 -3.5t12.5 -5.5t12 -6.5t13.5 -8t13.5 -8q56 -33 96 -33q78 0 127 60q42 51 60 146z
M323 0v1521h-226v-1521h226z" />
    <glyph glyph-name="itilde" unicode="&#x129;" horiz-adv-x="394" 
d="M360 1550q-13 -36 -31 -52.5t-44 -16.5q-7 0 -14 1.5t-16 6t-13.5 7t-16 9.5t-15.5 9q-58 33 -100 33q-76 0 -125 -59q-43 -52 -62 -145l109 -41q7 20 15.5 33.5t18.5 21.5t20.5 11.5t24.5 3.5q7 0 14 -1.5t15.5 -5.5t14 -7t16.5 -9.5t16 -9.5q56 -33 96 -33q78 0 127 60
q42 51 60 146zM308 0v1202h-221v-1202h221z" />
    <glyph glyph-name="Imacron" unicode="&#x12a;" horiz-adv-x="420" 
d="M420 1664v176h-421v-176h421zM323 0v1521h-226v-1521h226z" />
    <glyph glyph-name="imacron" unicode="&#x12b;" horiz-adv-x="394" 
d="M408 1344v176h-421v-176h421zM308 0v1202h-221v-1202h221z" />
    <glyph glyph-name="Ibreve" unicode="&#x12c;" horiz-adv-x="420" 
d="M334 1868q-7 -72 -26 -98q-27 -36 -98 -36q-75 0 -100 38q-6 8 -10 18t-6.5 24.5t-3.5 23.5t-3 30h-125q0 -122 54 -188q63 -79 194 -79q129 0 192 78q55 68 57 189h-125zM323 0v1521h-226v-1521h226z" />
    <glyph glyph-name="ibreve" unicode="&#x12d;" horiz-adv-x="394" 
d="M322 1548q-7 -72 -26 -98q-27 -36 -98 -36q-75 0 -100 38q-8 11 -12.5 28t-6 29t-4.5 39h-125q0 -122 54 -188q63 -79 194 -79q129 0 192 78q55 68 57 189h-125zM308 0v1202h-221v-1202h221z" />
    <glyph glyph-name="Iogonek" unicode="&#x12e;" horiz-adv-x="420" 
d="M346 -257l13 -131q-43 -49 -134 -49q-94 0 -149 51q-64 59 -64 172q0 95 68 161q29 27 72 53h-55v1521h226v-1520l1 -1q-42 -29 -67 -56.5t-37 -60.5t-12 -77q0 -87 61 -87q26 0 44 6q13 5 33 18z" />
    <glyph glyph-name="iogonek" unicode="&#x12f;" horiz-adv-x="394" 
d="M196 1346q-67 0 -98 28t-31 88t31 88t98 28q46 0 75 -12.5t42.5 -38t13.5 -65.5q0 -60 -31 -88t-100 -28zM330 -257l13 -131q-43 -49 -134 -49q-94 0 -149 51q-64 59 -64 172q0 95 68 161q29 27 72 53h-49v1202h221v-1202q-63 -43 -89.5 -86.5t-26.5 -107.5q0 -87 61 -87
q26 0 44 6q13 5 33 18z" />
    <glyph glyph-name="Idotaccent" unicode="&#x130;" horiz-adv-x="420" 
d="M80 1728q0 -66 31 -97.5t98 -31.5q69 0 101 31.5t32 97.5q0 68 -31.5 99.5t-101.5 31.5q-45 0 -73 -14t-42 -42.5t-14 -74.5zM323 0v1521h-226v-1521h226z" />
    <glyph glyph-name="dotlessi" unicode="&#x131;" horiz-adv-x="394" 
d="M308 0v1202h-221v-1202h221z" />
    <glyph glyph-name="IJ" unicode="&#x132;" horiz-adv-x="1003" 
d="M323 0v1521h-226v-1521h226zM521 1291h164v-911q0 -92 -19 -129q-20 -39 -74 -39q-39 0 -60.5 7t-42.5 24l-63 -203q63 -57 166 -57q176 0 253 107q65 92 65 283v1148h-389v-230z" />
    <glyph glyph-name="ij" unicode="&#x133;" horiz-adv-x="773" 
d="M67 1462q0 -60 31 -88t98 -28q69 0 100 28t31 88t-31 88t-100 28q-67 0 -98 -28t-31 -88zM446 1462q0 -60 31 -88t98 -28q69 0 100 28t31 88t-31 88t-100 28q-67 0 -98 -28t-31 -88zM308 0v1202h-221v-1202h221zM466 1202v-1211q0 -101 -13 -137q-14 -41 -57 -41
q-46 0 -85 16q-24 9 -50 26l-12 -195q82 -67 185 -67q149 0 207 109q47 90 47 289v1211h-222z" />
    <glyph glyph-name="Jcircumflex" unicode="&#x134;" horiz-adv-x="583" 
d="M250 1588l45 120l44 -120h178l-118 241h-209l-118 -241h178zM102 1291h164v-911q0 -92 -19 -129q-20 -39 -74 -39q-39 0 -60.5 7t-42.5 24l-63 -203q63 -57 166 -57q176 0 253 107q65 92 65 283v1148h-389v-230z" />
    <glyph glyph-name="jcircumflex" unicode="&#x135;" horiz-adv-x="396" 
d="M150 1281l45 120l44 -120h178l-118 241h-209l-118 -241h178zM86 1202v-1211q0 -101 -13 -137q-14 -41 -57 -41q-46 0 -85 16q-24 9 -50 26l-13 -195q82 -67 185 -67q150 0 208 109q47 90 47 289v1211h-222z" />
    <glyph glyph-name="Kcommaaccent" unicode="&#x136;" horiz-adv-x="816" 
d="M322 0v652h72l184 -652h241l-226 777l211 744h-241l-175 -639h-66v639h-226v-1521h226zM344 -159q0 -53 23.5 -77t74.5 -24q-7 -44 -16 -68q-13 -34 -38 -71l80 -48q40 43 62 101q28 71 28 165q0 125 -109 125q-55 0 -80 -24t-25 -79z" />
    <glyph glyph-name="kcommaaccent" unicode="&#x137;" horiz-adv-x="765" 
d="M85 1568v-1568h221v491h60l150 -491h245l-220 601l194 601h-224l-141 -482h-64v848h-221zM305 -159q0 -53 23.5 -77t74.5 -24q-7 -44 -16 -68q-13 -34 -38 -71l80 -48q40 43 62 101q28 71 28 165q0 125 -109 125q-55 0 -80 -24t-25 -79z" />
    <glyph glyph-name="kgreenlandic" unicode="&#x138;" horiz-adv-x="765" 
d="M85 1201v-1201h221v491h60l150 -491h245l-220 601l194 601h-224l-141 -482h-64v481h-221z" />
    <glyph glyph-name="Lacute" unicode="&#x139;" horiz-adv-x="656" 
d="M239 1875l-112 -274h162l158 274h-208zM646 0v227h-325v1294h-225v-1521h550z" />
    <glyph glyph-name="lacute" unicode="&#x13a;" horiz-adv-x="393" 
d="M228 1892l-112 -274h162l158 274h-208zM307 0v1568h-221v-1568h221z" />
    <glyph glyph-name="Lcommaaccent" unicode="&#x13b;" horiz-adv-x="656" 
d="M646 0v227h-325v1294h-225v-1521h550zM266 -159q0 -53 23.5 -77t74.5 -24q-7 -44 -16 -68q-13 -34 -38 -71l80 -48q40 43 62 101q28 71 28 165q0 125 -109 125q-55 0 -80 -24t-25 -79z" />
    <glyph glyph-name="lcommaaccent" unicode="&#x13c;" horiz-adv-x="393" 
d="M307 0v1568h-221v-1568h221zM89 -159q0 -53 23.5 -77t74.5 -24q-7 -44 -16 -68q-13 -34 -38 -71l80 -48q40 43 62 101q28 71 28 165q0 125 -109 125q-55 0 -80 -24t-25 -79z" />
    <glyph glyph-name="Lcaron" unicode="&#x13d;" horiz-adv-x="656" 
d="M455 1395q0 -65 29.5 -97t91.5 -32q-7 -51 -19 -83q-16 -41 -48 -86l99 -61q48 53 76 127q34 93 34 206q0 157 -134 157q-66 0 -97.5 -31.5t-31.5 -99.5zM646 0v227h-325v1294h-225v-1521h550z" />
    <glyph glyph-name="lcaron" unicode="&#x13e;" horiz-adv-x="393" 
d="M380 1446q0 -65 29.5 -97t91.5 -32q-7 -51 -19 -83q-16 -41 -48 -86l99 -61q48 53 76 127q34 94 34 206q0 157 -134 157q-66 0 -97.5 -31.5t-31.5 -99.5zM307 0v1568h-221v-1568h221z" />
    <glyph glyph-name="Ldot" unicode="&#x13f;" horiz-adv-x="656" 
d="M646 0v227h-325v1294h-225v-1521h550zM450 737q0 -66 31.5 -97.5t97.5 -31.5q69 0 101 31.5t32 97.5q0 68 -31.5 99.5t-101.5 31.5q-66 0 -97.5 -31.5t-31.5 -99.5z" />
    <glyph glyph-name="ldot" unicode="&#x140;" horiz-adv-x="393" 
d="M307 0v1568h-221v-1568h221zM400 707q0 -66 31 -97.5t98 -31.5q69 0 101 31.5t32 97.5q0 68 -31.5 99.5t-101.5 31.5q-45 0 -73 -14t-42 -42.5t-14 -74.5z" />
    <glyph glyph-name="Lslash" unicode="&#x141;" horiz-adv-x="656" 
d="M321 227h325v-227h-550v431l-87 -75v261l87 75v829h225v-635l127 109v-261l-127 -109v-398z" />
    <glyph glyph-name="lslash" unicode="&#x142;" horiz-adv-x="393" 
d="M307 0v741l149 131v215l-149 -131v612h-221v-806l-140 -123v-214l140 122v-547h221z" />
    <glyph glyph-name="Nacute" unicode="&#x143;" horiz-adv-x="860" 
d="M476 1874l-112 -274h162l158 274h-208zM309 0l-12 907l-19 176l283 -1083h241l1 1521h-213l12 -897l29 -250l-273 1147h-262v-1521h213z" />
    <glyph glyph-name="nacute" unicode="&#x144;" horiz-adv-x="792" 
d="M426 1555l-112 -274h162l158 274h-208zM711 0v821q0 194 -49 287q-61 114 -205 114q-117 0 -150 -102v82h-221v-1202h221v830q0 87 16 123q19 45 76 45q60 0 78 -41q13 -29 13 -115v-842h221z" />
    <glyph glyph-name="Ncommaaccent" unicode="&#x145;" horiz-adv-x="860" 
d="M309 0l-12 907l-19 176l283 -1083h241l1 1521h-213l12 -897l29 -250l-273 1147h-262v-1521h213zM345 -159q0 -53 23.5 -77t74.5 -24q-7 -44 -16 -68q-13 -34 -38 -71l80 -48q40 43 62 101q28 71 28 165q0 125 -109 125q-55 0 -80 -24t-25 -79z" />
    <glyph glyph-name="ncommaaccent" unicode="&#x146;" horiz-adv-x="792" 
d="M711 0v821q0 194 -49 287q-61 114 -205 114q-117 0 -150 -102v82h-221v-1202h221v830q0 87 16 123q19 45 76 45q60 0 78 -41q13 -29 13 -115v-842h221zM296 -159q0 -53 23.5 -77t74.5 -24q-7 -44 -16 -68q-13 -34 -38 -71l80 -48q40 43 62 101q28 71 28 165
q0 125 -109 125q-55 0 -80 -24t-25 -79z" />
    <glyph glyph-name="Ncaron" unicode="&#x147;" horiz-adv-x="860" 
d="M237 1842l119 -241h208l119 241h-178l-45 -120l-44 120h-179zM309 0l-12 907l-19 176l283 -1083h241l1 1521h-213l12 -897l29 -250l-273 1147h-262v-1521h213z" />
    <glyph glyph-name="ncaron" unicode="&#x148;" horiz-adv-x="792" 
d="M174 1522l119 -241h208l119 241h-178l-45 -120l-44 120h-179zM711 0v821q0 194 -49 287q-61 114 -205 114q-117 0 -150 -102v82h-221v-1202h221v830q0 87 16 123q19 45 76 45q60 0 78 -41q13 -29 13 -115v-842h221z" />
    <glyph glyph-name="napostrophe" unicode="&#x149;" horiz-adv-x="1006" 
d="M5 1121q0 -53 23.5 -77t74.5 -24q-7 -45 -16 -68q-13 -34 -38 -71l80 -48q40 43 62 101q28 71 28 165q0 125 -109 125q-55 0 -80 -24t-25 -79zM908 0v821q0 194 -49 287q-61 114 -205 114q-117 0 -150 -102v82h-221v-1202h221v830q0 87 16 123q19 45 76 45q60 0 78 -41
q13 -29 13 -115v-842h221z" />
    <glyph glyph-name="Eng" unicode="&#x14a;" horiz-adv-x="860" 
d="M803 1521l-1 -1509h1v-26q0 -204 -63 -297q-75 -113 -257 -113q-103 0 -166 57l62 202q23 -16 44 -23t60 -7q55 0 75 38q18 35 18 130v27h-15l-283 1083l19 -176l12 -907h-213v1521h262l273 -1147l-29 250l-12 897h213z" />
    <glyph glyph-name="eng" unicode="&#x14b;" horiz-adv-x="792" 
d="M490 799v-803q0 -101 -14 -137q-16 -42 -57 -42q-74 0 -135 38l-13 -191q82 -67 185 -67q149 0 207 110q48 91 48 289v798q0 200 -48 300q-62 128 -210 128q-106 0 -146 -137v117h-221v-1202h221v769q0 102 15 153q21 76 77 76q58 0 78 -63q13 -40 13 -136z" />
    <glyph glyph-name="Omacron" unicode="&#x14c;" horiz-adv-x="780" 
d="M599 1664v176h-421v-176h421zM67 371q0 -189 66 -281q77 -110 257 -110t257 109q66 92 66 282v780q0 189 -65 282q-79 109 -258 109t-257 -108q-66 -93 -66 -283v-780zM390 1313q61 0 81 -44q15 -36 15 -119v-778q0 -85 -16 -120q-20 -43 -80 -43q-62 0 -81 45
q-16 34 -16 118v778q0 86 17 120q22 43 80 43z" />
    <glyph glyph-name="omacron" unicode="&#x14d;" 
d="M584 1344v176h-421v-176h421zM66 369q0 -190 63 -280q74 -109 254 -109q178 0 251 108q59 87 59 282v464q0 191 -61 281q-74 109 -252 109q-177 0 -252 -108q-62 -91 -62 -283v-464zM380 1000q59 0 78 -44q13 -30 13 -118v-471q0 -88 -14 -119q-18 -42 -77 -42
q-61 0 -79 43q-13 30 -13 117v472q0 87 14 120q19 42 78 42z" />
    <glyph glyph-name="Obreve" unicode="&#x14e;" horiz-adv-x="780" 
d="M512 1868q-7 -72 -26 -98q-27 -36 -98 -36q-75 0 -100 38q-8 11 -12.5 28t-6 29t-4.5 39h-125q0 -122 54 -188q63 -79 194 -79q129 0 192 78q55 68 57 189h-125zM67 371q0 -189 66 -281q76 -110 257 -110q180 0 257 109q66 92 66 282v780q0 189 -65 282q-79 109 -258 109
t-257 -108q-66 -93 -66 -283v-780zM390 1313q61 0 81 -44q15 -36 15 -119v-778q0 -85 -16 -120q-20 -43 -80 -43q-62 0 -81 45q-16 34 -16 118v778q0 86 17 120q21 43 80 43z" />
    <glyph glyph-name="obreve" unicode="&#x14f;" 
d="M496 1548q-7 -72 -26 -98q-27 -36 -98 -36q-75 0 -100 38q-8 11 -12.5 28t-6 29t-4.5 39h-125q0 -122 54 -188q63 -79 194 -79q129 0 192 78q55 68 57 189h-125zM66 369q0 -190 63 -280q74 -109 254 -109q178 0 251 108q59 87 59 282v464q0 191 -61 281q-74 109 -252 109
q-177 0 -252 -108q-62 -91 -62 -283v-464zM380 1000q59 0 78 -44q13 -30 13 -118v-471q0 -88 -14 -119q-18 -42 -77 -42q-61 0 -79 43q-13 30 -13 117v472q0 87 14 120q19 42 78 42z" />
    <glyph glyph-name="Ohungarumlaut" unicode="&#x150;" horiz-adv-x="780" 
d="M301 1875l-112 -274h154l153 274h-195zM537 1875l-112 -274h155l152 274h-195zM67 371q0 -189 66 -281q77 -110 257 -110t257 109q66 92 66 282v780q0 189 -65 282q-79 109 -258 109t-257 -108q-66 -93 -66 -283v-780zM390 1313q61 0 81 -44q15 -36 15 -119v-778
q0 -85 -16 -120q-20 -43 -80 -43q-62 0 -81 45q-16 34 -16 118v778q0 86 17 120q22 43 80 43z" />
    <glyph glyph-name="ohungarumlaut" unicode="&#x151;" 
d="M254 1555l-112 -274h154l153 274h-195zM490 1555l-112 -274h155l152 274h-195zM66 369q0 -190 63 -280q74 -109 254 -109q178 0 251 108q59 87 59 282v464q0 191 -61 281q-74 109 -252 109q-177 0 -252 -108q-62 -91 -62 -283v-464zM380 1000q59 0 78 -44q13 -30 13 -118
v-471q0 -88 -14 -119q-18 -42 -77 -42q-61 0 -79 43q-13 30 -13 117v472q0 87 14 120q19 42 78 42z" />
    <glyph glyph-name="OE" unicode="&#x152;" horiz-adv-x="1133" 
d="M1052 0v229h-340v430h282v230h-282v406h340v229l-566 -1v-51q-25 32 -52.5 50.5t-65.5 18.5q-160 0 -231 -111q-63 -98 -63 -288v-763q0 -195 62 -289q68 -107 231 -107q47 0 76 27q19 18 43 60v-70h566zM398 209q-40 0 -57 23t-28 77q-4 7 -5 28q-2 17 -4 53
q-4 80 -4 137v389v52q0 41 2 127q2 68 6 105q1 17 5 24q9 41 24 62q20 26 59 26q35 0 57 -22.5t22 -53.5v-953q-20 -74 -77 -74z" />
    <glyph glyph-name="oe" unicode="&#x153;" horiz-adv-x="1173" 
d="M889 406v-45q0 -79 -15 -111q-20 -44 -79 -44q-61 0 -79 43q-15 32 -15 117v111l407 92v272q0 183 -61 273q-76 110 -252 110q-132 0 -203 -58q-74 58 -205 58q-177 0 -252 -108q-62 -91 -62 -283v-464q0 -189 63 -280q74 -109 254 -109q135 0 205 58q71 -58 203 -58
q178 0 251 110q59 87 59 273v43h-219zM387 1000q66 0 85 -44q13 -30 13 -118v-471q0 -88 -14 -119q-20 -42 -84 -42q-60 0 -78 43q-14 33 -14 117v472q0 87 14 120q19 42 78 42zM795 1000q59 0 80 -46q14 -33 14 -110v-119l-188 -46v162q0 87 15 118q20 41 79 41z" />
    <glyph glyph-name="Racute" unicode="&#x154;" horiz-adv-x="817" 
d="M413 1875l-112 -274h162l158 274h-208zM322 0v588h55q44 2 73 -41q36 -53 43 -157l13 -212q4 -50 21 -111q8 -29 22 -67h234q-15 36 -21.5 53t-16 55.5t-11.5 76.5l-14 210q-7 115 -30 172q-19 47 -72 92q127 100 127 277v204q0 206 -80 296q-77 85 -244 85h-325v-1521
h226zM519 969q0 -71 -18 -106q-22 -45 -72 -45h-107v473h94q55 0 77 -30q26 -37 26 -128v-164z" />
    <glyph glyph-name="racute" unicode="&#x155;" horiz-adv-x="531" 
d="M328 1555l-112 -274h162l158 274h-208zM524 1203q-24 19 -64 19l-1 -1v1q-58 0 -94.5 -32t-57.5 -92v104h-221v-1202h221v798q5 194 125 194h1q21 0 36 -4q27 -8 45 -22l10 -6v243z" />
    <glyph glyph-name="Rcommaaccent" unicode="&#x156;" horiz-adv-x="817" 
d="M322 0v588h55q44 2 73 -41q36 -53 43 -157l13 -212q4 -50 21 -111q8 -29 22 -67h234q-10 23 -13 30t-11.5 30.5t-12 38.5t-7.5 38.5t-5 47.5l-14 210q-7 115 -30 172q-19 47 -72 92q127 100 127 277v204q0 206 -80 296q-77 85 -244 85h-325v-1521h226zM519 969
q0 -71 -18 -106q-23 -45 -72 -45h-107v473h94q55 0 77 -30q26 -37 26 -128v-164zM320 -159q0 -53 23.5 -77t74.5 -24q-7 -44 -16 -68q-13 -34 -38 -71l80 -48q40 43 62 101q28 71 28 165q0 125 -109 125q-55 0 -80 -24t-25 -79z" />
    <glyph glyph-name="rcommaaccent" unicode="&#x157;" horiz-adv-x="531" 
d="M524 1203q-24 19 -64 19l-1 -1v1q-58 0 -94.5 -32t-57.5 -92v104h-221v-1202h221v798q5 194 125 194h1q21 0 36 -4q27 -8 45 -22l10 -6v243zM91 -159q0 -53 23.5 -77t74.5 -24q-7 -44 -16 -68q-13 -34 -38 -71l80 -48q40 43 62 101q28 71 28 165q0 125 -109 125
q-55 0 -80 -24t-25 -79z" />
    <glyph glyph-name="Rcaron" unicode="&#x158;" horiz-adv-x="817" 
d="M147 1842l119 -241h208l119 241h-178l-45 -120l-44 120h-179zM322 0v588h55q44 2 73 -41q36 -53 43 -157l13 -212q4 -50 21 -111q8 -29 22 -67h234q-15 36 -22 53t-16 55.5t-11 76.5l-14 210q-7 115 -30 172q-19 47 -72 92q127 100 127 277v204q0 206 -80 296
q-77 85 -244 85h-325v-1521h226zM519 969q0 -71 -18 -106q-23 -45 -72 -45h-107v473h94q55 0 77 -30q26 -37 26 -128v-164z" />
    <glyph glyph-name="rcaron" unicode="&#x159;" horiz-adv-x="531" 
d="M71 1522l119 -241h208l119 241h-178l-45 -120l-44 120h-179zM524 1203q-24 19 -64 19l-1 -1v1q-58 0 -94.5 -32t-57.5 -92v104h-221v-1202h221v798q5 194 125 194h1q21 0 36 -4q27 -8 45 -22l10 -6v243z" />
    <glyph glyph-name="Sacute" unicode="&#x15a;" horiz-adv-x="767" 
d="M419 1875l-112 -274h162l158 274h-208zM696 397q-5 309 -216 458l-108 75q-43 30 -63.5 83.5t-21.5 116.5l-1 42q-5 141 92 141q48 0 68.5 -33t20.5 -97v-142h226v135q0 125 -33.5 206t-102.5 120.5t-176 39.5q-159 0 -237 -84q-83 -89 -83 -276v-27q0 -164 35 -247
q41 -102 166 -197l122 -93q51 -38 71 -107q16 -59 16 -154v-11q0 -70 -23 -103t-77 -33q-55 0 -78 39q-19 33 -19 120v113h-225v-112q0 -197 70 -288q79 -102 255 -102q326 0 323 367z" />
    <glyph glyph-name="sacute" unicode="&#x15b;" horiz-adv-x="704" 
d="M381 1555l-112 -274h162l158 274h-208zM658 317q0 86 -28 148q-50 112 -164 201q-43 32 -93 74q-49 40 -74.5 76t-25.5 78q0 45 18 73q20 33 63 33q48 0 67 -44q13 -33 13 -115l217 -1q0 219 -69 304q-35 43 -90.5 61.5t-137.5 18.5q-183 0 -254 -100q-51 -72 -51 -232
q0 -83 28 -141q49 -106 161 -189q55 -43 90 -73q47 -42 72.5 -82t25.5 -89q0 -51 -19 -81.5t-59 -30.5q-57 0 -75 45q-14 35 -14 133h-222q0 -209 61 -299q70 -105 252 -105q170 0 242 85q66 77 66 252z" />
    <glyph glyph-name="Scircumflex" unicode="&#x15c;" horiz-adv-x="767" 
d="M333 1601l45 120l44 -120h178l-118 241h-209l-118 -241h178zM696 397q-5 309 -216 458l-108 75q-43 30 -63.5 83.5t-21.5 116.5l-1 42q-5 141 92 141q33 0 53 -16t28 -44t8 -70v-142h226v135q0 125 -33.5 206t-102.5 120.5t-176 39.5q-159 0 -237 -84q-83 -89 -83 -276
v-27q0 -164 35 -247q41 -102 166 -197l122 -93q51 -38 71 -107q16 -59 16 -154v-11q0 -70 -23 -103t-77 -33q-55 0 -78 39q-19 33 -19 120v113h-225v-112q0 -197 70 -288q79 -102 255 -102q326 0 323 367z" />
    <glyph glyph-name="scircumflex" unicode="&#x15d;" horiz-adv-x="704" 
d="M305 1281l45 120l44 -120h178l-118 241h-209l-118 -241h178zM658 317q0 86 -28 148q-50 112 -164 201q-43 32 -93 74q-49 40 -74.5 76t-25.5 78q0 45 18 73q20 33 63 33q48 0 67 -44q13 -33 13 -115l217 -1q0 219 -69 304q-35 43 -90.5 61.5t-137.5 18.5
q-184 0 -254 -100q-51 -72 -51 -232q0 -83 28 -141q49 -106 161 -189q55 -43 90 -73q47 -42 72.5 -82t25.5 -89q0 -51 -19 -81.5t-59 -30.5q-57 0 -75 45q-14 35 -14 133h-222q0 -209 61 -299q70 -105 252 -105q170 0 242 85q66 77 66 252z" />
    <glyph glyph-name="Scedilla" unicode="&#x15e;" horiz-adv-x="767" 
d="M483 -67q63 0 102 -46q37 -45 37 -110q0 -91 -65 -140q-60 -47 -169 -47q-59 0 -106 21t-76 54l34 86q32 -24 58 -34q33 -14 84 -14q34 0 55.5 16t21.5 48q0 36 -53 49q-45 11 -87 -4l1 171q-135 13 -201 99q-70 91 -70 288v112h225v-113q0 -87 19 -120q23 -39 78 -39
q36 0 58.5 15t32 44.5t9.5 76.5v11q0 95 -16 154q-20 69 -71 107l-122 93q-125 95 -166 197q-35 83 -35 247v27q0 187 83 276q78 84 237 84q160 0 236 -89.5t76 -276.5v-135h-226v142q0 64 -20.5 97t-68.5 33q-97 0 -92 -141l1 -42q1 -62 21.5 -116t63.5 -84l108 -75
q211 -149 216 -458l1 -50q3 -334 -267 -364l-1 -57l16 3q15 4 38 4z" />
    <glyph glyph-name="scedilla" unicode="&#x15f;" horiz-adv-x="704" 
d="M467 -70q62 0 102 -46q37 -45 37 -110q0 -91 -65 -140q-60 -47 -169 -47q-40 0 -76 10.5t-62 27t-44 37.5l34 86q32 -24 58 -34q33 -14 84 -14q34 0 55.5 16t21.5 48q0 36 -53 49q-45 11 -87 -4l1 173q-145 11 -206 103q-61 90 -61 299h222q0 -98 14 -133q18 -45 75 -45
q40 0 59 30.5t19 81.5q0 49 -25.5 89t-72.5 82q-35 30 -90 73q-112 83 -161 189q-28 57 -28 141q0 160 51 232q70 100 254 100q82 0 137.5 -18.5t90.5 -61.5q69 -85 69 -304l-217 1q0 82 -13 115q-19 44 -67 44q-43 0 -63 -33q-18 -28 -18 -73q0 -42 25.5 -78t74.5 -76
q50 -42 93 -74q114 -89 164 -201q28 -62 28 -148q0 -175 -66 -252q-58 -69 -178 -82l-1 -60l16 3q15 4 38 4z" />
    <glyph glyph-name="Scaron" unicode="&#x160;" horiz-adv-x="767" 
d="M155 1842l119 -241h208l119 241h-178l-45 -120l-44 120h-179zM696 397q-5 309 -216 458l-108 75q-43 30 -63.5 83.5t-21.5 116.5l-1 42q-5 141 92 141q33 0 53 -16t28 -44t8 -70v-142h226v135q0 125 -33.5 206t-102.5 120.5t-176 39.5q-159 0 -237 -84q-83 -89 -83 -276
v-27q0 -164 35 -247q41 -102 166 -197l122 -93q51 -38 71 -107q16 -59 16 -154v-11q0 -70 -23 -103t-77 -33q-55 0 -78 39q-19 33 -19 120v113h-225v-112q0 -197 70 -288q79 -102 255 -102q326 0 323 367z" />
    <glyph glyph-name="scaron" unicode="&#x161;" horiz-adv-x="704" 
d="M127 1522l119 -241h208l119 241h-178l-45 -120l-44 120h-179zM658 317q0 86 -28 148q-50 112 -164 201q-43 32 -93 74q-48 40 -74 76t-26 78q0 45 18 73q20 33 63 33q48 0 67 -44q13 -33 13 -115l217 -1q0 219 -69 304q-35 43 -90.5 61.5t-137.5 18.5q-183 0 -254 -100
q-51 -72 -51 -232q0 -83 28 -141q49 -106 161 -189q55 -43 90 -73q47 -42 72.5 -82t25.5 -89q0 -51 -19 -81.5t-59 -30.5q-57 0 -75 45q-14 35 -14 133h-222q0 -209 61 -299q70 -105 252 -105q170 0 242 85q66 77 66 252z" />
    <glyph glyph-name="Tcaron" unicode="&#x164;" horiz-adv-x="656" 
d="M107 1842l119 -241h208l119 241h-178l-45 -120l-44 120h-179zM653 1291v230h-644v-230h208v-1291h227v1291h209z" />
    <glyph glyph-name="tcaron" unicode="&#x165;" horiz-adv-x="578" 
d="M511 1406q0 -65 29.5 -97t91.5 -32q-7 -50 -19 -83q-16 -41 -48 -86l99 -61q48 53 76 127q34 93 34 206q0 157 -134 157q-44 0 -72.5 -14t-42.5 -42.5t-14 -74.5zM125 1479v-276h-109v-217h109v-608q0 -199 48 -289q58 -109 207 -109q103 0 185 67l-13 195
q-27 -18 -49 -26q-39 -16 -86 -16q-41 0 -55 41q-14 39 -14 137v608h163v217h-163v276h-223z" />
    <glyph glyph-name="Tbar" unicode="&#x166;" horiz-adv-x="656" 
d="M653 1291h-209v-486h96v-176h-96v-629h-227v629h-98v176h98v486h-208v230h644v-230z" />
    <glyph glyph-name="tbar" unicode="&#x167;" horiz-adv-x="578" 
d="M552 242l13 -195q-82 -67 -185 -67q-149 0 -207 109q-48 90 -48 289v192h-96v176h96v240h-109v217h109v276h223v-276h163v-217h-163v-240h102v-176h-102v-192q0 -98 14 -137q14 -41 55 -41q47 0 86 16q22 8 49 26z" />
    <glyph glyph-name="Utilde" unicode="&#x168;" horiz-adv-x="812" 
d="M560 1870q-13 -36 -31 -52.5t-44 -16.5q-7 0 -14 1.5t-16 6t-13.5 7t-16 9.5t-15.5 9q-58 33 -100 33q-76 0 -125 -59q-43 -52 -62 -145l109 -41q14 38 33 54t46 16q6 0 12.5 -1.5t12 -3.5t12.5 -5.5t12 -6.5t13.5 -8t13.5 -8q56 -33 96 -33q78 0 127 60q42 51 60 146z
M513 1521v-1151q0 -81 -19 -116q-24 -45 -84 -45q-61 0 -87 45q-23 38 -23 116v1151h-225v-1155q0 -187 73 -281q81 -105 262 -105q179 0 259 105q69 91 69 281v1155h-225z" />
    <glyph glyph-name="utilde" unicode="&#x169;" horiz-adv-x="795" 
d="M557 1550q-13 -36 -31 -52.5t-44 -16.5q-7 0 -14 1.5t-16 6t-13.5 7t-16 9.5t-15.5 9q-58 33 -100 33q-76 0 -125 -59q-43 -52 -62 -145l109 -41q9 26 21 41.5t26 22t32 6.5q7 0 14 -1.5t15.5 -5.5t14 -7t16.5 -9.5t16 -9.5q56 -33 96 -33q78 0 127 60q42 51 60 146z
M84 1203v-818q0 -195 49 -288q61 -116 210 -116q105 0 145 108v-89h220v1202h-220v-856q-2 -73 -17 -104q-20 -38 -74 -38q-60 0 -79 45q-13 30 -13 118v836h-221z" />
    <glyph glyph-name="Umacron" unicode="&#x16a;" horiz-adv-x="812" 
d="M607 1664v176h-421v-176h421zM513 1521v-1151q0 -81 -19 -116q-24 -45 -84 -45q-61 0 -87 45q-23 38 -23 116v1151h-225v-1155q0 -187 73 -281q81 -105 262 -105q179 0 259 105q69 91 69 281v1155h-225z" />
    <glyph glyph-name="umacron" unicode="&#x16b;" horiz-adv-x="795" 
d="M605 1344v176h-421v-176h421zM84 1203v-818q0 -195 49 -288q61 -116 210 -116q105 0 145 108v-89h220v1202h-220v-856q-2 -73 -17 -104q-20 -38 -74 -38q-60 0 -79 45q-13 30 -13 118v836h-221z" />
    <glyph glyph-name="Ubreve" unicode="&#x16c;" horiz-adv-x="812" 
d="M520 1868q-7 -72 -26 -98q-27 -36 -98 -36q-75 0 -100 38q-8 11 -12.5 28t-6 29t-4.5 39h-125q0 -122 54 -188q63 -79 194 -79q129 0 192 78q55 68 57 189h-125zM513 1521v-1151q0 -81 -19 -116q-24 -45 -84 -45q-61 0 -87 45q-23 38 -23 116v1151h-225v-1155
q0 -187 73 -281q81 -105 262 -105q179 0 259 105q69 91 69 281v1155h-225z" />
    <glyph glyph-name="ubreve" unicode="&#x16d;" horiz-adv-x="795" 
d="M519 1548q-7 -72 -26 -98q-27 -36 -98 -36q-75 0 -100 38q-8 11 -12.5 28t-6 29t-4.5 39h-125q0 -122 54 -188q63 -79 194 -79q129 0 192 78q55 68 57 189h-125zM84 1203v-818q0 -195 49 -288q61 -116 210 -116q105 0 145 108v-89h220v1202h-220v-856q-2 -73 -17 -104
q-20 -38 -74 -38q-60 0 -79 45q-13 30 -13 118v836h-221z" />
    <glyph glyph-name="Uring" unicode="&#x16e;" horiz-adv-x="812" 
d="M204 1790q0 -99 46.5 -147.5t144.5 -48.5q101 0 147.5 48t46.5 148q0 104 -46 152t-148 48q-99 0 -145 -48.5t-46 -151.5zM345 1791q0 59 51 59q28 0 39.5 -14.5t11.5 -44.5q0 -29 -11.5 -43.5t-39.5 -14.5q-51 0 -51 58zM513 1521v-1151q0 -81 -19 -116q-24 -45 -84 -45
q-61 0 -87 45q-23 38 -23 116v1151h-225v-1155q0 -187 73 -281q81 -105 262 -105q179 0 259 105q69 91 69 281v1155h-225z" />
    <glyph glyph-name="uring" unicode="&#x16f;" horiz-adv-x="795" 
d="M202 1470q0 -99 46.5 -147.5t144.5 -48.5q101 0 147.5 48t46.5 148q0 104 -46 152t-148 48q-99 0 -145 -48.5t-46 -151.5zM343 1471q0 59 51 59q28 0 39.5 -14.5t11.5 -44.5q0 -29 -11.5 -43.5t-39.5 -14.5q-51 0 -51 58zM84 1203v-818q0 -195 49 -288q61 -116 210 -116
q105 0 145 108v-89h220v1202h-220v-856q-2 -73 -17 -104q-20 -38 -74 -38q-60 0 -79 45q-13 30 -13 118v836h-221z" />
    <glyph glyph-name="Uhungarumlaut" unicode="&#x170;" horiz-adv-x="812" 
d="M313 1875l-112 -274h154l153 274h-195zM549 1875l-112 -274h155l152 274h-195zM513 1521v-1151q0 -81 -19 -116q-24 -45 -84 -45q-61 0 -87 45q-23 38 -23 116v1151h-225v-1155q0 -187 73 -281q81 -105 262 -105q179 0 259 105q69 91 69 281v1155h-225z" />
    <glyph glyph-name="uhungarumlaut" unicode="&#x171;" horiz-adv-x="795" 
d="M316 1555l-112 -274h154l153 274h-195zM552 1555l-112 -274h155l152 274h-195zM84 1203v-818q0 -195 49 -288q61 -116 210 -116q105 0 145 108v-89h220v1202h-220v-856q-2 -73 -17 -104q-20 -38 -74 -38q-60 0 -79 45q-13 30 -13 118v836h-221z" />
    <glyph glyph-name="Uogonek" unicode="&#x172;" horiz-adv-x="812" 
d="M513 1521h225v-1155q0 -190 -69 -281q-44 -58 -117 -84q-32 -25 -51.5 -50.5t-29 -55.5t-9.5 -69q0 -87 61 -87q26 0 44 6q13 5 33 18l13 -131q-43 -49 -134 -49q-94 0 -149 51q-64 59 -64 172q0 95 68 161q6 6 18 16q-135 14 -204 102q-73 94 -73 281v1155h225v-1151
q0 -78 23 -116q26 -45 87 -45q60 0 84 45q19 35 19 116v1151z" />
    <glyph glyph-name="uogonek" unicode="&#x173;" horiz-adv-x="795" 
d="M730 -257l13 -131q-43 -49 -134 -49q-94 0 -149 51q-64 59 -64 172q0 95 68 161q29 27 72 53h-48v89q-40 -108 -145 -108q-149 0 -210 116q-49 93 -49 288v818h221v-836q0 -88 13 -118q19 -45 79 -45q54 0 74 38q15 31 17 104v856h220v-1202q-63 -43 -89.5 -86.5
t-26.5 -107.5q0 -87 61 -87q26 0 44 6q13 5 33 18z" />
    <glyph glyph-name="Wcircumflex" unicode="&#x174;" horiz-adv-x="1159" 
d="M534 1601l45 120l44 -120h178l-118 241h-209l-118 -241h178zM899 1522l-78 -926l-15 -239l-17 239l-86 926h-249l-84 -926l-18 -246l-15 246l-79 926h-228l168 -1522h269l99 804l12 160l13 -159l100 -805h267l169 1522h-228z" />
    <glyph glyph-name="wcircumflex" unicode="&#x175;" horiz-adv-x="1201" 
d="M563 1281l45 120l44 -120h178l-118 241h-209l-118 -241h178zM162 0h342l97 928l97 -928h341l153 1203h-229l-101 -977l-101 977h-320l-102 -979l-101 979h-227z" />
    <glyph glyph-name="Ycircumflex" unicode="&#x176;" horiz-adv-x="751" 
d="M339 1601l45 120l44 -120h178l-118 241h-209l-118 -241h178zM748 1521h-222l-143 -638l-131 638h-248l264 -965v-556h226v556z" />
    <glyph glyph-name="ycircumflex" unicode="&#x177;" horiz-adv-x="713" 
d="M312 1281l45 120l44 -120h178l-118 241h-209l-118 -241h178zM8 1203l177 -1203h138l-3 -26q-17 -112 -63 -178q-35 -50 -94 -84l96 -164q98 45 168 150q76 117 99 279l58 400q36 247 61 413q26 170 61 413h-228q-60 -488 -113 -903l-9 -62l-120 965h-228z" />
    <glyph glyph-name="Ydieresis" unicode="&#x178;" horiz-adv-x="751" 
d="M162 1738q0 -113 101 -113q54 0 78.5 27.5t24.5 85.5q0 40 -11 65.5t-33.5 37.5t-58.5 12q-52 0 -76.5 -27.5t-24.5 -87.5zM402 1738q0 -113 101 -113q54 0 78.5 27.5t24.5 85.5q0 40 -11 65.5t-33.5 37.5t-58.5 12q-51 0 -76 -27.5t-25 -87.5zM748 1521h-222l-143 -638
l-131 638h-248l264 -965v-556h226v556z" />
    <glyph glyph-name="Zacute" unicode="&#x179;" horiz-adv-x="690" 
d="M387 1875l-112 -274h162l158 274h-208zM643 0v229h-347l346 1093v199h-580v-230h323l-337 -1077v-214h595z" />
    <glyph glyph-name="zacute" unicode="&#x17a;" horiz-adv-x="663" 
d="M360 1555l-112 -274h162l158 274h-208zM609 0v222h-324l324 783v197h-548v-216h302l-327 -788v-198h573z" />
    <glyph glyph-name="Zdotaccent" unicode="&#x17b;" horiz-adv-x="690" 
d="M224 1728q0 -66 31 -97.5t98 -31.5q69 0 101 31.5t32 97.5q0 68 -31.5 99.5t-101.5 31.5q-45 0 -73 -14t-42 -42.5t-14 -74.5zM643 0v229h-347l346 1093v199h-580v-230h323l-337 -1077v-214h595z" />
    <glyph glyph-name="zdotaccent" unicode="&#x17c;" horiz-adv-x="663" 
d="M193 1408q0 -66 31 -97.5t98 -31.5q69 0 101 31.5t32 97.5q0 68 -31.5 99.5t-101.5 31.5q-67 0 -98 -31.5t-31 -99.5zM609 0v222h-324l324 783v197h-548v-216h302l-327 -788v-198h573z" />
    <glyph glyph-name="Zcaron" unicode="&#x17d;" horiz-adv-x="690" 
d="M132 1842l119 -241h208l119 241h-178l-45 -120l-44 120h-179zM643 0v229h-347l346 1093v199h-580v-230h323l-337 -1077v-214h595z" />
    <glyph glyph-name="zcaron" unicode="&#x17e;" horiz-adv-x="663" 
d="M103 1522l119 -241h208l119 241h-178l-45 -120l-44 120h-179zM609 0v222h-324l324 783v197h-548v-216h302l-327 -788v-198h573z" />
    <glyph glyph-name="longs" unicode="&#x17f;" horiz-adv-x="510" 
d="M14 986h93v-986h222v1211q0 101 14 138q16 40 57 40q35 0 86 -17l39 192q-33 17 -72 30q-54 15 -91 15q-149 0 -207 -109q-48 -90 -48 -289v-8h-93v-217z" />
    <glyph glyph-name="AEacute" unicode="&#x1fc;" horiz-adv-x="1003" 
d="M619 1875l-112 -274h162l158 274h-208zM233 0l52 269h186v-269h491v229h-266v430h207v230h-207v402h266v230h-625l-330 -1521h226zM328 486l143 732v-732h-143z" />
    <glyph glyph-name="aeacute" unicode="&#x1fd;" horiz-adv-x="1189" 
d="M609 1555l-112 -274h162l158 274h-208zM882 406v-25q0 -83 -15 -120q-22 -55 -78 -55q-58 0 -80 64q-15 44 -15 137v70l407 92v249q0 186 -60 284q-75 122 -252 122q-134 0 -202 -74q-68 74 -204 74q-173 0 -248 -121q-62 -100 -62 -279v-20h221v24q0 74 16 115
q21 57 74 57q57 0 77 -62q14 -43 14 -139v-127q-63 27 -154 27q-150 0 -208 -89q-50 -76 -50 -248q0 -180 60 -273q71 -109 229 -109q133 0 223 90q69 -90 216 -90q176 0 251 119q59 94 59 284v23h-219zM789 1000q57 0 79 -58q14 -41 14 -121v-96l-188 -46v118q0 94 16 141
q20 62 79 62zM383 204q-55 0 -76 46q-17 37 -17 107q0 69 14 102q20 47 75 47q61 0 100 -32v-72q0 -84 -18 -133q-24 -65 -78 -65z" />
    <glyph glyph-name="Oslashacute" unicode="&#x1fe;" horiz-adv-x="780" 
d="M372 1900l-112 -274h162l158 274h-208zM343 -130l24 112q32 -2 52 -2v1l1 -1q180 0 257 109q66 94 66 282v780q0 189 -69 285l37 163l-200 58l-30 -119q-25 4 -61 4q-1 0 -1 -1v1q-180 0 -256 -108q-66 -93 -66 -283v-780q0 -202 73 -292l-36 -167zM420 1313q60 0 80 -44
q16 -36 16 -119v-778q0 -88 -16 -120q-22 -43 -80 -43h-1q-61 0 -80 45q-16 34 -16 118v778q0 86 17 120q21 43 79 43h1z" />
    <glyph glyph-name="oslashacute" unicode="&#x1ff;" 
d="M487 1555l-112 -274h162l158 274h-208zM811 1262l-135 54l-53 -121q-63 29 -156 29q-178 0 -253 -108q-61 -90 -61 -283v-464q0 -148 36 -233l-77 -188l144 -46l46 111q69 -33 168 -33q178 0 250 108q59 89 59 282v464q0 159 -42 247zM467 1000q58 0 77 -44
q13 -30 13 -118v-471q0 -88 -14 -119q-18 -42 -76 -42q-61 0 -79 43q-13 30 -13 117v472q0 87 14 120q19 42 78 42z" />
    <glyph glyph-name="Scommaaccent" unicode="&#x218;" horiz-adv-x="767" 
d="M696 397q-5 309 -216 458l-108 75q-43 30 -63.5 83.5t-21.5 116.5l-1 42q-5 141 92 141q33 0 53 -16t28 -44t8 -70v-142h226v135q0 125 -33.5 206t-102.5 120.5t-176 39.5q-159 0 -237 -84q-83 -89 -83 -276v-27q0 -164 35 -247q41 -102 166 -197l122 -93q51 -38 71 -107
q16 -59 16 -154v-11q0 -70 -23 -103t-77 -33q-55 0 -78 39q-19 33 -19 120v113h-225v-112q0 -197 70 -288q79 -102 255 -102q326 0 323 367zM274 -166q0 -36 10.5 -58t32 -32.5t55.5 -10.5q-7 -45 -16 -68q-13 -34 -38 -71l80 -48q40 43 62 101q28 71 28 165q0 125 -109 125
q-55 0 -80 -24t-25 -79z" />
    <glyph glyph-name="scommaaccent" unicode="&#x219;" horiz-adv-x="704" 
d="M658 317q0 86 -28 148q-50 112 -164 201q-43 32 -93 74q-49 40 -74.5 76t-25.5 78q0 45 18 73q20 33 63 33q48 0 67 -44q13 -33 13 -115l217 -1q0 219 -69 304q-35 43 -90.5 61.5t-137.5 18.5q-184 0 -254 -100q-51 -72 -51 -232q0 -83 28 -141q49 -106 161 -189
q55 -43 90 -73q47 -42 72.5 -82t25.5 -89q0 -51 -19 -81.5t-59 -30.5q-57 0 -75 45q-14 35 -14 133h-222q0 -209 61 -299q70 -105 252 -105q170 0 242 85q66 77 66 252zM243 -159q0 -35 10.5 -57.5t32 -33t55.5 -10.5q-7 -44 -16 -68q-13 -34 -38 -71l80 -48q40 43 62 101
q28 71 28 165q0 125 -109 125q-55 0 -80 -24t-25 -79z" />
    <glyph glyph-name="uni021A" unicode="&#x21a;" horiz-adv-x="656" 
d="M653 1291v230h-644v-230h208v-1291h227v1291h209zM223 -159q0 -53 23.5 -77t74.5 -24q-7 -44 -16 -68q-13 -34 -38 -71l80 -48q40 43 62 101q28 71 28 165q0 125 -109 125q-55 0 -80 -24t-25 -79z" />
    <glyph glyph-name="uni021B" unicode="&#x21b;" horiz-adv-x="578" 
d="M125 1479v-276h-109v-217h109v-608q0 -199 48 -289q58 -109 207 -109q103 0 185 67l-13 195q-27 -18 -49 -26q-39 -16 -86 -16q-41 0 -55 41q-14 39 -14 137v608h163v217h-163v276h-223zM258 -194q0 -35 10.5 -57.5t32 -33t55.5 -10.5q-7 -44 -16 -68q-13 -34 -38 -71
l80 -48q40 43 62 101q28 71 28 165q0 125 -109 125q-55 0 -80 -24t-25 -79z" />
    <glyph glyph-name="uni0237" unicode="&#x237;" horiz-adv-x="321" 
d="M88 1202v-1211q0 -101 -13 -137q-14 -41 -57 -41q-46 0 -85 16q-24 9 -50 26l-13 -195q82 -67 185 -67q150 0 208 109q47 90 47 289v1211h-222z" />
    <glyph glyph-name="uni0262" unicode="&#x262;" horiz-adv-x="753" 
d="M366 454h101v-98q0 -72 -15 -106q-21 -44 -78 -44q-53 0 -71 26q-10 15 -15.5 43t-6 51t-0.5 69v16v106v318q0 89 15 122q18 43 78 43q58 0 79 -46q14 -33 14 -105v-45h219v42q0 178 -60 268q-74 110 -252 110q-174 0 -248 -94q-64 -82 -66 -262v-499q0 -190 62 -280
q74 -109 254 -109q177 0 251 109q59 87 59 269v189h-2l2 93h-320v-186z" />
    <glyph glyph-name="uni026A" unicode="&#x26a;" horiz-adv-x="394" 
d="M308 0v1202h-221v-1202h221z" />
    <glyph glyph-name="uni0274" unicode="&#x274;" horiz-adv-x="813" 
d="M725 0v1202h-226v-607l-55 179l-112 428h-246l2 -1202h226v621l45 -149l121 -472h245z" />
    <glyph glyph-name="uni0276" unicode="&#x276;" horiz-adv-x="1112" 
d="M1038 0v231h-337v266h233v231h-233v243h337v231h-490v-59l-14 21q-9 13 -27 27q-47 33 -119 33q-173 0 -247 -96q-66 -85 -66 -263v-33v-39q-1 -13 -1 -38v-34v-349q0 -191 62 -282q75 -110 255 -110q78 0 156 64v-44h491zM388 1000q36 0 57 -21q16 -17 23 -52
q5 -13 8 -32q3 -29 3 -110v-60v-241v-52v-56q0 -64 -4 -80q-5 -46 -22 -66q-20 -24 -65 -24q-39 0 -58 24q-15 17 -22 53q-6 13 -7 31q-5 35 -5 105v58v235v53q0 38 1 57q0 70 3 82q3 38 13.5 59t28 29t46.5 8z" />
    <glyph glyph-name="uni0280" unicode="&#x280;" horiz-adv-x="770" 
d="M306 0v428h50q45 -7 65 -36q28 -41 39 -146l10 -92q8 -62 19 -98q15 -50 17 -56h228q-17 35 -26 68q-10 35 -16 93l-9 91q-13 124 -33 173q-20 46 -74 86q59 51 93.5 122.5t34.5 160.5v52q0 181 -77.5 268.5t-235.5 87.5h-305v-1202h220zM485 794q0 -143 -97 -143h-82
v328h83q51 0 73.5 -30.5t22.5 -99.5v-55z" />
    <glyph glyph-name="uni028F" unicode="&#x28f;" horiz-adv-x="661" 
d="M450 1202l-113 -507l-108 507h-218l212 -753v-449h225v449l203 753h-201z" />
    <glyph glyph-name="uni0299" unicode="&#x299;" horiz-adv-x="775" 
d="M85 1202v-1202h305q160 0 236 81.5t76 261.5v50q0 151 -102 220q93 68 93 209v57q0 172 -81 250q-76 73 -239 73h-288zM467 835q-1 -66 -22.5 -92.5t-75.5 -26.5h-65v263h66q49 0 71 -21q26 -24 26 -89v-34zM483 340q0 -45 -11 -71t-31 -36t-54 -10h-83v283h82
q52 0 74.5 -27t22.5 -92v-47z" />
    <glyph glyph-name="uni029C" unicode="&#x29c;" horiz-adv-x="806" 
d="M308 0v480h190v-480h222v1202h-222v-492h-190v492h-222v-1202h222z" />
    <glyph glyph-name="uni029F" unicode="&#x29f;" horiz-adv-x="654" 
d="M86 1202v-1202h558v232h-337l1 970h-222z" />
    <glyph glyph-name="circumflex" unicode="&#x2c6;" horiz-adv-x="383" 
d="M154 1281l45 120l44 -120h178l-118 241h-209l-118 -241h178z" />
    <glyph glyph-name="caron" unicode="&#x2c7;" horiz-adv-x="586" 
d="M67 1522l119 -241h208l119 241h-178l-45 -120l-44 120h-179z" />
    <glyph glyph-name="breve" unicode="&#x2d8;" horiz-adv-x="622" 
d="M424 1548q-7 -72 -26 -98q-27 -36 -98 -36q-75 0 -100 38q-8 11 -12.5 28t-6 29t-4.5 39h-125q0 -122 54 -188q63 -79 194 -79q129 0 192 78q55 68 57 189h-125z" />
    <glyph glyph-name="dotaccent" unicode="&#x2d9;" horiz-adv-x="413" 
d="M59 1408q0 -66 31 -97.5t98 -31.5q69 0 101 31.5t32 97.5q0 68 -31.5 99.5t-101.5 31.5q-67 0 -98 -31.5t-31 -99.5z" />
    <glyph glyph-name="ring" unicode="&#x2da;" horiz-adv-x="363" 
d="M-16 1470q0 -99 46.5 -147.5t144.5 -48.5q101 0 147.5 48t46.5 148q0 104 -46 152t-148 48q-99 0 -145 -48.5t-46 -151.5zM125 1471q0 59 51 59q28 0 39.5 -14.5t11.5 -44.5q0 -19 -4.5 -31.5t-16 -19.5t-30.5 -7q-51 0 -51 58z" />
    <glyph glyph-name="ogonek" unicode="&#x2db;" horiz-adv-x="400" 
d="M308 -257q-20 -13 -33 -18q-18 -6 -44 -6q-61 0 -61 87q0 64 26.5 107.5t89.5 86.5l-86 44q-112 -52 -158 -97q-68 -66 -68 -161q0 -113 64 -172q55 -51 149 -51q91 0 134 49z" />
    <glyph glyph-name="tilde" unicode="&#x2dc;" horiz-adv-x="381" 
d="M343 1550q-13 -36 -31 -52.5t-44 -16.5q-7 0 -14 1.5t-16 6t-13.5 7t-16 9.5t-15.5 9q-58 33 -100 33q-76 0 -125 -59q-43 -52 -62 -145l109 -41q14 38 33 54t46 16q7 0 14 -1.5t15.5 -5.5t14 -7t16.5 -9.5t16 -9.5q56 -33 96 -33q78 0 127 60q42 51 60 146z" />
    <glyph glyph-name="hungarumlaut" unicode="&#x2dd;" horiz-adv-x="344" 
d="M19 1555l-112 -274h154l153 274h-195zM255 1555l-112 -274h155l152 274h-195z" />
    <glyph glyph-name="uni0326" unicode="&#x326;" horiz-adv-x="0" 
d="M-266 -159q0 -53 23.5 -77t74.5 -24q-7 -44 -16 -68q-13 -34 -38 -71l80 -48q40 43 62 101q28 71 28 165q0 125 -109 125q-55 0 -80 -24t-25 -79z" />
    <glyph glyph-name="tonos" unicode="&#x384;" horiz-adv-x="363" 
d="M98 1555l20 -274h141l27 274h-188z" />
    <glyph glyph-name="dieresistonos" unicode="&#x385;" horiz-adv-x="546" 
d="M177 1689l21 -274h135l27 274h-183zM-34 1418q0 -58 24 -85.5t77 -27.5q36 0 58.5 12.5t33.5 37t11 63.5q0 60 -24.5 87.5t-78.5 27.5q-53 0 -77 -27.5t-24 -87.5zM358 1418q0 -113 101 -113q36 0 59 12.5t33.5 37t10.5 63.5q0 60 -24.5 87.5t-78.5 27.5q-26 0 -45 -6.5
t-31.5 -21t-18.5 -36t-6 -51.5z" />
    <glyph glyph-name="Alphatonos" unicode="&#x386;" horiz-adv-x="743" 
d="M-35 1522l20 -274h141l27 274h-188zM235 0l31 269h215l31 -269h227l-215 1522h-301l-216 -1522h228zM373 1200l83 -714h-165z" />
    <glyph glyph-name="Epsilontonos" unicode="&#x388;" horiz-adv-x="736" 
d="M-138 1523l20 -274h141l27 274h-188zM662 0v229h-340v430h281v230h-281v402h340v230h-566v-1521h566z" />
    <glyph glyph-name="Etatonos" unicode="&#x389;" horiz-adv-x="860" 
d="M322 0v652h216v-652h226v1521h-226v-639h-216v639h-226v-1521h226zM-138 1519l20 -274h141l27 274h-188z" />
    <glyph glyph-name="Iotatonos" unicode="&#x38a;" horiz-adv-x="420" 
d="M-139 1530l20 -274h141l27 274h-188zM323 0v1521h-226v-1521h226z" />
    <glyph glyph-name="Omicrontonos" unicode="&#x38c;" 
d="M-139 1572l20 -274h141l27 274h-188zM61 371q0 -189 66 -281q76 -110 257 -110q180 0 257 109q66 92 66 282v780q0 189 -65 282q-79 109 -258 109t-257 -108q-66 -93 -66 -283v-780zM384 1313q61 0 81 -44q15 -36 15 -119v-778q0 -86 -16 -120q-20 -43 -80 -43
q-62 0 -81 45q-16 34 -16 118v778q0 86 17 120q22 43 80 43z" />
    <glyph glyph-name="Upsilontonos" unicode="&#x38e;" horiz-adv-x="999" 
d="M-5 1524l20 -274h141l27 274h-188zM984 1521h-222l-143 -638l-131 638h-248l264 -965v-556h226v556z" />
    <glyph glyph-name="Omegatonos" unicode="&#x38f;" horiz-adv-x="794" 
d="M-122 1555l20 -274h141l27 274h-188zM368 0v526q-29 0 -42 24q-25 41 -25 136v79v378q0 86 16 122q19 47 76 48q1 -1 4 -1q62 0 82 -47q15 -38 15 -122v-378q0 -117 -7 -158q-14 -81 -60 -81v-526h280v227h-94l3 140q58 58 85 174q19 86 19 224v379q0 189 -65 285
q-78 113 -258 113t-257 -112q-66 -96 -66 -286v-379q0 -137 19 -224q25 -114 85 -174l3 -140h-93v-227h280z" />
    <glyph glyph-name="iotadieresistonos" unicode="&#x390;" horiz-adv-x="394" 
d="M107 1671l21 -274h135l27 274h-183zM-104 1400q0 -39 10.5 -63.5t33 -37t57.5 -12.5q54 0 78.5 27.5t24.5 85.5q0 60 -24.5 87.5t-78.5 27.5q-36 0 -58 -12t-32.5 -37.5t-10.5 -65.5zM288 1400q0 -113 101 -113q36 0 59 12.5t33.5 37t10.5 63.5q0 60 -24.5 87.5
t-78.5 27.5q-52 0 -76.5 -27.5t-24.5 -87.5zM308 0v1202h-221v-1202h221z" />
    <glyph glyph-name="Alpha" unicode="&#x391;" horiz-adv-x="743" 
d="M235 0l31 269h215l31 -269h227l-215 1522h-301l-216 -1522h228zM373 1200l83 -714h-165z" />
    <glyph glyph-name="Beta" unicode="&#x392;" horiz-adv-x="815" 
d="M747 533q0 113 -45 185q-39 59 -102 80q61 19 99 101q37 80 37 201v54q0 183 -70 269q-79 98 -254 98h-316v-1520h327q167 0 244 86q80 89 80 296v150zM510 1075q0 -95 -15 -127q-20 -45 -82 -45h-91v400h90q54 0 76 -33q21 -34 21 -115zM522 390q0 -92 -24 -128
q-23 -32 -76 -32h-100v457h85q67 0 92 -42q22 -39 22 -126z" />
    <glyph glyph-name="Gamma" unicode="&#x393;" horiz-adv-x="661" 
d="M650 1295v230h-564v-1525h226v1295h338z" />
    <glyph glyph-name="uni0394" unicode="&#x394;" horiz-adv-x="743" 
d="M745 0l-202 1521h-331l-204 -1521h737zM378 1216l109 -986h-223z" />
    <glyph glyph-name="Epsilon" unicode="&#x395;" horiz-adv-x="736" 
d="M662 0v229h-340v430h281v230h-281v402h340v230h-566v-1521h566z" />
    <glyph glyph-name="Zeta" unicode="&#x396;" horiz-adv-x="690" 
d="M643 0v229h-347l346 1093v199h-580v-230h323l-337 -1077v-214h595z" />
    <glyph glyph-name="Eta" unicode="&#x397;" horiz-adv-x="860" 
d="M322 0v652h216v-652h226v1521h-226v-639h-216v639h-226v-1521h226z" />
    <glyph glyph-name="Theta" unicode="&#x398;" horiz-adv-x="780" 
d="M67 371q0 -189 66 -281q76 -110 257 -110q180 0 257 109q66 92 66 282v780q0 189 -65 282q-79 109 -258 109t-257 -108q-66 -93 -66 -283v-780zM390 1313q61 0 81 -44q15 -36 15 -119v-778q0 -85 -16 -120q-20 -43 -80 -43q-62 0 -81 45q-16 34 -16 118v778q0 86 17 120
q21 43 80 43zM318 642h147v230h-147v-230z" />
    <glyph glyph-name="Iota" unicode="&#x399;" horiz-adv-x="420" 
d="M323 0v1521h-226v-1521h226z" />
    <glyph glyph-name="Kappa" unicode="&#x39a;" horiz-adv-x="816" 
d="M322 0v652h72l184 -652h241l-226 777l211 744h-241l-175 -639h-66v639h-226v-1521h226z" />
    <glyph glyph-name="Lambda" unicode="&#x39b;" horiz-adv-x="752" 
d="M513 0h232l-202 1521h-331l-204 -1521h231l139 1207z" />
    <glyph glyph-name="Mu" unicode="&#x39c;" horiz-adv-x="1082" 
d="M447 190h190l174 1002l-18 -285l-14 -907h206v1521h-285l-139 -729l-19 -179l-19 178l-139 730h-287v-1521h206l-15 906l-19 305z" />
    <glyph glyph-name="Nu" unicode="&#x39d;" horiz-adv-x="860" 
d="M309 0l-12 907l-19 176l283 -1083h241l1 1521h-213l12 -897l29 -250l-273 1147h-262v-1521h213z" />
    <glyph glyph-name="Xi" unicode="&#x39e;" horiz-adv-x="722" 
d="M74 1295h573v229l-573 -1v-228zM131 659h457v230h-457v-230zM74 0h573v229h-575z" />
    <glyph glyph-name="Omicron" unicode="&#x39f;" 
d="M61 371q0 -189 66 -281q77 -110 257 -110t257 109q66 92 66 282v780q0 189 -65 282q-79 109 -258 109t-257 -108q-66 -93 -66 -283v-780zM384 1313q61 0 81 -44q15 -36 15 -119v-778q0 -86 -16 -120q-20 -43 -80 -43q-62 0 -81 45q-16 34 -16 118v778q0 86 17 120
q22 43 80 43z" />
    <glyph glyph-name="Pi" unicode="&#x3a0;" horiz-adv-x="838" 
d="M312 0v1291h216v-1291h226v1521h-668v-1521h226z" />
    <glyph glyph-name="Rho" unicode="&#x3a1;" horiz-adv-x="789" 
d="M718 1149q0 202 -86 291q-78 81 -239 81h-308v-1521h227v524h72q170 0 247 80q87 92 87 301v244zM493 944q0 -100 -14 -137q-21 -54 -88 -54h-79v538h75q62 0 85 -36q21 -33 21 -122v-189z" />
    <glyph glyph-name="Sigma" unicode="&#x3a3;" horiz-adv-x="669" 
d="M486 801l-195 491h332v229h-579v-213l210 -547l-217 -547v-214h594v229h-347l202 491v81z" />
    <glyph glyph-name="Tau" unicode="&#x3a4;" horiz-adv-x="656" 
d="M653 1291v230h-644v-230h208v-1291h227v1291h209z" />
    <glyph glyph-name="Upsilon" unicode="&#x3a5;" horiz-adv-x="751" 
d="M748 1521h-222l-143 -638l-131 638h-248l264 -965v-556h226v556z" />
    <glyph glyph-name="Phi" unicode="&#x3a6;" horiz-adv-x="1019" 
d="M622 0v126q176 0 253 110q64 91 64 279v498q0 190 -63 282q-76 108 -254 108v118h-226v-118q-178 0 -253 -108q-64 -92 -64 -282v-498q0 -188 64 -279q75 -110 253 -110v-126h226zM300 1017q0 86 17 120q22 42 79 42v-827q-60 0 -80 43q-16 34 -16 117v505zM718 512
q0 -83 -16 -117q-20 -43 -80 -43v827q58 0 80 -42q16 -32 16 -120v-505z" />
    <glyph glyph-name="Chi" unicode="&#x3a7;" horiz-adv-x="802" 
d="M795 0l-245 787l228 734h-247l-127 -491l-128 491h-248l222 -733l-243 -788h250l139 547l148 -547h251z" />
    <glyph glyph-name="Psi" unicode="&#x3a8;" horiz-adv-x="1019" 
d="M623 0v412q177 0 257 125q65 104 65 299v687l-226 -1v-685q0 -95 -16 -136q-23 -60 -80 -60v880h-226v-880q-60 0 -80 62q-16 44 -16 134v685l-227 1v-687q0 -194 66 -298q79 -126 257 -126v-412h226z" />
    <glyph glyph-name="uni03A9" unicode="&#x3a9;" horiz-adv-x="794" 
d="M368 0v526q-29 0 -42 24q-25 41 -25 136v79v378q0 86 16 122q19 47 76 48q1 -1 4 -1q62 0 82 -47q15 -38 15 -122v-378q0 -117 -7 -158q-14 -81 -60 -81v-526h280v227h-94l3 140q58 58 85 174q19 86 19 224v379q0 189 -65 285q-78 113 -258 113t-257 -112
q-66 -96 -66 -286v-379q0 -137 19 -224q25 -114 85 -174l3 -140h-93v-227h280z" />
    <glyph glyph-name="Iotadieresis" unicode="&#x3aa;" horiz-adv-x="420" 
d="M-17 1737q0 -113 101 -113q54 0 78.5 27.5t24.5 85.5q0 60 -24.5 87.5t-78.5 27.5q-52 0 -76.5 -27.5t-24.5 -87.5zM223 1737q0 -113 101 -113q54 0 78.5 27.5t24.5 85.5q0 60 -24.5 87.5t-78.5 27.5q-34 0 -56.5 -12t-33.5 -37.5t-11 -65.5zM323 0v1521h-226v-1521h226z
" />
    <glyph glyph-name="Upsilondieresis" unicode="&#x3ab;" horiz-adv-x="751" 
d="M161 1737q0 -113 101 -113q54 0 78.5 27.5t24.5 85.5q0 60 -24.5 87.5t-78.5 27.5q-52 0 -76.5 -27.5t-24.5 -87.5zM401 1737q0 -113 101 -113q54 0 78.5 27.5t24.5 85.5q0 60 -24.5 87.5t-78.5 27.5q-51 0 -76 -27.5t-25 -87.5zM748 1521h-222l-143 -638l-131 638h-248
l264 -965v-556h226v556z" />
    <glyph glyph-name="alphatonos" unicode="&#x3ac;" horiz-adv-x="783" 
d="M284 1557l20 -274h141l27 274h-188zM695 0v1202h-220v-84q-41 104 -146 104q-147 0 -209 -118q-50 -95 -50 -279v-446q0 -195 48 -287q58 -112 209 -112q108 0 148 106v-86h220zM384 206q-60 0 -78 43q-14 33 -14 120v467q0 86 14 120q19 44 78 44q54 0 74 -42
q15 -36 17 -111v-497q-2 -71 -17 -103q-21 -41 -74 -41z" />
    <glyph glyph-name="epsilontonos" unicode="&#x3ad;" horiz-adv-x="774" 
d="M295 1557l20 -274h141l27 274h-188zM481 354q0 -74 -15 -105q-21 -43 -78 -43q-53 0 -71 30q-11 19 -16.5 48t-5 59t0.5 63v94l273 -2v211l-273 -6v132q0 88 14 122q18 43 78 43q57 0 79 -45q14 -33 14 -104v-47h220v44q0 178 -61 266q-76 110 -252 110q-173 0 -248 -94
q-64 -82 -66 -262v-496q0 -191 62 -282q75 -110 254 -110q178 0 252 109q59 86 59 267v43h-220v-45z" />
    <glyph glyph-name="etatonos" unicode="&#x3ae;" horiz-adv-x="792" 
d="M295 1557l20 -274h141l27 274h-188zM711 -366v1176q0 193 -49 292q-59 120 -200 120q-40 0 -68.5 -9t-50.5 -31t-36 -60v80h-221v-1202h221v834q0 87 16 121q18 43 77 43t78 -45q12 -32 12 -119v-1200h221z" />
    <glyph glyph-name="iotatonos" unicode="&#x3af;" horiz-adv-x="394" 
d="M104 1577l20 -274h141l27 274h-188zM308 0v1202h-221v-1202h221z" />
    <glyph glyph-name="upsilondieresistonos" unicode="&#x3b0;" horiz-adv-x="772" 
d="M299 1671l21 -274h135l27 274h-183zM88 1400q0 -29 6 -50t18 -35t31 -21t46 -7q54 0 78.5 27.5t24.5 85.5q0 60 -24.5 87.5t-78.5 27.5q-53 0 -77 -27.5t-24 -87.5zM480 1400q0 -113 101 -113q36 0 59 12.5t33.5 37t10.5 63.5q0 40 -10.5 65.5t-33 37.5t-59.5 12
q-52 0 -76.5 -27.5t-24.5 -87.5zM479 1202v-840q0 -79 -16 -112q-20 -41 -81 -41q-56 1 -75 43q-15 30 -15 110v840h-225v-837q0 -188 65 -279q75 -105 250 -106q181 0 257 105q65 91 65 280v837h-225z" />
    <glyph glyph-name="alpha" unicode="&#x3b1;" horiz-adv-x="783" 
d="M695 0v1202h-220v-84q-41 104 -146 104q-147 0 -209 -118q-50 -95 -50 -279v-446q0 -195 48 -287q58 -112 209 -112q108 0 148 106v-86h220zM384 206q-60 0 -78 43q-14 33 -14 120v467q0 86 14 120q19 44 78 44q54 0 74 -42q15 -36 17 -111v-497q-2 -71 -17 -103
q-21 -41 -74 -41z" />
    <glyph glyph-name="beta" unicode="&#x3b2;" horiz-adv-x="754" 
d="M698 429q0 157 -27 238q-30 90 -107 118q34 15 55.5 38t34.5 62q25 74 25 251q0 214 -73 311q-72 95 -229 95q-161 0 -233 -91q-70 -87 -70 -283v-1533h226v362q59 -17 106 -17q153 0 220 95q72 102 72 354zM300 1180q0 76 13 101q17 32 59 32q50 0 69 -44
q13 -34 13 -121v-63q0 -110 -22 -152q-21 -40 -67 -40h-65v287zM358 670q55 0 82 -31q32 -38 32 -120v-142q0 -98 -24 -134q-21 -33 -67 -33q-22 0 -81 17v443h58z" />
    <glyph glyph-name="gamma" unicode="&#x3b3;" horiz-adv-x="722" 
d="M468 -372v372h43l204 1203h-228l-127 -935l-127 935h-227l203 -1203h38v-372h221z" />
    <glyph glyph-name="delta" unicode="&#x3b4;" 
d="M178 1374l102 -160q-121 -27 -171 -130q-43 -89 -43 -251v-464q0 -189 63 -280q74 -109 254 -109q178 0 251 108q59 87 59 282v464q0 226 -91 316q-9 12 -45 62q-72 100 -96 135q-18 25 -18 27h249v194h-514v-194zM380 1000q59 0 78 -44q13 -30 13 -118v-471
q0 -88 -14 -119q-18 -42 -77 -42q-61 0 -79 43q-13 30 -13 117v472q0 87 14 120q19 42 78 42z" />
    <glyph glyph-name="epsilon" unicode="&#x3b5;" horiz-adv-x="774" 
d="M481 354q0 -74 -15 -105q-21 -43 -78 -43q-53 0 -71 30q-11 19 -16.5 48t-5 59t0.5 63v94l273 -2v211l-273 -6v132q0 88 14 122q18 43 78 43q57 0 79 -45q14 -33 14 -104v-47h220v44q0 178 -61 266q-76 110 -252 110q-173 0 -248 -94q-64 -82 -66 -262v-496
q0 -191 62 -282q75 -110 254 -110q178 0 252 109q59 86 59 267v43h-220v-45z" />
    <glyph glyph-name="zeta" unicode="&#x3b6;" horiz-adv-x="697" 
d="M132 1336h253l-310 -716q-64 -165 -42 -317q19 -138 108 -225q86 -86 208 -97q63 -3 88.5 -32t15.5 -74l-38 -241h221l35 234q24 144 -36 222q-66 86 -244 109q-26 3 -50 14.5t-43.5 33.5t-32.5 52q-45 105 15 266l334 771v232h-482v-232z" />
    <glyph glyph-name="eta" unicode="&#x3b7;" horiz-adv-x="792" 
d="M711 -366v1176q0 193 -49 292q-59 120 -200 120q-40 0 -68.5 -9t-50.5 -31t-36 -60v80h-221v-1202h221v834q0 87 16 121q18 43 77 43t78 -45q12 -32 12 -119v-1200h221z" />
    <glyph glyph-name="theta" unicode="&#x3b8;" 
d="M64 384q0 -194 59 -288q73 -116 252 -116q173 0 248 112q62 92 62 286v767q0 190 -62 284q-75 113 -248 113q-177 0 -251 -115q-60 -94 -60 -283v-760zM375 1313q55 0 74 -44q12 -31 12 -118v-279h-171v271q0 95 12 124q17 46 73 46zM375 210q-57 0 -74 46
q-11 29 -11 120v266h171v-271q0 -90 -12 -119q-18 -42 -74 -42z" />
    <glyph glyph-name="iota" unicode="&#x3b9;" horiz-adv-x="394" 
d="M308 0v1202h-221v-1202h221z" />
    <glyph glyph-name="kappa" unicode="&#x3ba;" horiz-adv-x="768" 
d="M85 1201v-1201h221v491h60l150 -491h245l-220 601l194 601h-224l-141 -482h-64v481h-221z" />
    <glyph glyph-name="lambda" unicode="&#x3bb;" horiz-adv-x="724" 
d="M236 0l121 980h9l12 -96l7 -52l104 -832h228l-134 907l-34 267q-18 144 -96 255q-70 98 -164 139l-97 -163q55 -31 85 -66q46 -54 62 -136h-153l-178 -1203h228z" />
    <glyph glyph-name="uni03BC" unicode="&#x3bc;" horiz-adv-x="792" 
d="M486 1203v-842q0 -86 -13 -115q-18 -42 -78 -42q-55 0 -76 46q-16 36 -16 123v830h-220v-1568h220v447q35 -101 150 -101q144 0 205 115q49 92 49 286v821h-221z" />
    <glyph glyph-name="nu" unicode="&#x3bd;" horiz-adv-x="724" 
d="M488 1203l-127 -935l-126 935h-227l203 -1203h301l205 1203h-229z" />
    <glyph glyph-name="xi" unicode="&#x3be;" horiz-adv-x="794" 
d="M663 -366l21 182q18 178 -47 275q-74 111 -252 111q-49 0 -72 32q-30 40 -30 145v135q0 98 30 129q22 23 79 23h134v222h-135q-43 0 -60 31q-18 32 -18 118v135q0 74 13 101q18 40 72 40q52 0 72 -38q12 -26 12 -90v-98h226v71q0 186 -59 274q-75 111 -252 111l-1 -1
q-175 0 -249 -112q-60 -91 -60 -285v-115q0 -65 11.5 -113t37.5 -83t67 -53q-42 -14 -69 -39.5t-44 -67.5q-32 -78 -32 -250q0 -250 76 -349q72 -95 241 -95h2q61 0 79 -43q13 -33 6 -121l-19 -182h220z" />
    <glyph glyph-name="omicron" unicode="&#x3bf;" 
d="M66 369q0 -190 63 -280q74 -109 254 -109q178 0 251 108q59 87 59 282v464q0 191 -61 281q-74 109 -252 109q-177 0 -252 -108q-62 -91 -62 -283v-464zM380 1000q59 0 78 -44q13 -30 13 -118v-471q0 -88 -14 -119q-18 -42 -77 -42q-61 0 -79 43q-13 30 -13 117v472
q0 87 14 120q19 42 78 42z" />
    <glyph glyph-name="pi" unicode="&#x3c0;" horiz-adv-x="966" 
d="M913 977v225h-893v-225h136v-978h219v978h185v-978h219v978h134z" />
    <glyph glyph-name="rho" unicode="&#x3c1;" horiz-adv-x="783" 
d="M303 -366v466q41 -120 150 -120q149 0 209 112q48 90 48 287v479q0 176 -75 269q-80 97 -237 97q-1 0 -1 -2l-1 2q-178 0 -252 -112q-62 -95 -62 -288v-217h1v-973h220zM397 206q-60 0 -79 45q-14 33 -14 118v269h-1v197q0 89 15 122q18 43 78 43h1q58 0 77 -44
q14 -34 14 -120v-467q0 -87 -14 -120q-18 -43 -77 -43z" />
    <glyph glyph-name="uni03C2" unicode="&#x3c2;" horiz-adv-x="755" 
d="M667 -366l21 182q18 178 -47 275q-74 111 -253 111h-3q-53 0 -73 32q-12 20 -18 50.5t-5.5 61t0.5 65.5v98v326q0 89 15 122q18 43 78 43q58 0 78 -45q14 -33 14 -104v-47h220v44q0 177 -60 266q-74 110 -252 110q-174 0 -248 -94q-66 -84 -66 -262q-1 -19 -1 -65v-65
v-366q0 -192 61 -282q75 -110 253 -110q61 0 79 -43q13 -33 6 -121l-19 -182h220z" />
    <glyph glyph-name="sigma" unicode="&#x3c3;" 
d="M764 1202h-245q-57 22 -139 22q-177 0 -252 -108q-62 -91 -62 -283v-464q0 -189 63 -280q74 -109 254 -109q178 0 251 108q59 87 59 282v464q0 101 -14 163l85 -20v225zM380 1000q59 0 78 -44q13 -30 13 -118v-471q0 -88 -14 -119q-18 -42 -77 -42q-61 0 -79 43
q-13 30 -13 117v472q0 87 14 120q19 42 78 42z" />
    <glyph glyph-name="tau" unicode="&#x3c4;" horiz-adv-x="606" 
d="M600 977v225h-593v-225h187v-978h220v978h186z" />
    <glyph glyph-name="upsilon" unicode="&#x3c5;" horiz-adv-x="772" 
d="M479 1202v-840q0 -79 -16 -112q-20 -41 -81 -41q-56 1 -75 43q-15 30 -15 110v840h-225v-837q0 -188 65 -279q75 -105 250 -106q181 0 257 105q65 91 65 280v837h-225z" />
    <glyph glyph-name="phi" unicode="&#x3c6;" horiz-adv-x="971" 
d="M595 -366v346q173 1 245 110q58 90 58 280v464q0 186 -59 278q-71 107 -244 111v345h-221v-345q-171 -4 -242 -111q-59 -90 -59 -279v-464q0 -184 60 -275q69 -109 241 -113v-347h221zM295 838q0 84 12 115q17 42 67 46v-793q-51 4 -67 48q-12 32 -12 112v472zM676 367
q0 -83 -13 -115q-16 -42 -68 -46v793q52 -4 69 -47q12 -31 12 -114v-471z" />
    <glyph glyph-name="chi" unicode="&#x3c7;" horiz-adv-x="706" 
d="M700 0l-208 625l197 577h-215l-117 -373l-107 373h-231l197 -577l-209 -625h216l126 407l121 -407h230z" />
    <glyph glyph-name="psi" unicode="&#x3c8;" horiz-adv-x="955" 
d="M74 1202v-837q0 -181 60 -272q69 -105 231 -112v-348h222v348q162 7 234 112q60 90 60 272v837h-225v-840q0 -73 -11 -102q-16 -42 -58 -49v1357h-222v-1356q-41 10 -55 49q-11 31 -11 101v840h-225z" />
    <glyph glyph-name="omega" unicode="&#x3c9;" horiz-adv-x="1178" 
d="M479 779v-316v-19q0 -135 -11 -175q-9 -33 -29.5 -48t-56.5 -15q-32 0 -50 11.5t-26 38.5q-8 24 -10 61.5t-2 117.5v366q0 118 46 162q33 32 105 34l-2 225q-100 -3 -168 -21.5t-111 -60.5q-91 -88 -91 -311l1 -422q0 -135 12 -198q20 -106 81 -162q74 -67 214 -67
q124 0 203 107q79 -107 212 -107q142 0 215 65q59 53 80 159q12 62 12 196l1 429q0 224 -91 311q-44 41 -111.5 59.5t-167.5 21.5l-2 -225q71 -2 106 -40q45 -52 45 -169v-353q0 -143 -11 -178q-6 -18 -15.5 -29t-24.5 -16t-37 -5q-36 0 -56 15t-29 48q-11 40 -11 176v6v5.5
v6.5v316h-220z" />
    <glyph glyph-name="iotadieresis" unicode="&#x3ca;" horiz-adv-x="394" 
d="M-26 1460q0 -113 101 -113q54 0 78.5 27.5t24.5 85.5q0 60 -24.5 87.5t-78.5 27.5q-35 0 -57 -12t-33 -37.5t-11 -65.5zM214 1460q0 -113 101 -113q36 0 59 12.5t33.5 37t10.5 63.5q0 60 -24.5 87.5t-78.5 27.5q-51 0 -76 -27.5t-25 -87.5zM308 0v1202h-221v-1202h221z
" />
    <glyph glyph-name="upsilondieresis" unicode="&#x3cb;" horiz-adv-x="772" 
d="M165 1434q0 -113 101 -113q54 0 78.5 27.5t24.5 85.5q0 60 -24.5 87.5t-78.5 27.5q-52 0 -76.5 -27.5t-24.5 -87.5zM405 1434q0 -113 101 -113q54 0 78.5 27.5t24.5 85.5q0 40 -11 65.5t-33.5 37.5t-58.5 12q-21 0 -37 -4.5t-28 -13t-20 -22.5t-12 -32.5t-4 -42.5z
M479 1202v-840q0 -79 -16 -112q-20 -41 -81 -41q-56 1 -75 43q-15 30 -15 110v840h-225v-837q0 -188 65 -279q75 -105 250 -106q181 0 257 105q65 91 65 280v837h-225z" />
    <glyph glyph-name="omicrontonos" unicode="&#x3cc;" 
d="M288 1555l20 -274h141l27 274h-188zM66 369q0 -190 63 -280q74 -109 254 -109q178 0 251 108q59 87 59 282v464q0 191 -61 281q-74 109 -252 109q-177 0 -252 -108q-62 -91 -62 -283v-464zM380 1000q59 0 78 -44q13 -30 13 -118v-471q0 -88 -14 -119q-18 -42 -77 -42
q-61 0 -79 43q-13 30 -13 117v472q0 87 14 120q19 42 78 42z" />
    <glyph glyph-name="upsilontonos" unicode="&#x3cd;" horiz-adv-x="772" 
d="M285 1555l22 -274h161l25 274h-208zM479 1202v-840q0 -79 -16 -112q-20 -41 -81 -41q-56 1 -75 43q-15 30 -15 110v840h-225v-837q0 -188 65 -279q75 -105 250 -106q181 0 257 105q65 91 65 280v837h-225z" />
    <glyph glyph-name="omegatonos" unicode="&#x3ce;" horiz-adv-x="1178" 
d="M491 1555l20 -274h141l27 274h-188zM479 779v-316v-19q0 -135 -11 -175q-9 -33 -29.5 -48t-56.5 -15q-32 0 -50 11.5t-26 38.5q-8 24 -10 61.5t-2 117.5v366q0 118 46 162q33 32 105 34l-2 225q-100 -3 -168 -21.5t-111 -60.5q-91 -88 -91 -311l1 -422q0 -135 12 -198
q20 -106 81 -162q74 -67 214 -67q124 0 203 107q79 -107 212 -107q142 0 215 65q59 53 80 159q12 62 12 196l1 429q0 224 -91 311q-44 41 -111.5 59.5t-167.5 21.5l-2 -225q71 -2 106 -40q45 -52 45 -169v-353q0 -143 -11 -178q-9 -27 -26.5 -38.5t-50.5 -11.5q-36 0 -56 15
t-29 48q-11 40 -11 175v7v5.5v6.5v316h-220z" />
    <glyph glyph-name="uni0401" unicode="&#x401;" horiz-adv-x="736" 
d="M148 1737q0 -113 101 -113q54 0 78.5 27.5t24.5 85.5q0 60 -24.5 87.5t-78.5 27.5q-52 0 -76.5 -27.5t-24.5 -87.5zM388 1737q0 -113 101 -113q54 0 78.5 27.5t24.5 85.5q0 60 -24.5 87.5t-78.5 27.5q-51 0 -76 -27.5t-25 -87.5zM662 0v229h-340v430h281v230h-281v402
h340v230h-566v-1521h566z" />
    <glyph glyph-name="uni0402" unicode="&#x402;" horiz-adv-x="922" 
d="M534 -20q188 0 259 112q31 50 42.5 120t11.5 167v373q0 187 -49 280q-62 118 -210 118q-106 0 -146 -104v245h208v230h-643v-230h208v-1291h227v753q0 90 15 126q19 48 77 48q59 0 78 -44q13 -31 13 -119v-395q0 -87 -14 -120q-18 -43 -77 -43v-226z" />
    <glyph glyph-name="uni0403" unicode="&#x403;" horiz-adv-x="675" 
d="M386 1873l-112 -274h162l158 274h-208zM636 1521v-227h-325v-1294h-225v1521h550z" />
    <glyph glyph-name="uni0404" unicode="&#x404;" horiz-adv-x="779" 
d="M718 1041v121q0 178 -65 270q-79 110 -257 110q-180 0 -256 -108q-66 -92 -66 -282v-789q0 -186 65 -277q75 -106 256 -106q179 0 257 103q66 88 66 265v134h-227v-132q0 -80 -17 -113q-21 -42 -78 -42q-61 0 -80 48q-16 37 -16 122v294h297v230h-297v264q0 85 17 119
q21 41 79 41t79 -43q16 -33 16 -110v-119h227z" />
    <glyph glyph-name="uni0405" unicode="&#x405;" horiz-adv-x="780" 
d="M696 397q-5 309 -216 458l-108 75q-43 30 -63.5 83.5t-21.5 116.5l-1 42q-5 141 92 141q33 0 53 -16t28 -44t8 -70v-142h226v135q0 125 -33.5 206t-102.5 120.5t-176 39.5q-159 0 -237 -84q-83 -89 -83 -276v-27q0 -164 35 -247q41 -102 166 -197l122 -93q51 -38 71 -107
q16 -59 16 -154v-11q0 -70 -23 -103t-77 -33q-55 0 -78 39q-19 33 -19 120v113h-225v-112q0 -197 70 -288q79 -102 255 -102q326 0 323 367z" />
    <glyph glyph-name="uni0406" unicode="&#x406;" horiz-adv-x="420" 
d="M323 0v1521h-226v-1521h226z" />
    <glyph glyph-name="uni0407" unicode="&#x407;" horiz-adv-x="420" 
d="M-12 1737q0 -113 101 -113q54 0 78.5 27.5t24.5 85.5q0 60 -24.5 87.5t-78.5 27.5q-52 0 -76.5 -27.5t-24.5 -87.5zM228 1737q0 -113 101 -113q36 0 59 12.5t33.5 37t10.5 63.5q0 30 -6 51.5t-18.5 36t-32 21t-46.5 6.5q-51 0 -76 -27.5t-25 -87.5zM323 0v1521h-226
v-1521h226z" />
    <glyph glyph-name="uni0408" unicode="&#x408;" horiz-adv-x="583" 
d="M266 1521v-1141q0 -92 -19 -129q-20 -39 -74 -39q-39 0 -60.5 7t-42.5 24l-63 -203q63 -57 166 -57q176 0 253 107q65 92 65 283v1148h-225z" />
    <glyph glyph-name="uni0409" unicode="&#x409;" horiz-adv-x="1254" 
d="M1096 917q87 -92 87 -301v-244q0 -201 -86 -290q-79 -82 -239 -82h-308v1291h-228v-886q0 -216 -68 -317q-74 -108 -248 -108v230q51 0 71 47.5t20 147.5v1118l680 -2v-524h72q170 0 247 -80zM958 388v189q0 101 -14 138q-20 53 -88 53h-79v-538h75q62 0 85 36
q21 33 21 122z" />
    <glyph glyph-name="uni040A" unicode="&#x40a;" horiz-adv-x="1221" 
d="M311 0v752h214v-752h308q160 0 239 82q86 89 86 291v233q0 210 -88 298q-77 76 -246 76h-72v541h-227v-541h-214v541h-226v-1521h226zM932 372q0 -86 -20 -114q-21 -28 -86 -28h-74v521h78q68 0 88 -48q14 -34 14 -132v-199z" />
    <glyph glyph-name="uni040B" unicode="&#x40b;" horiz-adv-x="924" 
d="M650 1291v230h-643v-230h208v-1291h227v668q2 74 19 107q20 39 73 39q60 0 78 -41q13 -29 13 -115v-658h222v637q0 192 -50 287q-61 114 -205 114q-112 0 -150 -102v355h208z" />
    <glyph glyph-name="uni040C" unicode="&#x40c;" horiz-adv-x="816" 
d="M460 1874l-112 -274h162l158 274h-208zM322 0v652h72l184 -652h241l-226 777l211 744h-241l-175 -639h-66v639h-226v-1521h226z" />
    <glyph glyph-name="uni040E" unicode="&#x40e;" horiz-adv-x="752" 
d="M504 1868q-7 -72 -26 -98q-27 -36 -98 -36q-75 0 -100 38q-8 11 -12.5 28t-6 29t-4.5 39h-125q0 -122 54 -188q63 -79 194 -79q129 0 192 78q55 68 57 189h-125zM741 1521h-221l-144 -661l-130 661h-248l268 -995l-130 -526h220l136 551z" />
    <glyph glyph-name="uni040F" unicode="&#x40f;" horiz-adv-x="860" 
d="M764 0v1521h-226v-1291h-216v1291h-226v-1521h229v-175h219v175h220z" />
    <glyph glyph-name="uni0410" unicode="&#x410;" horiz-adv-x="743" 
d="M235 0l31 269h215l31 -269h227l-215 1522h-301l-216 -1522h228zM373 1200l83 -714h-165z" />
    <glyph glyph-name="uni0411" unicode="&#x411;" horiz-adv-x="815" 
d="M729 616q0 209 -87 301q-77 80 -247 80h-72v297h324v227h-551v-1521h308q160 0 239 82q86 89 86 291v243zM504 388q0 -89 -21 -122q-23 -36 -85 -36h-75v538h79q68 0 88 -53q14 -37 14 -138v-189z" />
    <glyph glyph-name="uni0412" unicode="&#x412;" horiz-adv-x="815" 
d="M747 533q0 113 -45 185q-39 59 -102 80q61 19 99 101q37 80 37 201v54q0 183 -70 269q-79 98 -254 98h-316v-1520h327q167 0 244 86q80 89 80 296v150zM510 1075q0 -95 -15 -127q-20 -45 -82 -45h-91v400h90q54 0 76 -33q21 -34 21 -115zM522 390q0 -92 -24 -128
q-23 -32 -76 -32h-100v457h85q67 0 92 -42q22 -39 22 -126z" />
    <glyph glyph-name="uni0413" unicode="&#x413;" horiz-adv-x="711" 
d="M650 1295v230h-564v-1525h226v1295h338z" />
    <glyph glyph-name="uni0414" unicode="&#x414;" horiz-adv-x="948" 
d="M161 1521v-428q0 -32 -2 -150q-7 -207 -23 -374q-21 -205 -59 -292q-20 -47 -47 -47h-23v-405h226v175h482v-175h226v405h-121v1290zM387 1290h206v-1060h-325q76 96 101 326q18 163 18 537v197z" />
    <glyph glyph-name="uni0415" unicode="&#x415;" horiz-adv-x="736" 
d="M662 0v229h-340v430h281v230h-281v402h340v230h-566v-1521h566z" />
    <glyph glyph-name="uni0416" unicode="&#x416;" horiz-adv-x="1235" 
d="M731 0v652h74l-1 -1l184 -651h240l-227 778l212 743h-240l-176 -639h-66v639h-226v-639h-65l-176 639h-241l211 -743l-226 -778h241l184 651q-1 0 -1 1h73v-652h226z" />
    <glyph glyph-name="uni0417" unicode="&#x417;" horiz-adv-x="761" 
d="M698 396q0 163 -25 254q-32 108 -107 135q66 29 94 109q28 81 28 264q0 161 -51 255q-42 78 -118 108q-52 21 -133 21q-163 0 -238 -88q-74 -87 -74 -280v-113h227v117q0 72 17.5 104t64.5 31q26 0 41 -7.5t24 -27.5q15 -34 15 -147v-39q0 -114 -22 -158q-21 -41 -67 -41
l-81 -3v-218l73 -2q52 0 78 -31q29 -37 29 -120v-139q0 -104 -22 -139q-20 -31 -70 -31q-45 0 -65 26q-25 30 -25 108v116h-225v-111q0 -201 80 -289q73 -80 222 -80q87 0 147.5 19t100.5 65q82 94 82 332z" />
    <glyph glyph-name="uni0418" unicode="&#x418;" horiz-adv-x="860" 
d="M338 0l282 1079l-19 -172l-12 -907h213v1521h-262l-272 -1142l29 245l12 897h-213v-1521h242z" />
    <glyph glyph-name="uni0419" unicode="&#x419;" horiz-adv-x="860" 
d="M577 1905q-7 -72 -26 -98q-27 -36 -98 -36q-75 0 -100 38q-5 7 -8.5 15.5t-5.5 16t-4 20.5t-2.5 20t-2.5 24h-125q0 -122 54 -188q63 -79 194 -79q129 0 192 78q55 68 57 189h-125zM338 0l282 1079l-19 -172l-12 -907h213v1521h-262l-272 -1142l29 245l12 897h-213v-1521
h242z" />
    <glyph glyph-name="uni041A" unicode="&#x41a;" horiz-adv-x="816" 
d="M322 0v652h72l184 -652h241l-226 777l211 744h-241l-175 -639h-66v639h-226v-1521h226z" />
    <glyph glyph-name="uni041B" unicode="&#x41b;" horiz-adv-x="854" 
d="M767 0v1521l-669 2v-1118q0 -100 -20 -147.5t-71 -47.5v-230q174 0 248 108q68 101 68 317v886h218v-1291h226z" />
    <glyph glyph-name="uni041C" unicode="&#x41c;" horiz-adv-x="1082" 
d="M447 190h190l174 1002l-18 -285l-14 -907h206v1521h-285l-139 -729l-19 -179l-19 178l-139 730h-287v-1521h206l-15 906l-19 305z" />
    <glyph glyph-name="uni041D" unicode="&#x41d;" horiz-adv-x="860" 
d="M322 0v652h216v-652h226v1521h-226v-639h-216v639h-226v-1521h226z" />
    <glyph glyph-name="uni041E" unicode="&#x41e;" horiz-adv-x="780" 
d="M67 371q0 -189 66 -281q76 -110 257 -110q180 0 257 109q66 92 66 282v780q0 189 -65 282q-79 109 -258 109t-257 -108q-66 -93 -66 -283v-780zM390 1313q61 0 81 -44q15 -36 15 -119v-778q0 -85 -16 -120q-20 -43 -80 -43q-62 0 -81 45q-16 34 -16 118v778q0 86 17 120
q21 43 80 43z" />
    <glyph glyph-name="uni041F" unicode="&#x41f;" horiz-adv-x="837" 
d="M312 0v1291h216v-1291h226v1521h-668v-1521h226z" />
    <glyph glyph-name="uni0420" unicode="&#x420;" horiz-adv-x="778" 
d="M718 1149q0 202 -86 291q-78 81 -239 81h-308v-1521h227v524h72q170 0 247 80q87 92 87 301v244zM493 944q0 -100 -14 -137q-21 -54 -88 -54h-79v538h75q62 0 85 -36q21 -33 21 -122v-189z" />
    <glyph glyph-name="uni0421" unicode="&#x421;" horiz-adv-x="776" 
d="M487 482v-132q0 -80 -17 -113q-21 -42 -78 -42q-61 0 -80 48q-16 37 -16 122v788q0 85 16 118q20 42 79 42q60 0 80 -42q16 -33 16 -111v-119h227v121q0 178 -65 270q-79 110 -257 110q-180 0 -256 -108q-66 -92 -66 -282v-789q0 -186 65 -277q75 -106 256 -106
q179 0 257 103q66 88 66 265v134h-227z" />
    <glyph glyph-name="uni0422" unicode="&#x422;" horiz-adv-x="656" 
d="M653 1291v230h-644v-230h208v-1291h227v1291h209z" />
    <glyph glyph-name="uni0423" unicode="&#x423;" horiz-adv-x="755" 
d="M749 1521h-221l-144 -661l-130 661h-248l268 -995l-130 -526h220l136 551z" />
    <glyph glyph-name="uni0424" unicode="&#x424;" horiz-adv-x="1019" 
d="M609 0v126q176 0 253 110q63 91 63 279v498q0 189 -63 282q-76 108 -253 108v118h-227v-118q-177 0 -252 -108q-64 -92 -64 -282v-498q0 -187 64 -278q75 -110 252 -111v-126h227zM286 1017q0 83 17 120q20 42 79 42v-827q-60 0 -80 44q-16 34 -16 116v505zM705 512
q0 -83 -16 -117q-20 -43 -80 -43v827q58 0 80 -42q16 -32 16 -120v-505z" />
    <glyph glyph-name="uni0425" unicode="&#x425;" horiz-adv-x="802" 
d="M794 0l-245 787l228 734h-247l-127 -491l-128 491h-248l222 -733l-243 -788h250l139 547l148 -547h251z" />
    <glyph glyph-name="uni0426" unicode="&#x426;" horiz-adv-x="879" 
d="M528 1521v-1291h-215v1291h-227v-1521h561v-175h225v405h-118v1291h-226z" />
    <glyph glyph-name="uni0427" unicode="&#x427;" horiz-adv-x="838" 
d="M79 1522v-695q0 -191 52 -286q62 -115 207 -115q63 0 112 25q56 27 73 76v-527h224v1522h-225v-704q0 -83 -22 -123q-25 -46 -82 -46q-61 0 -89 49q-24 42 -24 120v704h-226z" />
    <glyph glyph-name="uni0428" unicode="&#x428;" horiz-adv-x="1120" 
d="M808 1518v-1288h-131v1278h-226v-1278h-138v1288h-226v-1518h947v1518h-226z" />
    <glyph glyph-name="uni0429" unicode="&#x429;" horiz-adv-x="1228" 
d="M806 1518v-1288h-130v1278h-226v-1278h-137v1288h-227v-1518h878v-175h220v400h-151v1293h-227z" />
    <glyph glyph-name="uni042A" unicode="&#x42a;" horiz-adv-x="829" 
d="M7 1291h118v-1291h308q160 0 239 82q86 89 86 291v243q0 210 -88 301q-77 80 -246 80h-73v524h-344v-230zM532 388q0 -89 -20 -122q-23 -36 -86 -36h-75v538h79q68 0 88 -53q14 -37 14 -138v-189z" />
    <glyph glyph-name="uni042B" unicode="&#x42b;" horiz-adv-x="1163" 
d="M718 616q0 209 -87 301q-77 80 -247 80h-72v524h-227v-1521h308q160 0 239 82q86 89 86 290v244zM1080 0v1521h-226v-1521h226zM493 388q0 -89 -21 -122q-23 -36 -85 -36h-75v538h79q68 0 88 -53q14 -37 14 -138v-189z" />
    <glyph glyph-name="uni042C" unicode="&#x42c;" horiz-adv-x="798" 
d="M718 372q0 -201 -86 -290q-79 -82 -239 -82h-308v1521h227v-524h72q170 0 247 -80q87 -92 87 -301v-244zM493 577q0 101 -14 138q-20 53 -88 53h-79v-538h75q62 0 85 36q21 33 21 122v189z" />
    <glyph glyph-name="uni042D" unicode="&#x42d;" horiz-adv-x="779" 
d="M382 1313q59 0 80 -41q16 -32 16 -119v-264h-312v-230h312v-294q0 -85 -15 -122q-21 -48 -81 -48q-57 0 -78 42q-18 35 -18 113v132h-226v-134q0 -179 66 -265q78 -103 256 -103q182 0 257 105q65 91 65 278v789q0 190 -65 282q-78 108 -257 108t-256 -109
q-66 -92 -66 -271v-121h226v119q0 78 17 111q22 42 79 42z" />
    <glyph glyph-name="uni042E" unicode="&#x42e;" horiz-adv-x="1188" 
d="M311 0v642h152v-271q0 -189 66 -281q76 -110 257 -110q180 0 257 109q66 94 66 282v780q0 189 -65 282q-79 109 -258 109t-257 -108q-66 -93 -66 -283v-279h-152v649h-226v-1521h226zM786 1313q61 0 81 -44q15 -36 15 -119v-778q0 -86 -16 -120q-20 -43 -80 -43
q-62 0 -81 45q-16 34 -16 118v778q0 86 17 120q21 43 80 43z" />
    <glyph glyph-name="uni042F" unicode="&#x42f;" horiz-adv-x="771" 
d="M462 0v588h-55q-44 2 -73 -41q-36 -53 -43 -157l-13 -212q-4 -50 -21 -111q-8 -29 -22 -67h-234q15 36 21.5 53t16 55.5t11.5 76.5l14 210q7 115 30 172q19 47 72 92q-127 100 -127 277v204q0 204 81 296q76 85 243 85h325v-1521h-226zM265 969q0 -69 19 -106
q22 -45 71 -45h107v473h-94q-55 0 -77 -30q-26 -37 -26 -128v-164z" />
    <glyph glyph-name="uni0430" unicode="&#x430;" horiz-adv-x="783" 
d="M698 0v854q0 182 -65 269q-76 101 -249 101q-174 0 -247 -98q-62 -84 -62 -255v-67h220v70q0 66 16 93q18 33 74 33q60 0 78 -41q14 -33 14 -120v-167q-65 27 -154 27q-149 0 -208 -91q-49 -76 -49 -250q0 -180 54 -270q62 -108 206 -108q60 0 96.5 29t56.5 93v-102h219z
M380 204q-58 0 -77 43q-16 33 -16 103q0 71 14 106q20 50 75 50q61 0 101 -32v-96q0 -86 -13 -121q-22 -53 -84 -53z" />
    <glyph glyph-name="uni0431" unicode="&#x431;" 
d="M555 1571q-2 -1 -5.5 -4t-7 -5.5t-6.5 -5.5q-11 -9 -31 -17q-51 -23 -125 -24q-164 -6 -245 -178q-73 -156 -73 -443v-522q0 -191 61 -281q75 -110 251 -111q187 0 257 112q58 93 58 307v409q0 202 -39 295q-53 121 -201 121q-102 0 -170 -98q7 99 35 146q36 60 111 60
q125 0 195 34q58 27 81 86q3 8 6 18t5 18.5t4 20t3.5 19.5t3.5 21t3 21zM375.5 206q-59.5 0 -78.5 45q-13 30 -13 118v411q0 25 2 79q1 38 7 68q8 42 26 57.5t56 15.5q60 0 79 -44q13 -31 13 -120v-467q0 -87 -14 -120q-18 -43 -77.5 -43z" />
    <glyph glyph-name="uni0432" unicode="&#x432;" horiz-adv-x="775" 
d="M85 1202v-1202h305q160 0 236 81.5t76 261.5v50q0 151 -102 220q93 68 93 209v57q0 172 -81 250q-76 73 -239 73h-288zM467 835q-1 -66 -22.5 -92.5t-75.5 -26.5h-65v263h66q49 0 71 -21q26 -24 26 -89v-34zM483 340q0 -45 -11 -71t-31 -36t-54 -10h-83v283h82
q52 0 74.5 -27t22.5 -92v-47z" />
    <glyph glyph-name="uni0433" unicode="&#x433;" horiz-adv-x="613" 
d="M303 0v971h300v231h-522v-1202h222z" />
    <glyph glyph-name="uni0434" unicode="&#x434;" horiz-adv-x="892" 
d="M155 1203v-288q0 -171 -11 -308q-23 -253 -76 -341q-26 -41 -52 -41h-8v-400h219v175h436v-175h220v400h-124v977zM375 977h164v-752h-284q70 87 98 262q22 136 22 397v93z" />
    <glyph glyph-name="uni0435" unicode="&#x435;" 
d="M474 406v-45q0 -79 -15 -111q-20 -44 -79 -44q-61 0 -79 43q-15 32 -15 117v111l407 92v272q0 183 -60 273q-74 110 -253 110t-252 -106q-61 -88 -61 -280v-470q0 -190 62 -280q75 -108 254 -108q178 0 251 110q59 87 59 273v43h-219zM380 1000q59 0 80 -46
q14 -33 14 -110v-119l-188 -46v162q0 87 15 118q20 41 79 41z" />
    <glyph glyph-name="uni0436" unicode="&#x436;" horiz-adv-x="1072" 
d="M425 1201v-481h-26l-141 482h-225l194 -601l-219 -601h244l150 491h23v-491h220v491h25l151 -491h244l-220 601l195 601h-225l-141 -482h-29v481h-220z" />
    <glyph glyph-name="uni0437" unicode="&#x437;" horiz-adv-x="743" 
d="M204 702v-197l154 1q29 0 48.5 -8t32.5 -25.5t19 -45.5t6 -68q0 -82 -25 -118q-22 -32 -68 -32q-44 0 -66.5 29t-22.5 96v72h-224v-58q0 -200 86 -288q77 -80 227 -80q159 0 241 98q77 92 77 256q0 104 -32 181q-33 74 -88 85q39 21 73 73q47 70 47 171
q0 191 -77.5 285.5t-240.5 94.5q-150 0 -227 -83q-86 -92 -86 -292v-52h224v66q0 131 89 131q46 0 69.5 -34.5t23.5 -110.5v-21q0 -60 -28 -92t-79 -33z" />
    <glyph glyph-name="uni0438" unicode="&#x438;" horiz-adv-x="806" 
d="M86 0v1202h226v-607l55 179l112 428h246l-2 -1202h-226v621l-45 -149l-121 -472h-245z" />
    <glyph glyph-name="uni0439" unicode="&#x439;" horiz-adv-x="806" 
d="M540 1548q-5 -69 -25 -98q-27 -36 -97 -36q-75 0 -100 38q-8 11 -13 28t-6.5 29t-4.5 39h-125q2 -122 55 -188q63 -79 194 -79q128 0 191 78q54 67 56 189h-125zM331 0l121 472l45 149v-621h226l2 1202h-246l-112 -428l-55 -179v607h-226v-1202h245z" />
    <glyph glyph-name="uni043A" unicode="&#x43a;" horiz-adv-x="766" 
d="M84 1201v-1201h221v491h60l150 -491h245l-220 601l194 601h-224l-141 -482h-64v481h-221z" />
    <glyph glyph-name="uni043B" unicode="&#x43b;" horiz-adv-x="841" 
d="M760 0v1202l-662 1v-803q0 -100 -20 -148t-71 -48v-224q165 0 240 108q71 101 71 317v572h223v-977h219z" />
    <glyph glyph-name="uni043C" unicode="&#x43c;" horiz-adv-x="1037" 
d="M432 211h180l126 617l-7 -828h225v1204h-287l-147 -662h-1l-145 662h-288v-1204h226l-9 831z" />
    <glyph glyph-name="uni043D" unicode="&#x43d;" horiz-adv-x="806" 
d="M308 0v480h190v-480h222v1202h-222v-492h-190v492h-222v-1202h222z" />
    <glyph glyph-name="uni043E" unicode="&#x43e;" 
d="M66 369q0 -190 63 -280q74 -109 254 -109q178 0 251 108q59 87 59 282v464q0 191 -61 281q-74 109 -252 109q-177 0 -252 -108q-62 -91 -62 -283v-464zM380 1000q59 0 78 -44q13 -30 13 -118v-471q0 -88 -14 -119q-18 -42 -77 -42q-61 0 -79 43q-13 30 -13 117v472
q0 87 14 120q19 42 78 42z" />
    <glyph glyph-name="uni043F" unicode="&#x43f;" horiz-adv-x="806" 
d="M309 0v977h190v-977h220v1202h-633v-1202h223z" />
    <glyph glyph-name="uni0440" unicode="&#x440;" horiz-adv-x="783" 
d="M303 -366v448q40 -102 149 -102q150 0 209 116q48 93 48 290v429q0 197 -48 291q-61 118 -211 118q-58 0 -93 -25.5t-54 -75.5v79h-220v-1568h220zM396 1000q59 0 78 -44q14 -34 14 -120v-467q0 -87 -14 -120q-18 -43 -78 -43t-78 43q-14 31 -14 116v473q0 88 15 120
q18 42 77 42z" />
    <glyph glyph-name="uni0441" unicode="&#x441;" horiz-adv-x="756" 
d="M474 354q0 -74 -15 -105q-21 -43 -78 -43q-50 0 -71 30q-19 28 -21 79q-2 47 0 96v98v326q0 88 14 122q18 43 78 43q57 0 79 -45q14 -33 14 -104v-47h220v44q0 178 -61 266q-76 110 -252 110q-173 0 -248 -94q-64 -82 -66 -262v-496q0 -191 62 -282q75 -110 254 -110
q178 0 252 109q59 86 59 267v43h-220v-45z" />
    <glyph glyph-name="uni0442" unicode="&#x442;" horiz-adv-x="594" 
d="M594 977v225h-593v-225h187v-978h220v978h186z" />
    <glyph glyph-name="uni0443" unicode="&#x443;" horiz-adv-x="713" 
d="M464 1203l-125 -919h-4l-124 919h-227l203 -1203h107l-6 -49q-12 -101 -60 -163q-36 -46 -94 -76l97 -164q94 41 164 139q78 111 96 255l40 314l162 947h-229z" />
    <glyph glyph-name="uni0444" unicode="&#x444;" horiz-adv-x="1139" 
d="M679 -369v415q43 -66 128 -66q151 0 209 112q48 92 48 287v446q0 186 -49 279q-62 118 -210 118q-83 0 -126 -64v364h-220v-364q-43 64 -126 64q-148 0 -210 -118q-50 -95 -50 -279v-446q0 -195 49 -287q60 -112 208 -112q87 0 129 67v-416h220zM387 206q-59 0 -77 43
q-14 33 -14 120v467q0 89 13 120q19 44 78 44q48 0 72 -38v-721q-23 -35 -72 -35zM751 1000q59 0 78 -44q13 -31 13 -120v-467q0 -87 -14 -120q-18 -43 -77 -43q-52 0 -72 35v721q21 38 72 38z" />
    <glyph glyph-name="uni0445" unicode="&#x445;" horiz-adv-x="712" 
d="M704 0l-208 625l197 577h-215l-117 -373l-107 373h-231l197 -577l-209 -625h216l126 407l121 -407h230z" />
    <glyph glyph-name="uni0446" unicode="&#x446;" horiz-adv-x="895" 
d="M86 1202v-1202h541v-175h221v400h-124v977h-226v-977h-186v977h-226z" />
    <glyph glyph-name="uni0447" unicode="&#x447;" horiz-adv-x="792" 
d="M86 1202v-455q0 -193 50 -286q61 -115 204 -115q115 0 150 101v-447h221v1202h-221v-464q0 -87 -16 -123q-21 -46 -76 -46q-60 0 -78 42q-13 29 -13 115v476h-221z" />
    <glyph glyph-name="uni0448" unicode="&#x448;" horiz-adv-x="1118" 
d="M805 1202v-977h-131v967h-225v-967h-138v977h-226v-1202h946v1202h-226z" />
    <glyph glyph-name="uni0449" unicode="&#x449;" horiz-adv-x="1170" 
d="M807 1202v-977h-131v967h-226v-967h-138v977h-226v-1202h847v-175h220v400h-120v977h-226z" />
    <glyph glyph-name="uni044A" unicode="&#x44a;" horiz-adv-x="839" 
d="M7 1202v-216h146v-986h305q161 0 237 88t76 272v106q0 194 -104 280q-84 68 -236 68h-59v388h-365zM552 351q0 -128 -97 -128h-83v368h82q52 0 75 -35t23 -104v-101z" />
    <glyph glyph-name="uni044B" unicode="&#x44b;" horiz-adv-x="1172" 
d="M85 1202v-1202h305q161 0 237 88t76 272v106q0 194 -104 280q-84 68 -236 68h-58v388h-220zM1076 0v1202h-221v-1202h221zM485 351q0 -128 -97 -128h-83v368h82q52 0 75 -35t23 -104v-101z" />
    <glyph glyph-name="uni044C" unicode="&#x44c;" horiz-adv-x="745" 
d="M300 1202v-388h58q152 0 236 -68q104 -86 104 -280v-106q0 -184 -76 -272t-237 -88h-305v1202h220zM480 452q0 45 -9.5 75t-31.5 47t-57 17h-82v-368h83q97 0 97 128v101z" />
    <glyph glyph-name="uni044D" unicode="&#x44d;" horiz-adv-x="754" 
d="M260 399h-220v-43q0 -180 60 -267q74 -109 251 -109q179 0 254 110q62 91 62 282v496q-2 180 -66 262q-75 94 -248 94q-176 0 -252 -110q-61 -88 -61 -266v-44h220v47q0 72 15 104q20 45 78 45q60 0 78 -43q14 -34 14 -122v-122h-234v-199h234v-5q0 -65 1 -98
q0 -65 -1 -96q-5 -56 -21 -79q-21 -30 -71 -30q-58 0 -77 43q-16 33 -16 105v45z" />
    <glyph glyph-name="uni044E" unicode="&#x44e;" horiz-adv-x="1138" 
d="M307 0v474h145v-105q0 -190 63 -280q74 -109 254 -109q179 0 250 108q59 89 59 282v464q0 191 -60 281q-73 109 -252 109q-178 0 -253 -108q-61 -90 -61 -283v-152h-145v521h-221v-1202h221zM766 1000q58 0 77 -44q13 -30 13 -118v-471q0 -88 -14 -119q-18 -42 -76 -42
q-61 0 -79 43q-13 30 -13 117v472q0 87 14 120q19 42 78 42z" />
    <glyph glyph-name="uni044F" unicode="&#x44f;" horiz-adv-x="738" 
d="M436 0v428h-50q-45 -7 -65 -36q-28 -41 -39 -146l-10 -92q-8 -62 -19 -98q-15 -49 -17 -56h-228q17 35 26 68q10 35 16 93l9 91q13 126 34 173q19 45 73 86q-59 51 -93.5 122.5t-34.5 160.5v52q0 90 19 157t58 111.5t98 66t138 21.5h305v-1202h-220zM257 794
q0 -143 97 -143h82v328h-83q-51 0 -73.5 -30.5t-22.5 -99.5v-55z" />
    <glyph glyph-name="uni0451" unicode="&#x451;" 
d="M158 1418q0 -113 101 -113q36 0 58.5 12.5t33.5 37t11 63.5q0 60 -24.5 87.5t-78.5 27.5q-52 0 -76.5 -27.5t-24.5 -87.5zM398 1418q0 -113 101 -113q54 0 78.5 27.5t24.5 85.5q0 40 -11 65.5t-33.5 37.5t-58.5 12q-34 0 -56.5 -12t-33.5 -37.5t-11 -65.5zM474 406v-45
q0 -79 -15 -111q-20 -44 -79 -44q-61 0 -79 43q-15 32 -15 117v111l407 92v272q0 183 -60 273q-74 110 -253 110t-252 -106q-61 -88 -61 -280v-470q0 -190 62 -280q75 -108 254 -108q178 0 251 110q59 87 59 273v43h-219zM380 1000q59 0 80 -46q14 -33 14 -110v-119
l-188 -46v162q0 87 15 118q20 41 79 41z" />
    <glyph glyph-name="uni0452" unicode="&#x452;" horiz-adv-x="781" 
d="M493 842v-868q0 -62 -9 -98t-30 -53t-57 -17q-40 0 -61.5 7t-42.5 24l-63 -203q63 -57 167 -57q176 0 252 107q65 92 65 283v854q0 194 -49 287q-61 114 -205 114q-114 0 -151 -102v171h72v176h-72v103h-220v-103h-65v-176h65v-1291h220v830q0 85 17 123q19 45 76 45
q60 0 78 -41q13 -29 13 -115z" />
    <glyph glyph-name="uni0453" unicode="&#x453;" horiz-adv-x="649" 
d="M333 1571l-112 -274h162l158 274h-208zM300 0v971h300v231h-522v-1202h222z" />
    <glyph glyph-name="uni0454" unicode="&#x454;" horiz-adv-x="772" 
d="M481 354q0 -71 -15 -105q-21 -43 -78 -43q-50 0 -71 30q-19 28 -21 79q-2 63 -1 96t1 98v5h299v199h-299v122q0 88 14 122q18 43 78 43q57 0 79 -45q14 -33 14 -104v-47h220v44q0 178 -61 266q-76 110 -252 110q-174 0 -248 -94q-66 -84 -66 -262v-496q0 -191 62 -282
q75 -110 254 -110q178 0 252 109q59 86 59 267v43h-220v-45z" />
    <glyph glyph-name="uni0455" unicode="&#x455;" horiz-adv-x="748" 
d="M669 317q0 86 -28 148q-50 112 -164 201q-42 32 -93 74q-32 26 -52 48t-34 49.5t-14 56.5q0 45 18 73q20 33 63 33q48 0 67 -44q13 -33 13 -115l217 -1q0 219 -69 304q-35 43 -90.5 61.5t-137.5 18.5q-184 0 -254 -100q-51 -72 -51 -232q0 -83 28 -141q49 -106 161 -189
q55 -43 90 -73q47 -42 72.5 -82t25.5 -89q0 -33 -7.5 -57t-25.5 -39.5t-45 -15.5q-57 0 -75 45q-14 35 -14 133h-222q0 -209 61 -299q70 -105 252 -105q170 0 242 85q66 77 66 252z" />
    <glyph glyph-name="uni0456" unicode="&#x456;" horiz-adv-x="394" 
d="M67 1462q0 -60 31 -88t98 -28q69 0 100 28t31 88t-31 88t-100 28q-67 0 -98 -28t-31 -88zM308 0v1202h-221v-1202h221z" />
    <glyph glyph-name="uni0457" unicode="&#x457;" horiz-adv-x="394" 
d="M-16 1456q0 -113 101 -113q54 0 78.5 27.5t24.5 85.5q0 60 -24.5 87.5t-78.5 27.5q-52 0 -76.5 -27.5t-24.5 -87.5zM224 1456q0 -113 101 -113q27 0 46.5 7t32 21t18.5 35t6 50q0 60 -24.5 87.5t-78.5 27.5q-51 0 -76 -27.5t-25 -87.5zM308 0v1202h-221v-1202h221z" />
    <glyph glyph-name="uni0458" unicode="&#x458;" horiz-adv-x="396" 
d="M66 1462q0 -60 31 -88t98 -28q69 0 100 28t31 88t-31 88t-100 28q-67 0 -98 -28t-31 -88zM86 1202v-1211q0 -101 -13 -137q-14 -41 -57 -41q-46 0 -85 16q-24 9 -50 26l-12 -195q82 -67 185 -67q149 0 207 109q47 90 47 289v1211h-222z" />
    <glyph glyph-name="uni0459" unicode="&#x459;" horiz-adv-x="809" 
d="M349 1202h-342v-225h122v-977h305q161 0 237 88t76 272v106q0 194 -104 280q-84 68 -236 68h-58v388zM529 351q0 -128 -98 -128h-82v368h82q35 0 57 -17t31 -46.5t10 -75.5v-101z" />
    <glyph glyph-name="uni045A" unicode="&#x45a;" horiz-adv-x="1182" 
d="M497 1202v-406h-190v406h-222v-1202h222v568h190v-568h305q161 0 237 88t76 272v88q0 194 -104 280q-84 68 -236 68h-59v406h-219zM896 351q0 -128 -97 -128h-83v350h82q52 0 75 -35t23 -104v-83z" />
    <glyph glyph-name="uni045B" unicode="&#x45b;" horiz-adv-x="792" 
d="M662 1108q49 -93 49 -287v-821h-221v842q0 86 -13 115q-18 41 -78 41q-55 0 -76 -45q-16 -36 -16 -123v-830h-221v1334h-52v182h52v52h221v-52h84v-182h-84v-214q34 102 150 102q144 0 205 -114z" />
    <glyph glyph-name="uni045C" unicode="&#x45c;" horiz-adv-x="737" 
d="M416 1555l-112 -274h162l158 274h-208zM79 1201v-1201h221v491h60l150 -491h245l-220 601l194 601h-224l-141 -482h-64v481h-221z" />
    <glyph glyph-name="uni045E" unicode="&#x45e;" horiz-adv-x="795" 
d="M504 1554q-7 -72 -26 -98q-27 -36 -98 -36q-75 0 -100 38q-8 11 -12.5 28t-6 29t-4.5 39h-125q0 -122 54 -188q63 -79 194 -79q129 0 192 78q55 68 57 189h-125zM53 1203l177 -1203h138l-3 -26q-17 -112 -63 -178q-35 -50 -94 -84l96 -164q98 45 168 150q76 117 99 279
l58 400q35 246 61 413q26 170 61 413h-228q-60 -489 -113 -903l-9 -62l-120 965h-228z" />
    <glyph glyph-name="uni045F" unicode="&#x45f;" horiz-adv-x="806" 
d="M86 0h212v-175h220v175h202v1202h-222v-972h-190v972h-222v-1202z" />
    <glyph glyph-name="uni0472" unicode="&#x472;" horiz-adv-x="780" 
d="M67 371q0 -189 66 -281q76 -110 257 -110q180 0 257 109q66 92 66 282v780q0 189 -65 282q-79 109 -258 109t-257 -108q-66 -93 -66 -283v-780zM389 1313q67 0 87 -65q10 -36 10 -151v-320l-193 208v139q0 101 13 137q19 52 83 52zM390 209q-65 0 -84 53q-13 33 -13 134
v292l193 -207v-87q0 -99 -13 -134q-19 -51 -83 -51z" />
    <glyph glyph-name="uni0473" unicode="&#x473;" 
d="M66 369q0 -190 63 -280q74 -109 254 -109q178 0 251 108q59 87 59 282v464q0 191 -61 281q-75 109 -252 109t-252 -108q-62 -91 -62 -283v-464zM380 1000q61 0 80 -48q11 -31 11 -127v-164l-183 175q0 90 13 120q19 44 79 44zM380 206q-63 0 -80 48q-12 31 -12 127v177
l183 -175q0 -99 -12 -130q-18 -47 -79 -47z" />
    <glyph glyph-name="uni0474" unicode="&#x474;" horiz-adv-x="750" 
d="M521 1522l-133 -1067l-14 -210l-14 212l-134 1065h-220l218 -1522h300l218 1522h-221z" />
    <glyph glyph-name="uni0475" unicode="&#x475;" horiz-adv-x="724" 
d="M488 1203l-127 -935l-126 935h-227l203 -1203h301l205 1203h-229z" />
    <glyph glyph-name="uni0490" unicode="&#x490;" horiz-adv-x="730" 
d="M677 1292v407h-220v-177h-371v-1522h226v1292h365z" />
    <glyph glyph-name="uni0491" unicode="&#x491;" horiz-adv-x="708" 
d="M640 977v392l-219 2v-169h-335v-1202h220v977h334z" />
    <glyph glyph-name="uni04D9" unicode="&#x4d9;" horiz-adv-x="769" 
d="M285 798v45q0 79 15 111q20 44 79 44q60 0 80 -43q14 -33 14 -117v-111l-407 -92v-272q0 -182 61 -272q74 -111 252 -111q179 0 252 106q61 88 61 280v470q0 190 -62 280q-75 108 -254 108q-176 0 -250 -109q-60 -90 -60 -274v-43h219zM379 204q-59 0 -79 46
q-15 32 -15 110v119l188 46v-162q0 -87 -15 -118q-20 -41 -79 -41z" />
    <glyph glyph-name="uni1D00" unicode="&#x1d00;" horiz-adv-x="726" 
d="M539 1203h-352l-177 -1203h227l24 192h204l24 -192h227zM359 980h8l72 -584h-153z" />
    <glyph glyph-name="uni1D01" unicode="&#x1d01;" horiz-adv-x="938" 
d="M231 0l32 192h134v-193l479 1v231h-258v266h154v231h-154v243h258v231h-647l-225 -1202h227zM396 971v-575h-98z" />
    <glyph glyph-name="uni1D04" unicode="&#x1d04;" horiz-adv-x="756" 
d="M474 354q0 -74 -15 -105q-21 -43 -78 -43q-50 0 -71 30q-19 28 -21 79q-2 47 0 96v98v326q0 88 14 122q18 43 78 43q57 0 79 -45q14 -33 14 -104v-47h220v44q0 178 -61 266q-76 110 -252 110q-173 0 -248 -94q-64 -82 -66 -262v-496q0 -191 62 -282q75 -110 254 -110
q178 0 252 109q59 86 59 267v43h-220v-45z" />
    <glyph glyph-name="uni1D05" unicode="&#x1d05;" horiz-adv-x="775" 
d="M392 0q180 0 257 108q65 92 65 283v419q0 191 -65 283q-78 108 -254 109h-310v-1202h307zM397 972q54 -2 74 -38q19 -35 19 -127v-409q0 -91 -20 -129.5t-73 -39.5h-87v743h87z" />
    <glyph glyph-name="uni1D07" unicode="&#x1d07;" horiz-adv-x="704" 
d="M644 0v231h-337v266h234v231h-234v243h337v231h-558v-1202h558z" />
    <glyph glyph-name="uni1D0A" unicode="&#x1d0a;" horiz-adv-x="552" 
d="M-8 38q63 -57 167 -57q176 0 251 106q65 92 65 283v47l1 785h-222v-821q0 -93 -19.5 -132t-69.5 -39q-60 0 -107 27z" />
    <glyph glyph-name="uni1D0B" unicode="&#x1d0b;" horiz-adv-x="765" 
d="M85 1201v-1201h221v491h60l150 -491h245l-220 601l194 601h-224l-141 -482h-64v481h-221z" />
    <glyph glyph-name="uni1D0D" unicode="&#x1d0d;" horiz-adv-x="1037" 
d="M430 211h180l126 617l-7 -828h225v1204h-287l-147 -662h-1l-145 662h-288v-1204h226l-9 831z" />
    <glyph glyph-name="uni1D0F" unicode="&#x1d0f;" 
d="M66 369q0 -190 63 -280q74 -109 254 -109q178 0 251 108q59 87 59 282v464q0 191 -61 281q-74 109 -252 109q-177 0 -252 -108q-62 -91 -62 -283v-464zM380 1000q59 0 78 -44q13 -30 13 -118v-471q0 -88 -14 -119q-18 -42 -77 -42q-61 0 -79 43q-13 30 -13 117v472
q0 87 14 120q19 42 78 42z" />
    <glyph glyph-name="uni1D18" unicode="&#x1d18;" horiz-adv-x="745" 
d="M306 0v388h58q152 0 236 68q104 86 104 280v106q0 184 -76 272t-237 88h-305v-1202h220zM486 750q0 -69 -23 -104t-75 -35h-82v368h83q97 0 97 -128v-101z" />
    <glyph glyph-name="uni1D1B" unicode="&#x1d1b;" horiz-adv-x="606" 
d="M600 977v225h-593v-225h187v-978h220v978h186z" />
    <glyph glyph-name="uni1D1C" unicode="&#x1d1c;" horiz-adv-x="772" 
d="M479 1202v-840q0 -79 -16 -112q-20 -41 -81 -41q-56 1 -75 43q-15 30 -15 110v840h-225v-837q0 -188 65 -279q75 -105 250 -106q181 0 257 105q65 91 65 280v837h-225z" />
    <glyph glyph-name="uni1D20" unicode="&#x1d20;" horiz-adv-x="724" 
d="M488 1203l-127 -935l-126 935h-227l203 -1203h301l205 1203h-229z" />
    <glyph glyph-name="uni1D21" unicode="&#x1d21;" horiz-adv-x="1201" 
d="M162 0h342l97 928l97 -928h341l153 1203h-229l-101 -977l-101 977h-320l-102 -979l-101 979h-227z" />
    <glyph glyph-name="uni1D22" unicode="&#x1d22;" horiz-adv-x="663" 
d="M609 0v222h-324l324 783v197h-548v-216h302l-327 -788v-198h573z" />
    <glyph glyph-name="Wgrave" unicode="&#x1e80;" horiz-adv-x="1159" 
d="M341 1875l153 -274h154l-112 274h-195zM899 1522l-78 -926l-15 -239l-17 239l-86 926h-249l-84 -926l-18 -246l-15 246l-79 926h-228l168 -1522h269l99 804l12 160l13 -159l100 -805h267l169 1522h-228z" />
    <glyph glyph-name="wgrave" unicode="&#x1e81;" horiz-adv-x="1201" 
d="M377 1555l153 -274h154l-112 274h-195zM162 0h342l97 928l97 -928h341l153 1203h-229l-101 -977l-101 977h-320l-102 -979l-101 979h-227z" />
    <glyph glyph-name="Wacute" unicode="&#x1e82;" horiz-adv-x="1159" 
d="M607 1875l-112 -274h162l158 274h-208zM899 1522l-78 -926l-15 -239l-17 239l-86 926h-249l-84 -926l-18 -246l-15 246l-79 926h-228l168 -1522h269l99 804l12 160l13 -159l100 -805h267l169 1522h-228z" />
    <glyph glyph-name="wacute" unicode="&#x1e83;" horiz-adv-x="1201" 
d="M647 1555l-112 -274h162l158 274h-208zM162 0h342l97 928l97 -928h341l153 1203h-229l-101 -977l-101 977h-320l-102 -979l-101 979h-227z" />
    <glyph glyph-name="Wdieresis" unicode="&#x1e84;" horiz-adv-x="1159" 
d="M356 1738q0 -113 101 -113q54 0 78.5 27.5t24.5 85.5q0 60 -24.5 87.5t-78.5 27.5q-35 0 -57 -12t-33 -37.5t-11 -65.5zM596 1738q0 -113 101 -113q54 0 78.5 27.5t24.5 85.5q0 40 -11 65.5t-33.5 37.5t-58.5 12q-34 0 -56.5 -12t-33.5 -37.5t-11 -65.5zM899 1522
l-78 -926l-15 -239l-17 239l-86 926h-249l-84 -926l-18 -246l-15 246l-79 926h-228l168 -1522h269l99 804l12 160l13 -159l100 -805h267l169 1522h-228z" />
    <glyph glyph-name="wdieresis" unicode="&#x1e85;" horiz-adv-x="1201" 
d="M385 1418q0 -113 101 -113q36 0 58.5 12.5t33.5 37t11 63.5q0 60 -24.5 87.5t-78.5 27.5q-35 0 -57 -12t-33 -37.5t-11 -65.5zM625 1418q0 -113 101 -113q54 0 78.5 27.5t24.5 85.5q0 40 -11 65.5t-33.5 37.5t-58.5 12q-34 0 -56.5 -12t-33.5 -37.5t-11 -65.5zM162 0h342
l97 928l97 -928h341l153 1203h-229l-101 -977l-101 977h-320l-102 -979l-101 979h-227z" />
    <glyph glyph-name="uni1E9E" unicode="&#x1e9e;" horiz-adv-x="791" 
d="M388 739h18q61 0 83 -49q17 -38 17 -122v-156q0 -87 -18 -131q-23 -55 -82 -55v-228q180 0 258 120q67 103 67 295v151q0 113 -39.5 194t-113.5 124l132 410v234l-304 1q-179 0 -257 -120q-66 -101 -66 -295v-1112l228 1v1111q0 90 16 131q22 53 79 53h80l-98 -349v-208z
" />
    <glyph glyph-name="Ygrave" unicode="&#x1ef2;" horiz-adv-x="751" 
d="M160 1862l153 -274h154l-112 274h-195zM748 1521h-222l-143 -638l-131 638h-248l264 -965v-556h226v556z" />
    <glyph glyph-name="ygrave" unicode="&#x1ef3;" horiz-adv-x="713" 
d="M135 1555l153 -274h154l-112 274h-195zM8 1203l177 -1203h138l-3 -26q-17 -112 -63 -178q-35 -50 -94 -84l96 -164q98 45 168 150q76 117 99 279l58 400q36 247 61 413q26 170 61 413h-228q-60 -488 -113 -903l-9 -62l-120 965h-228z" />
    <glyph glyph-name="figuredash" unicode="&#x2012;" horiz-adv-x="616" 
d="M555 487v207h-490v-207h490z" />
    <glyph glyph-name="endash" unicode="&#x2013;" horiz-adv-x="771" 
d="M717 485v207h-659v-207h659z" />
    <glyph glyph-name="emdash" unicode="&#x2014;" horiz-adv-x="1130" 
d="M1044 485v207h-969v-207h969z" />
    <glyph glyph-name="quoteleft" unicode="&#x2018;" horiz-adv-x="333" 
d="M108 1760q-63 -198 -63 -319v-216l233 2v227h-35q-20 0 -24 25q-6 25 -2 64q3 39 32 193z" />
    <glyph glyph-name="quoteright" unicode="&#x2019;" horiz-adv-x="333" 
d="M216 1027q63 198 63 319v216l-233 -2v-228h35q19 0 25 -24q5 -26 2 -64q-3 -36 -33 -193z" />
    <glyph glyph-name="quotesinglbase" unicode="&#x201a;" horiz-adv-x="366" 
d="M216 -293q63 198 63 319v216l-233 -2v-227h35q19 0 25 -24q5 -27 2 -64q-4 -38 -33 -194z" />
    <glyph glyph-name="quotedblleft" unicode="&#x201c;" horiz-adv-x="703" 
d="M105 1760q-63 -198 -63 -319v-216l233 2v227h-35q-20 0 -24 25q-6 25 -2 64q3 39 32 193zM470 1757q-63 -198 -63 -319v-216l233 2v227h-35q-20 0 -24 25q-6 25 -2 64q3 39 32 193z" />
    <glyph glyph-name="quotedblright" unicode="&#x201d;" horiz-adv-x="722" 
d="M214 1760q63 -198 63 -319v-216l-233 2v227h35q19 0 25 25q5 26 2 64q-4 37 -33 193zM533 1757q63 -198 63 -319v-216l-233 2v227h35q19 0 25 25q5 26 2 64q-4 37 -33 193z" />
    <glyph glyph-name="quotedblbase" unicode="&#x201e;" horiz-adv-x="705" 
d="M216 -293q63 198 63 319v216l-233 -2v-227h35q19 0 25 -24q5 -27 2 -64q-4 -38 -33 -194zM582 -293q63 198 63 319v216l-233 -2v-227h35q19 0 25 -24q5 -27 2 -64q-4 -38 -33 -194z" />
    <glyph glyph-name="dagger" unicode="&#x2020;" horiz-adv-x="756" 
d="M712 880v228h-220v416h-221v-416h-219v-228h219v-1187h221v1187h220z" />
    <glyph glyph-name="daggerdbl" unicode="&#x2021;" horiz-adv-x="712" 
d="M27 333v-227h219v-413h221v413h219v227h-219v547h219v228h-219v416h-221v-416h-219v-228h219v-547h-219z" />
    <glyph glyph-name="bullet" unicode="&#x2022;" horiz-adv-x="725" 
d="M650 702q0 132 -82 222q-39 42 -91.5 65.5t-111.5 23.5q-58 0 -111 -23.5t-93 -65.5q-86 -91 -86 -222q0 -129 86 -218q40 -43 92.5 -66.5t111.5 -23.5t111.5 23.5t91.5 66.5q82 88 82 218z" />
    <glyph glyph-name="ellipsis" unicode="&#x2026;" horiz-adv-x="1134" 
d="M61 109q0 -66 31.5 -97.5t97.5 -31.5q47 0 76.5 14t43.5 42.5t14 72.5q0 34 -8 58.5t-24.5 41t-41.5 24t-60 7.5q-44 0 -72.5 -14t-42.5 -42.5t-14 -74.5zM434 109q0 -66 31 -97.5t99 -31.5q69 0 100.5 31t31.5 98q0 68 -31 99.5t-101 31.5q-34 0 -58.5 -7.5t-40.5 -24
t-23.5 -41t-7.5 -58.5zM807 109q0 -66 31.5 -97.5t97.5 -31.5q69 0 101 31.5t32 97.5q0 68 -31.5 99.5t-101.5 31.5q-33 0 -57 -7.5t-40.5 -23.5t-24 -41t-7.5 -59z" />
    <glyph glyph-name="perthousand" unicode="&#x2030;" horiz-adv-x="1965" 
d="M60 924q0 -167 52 -238q60 -81 199 -81q145 0 201 91q47 77 47 256v243q0 177 -47 254q-56 90 -201 90q-147 0 -202 -90q-49 -78 -49 -254v-271zM989 1521h-213l-367 -1521h213zM311 792q-36 0 -47 39t-11 117v250q0 79 11 118q10 37 47 37q35 0 46 -38q10 -36 10 -117
v-278q0 -72 -13 -99q-14 -29 -43 -29zM822 293q0 -166 52 -238q59 -82 199 -82q145 0 201 91q47 77 47 257v106q0 177 -47 255q-56 90 -201 90q-146 0 -203 -91q-48 -77 -48 -254v-134zM1382 293q0 -164 52 -238q58 -82 199 -82q145 0 201 91q47 77 47 257v106
q0 177 -47 255q-56 90 -201 90q-146 0 -203 -91q-48 -76 -48 -254v-134zM1073 161q-35 0 -47 39q-12 38 -12 117v114q0 78 11 117q11 38 48 38q35 0 46 -38q10 -37 10 -118v-141q0 -72 -13 -99q-14 -29 -43 -29zM1633 161q-36 0 -47 39t-11 117v114q0 86 10 117q12 38 48 38
q35 0 46 -38q10 -37 10 -118v-141q0 -72 -13 -99q-14 -29 -43 -29z" />
    <glyph glyph-name="guilsinglleft" unicode="&#x2039;" horiz-adv-x="438" 
d="M401 188l-157 402l157 404h-221l-149 -404l149 -402h221z" />
    <glyph glyph-name="guilsinglright" unicode="&#x203a;" horiz-adv-x="421" 
d="M251 188l149 402l-149 404h-220l156 -404l-156 -402h220z" />
    <glyph glyph-name="fraction" unicode="&#x2044;" horiz-adv-x="522" 
d="M533 1497l-187 38l-383 -1548l192 -39z" />
    <glyph glyph-name="uni2070" unicode="&#x2070;" horiz-adv-x="614" 
d="M58 1121q0 -160 52 -226q55 -70 199 -70q146 0 200 79q47 68 47 245v369q0 175 -47 244q-56 80 -200 80q-147 0 -202 -80q-49 -72 -49 -244v-397zM309 1013q-36 0 -47 29q-12 28 -12 108v376q0 78 12 105q12 25 47 25q34 0 45 -25q11 -27 11 -106v-404q0 -66 -14 -89
q-11 -19 -42 -19z" />
    <glyph glyph-name="uni2074" unicode="&#x2074;" horiz-adv-x="647" 
d="M176 1821l-124 -683v-143h298v-149h191v149h58v202h-58v267h-191v-267h-90l111 624h-195z" />
    <glyph glyph-name="uni2075" unicode="&#x2075;" horiz-adv-x="617" 
d="M560 1178q0 176 -30 242q-38 84 -151 84q-93 0 -129 -60l8 185h266v192h-451l-14 -567h192v16q12 67 60 67q36 0 47 -35q10 -33 10 -111q0 -99 -9 -133q-12 -45 -51 -45q-51 0 -56 93l-1 30h-192v-31q0 -136 57 -204q62 -76 193 -76q68 0 114.5 16.5t76.5 54.5
q60 78 60 282z" />
    <glyph glyph-name="uni2076" unicode="&#x2076;" horiz-adv-x="614" 
d="M57 1113q0 -141 47 -208q56 -80 200 -80q151 0 207 79q45 64 45 214v58q0 158 -27 218q-38 85 -154 85q-42 0 -74.5 -22.5t-51.5 -64.5v142q0 70 8 91q10 30 46 30q31 0 43 -28q8 -21 8 -75v-37h189v51q0 137 -45 200q-55 76 -195 76t-197 -82q-49 -69 -49 -217v-430z
M249 1183q0 26 3 44.5t9 34t18 23.5t29 8q35 0 48 -32q8 -23 8 -82v-59q0 -60 -7 -79q-12 -28 -49 -28q-40 0 -52 37q-7 20 -7 69v64z" />
    <glyph glyph-name="uni2077" unicode="&#x2077;" horiz-adv-x="562" 
d="M530 1643v178h-493v-287h178v85h105l-180 -773h207z" />
    <glyph glyph-name="uni2078" unicode="&#x2078;" horiz-adv-x="614" 
d="M58 1535q0 -124 55 -179q-63 -53 -63 -179v-85q0 -132 52 -195q59 -72 199 -72q141 0 198 71q51 63 51 196v88q0 120 -63 174q55 55 55 171v59q0 133 -49 193q-54 65 -192 65q-137 0 -192 -67q-51 -61 -51 -194v-46zM301 1447q-34 0 -45 25q-9 17 -9 65v25q0 49 9 68
q11 26 45 26q33 0 43.5 -21t10.5 -71v-30q0 -47 -8 -64q-12 -23 -46 -23zM301 1265q36 0 51 -26q10 -21 10 -72v-54q0 -50 -12.5 -74t-48.5 -24q-39 0 -52 30q-11 22 -11 68v54q0 50 13 74t50 24z" />
    <glyph glyph-name="uni2079" unicode="&#x2079;" horiz-adv-x="614" 
d="M557 1544q0 146 -46 214q-58 85 -200 85q-151 0 -207 -79q-45 -64 -45 -214v-72q0 -78 5.5 -128t22.5 -85q37 -80 154 -80q87 0 125 89v-147q0 -66 -7 -85q-12 -29 -47 -29q-30 0 -42 30q-8 21 -8 72v28h-189v-52q0 -136 45 -193q55 -72 194 -72q140 0 198 82
q47 68 47 217v419zM308 1371q-35 0 -48 33q-9 24 -9 84v60q0 59 9 80q11 29 48 29q38 0 52 -38q6 -19 6 -71v-72q-2 -51 -12 -76q-12 -29 -46 -29z" />
    <glyph glyph-name="uni207D" unicode="&#x207d;" horiz-adv-x="362" 
d="M347 769v178h-13q-55 0 -78 70q-15 46 -15 126v374v29q0 18 3 41q5 56 24 89q25 44 66 44h13v176h-13q-129 0 -200 -76q-56 -60 -74 -162q-11 -63 -11 -150v-350q0 -100 13 -163q19 -100 75 -156q70 -70 197 -70h13z" />
    <glyph glyph-name="uni207E" unicode="&#x207e;" horiz-adv-x="364" 
d="M32 772v178h13q55 0 78 70q15 46 15 126v374v29q0 11 -2 41q-8 60 -24 89q-25 44 -67 44h-13v176h13q130 0 201 -76q56 -60 74 -162q10 -57 10 -150v-350q0 -100 -12 -163q-21 -102 -75 -156q-70 -70 -198 -70h-13z" />
    <glyph glyph-name="uni2080" unicode="&#x2080;" horiz-adv-x="614" 
d="M51 -113q0 -160 52 -226q55 -70 199 -70q146 0 200 79q47 68 47 245v369q0 175 -47 244q-56 80 -200 80q-147 0 -202 -80q-49 -72 -49 -244v-397zM302 -221q-36 0 -47 29q-12 28 -12 108v376q0 78 12 105q12 25 47 25q34 0 45 -25q11 -28 11 -106v-404q0 -66 -14 -89
q-11 -19 -42 -19z" />
    <glyph glyph-name="uni2081" unicode="&#x2081;" horiz-adv-x="408" 
d="M30 264q34 10 64.5 31t45.5 48v-731h193v975h-157q-53 -77 -146 -137v-186z" />
    <glyph glyph-name="uni2082" unicode="&#x2082;" horiz-adv-x="609" 
d="M551 -388v194h-261q6 33 26.5 65t56.5 73q6 7 23.5 27t27 31t24 28t26 33.5t22.5 32.5q63 100 63 207q0 306 -246 306q-128 0 -192 -78q-60 -73 -60 -211v-51h191v30q0 50 10 78q13 36 46 36t47 -32q13 -29 13 -79q0 -36 -20 -74q-33 -60 -119 -153q-32 -35 -71 -82
q-83 -102 -99 -188v-193h492z" />
    <glyph glyph-name="uni2083" unicode="&#x2083;" horiz-adv-x="602" 
d="M555 -118q0 117 -30 174q-25 46 -74 58q95 19 95 199q0 151 -58 223t-184 72q-128 0 -187.5 -76t-59.5 -230v-20l191 2v38q0 49 12 74.5t42 25.5q34 0 48 -34q8 -24 8 -83v-5q0 -55 -15 -81t-48 -26l-64 -2v-160l58 -1q38 0 56 -26q20 -31 20 -101v-28q0 -53 -16 -74.5
t-47 -21.5q-35 0 -50 36q-13 30 -13 74v28h-191v-31q0 -157 71 -231q61 -65 183 -65q125 0 188 66q65 70 65 226z" />
    <glyph glyph-name="uni2084" unicode="&#x2084;" horiz-adv-x="647" 
d="M179 587l-124 -683v-143h298v-149h191v149h58v202h-58v267h-191v-267h-90l111 624h-195z" />
    <glyph glyph-name="uni2085" unicode="&#x2085;" horiz-adv-x="617" 
d="M563 -56q0 176 -30 242q-38 84 -151 84q-93 0 -129 -60l8 185h266v192h-451l-14 -567h192v16q12 67 60 67q36 0 47 -35q10 -33 10 -111q0 -99 -9 -133q-12 -45 -51 -45q-51 0 -56 93l-1 30h-192v-31q0 -136 57 -204q62 -76 193 -76q68 0 114.5 16.5t76.5 54.5
q60 78 60 282z" />
    <glyph glyph-name="uni2086" unicode="&#x2086;" horiz-adv-x="616" 
d="M57 -121q0 -141 47 -208q56 -80 200 -80q151 0 207 79q45 64 45 214v58q0 158 -27 218q-38 85 -154 85q-42 0 -74.5 -22.5t-51.5 -64.5v142q0 70 8 91q10 30 46 30q31 0 43 -28q8 -21 8 -75v-37h189v51q0 137 -45 200q-55 76 -195 76t-197 -82q-49 -69 -49 -217v-430z
M249 -51q1 54 13.5 82t45.5 28q35 0 48 -32q8 -23 8 -82v-59q0 -60 -7 -79q-12 -28 -49 -28q-40 0 -52 37q-7 20 -7 69v64z" />
    <glyph glyph-name="uni2087" unicode="&#x2087;" horiz-adv-x="555" 
d="M530 409v178h-493v-287h178v85h105l-180 -773h207z" />
    <glyph glyph-name="uni2088" unicode="&#x2088;" horiz-adv-x="601" 
d="M61 301q0 -124 55 -179q-63 -53 -63 -179v-85q0 -132 52 -195q59 -72 199 -72q141 0 198 71q51 63 51 196v88q0 120 -63 174q55 55 55 171v59q0 133 -49 193q-54 65 -192 65q-137 0 -192 -67q-51 -61 -51 -194v-46zM304 213q-34 0 -45 25q-9 17 -9 65v25q0 49 9 68
q11 26 45 26q33 0 43.5 -21t10.5 -71v-30q0 -47 -8 -64q-11 -23 -46 -23zM304 31q36 0 51 -26q10 -21 10 -72v-54q0 -19 -1.5 -33t-5.5 -27t-10.5 -21t-17.5 -12.5t-26 -4.5q-39 0 -52 30q-11 22 -11 68v54q0 50 13 74t50 24z" />
    <glyph glyph-name="uni2089" unicode="&#x2089;" horiz-adv-x="617" 
d="M557 310q0 146 -46 214q-58 85 -200 85q-151 0 -207 -79q-45 -64 -45 -214v-72q0 -51 1.5 -84.5t8 -69t18.5 -59.5q37 -80 154 -80q87 0 125 89v-147q0 -66 -7 -85q-12 -29 -47 -29q-30 0 -42 30q-8 21 -8 72v28h-189v-52q0 -136 45 -193q55 -72 194 -72q140 0 198 82
q47 68 47 217v419zM308 137q-35 0 -48 33q-9 24 -9 84v60q0 59 9 80q11 29 48 29q38 0 52 -38q6 -19 6 -71v-72q-2 -51 -12 -76q-12 -29 -46 -29z" />
    <glyph glyph-name="uni208D" unicode="&#x208d;" horiz-adv-x="362" 
d="M347 -465v178h-13q-55 0 -78 70q-15 46 -15 126v374v29q0 18 3 41q5 56 24 89q25 44 66 44h13v176h-13q-129 0 -200 -76q-56 -60 -74 -162q-11 -63 -11 -150v-350q0 -100 13 -163q19 -100 75 -156q70 -70 197 -70h13z" />
    <glyph glyph-name="uni208E" unicode="&#x208e;" horiz-adv-x="364" 
d="M45 -462v178h13q55 0 78 70q15 46 15 126v374v29q0 11 -2 41q-8 60 -24 89q-25 44 -67 44h-13v176h13q130 0 201 -76q56 -60 74 -162q10 -57 10 -150v-350q0 -100 -12 -163q-21 -102 -75 -156q-70 -70 -198 -70h-13z" />
    <glyph glyph-name="lira" unicode="&#x20a4;" horiz-adv-x="727" 
d="M276 1166q0 88 20 126t70 38q44 0 65 -26q38 -49 38 -160q-1 -34 -1 -100l211 2q11 258 -52 376q-72 134 -260 134q-171 0 -248 -96q-68 -83 -68 -242q0 -79 15.5 -157.5t44.5 -180.5h-75v-177h124q11 -43 19 -92h-143v-177h155q-6 -77 -41 -133q-40 -62 -114 -85v-224
q9 1 20 2.5t22.5 3t20.5 2.5q79 9 109 9q50 0 164 -12t159 -12q104 0 169 71l-77 193q-29 -27 -57 -34.5t-68 -7.5q-20 0 -40 4l-47 6q-62 8 -90 2q30 25 56 84q27 64 34 131h171v177h-180q-4 27 -19 92h199v177h-247q-20 67 -30 105t-19.5 90t-9.5 91z" />
    <glyph glyph-name="Euro" unicode="&#x20ac;" horiz-adv-x="764" 
d="M704 1041v121q0 178 -65 270q-79 110 -257 110q-180 0 -256 -108q-66 -92 -66 -282v-198h-36l-15 -148h51v-94h-36l-15 -149h51v-200q0 -187 65 -278q75 -105 257 -105q178 0 256 103q66 88 66 265v134h-227v-132q0 -80 -17 -113q-21 -42 -78 -42q-61 0 -80 48
q-16 37 -16 122v198h284l14 149h-298v94h296l14 148h-310v199q0 85 16 119q20 41 80 41q58 0 79 -43q16 -33 16 -110v-119h227z" />
    <glyph glyph-name="uni2116" unicode="&#x2116;" horiz-adv-x="1592" 
d="M943 815q0 -160 52 -226q55 -70 199 -70q146 0 200 79q47 68 47 245v369q0 175 -47 244q-56 80 -200 80q-147 0 -202 -80q-49 -72 -49 -244v-397zM313 0v956l224 -956h228v1521h-226v-850l-202 850h-250v-1521h226zM1194 707q-36 0 -47 29q-12 28 -12 108v376
q0 78 12 105q12 25 47 25q34 0 45 -25q11 -27 11 -106v-404q0 -66 -14 -89q-11 -19 -42 -19zM1450 212v207h-506v-207h506z" />
    <glyph glyph-name="trademark" unicode="&#x2122;" horiz-adv-x="1364" 
d="M866 645h152l97 433h4l-12 -532h191v978h-235l-119 -546h-4l-119 546h-237v-978h192l-12 532h4zM540 1329v194h-509v-194h159v-783h193v783h157z" />
    <glyph glyph-name="uni2126" unicode="&#x2126;" horiz-adv-x="783" 
d="M362 0v526q-29 0 -42 24q-25 41 -25 136v79v378q0 86 16 122q19 47 76 48q1 -1 4 -1q62 0 82 -47q15 -38 15 -122v-378q0 -117 -7 -158q-14 -81 -60 -81v-526h280v227h-94l3 140q58 58 85 174q19 86 19 224v379q0 189 -65 285q-78 113 -258 113t-257 -112
q-66 -96 -66 -286v-379q0 -137 19 -224q25 -114 85 -174l3 -140h-93v-227h280z" />
    <glyph glyph-name="estimated" unicode="&#x212e;" horiz-adv-x="769" 
d="M510 418v-133q0 -97 -21 -148q-29 -70 -104 -70h-4q-75 1 -102 70q-20 48 -20 153v271l439 27v233q0 187 -61 283q-76 120 -253 120h-1q-176 0 -251 -115q-61 -95 -61 -291v-430q0 -194 62 -290q76 -118 253 -118h1q177 0 252 119q59 94 59 284v35h-188zM259 917
q0 103 21 154q27 67 101 68h4q76 0 105 -71q20 -53 20 -147v-252l-251 -15v263z" />
    <glyph glyph-name="partialdiff" unicode="&#x2202;" horiz-adv-x="745" 
d="M363 1312q3 1 10 1q53 0 72 -63q11 -40 11 -154v-197q-43 100 -146 101q-155 0 -210 -121q-40 -89 -40 -295v-202q0 -194 60 -288q73 -114 251 -114t252 112q59 90 59 282v739q0 200 -59 302q-73 127 -250 127h-15q-11 0 -16 -1zM367 770q53 0 72 -34q15 -31 17 -110
v-248v-24v-24t-0.5 -20t-1 -20.5t-2.5 -16.5t-4 -16q-16 -47 -77 -47q-55 0 -72 45q-13 31 -13 127v206q0 99 11 131q18 51 70 51z" />
    <glyph glyph-name="uni2206" unicode="&#x2206;" horiz-adv-x="752" 
d="M375 1205h7l131 -1205h232l-202 1521h-331l-204 -1521h480l-24 230h-199z" />
    <glyph glyph-name="product" unicode="&#x220f;" horiz-adv-x="790" 
d="M309 -175v1472h174v-1472h220v1696h-617v-1696h223z" />
    <glyph glyph-name="summation" unicode="&#x2211;" horiz-adv-x="728" 
d="M517 801l-194 491h331v229h-579v-213l211 -547l-218 -547v-214h594v229h-346l201 491v81z" />
    <glyph glyph-name="minus" unicode="&#x2212;" horiz-adv-x="717" 
d="M645 600v207h-574v-207h574z" />
    <glyph glyph-name="approxequal" unicode="&#x2248;" horiz-adv-x="631" 
d="M472 1009q-13 -36 -31 -52.5t-44 -16.5q-7 0 -14 1.5t-16 6t-13.5 7t-16 9.5t-15.5 9q-58 33 -100 33q-76 0 -125 -59q-43 -52 -62 -145l109 -41q14 38 33 54t46 16q6 0 12.5 -1.5t12 -3.5t12.5 -5.5t12 -6.5t13.5 -8t13.5 -8q56 -33 96 -33q78 0 127 60q42 51 60 146z
M472 646q-9 -24 -19.5 -39.5t-24 -22.5t-31.5 -7q-7 0 -14 1.5t-16 6t-13.5 7t-16.5 9.5t-15 9q-58 33 -100 33q-76 0 -125 -59q-43 -52 -62 -145l109 -41q14 38 33 54t46 16q7 0 14 -1.5t15.5 -5.5t14 -7t16.5 -9.5t16 -9.5q56 -33 96 -33q78 0 127 60q42 51 60 146z" />
    <glyph glyph-name="notequal" unicode="&#x2260;" horiz-adv-x="717" 
d="M537 1069l-163 46l-39 -157h-264v-207h214l-37 -149h-177v-207h127l-25 -103l163 -46l36 149h273v207h-222l36 149h186v207h-135z" />
    <glyph glyph-name="lessequal" unicode="&#x2264;" horiz-adv-x="718" 
d="M605 354v255l-282 237l282 239v254l-519 -402v-180zM620 91v211h-543v-211h543z" />
    <glyph glyph-name="greaterequal" unicode="&#x2265;" horiz-adv-x="712" 
d="M602 757v180l-519 402v-254l282 -239l-282 -237v-255zM611 91v211h-543v-211h543z" />
    <glyph glyph-name="uniA730" unicode="&#xa730;" horiz-adv-x="662" 
d="M308 0l-1 463h240v233h-240v274h337v232h-558v-1202h222z" />
    <glyph glyph-name="uniA731" unicode="&#xa731;" horiz-adv-x="704" 
d="M658 317q0 86 -28 148q-50 112 -164 201q-43 32 -93 74q-49 40 -74.5 76t-25.5 78q0 45 18 73q20 33 63 33q48 0 67 -44q13 -33 13 -115l217 -1q0 219 -69 304q-35 43 -90.5 61.5t-137.5 18.5q-184 0 -254 -100q-51 -72 -51 -232q0 -83 28 -141q49 -106 161 -189
q55 -43 90 -73q47 -42 72.5 -82t25.5 -89q0 -51 -19 -81.5t-59 -30.5q-57 0 -75 45q-14 35 -14 133h-222q0 -209 61 -299q70 -105 252 -105q170 0 242 85q66 77 66 252z" />
    <glyph glyph-name="uniF6E1" unicode="&#xf6e1;" horiz-adv-x="346" 
d="M46 -275q0 -65 29.5 -97t91.5 -32q-7 -51 -19 -83q-16 -41 -48 -86l99 -61q48 53 76 127q34 93 34 206q0 157 -134 157q-66 0 -97.5 -31.5t-31.5 -99.5z" />
    <glyph glyph-name="uniF6E2" unicode="&#xf6e2;" horiz-adv-x="346" 
d="M46 959q0 -65 29.5 -97t91.5 -32q-7 -51 -19 -83q-16 -41 -48 -86l99 -61q48 53 76 127q34 93 34 206q0 157 -134 157q-66 0 -97.5 -31.5t-31.5 -99.5z" />
    <glyph glyph-name="uniF6E5" unicode="&#xf6e5;" horiz-adv-x="529" 
d="M496 -2v190h-449v-190h449z" />
    <glyph glyph-name="uniF6E6" unicode="&#xf6e6;" horiz-adv-x="529" 
d="M496 1232v190h-449v-190h449z" />
    <glyph glyph-name="uniF6E7" unicode="&#xf6e7;" horiz-adv-x="357" 
d="M46 -282q0 -66 31.5 -97.5t97.5 -31.5q35 0 60 7.5t41.5 24t24.5 40.5t8 57q0 68 -32 99.5t-102 31.5q-66 0 -97.5 -31.5t-31.5 -99.5z" />
    <glyph glyph-name="uniF6E8" unicode="&#xf6e8;" horiz-adv-x="357" 
d="M46 951q0 -66 31.5 -97.5t97.5 -31.5q69 0 101.5 31.5t32.5 97.5q0 68 -32 99.5t-102 31.5q-66 0 -97.5 -31.5t-31.5 -99.5z" />
    <glyph glyph-name="uniF6F9" unicode="&#xf6f9;" horiz-adv-x="654" 
d="M307 232h337v-232h-558v373l-115 -101v215l115 101v614h222v-418l140 124v-216l-141 -124v-336z" />
    <glyph glyph-name="uniF6FD" unicode="&#xf6fd;" horiz-adv-x="704" 
d="M127 1522l119 -241h208l119 241h-178l-45 -120l-44 120h-179zM658 317q0 86 -28 148q-50 112 -164 201q-43 32 -93 74q-48 40 -74 76t-26 78q0 45 18 73q20 33 63 33q48 0 67 -44q13 -33 13 -115l217 -1q0 219 -69 304q-35 43 -90.5 61.5t-137.5 18.5q-183 0 -254 -100
q-51 -72 -51 -232q0 -83 28 -141q49 -106 161 -189q55 -43 90 -73q47 -42 72.5 -82t25.5 -89q0 -51 -19 -81.5t-59 -30.5q-57 0 -75 45q-14 35 -14 133h-222q0 -209 61 -299q70 -105 252 -105q170 0 242 85q66 77 66 252z" />
    <glyph glyph-name="uniF6FF" unicode="&#xf6ff;" horiz-adv-x="663" 
d="M121 1522l119 -241h208l119 241h-178l-45 -120l-44 120h-179zM609 0v222h-324l324 783v197h-548v-216h302l-327 -788v-198h573z" />
    <glyph glyph-name="uniF730" unicode="&#xf730;" horiz-adv-x="769" 
d="M74 384q0 -194 60 -288q74 -116 251 -116q179 0 252 115q59 92 59 290v434q0 195 -59 289q-74 116 -252 116t-251 -115q-60 -95 -60 -290v-435zM385 994q47 0 68 -46q8 -19 16 -84l-169 -275v229q0 92 12 127q17 49 73 49zM385 210q-28 0 -42 13q-27 22 -34 73l-6 44
l167 282q1 -10 1 -27v-29v-194q0 -90 -12 -119q-18 -43 -74 -43z" />
    <glyph glyph-name="uniF731" unicode="&#xf731;" horiz-adv-x="534" 
d="M425 0v1209h-180q-47 -73 -88 -112q-59 -54 -138 -75v-221q70 15 104 28q56 19 83 59v-888h219z" />
    <glyph glyph-name="uniF732" unicode="&#xf732;" horiz-adv-x="775" 
d="M700 0v229h-327q9 35 34.5 71.5t71.5 87.5q5 5 17 18.5t17.5 20t17 19.5t18 21t17 20.5t18 22.5l16.5 22t17 24t15 24q78 127 78 272q0 192 -76 281.5t-233 89.5q-162 0 -240 -92q-74 -87 -74 -260v-104h226v80q0 72 15 103q19 40 69 40q49 0 68 -32t19 -103
q0 -47 -24 -92q-43 -79 -148 -185q-56 -60 -91 -103q-107 -130 -136 -243v-232h615z" />
    <glyph glyph-name="uniF733" unicode="&#xf733;" horiz-adv-x="777" 
d="M706 78q0 163 -25 254q-32 108 -107 135q66 29 94 109q28 81 28 264q0 161 -51 255q-42 78 -118 108q-52 21 -133 21q-163 0 -238 -88q-74 -87 -74 -280v-113h227v117q0 36 3.5 60.5t13 42t25.5 25t40 7.5q26 0 41 -7.5t24 -27.5q15 -34 15 -147v-39q0 -114 -22 -158
q-20 -41 -67 -41l-81 -3v-218l73 -2q52 0 78 -31q29 -37 29 -120v-139q0 -104 -22 -139q-20 -31 -70 -31q-46 0 -65 26q-25 30 -25 108v116h-225v-111q0 -201 80 -289q73 -80 222 -80q87 0 147.5 19.5t100.5 64.5q82 94 82 332z" />
    <glyph glyph-name="uniF734" unicode="&#xf734;" horiz-adv-x="817" 
d="M278 1203l-192 -1120v-162h368v-239h219v239h79v229h-79v325h-219v-325h-124l181 1053h-233z" />
    <glyph glyph-name="uniF735" unicode="&#xf735;" horiz-adv-x="776" 
d="M699 199q0 150 -8.5 241.5t-31.5 148.5q-17 40 -42.5 65t-62.5 37t-88 12q-53 0 -96 -18q-47 -21 -70 -62l12 350h343v230h-565l-18 -847h225v15q0 51 19 80q21 32 67 32q51 0 69 -39t18 -136v-257q0 -80 -12 -112q-18 -47 -74 -47q-28 0 -46.5 11t-29 36.5t-10.5 67.5
v144h-226v-139q0 -172 73 -258q78 -92 243 -92q83 0 139.5 19t93.5 66q78 99 78 374v78z" />
    <glyph glyph-name="uniF736" unicode="&#xf736;" horiz-adv-x="765" 
d="M73 374q0 -190 59 -282q72 -112 251 -112t252 109q59 87 59 283v242q0 99 -7.5 165.5t-30.5 113.5q-52 107 -209 107q-38 -1 -66.5 -13t-48 -34.5t-33.5 -57.5v246q0 100 12 131q16 41 68 41t68 -39q10 -25 10 -104v-91h225v97q0 172 -55 258q-71 108 -245 108
q-178 0 -250 -113q-59 -93 -59 -286v-769zM389 770q56 0 71 -46q9 -27 9 -126v-209q0 -100 -11 -131q-17 -48 -75 -48q-59 0 -75 53q-9 30 -9 129v188q0 101 14 140q19 50 76 50z" />
    <glyph glyph-name="uniF737" unicode="&#xf737;" horiz-adv-x="816" 
d="M739 1022v181h-652v-402h208v172h203l-287 -1291h238z" />
    <glyph glyph-name="uniF738" unicode="&#xf738;" horiz-adv-x="761" 
d="M73 1068q0 -105 21.5 -173t71.5 -108q-55 -37 -78 -109t-23 -193v-124q0 -189 63 -277q73 -104 248 -104q174 0 248 104q63 88 63 278v135q0 106 -25.5 177.5t-84.5 111.5q103 77 103 279v101q0 185 -58 272q-71 104 -246 104t-244 -104q-59 -87 -59 -271v-99zM376 904
q-52 0 -67 37q-10 24 -10 100v115q0 89 9 116q14 41 68 41q55 0 69 -42q9 -28 9 -116v-114q0 -76 -10 -100q-15 -37 -68 -37zM376 675q55 0 74 -42q13 -30 13 -117v-144q0 -88 -15 -122q-18 -40 -72 -40q-57 0 -75 50q-10 28 -10 125v131q0 87 13 117q17 42 72 42z" />
    <glyph glyph-name="uniF739" unicode="&#xf739;" horiz-adv-x="770" 
d="M696 820q0 196 -59 288q-74 116 -252 116t-251 -115q-60 -95 -60 -290v-209q0 -204 40 -289q54 -116 210 -116q104 0 147 102v-244q0 -100 -12 -131q-16 -41 -73 -41q-46 0 -62 38q-12 29 -12 103v93h-225v-90q0 -175 55 -262q70 -111 244 -111q179 0 251 113
q59 91 59 286v759zM381 434q-53 0 -70 50q-11 31 -11 129v202q0 97 12 132q17 48 73 48q61 0 77 -52q9 -29 9 -127v-228q-2 -82 -18 -115q-19 -39 -72 -39z" />
    <glyph glyph-name="uniF771" unicode="&#xf771;" 
d="M632 1115q61 -90 61 -281v-464q0 -195 -59 -282q-25 -38 -64 -63t-92 -36v-121h-198v123q-99 23 -151 98q-63 91 -63 280v464q0 192 62 283q75 108 252 108q178 0 252 -109zM288 838v-472q0 -87 13 -117q18 -43 79 -43q59 0 77 42q14 32 14 119v471q0 88 -13 118
q-19 44 -78 44t-78 -42q-14 -33 -14 -120z" />
    <glyph glyph-name="uniF778" unicode="&#xf778;" horiz-adv-x="714" 
d="M704 0l-209 625l198 577h-215l-117 -373l-107 373h-232l198 -577l-209 -625h216l126 407l120 -407h231z" />
    <glyph glyph-name="uniF7E0" unicode="&#xf7e0;" horiz-adv-x="726" 
d="M136 1555l153 -274h154l-112 274h-195zM539 1203h-352l-177 -1203h227l24 192h204l24 -192h227zM359 980h8l72 -584h-153z" />
    <glyph glyph-name="uniF7E1" unicode="&#xf7e1;" horiz-adv-x="726" 
d="M392 1555l-112 -274h162l158 274h-208zM539 1203h-352l-177 -1203h227l24 192h204l24 -192h227zM359 980h8l72 -584h-153z" />
    <glyph glyph-name="uniF7E2" unicode="&#xf7e2;" horiz-adv-x="726" 
d="M317 1281l45 120l44 -120h178l-118 241h-209l-118 -241h178zM539 1203h-352l-177 -1203h227l24 192h204l24 -192h227zM359 980h8l72 -584h-153z" />
    <glyph glyph-name="uniF7E3" unicode="&#xf7e3;" horiz-adv-x="726" 
d="M526 1550q-13 -36 -30.5 -52.5t-44.5 -16.5q-7 0 -14 1.5t-16 6t-13.5 7t-16 9.5t-15.5 9q-58 33 -100 33q-76 0 -125 -59q-43 -52 -62 -145l109 -41q7 20 15.5 33.5t18.5 21.5t20.5 11.5t24.5 3.5q7 0 14 -1.5t15.5 -5.5t14 -7t16.5 -9.5t16 -9.5q56 -33 96 -33
q78 0 127 60q42 51 60 146zM539 1203h-352l-177 -1203h227l24 192h204l24 -192h227zM359 980h8l72 -584h-153z" />
    <glyph glyph-name="uniF7E4" unicode="&#xf7e4;" horiz-adv-x="726" 
d="M140 1418q0 -113 101 -113q54 0 78.5 27.5t24.5 85.5q0 60 -24.5 87.5t-78.5 27.5q-52 0 -76.5 -27.5t-24.5 -87.5zM380 1418q0 -113 101 -113q54 0 78.5 27.5t24.5 85.5q0 60 -24.5 87.5t-78.5 27.5q-51 0 -76 -27.5t-25 -87.5zM539 1203h-352l-177 -1203h227l24 192
h204l24 -192h227zM359 980h8l72 -584h-153z" />
    <glyph glyph-name="uniF7E5" unicode="&#xf7e5;" horiz-adv-x="726" 
d="M169 1470q0 -99 46.5 -147.5t144.5 -48.5q101 0 147.5 48t46.5 148q0 104 -46 152t-148 48q-99 0 -145 -48.5t-46 -151.5zM310 1471q0 59 51 59q28 0 39.5 -14.5t11.5 -44.5q0 -29 -11.5 -43.5t-39.5 -14.5q-51 0 -51 58zM539 1203h-352l-177 -1203h227l24 192h204
l24 -192h227zM359 980h8l72 -584h-153z" />
    <glyph glyph-name="uniF7E7" unicode="&#xf7e7;" horiz-adv-x="756" 
d="M694 804h-220v47q0 71 -14 104q-22 45 -79 45q-60 0 -78 -43q-14 -34 -14 -122v-326v-98q-1 -50 0 -96q2 -51 21 -79q21 -30 71 -30q57 0 78 43q15 31 15 105v45h220v-43q0 -181 -59 -267q-33 -48 -86 -75.5t-131 -32.5l-1 -55l16 3q15 4 38 4q63 0 102 -46
q37 -45 37 -110q0 -91 -65 -140q-60 -47 -169 -47q-59 0 -106 21t-76 54l34 86q32 -24 58 -34q33 -14 84 -14q34 0 55.5 16t21.5 48q0 36 -53 49q-45 11 -87 -4l1 173q-121 20 -179 105q-62 91 -62 282v496q2 180 66 262q75 94 248 94q176 0 252 -110q61 -88 61 -266v-44z
" />
    <glyph glyph-name="uniF7E8" unicode="&#xf7e8;" horiz-adv-x="704" 
d="M136 1555l153 -274h154l-112 274h-195zM644 0v231h-337v266h234v231h-234v243h337v231h-558v-1202h558z" />
    <glyph glyph-name="uniF7E9" unicode="&#xf7e9;" horiz-adv-x="704" 
d="M375 1555l-112 -274h162l158 274h-208zM644 0v231h-337v266h234v231h-234v243h337v231h-558v-1202h558z" />
    <glyph glyph-name="uniF7EA" unicode="&#xf7ea;" horiz-adv-x="704" 
d="M311 1281l45 120l44 -120h178l-118 241h-209l-118 -241h178zM644 0v231h-337v266h234v231h-234v243h337v231h-558v-1202h558z" />
    <glyph glyph-name="uniF7EB" unicode="&#xf7eb;" horiz-adv-x="704" 
d="M137 1418q0 -113 101 -113q54 0 78.5 27.5t24.5 85.5q0 60 -24.5 87.5t-78.5 27.5q-35 0 -57 -12t-33 -37.5t-11 -65.5zM377 1418q0 -113 101 -113q54 0 78.5 27.5t24.5 85.5q0 60 -24.5 87.5t-78.5 27.5q-51 0 -76 -27.5t-25 -87.5zM644 0v231h-337v266h234v231h-234
v243h337v231h-558v-1202h558z" />
    <glyph glyph-name="uniF7EC" unicode="&#xf7ec;" horiz-adv-x="394" 
d="M-39 1555l153 -274h154l-112 274h-195zM308 0v1202h-221v-1202h221z" />
    <glyph glyph-name="uniF7ED" unicode="&#xf7ed;" horiz-adv-x="394" 
d="M229 1555l-112 -274h162l158 274h-208zM308 0v1202h-221v-1202h221z" />
    <glyph glyph-name="uniF7EE" unicode="&#xf7ee;" horiz-adv-x="394" 
d="M153 1281l45 120l44 -120h178l-118 241h-209l-118 -241h178zM308 0v1202h-221v-1202h221z" />
    <glyph glyph-name="uniF7EF" unicode="&#xf7ef;" horiz-adv-x="394" 
d="M-25 1418q0 -113 101 -113q54 0 78.5 27.5t24.5 85.5q0 60 -24.5 87.5t-78.5 27.5q-52 0 -76.5 -27.5t-24.5 -87.5zM215 1418q0 -113 101 -113q36 0 59 12.5t33.5 37t10.5 63.5q0 30 -6 51.5t-18.5 36t-32 21t-46.5 6.5q-34 0 -56.5 -12t-33.5 -37.5t-11 -65.5zM308 0
v1202h-221v-1202h221z" />
    <glyph glyph-name="uniF7F0" unicode="&#xf7f0;" horiz-adv-x="795" 
d="M392 0q180 0 257 108q65 92 65 283v419q0 191 -65 283q-78 108 -254 109h-310v-508h-82v-207h82v-487h307zM310 694v278h87q54 -2 74 -38q19 -35 19 -127v-409q0 -91 -20 -129.5t-73 -39.5h-87v258h81v207h-81z" />
    <glyph glyph-name="uniF7F1" unicode="&#xf7f1;" horiz-adv-x="806" 
d="M589 1550q-13 -36 -31 -52.5t-44 -16.5q-6 0 -12.5 1.5t-12 3.5t-12.5 6t-11.5 6.5l-13.5 7.5t-13 8q-58 33 -100 33q-76 0 -125 -59q-43 -52 -62 -145l109 -41q14 38 33 54t46 16q7 0 14 -1.5t15.5 -5.5t14 -7t16.5 -9.5t16 -9.5q56 -33 96 -33q78 0 127 60
q42 51 60 146zM723 0v1202h-226v-607l-55 179l-112 428h-246l2 -1202h226v621l45 -149l121 -472h245z" />
    <glyph glyph-name="uniF7F2" unicode="&#xf7f2;" 
d="M148 1555l153 -274h154l-112 274h-195zM66 369q0 -190 63 -280q74 -109 254 -109q178 0 251 108q59 87 59 282v464q0 191 -61 281q-74 109 -252 109q-177 0 -252 -108q-62 -91 -62 -283v-464zM380 1000q59 0 78 -44q13 -30 13 -118v-471q0 -88 -14 -119q-18 -42 -77 -42
q-61 0 -79 43q-13 30 -13 117v472q0 87 14 120q19 42 78 42z" />
    <glyph glyph-name="uniF7F3" unicode="&#xf7f3;" 
d="M410 1555l-112 -274h162l158 274h-208zM66 369q0 -190 63 -280q74 -109 254 -109q178 0 251 108q59 87 59 282v464q0 191 -61 281q-74 109 -252 109q-177 0 -252 -108q-62 -91 -62 -283v-464zM380 1000q59 0 78 -44q13 -30 13 -118v-471q0 -88 -14 -119q-18 -42 -77 -42
q-61 0 -79 43q-13 30 -13 117v472q0 87 14 120q19 42 78 42z" />
    <glyph glyph-name="uniF7F4" unicode="&#xf7f4;" 
d="M335 1281l45 120l44 -120h178l-118 241h-209l-118 -241h178zM66 369q0 -190 63 -280q74 -109 254 -109q178 0 251 108q59 87 59 282v464q0 191 -61 281q-74 109 -252 109q-177 0 -252 -108q-62 -91 -62 -283v-464zM380 1000q59 0 78 -44q13 -30 13 -118v-471
q0 -88 -14 -119q-18 -42 -77 -42q-61 0 -79 43q-13 30 -13 117v472q0 87 14 120q19 42 78 42z" />
    <glyph glyph-name="uniF7F5" unicode="&#xf7f5;" 
d="M540 1550q-13 -36 -31 -52.5t-44 -16.5q-7 0 -14 1.5t-16 6t-13.5 7t-16 9.5t-15.5 9q-58 33 -100 33q-76 0 -125 -59q-42 -52 -62 -145l109 -41q14 38 33 54t46 16q6 0 12.5 -1.5t12 -3.5t12.5 -5.5t12 -6.5t13.5 -8t13.5 -8q56 -33 96 -33q78 0 127 60q42 51 60 146z
M66 369q0 -190 63 -280q74 -109 254 -109q178 0 251 108q59 87 59 282v464q0 191 -61 281q-74 109 -252 109q-177 0 -252 -108q-62 -91 -62 -283v-464zM380 1000q59 0 78 -44q13 -30 13 -118v-471q0 -88 -14 -119q-18 -42 -77 -42q-61 0 -79 43q-13 30 -13 117v472
q0 87 14 120q19 42 78 42z" />
    <glyph glyph-name="uniF7F6" unicode="&#xf7f6;" 
d="M157 1418q0 -113 101 -113q36 0 58.5 12.5t33.5 37t11 63.5q0 60 -24.5 87.5t-78.5 27.5q-52 0 -76.5 -27.5t-24.5 -87.5zM397 1418q0 -113 101 -113q36 0 59 12.5t33.5 37t10.5 63.5q0 60 -24.5 87.5t-78.5 27.5q-51 0 -76 -27.5t-25 -87.5zM66 369q0 -190 63 -280
q74 -109 254 -109q178 0 251 108q59 87 59 282v464q0 191 -61 281q-74 109 -252 109q-177 0 -252 -108q-62 -91 -62 -283v-464zM380 1000q59 0 78 -44q13 -30 13 -118v-471q0 -88 -14 -119q-18 -42 -77 -42q-61 0 -79 43q-13 30 -13 117v472q0 87 14 120q19 42 78 42z" />
    <glyph glyph-name="uniF7F8" unicode="&#xf7f8;" 
d="M788 1276l-135 56l-57 -134q-63 26 -150 26q-177 0 -252 -108q-62 -91 -62 -283v-464q0 -166 48 -257l-65 -157l137 -61l47 111q63 -25 150 -25q178 0 251 108q59 87 59 282v464q0 167 -48 258zM446 1000q59 0 78 -44q13 -30 13 -118v-471q0 -88 -14 -119
q-18 -42 -77 -42q-60 0 -78 43q-14 33 -14 117v472q0 87 14 120q19 42 78 42z" />
    <glyph glyph-name="uniF7F9" unicode="&#xf7f9;" horiz-adv-x="772" 
d="M162 1555l153 -274h154l-112 274h-195zM479 1202v-840q0 -79 -16 -112q-20 -41 -81 -41q-56 1 -75 43q-15 30 -15 110v840h-225v-837q0 -188 65 -279q75 -105 250 -106q181 0 257 105q65 91 65 280v837h-225z" />
    <glyph glyph-name="uniF7FA" unicode="&#xf7fa;" horiz-adv-x="772" 
d="M410 1555l-112 -274h162l158 274h-208zM479 1202v-840q0 -79 -16 -112q-20 -41 -81 -41q-56 1 -75 43q-15 30 -15 110v840h-225v-837q0 -188 65 -279q75 -105 250 -106q181 0 257 105q65 91 65 280v837h-225z" />
    <glyph glyph-name="uniF7FB" unicode="&#xf7fb;" horiz-adv-x="772" 
d="M342 1281l45 120l44 -120h178l-118 241h-209l-118 -241h178zM479 1202v-840q0 -79 -16 -112q-20 -41 -81 -41q-56 1 -75 43q-15 30 -15 110v840h-225v-837q0 -188 65 -279q75 -105 250 -106q181 0 257 105q65 91 65 280v837h-225z" />
    <glyph glyph-name="uniF7FC" unicode="&#xf7fc;" horiz-adv-x="772" 
d="M163 1418q0 -113 101 -113q36 0 59 12.5t33.5 37t10.5 63.5q0 60 -24.5 87.5t-78.5 27.5q-35 0 -57 -12t-33 -37.5t-11 -65.5zM403 1418q0 -113 101 -113q54 0 78.5 27.5t24.5 85.5q0 40 -11 65.5t-33.5 37.5t-58.5 12q-51 0 -76 -27.5t-25 -87.5zM479 1202v-840
q0 -79 -16 -112q-20 -41 -81 -41q-56 1 -75 43q-15 30 -15 110v840h-225v-837q0 -188 65 -279q75 -105 250 -106q181 0 257 105q65 91 65 280v837h-225z" />
    <glyph glyph-name="uniF7FD" unicode="&#xf7fd;" horiz-adv-x="661" 
d="M372 1555l-112 -274h162l158 274h-208zM450 1202l-113 -507l-108 507h-218l212 -753v-449h225v449l203 753h-201z" />
    <glyph glyph-name="uniF7FE" unicode="&#xf7fe;" horiz-adv-x="781" 
d="M85 1203v-1203h219v198h59q148 0 229 60q111 82 111 273v119q0 183 -77 272.5t-236 89.5h-86v191h-219zM484 557q-1 -68 -23.5 -101.5t-74.5 -33.5h-82v367h83q51 0 74 -30.5t23 -99.5v-102z" />
    <glyph glyph-name="uniF7FF" unicode="&#xf7ff;" horiz-adv-x="661" 
d="M119 1418q0 -113 101 -113q54 0 78.5 27.5t24.5 85.5q0 40 -11 65.5t-33.5 37.5t-58.5 12q-52 0 -76.5 -27.5t-24.5 -87.5zM359 1418q0 -113 101 -113q54 0 78.5 27.5t24.5 85.5q0 60 -24.5 87.5t-78.5 27.5q-51 0 -76 -27.5t-25 -87.5zM450 1202l-113 -507l-108 507
h-218l212 -753v-449h225v449l203 753h-201z" />
    <glyph glyph-name="s_t" unicode="&#xfb06;" horiz-adv-x="1329" 
d="M1301 242l13 -195q-82 -67 -185 -67q-149 0 -206 109q-48 90 -48 289v608h-109v217h109v34q-10 58 -38 86q-24 24 -58 24q-57 0 -85 -70q-18 -46 -18 -110l-3 -267q1 -19 1 -60l-217 1q0 82 -13 115q-19 44 -67 44q-43 0 -63 -33q-18 -28 -18 -73q0 -42 25.5 -78
t74.5 -76q50 -42 93 -74q114 -89 164 -201q28 -62 28 -148q0 -175 -66 -252q-72 -85 -242 -85q-182 0 -252 105q-61 90 -61 299h222q0 -98 14 -133q18 -45 75 -45q21 0 36 8.5t24 24t13.5 35.5t4.5 44q0 49 -25.5 89t-72.5 82q-35 30 -90 73q-112 83 -161 189
q-28 58 -28 141q0 160 51 232q70 100 254 100q40 0 80 -5q0 5 -1 5q-2 -2 -2 -3q0 66 18 128q27 92 90 149q80 72 214 72q154 0 235 -74q89 -83 89 -248v-45h186v-217h-187l-2 -608q0 -98 14 -137q14 -41 56 -41q46 0 85 16q22 8 49 26z" />
    <glyph glyph-name="f.001" horiz-adv-x="524" 
d="M-9 986h114v-986h222v986h191v217h-191v8q0 97 14 138q14 40 56 40q45 0 86 -15q22 -9 49 -27l13 195q-82 67 -185 67q-149 0 -207 -109q-48 -90 -48 -289v-8h-114v-217z" />
    <glyph glyph-name="DOT" horiz-adv-x="10" 
d="M86 383q0 -115 111 -115q40 0 65 12.5t37 37.5t12 65q0 60 -27 87.5t-87 27.5q-111 0 -111 -115z" />
    <glyph glyph-name="zero.fitted" horiz-adv-x="792" 
d="M85 384q0 -194 59 -288q72 -116 252 -116q173 0 248 112q62 92 62 286v767q0 190 -62 284q-75 113 -248 113q-176 0 -251 -115q-60 -94 -60 -283v-760zM396 1313q56 0 73 -44q12 -31 12 -118v-780q0 -90 -12 -119q-17 -42 -73.5 -42t-73.5 46q-11 29 -11 120v767
q0 95 12 124q17 46 73 46z" />
    <glyph glyph-name="one.fitted" horiz-adv-x="746" 
d="M656 229h-160v1295h-180q-43 -68 -88 -111q-58 -55 -138 -76v-221q72 16 104 28q59 21 82 59v-974h-167v-229h547v229z" />
    <glyph glyph-name="two.fitted" horiz-adv-x="745" 
d="M674 0v229h-349q36 124 134 313q7 13 31 59t34.5 66.5t29 57t32 67t26.5 60.5q72 176 72 331q0 192 -76 278q-75 84 -233 84q-162 0 -238 -86.5t-76 -258.5v-160h226v137q0 69 15 99q18 37 69 37q50 0 68.5 -30.5t18.5 -101.5q0 -82 -25 -160q-43 -140 -150 -323
q-53 -90 -92 -162q-107 -197 -132 -328v-208h615z" />
    <glyph glyph-name="three.fitted" horiz-adv-x="745" 
d="M688 396q0 163 -25 254q-32 108 -107 135q66 29 94 109q28 81 28 264q0 161 -51 255q-42 78 -118 108q-52 21 -133 21q-163 0 -238 -88q-74 -87 -74 -280v-113h227v117q0 72 17.5 104t64.5 31q26 0 41 -7.5t24 -27.5q15 -34 15 -147v-39q0 -114 -22 -158q-20 -41 -67 -41
l-81 -3v-218l73 -2q52 0 78 -31q29 -37 29 -120v-139q0 -104 -22 -139q-20 -31 -70 -31q-46 0 -65 26q-25 30 -25 108v116h-225v-111q0 -201 80 -289q73 -80 222 -80q87 0 147.5 19t100.5 65q82 94 82 332z" />
    <glyph glyph-name="four.fitted" horiz-adv-x="745" 
d="M231 1521l-192 -1120v-162h368v-239h219v239h79v229h-79v325h-219v-325h-124l181 1053h-233z" />
    <glyph glyph-name="five.fitted" horiz-adv-x="745" 
d="M682 517q0 99 -3 166.5t-12 126t-25 97.5q-25 60 -71 87t-122 27q-53 0 -96 -18q-47 -21 -70 -62l12 350h343v230h-565l-18 -847h225v15q0 51 19 80q21 32 67 32q51 0 69 -39t18 -136v-257q0 -80 -12 -112q-18 -47 -74 -47q-21 0 -36.5 6t-27 19.5t-17 36t-5.5 53.5v144
h-226v-139q0 -172 73 -258q78 -92 243 -92q54 0 95 7.5t77 26.5t61 51q78 99 78 374v78z" />
    <glyph glyph-name="six.fitted" horiz-adv-x="745" 
d="M62 374q0 -190 59 -282q72 -112 251 -112t252 109q59 87 59 283v242q0 99 -7.5 165.5t-30.5 113.5q-52 107 -209 107q-56 -1 -91.5 -27t-56.5 -78v246q0 100 12 131q16 41 68 41t68 -39q10 -25 10 -104v-91h225v97q0 172 -55 258q-71 108 -245 108q-178 0 -250 -113
q-59 -93 -59 -286v-769zM378 770q56 0 71 -46q9 -27 9 -126v-209q0 -100 -11 -131q-17 -48 -75 -48q-59 0 -75 53q-9 30 -9 129v188q0 101 14 140q19 50 76 50z" />
    <glyph glyph-name="seven.fitted" horiz-adv-x="746" 
d="M704 1340v181h-664v-402h208v172h214l-286 -1291h238z" />
    <glyph glyph-name="eight.fitted" horiz-adv-x="745" 
d="M69 1068q0 -70 9 -121.5t29.5 -92t54.5 -67.5q-55 -37 -78 -109t-23 -193v-124q0 -189 63 -277q73 -104 248 -104q174 0 248 104q63 88 63 278v135q0 106 -25.5 177.5t-84.5 111.5q103 77 103 279v101q0 185 -58 272q-71 104 -246 104t-244 -104q-59 -87 -59 -271v-99z
M372 904q-52 0 -67 37q-10 24 -10 100v115q0 89 9 116q14 41 68 41q55 0 69 -42q9 -28 9 -116v-114q0 -76 -10 -100q-15 -37 -68 -37zM372 675q55 0 74 -42q13 -30 13 -117v-144q0 -88 -15 -122q-18 -40 -72 -40q-57 0 -75 50q-10 28 -10 125v131q0 87 13 117q17 42 72 42z
" />
    <glyph glyph-name="nine.fitted" horiz-adv-x="745" 
d="M677 1139q0 196 -59 288q-74 116 -252 116t-251 -115q-60 -95 -60 -290v-209q0 -204 40 -289q54 -116 210 -116q104 0 147 102v-244q0 -100 -12 -131q-16 -41 -73 -41q-46 0 -62 38q-12 29 -12 103v93h-225v-90q0 -175 55 -262q70 -111 244 -111q179 0 251 113
q59 91 59 286v759zM362 753q-53 0 -70 50q-11 31 -11 129v202q0 97 12 132q17 48 73 48q61 0 77 -52q9 -29 9 -127v-228q-2 -82 -18 -115q-19 -39 -72 -39z" />
    <glyph glyph-name="a.end" horiz-adv-x="792" 
d="M696 0v1202h-220v-84q-41 104 -146 104q-147 0 -209 -118q-50 -95 -50 -279v-446q0 -195 48 -287q58 -112 209 -112q108 0 148 106v-86h220zM385 206q-60 0 -78 43q-14 33 -14 120v467q0 86 14 120q19 44 78 44q58 0 77 -49q14 -36 14 -126v-475q-2 -71 -17 -103
q-21 -41 -74 -41z" />
    <glyph glyph-name="i.trk" horiz-adv-x="414" 
d="M67 1462q0 -60 31 -88t98 -28q69 0 100 28t31 88t-31 88t-100 28q-67 0 -98 -28t-31 -88zM309 0v1202h-221v-1202h221z" />
    <glyph glyph-name="zero.slash" horiz-adv-x="756" 
d="M68 384q0 -194 60 -288q74 -116 251 -116q173 0 248 112q62 92 62 286v767q0 190 -62 284q-75 113 -248 113q-176 0 -251 -115q-60 -94 -60 -283v-760zM379 1313q55 0 74 -44q12 -31 12 -118v-780q0 -90 -12 -119q-18 -42 -74 -42q-57 0 -74 46q-11 29 -11 120v767
q0 95 12 124q17 46 73 46zM583 933l-332 -527l-70 197l340 525z" />
    <glyph glyph-name="uni03BC.1" horiz-adv-x="792" 
d="M486 1203v-842q0 -86 -13 -115q-18 -42 -78 -42q-55 0 -76 46q-16 36 -16 123v830h-220v-1568h220v447q35 -101 150 -101q144 0 205 115q49 92 49 286v821h-221z" />
    <glyph glyph-name="_480" horiz-adv-x="769" 
d="M673 -366l21 182q18 178 -47 275q-74 111 -252 111q-1 0 -4 -16q-10 -42 -15 -95q-7 -64 -1 -94q3 -17 12 -17q61 0 79 -43q13 -33 6 -121l-19 -182h220z" />
    <glyph glyph-name="A.fat" horiz-adv-x="755" 
d="M376 1205h7l79 -719h45v-217h-22l30 -269h231l-201 1521h-332l-204 -1521h231l30 269h-31l2 217h54zM270 269h215l-23 217h-167z" />
    </font>
</defs>
</svg>
